  0
SECTION
  2
HEADER
  9
$ACADVER
  1
AC1018
  9
$ACADMAINTVER
 70
     2
  9
$DWGCODEPAGE
  3
ANSI_1252
  9
$INSBASE
 10
0.0
 20
0.0
 30
0.0
  9
$EXTMIN
 10
-0.0090573584943741
 20
-0.0128083857496222
 30
-0.0000000000112498
  9
$EXTMAX
 10
594.0090656570853
 20
840.0128201211312
 30
0.0000000000002956
  9
$LIMMIN
 10
0.0
 20
0.0
  9
$LIMMAX
 10
594.0
 20
840.0
  9
$ORTHOMODE
 70
     0
  9
$REGENMODE
 70
     1
  9
$FILLMODE
 70
     1
  9
$QTEXTMODE
 70
     0
  9
$MIRRTEXT
 70
     1
  9
$LTSCALE
 40
20.0
  9
$ATTMODE
 70
     1
  9
$TEXTSIZE
 40
3.5
  9
$TRACEWID
 40
1.0
  9
$TEXTSTYLE
  7
STANDARD
  9
$CLAYER
  8
BEM
  9
$CELTYPE
  6
ByLayer
  9
$CECOLOR
 62
   256
  9
$CELTSCALE
 40
1.0
  9
$DISPSILH
 70
     0
  9
$DIMSCALE
 40
2.0
  9
$DIMASZ
 40
3.5
  9
$DIMEXO
 40
1.0
  9
$DIMDLI
 40
7.0
  9
$DIMRND
 40
0.0
  9
$DIMDLE
 40
0.0
  9
$DIMEXE
 40
1.0
  9
$DIMTP
 40
0.0
  9
$DIMTM
 40
0.0
  9
$DIMTXT
 40
3.5
  9
$DIMCEN
 40
1.5
  9
$DIMTSZ
 40
0.0
  9
$DIMTOL
 70
     0
  9
$DIMLIM
 70
     0
  9
$DIMTIH
 70
     0
  9
$DIMTOH
 70
     0
  9
$DIMSE1
 70
     0
  9
$DIMSE2
 70
     0
  9
$DIMTAD
 70
     1
  9
$DIMZIN
 70
     8
  9
$DIMBLK
  1

  9
$DIMASO
 70
     1
  9
$DIMSHO
 70
     0
  9
$DIMPOST
  1

  9
$DIMAPOST
  1

  9
$DIMALT
 70
     0
  9
$DIMALTD
 70
     2
  9
$DIMALTF
 40
25.4
  9
$DIMLFAC
 40
1.0
  9
$DIMTOFL
 70
     1
  9
$DIMTVP
 40
0.0
  9
$DIMTIX
 70
     0
  9
$DIMSOXD
 70
     0
  9
$DIMSAH
 70
     0
  9
$DIMBLK1
  1

  9
$DIMBLK2
  1

  9
$DIMSTYLE
  2
Standard
  9
$DIMCLRD
 70
     0
  9
$DIMCLRE
 70
     0
  9
$DIMCLRT
 70
     1
  9
$DIMTFAC
 40
0.5142857142857144
  9
$DIMGAP
 40
1.5
  9
$DIMJUST
 70
     0
  9
$DIMSD1
 70
     0
  9
$DIMSD2
 70
     0
  9
$DIMTOLJ
 70
     1
  9
$DIMTZIN
 70
     8
  9
$DIMALTZ
 70
     8
  9
$DIMALTTZ
 70
     8
  9
$DIMUPT
 70
     0
  9
$DIMDEC
 70
     2
  9
$DIMTDEC
 70
     2
  9
$DIMALTU
 70
     2
  9
$DIMALTTD
 70
     2
  9
$DIMTXSTY
  7
STANDARD
  9
$DIMAUNIT
 70
     0
  9
$DIMADEC
 70
     2
  9
$DIMALTRND
 40
0.0
  9
$DIMAZIN
 70
     2
  9
$DIMDSEP
 70
    46
  9
$DIMATFIT
 70
     3
  9
$DIMFRAC
 70
     0
  9
$DIMLDRBLK
  1

  9
$DIMLUNIT
 70
     2
  9
$DIMLWD
 70
    -2
  9
$DIMLWE
 70
    -2
  9
$DIMTMOVE
 70
     0
  9
$LUNITS
 70
     2
  9
$LUPREC
 70
     2
  9
$SKETCHINC
 40
1.0
  9
$FILLETRAD
 40
0.0
  9
$AUNITS
 70
     0
  9
$AUPREC
 70
     0
  9
$MENU
  1
ACAD
  9
$ELEVATION
 40
0.0
  9
$PELEVATION
 40
0.0
  9
$THICKNESS
 40
0.0
  9
$LIMCHECK
 70
     0
  9
$CHAMFERA
 40
0.0
  9
$CHAMFERB
 40
0.0
  9
$CHAMFERC
 40
0.0
  9
$CHAMFERD
 40
0.0
  9
$SKPOLY
 70
     0
  9
$TDCREATE
 40
2455397.825393172
  9
$TDUCREATE
 40
2455397.783726505
  9
$TDUPDATE
 40
2455532.476904561
  9
$TDUUPDATE
 40
2455532.435237893
  9
$TDINDWG
 40
0.0815577546
  9
$TDUSRTIMER
 40
0.0815577546
  9
$USRTIMER
 70
     1
  9
$ANGBASE
 50
0.0
  9
$ANGDIR
 70
     0
  9
$PDMODE
 70
     0
  9
$PDSIZE
 40
0.0
  9
$PLINEWID
 40
0.0
  9
$SPLFRAME
 70
     0
  9
$SPLINETYPE
 70
     6
  9
$SPLINESEGS
 70
     8
  9
$HANDSEED
  5
7EB
  9
$SURFTAB1
 70
     6
  9
$SURFTAB2
 70
     6
  9
$SURFTYPE
 70
     6
  9
$SURFU
 70
     6
  9
$SURFV
 70
     6
  9
$UCSBASE
  2

  9
$UCSNAME
  2

  9
$UCSORG
 10
0.0
 20
0.0
 30
0.0
  9
$UCSXDIR
 10
1.0
 20
0.0
 30
0.0
  9
$UCSYDIR
 10
0.0
 20
1.0
 30
0.0
  9
$UCSORTHOREF
  2

  9
$UCSORTHOVIEW
 70
     0
  9
$UCSORGTOP
 10
0.0
 20
0.0
 30
0.0
  9
$UCSORGBOTTOM
 10
0.0
 20
0.0
 30
0.0
  9
$UCSORGLEFT
 10
0.0
 20
0.0
 30
0.0
  9
$UCSORGRIGHT
 10
0.0
 20
0.0
 30
0.0
  9
$UCSORGFRONT
 10
0.0
 20
0.0
 30
0.0
  9
$UCSORGBACK
 10
0.0
 20
0.0
 30
0.0
  9
$PUCSBASE
  2

  9
$PUCSNAME
  2

  9
$PUCSORG
 10
0.0
 20
0.0
 30
0.0
  9
$PUCSXDIR
 10
1.0
 20
0.0
 30
0.0
  9
$PUCSYDIR
 10
0.0
 20
1.0
 30
0.0
  9
$PUCSORTHOREF
  2

  9
$PUCSORTHOVIEW
 70
     0
  9
$PUCSORGTOP
 10
0.0
 20
0.0
 30
0.0
  9
$PUCSORGBOTTOM
 10
0.0
 20
0.0
 30
0.0
  9
$PUCSORGLEFT
 10
0.0
 20
0.0
 30
0.0
  9
$PUCSORGRIGHT
 10
0.0
 20
0.0
 30
0.0
  9
$PUCSORGFRONT
 10
0.0
 20
0.0
 30
0.0
  9
$PUCSORGBACK
 10
0.0
 20
0.0
 30
0.0
  9
$USERI1
 70
     0
  9
$USERI2
 70
     0
  9
$USERI3
 70
     0
  9
$USERI4
 70
     0
  9
$USERI5
 70
     0
  9
$USERR1
 40
0.0
  9
$USERR2
 40
0.0
  9
$USERR3
 40
0.0
  9
$USERR4
 40
0.0
  9
$USERR5
 40
0.0
  9
$WORLDVIEW
 70
     1
  9
$SHADEDGE
 70
     3
  9
$SHADEDIF
 70
    70
  9
$TILEMODE
 70
     1
  9
$MAXACTVP
 70
    16
  9
$PINSBASE
 10
0.0
 20
0.0
 30
0.0
  9
$PLIMCHECK
 70
     0
  9
$PEXTMIN
 10
1.000000000000000E+20
 20
1.000000000000000E+20
 30
1.000000000000000E+20
  9
$PEXTMAX
 10
-1.000000000000000E+20
 20
-1.000000000000000E+20
 30
-1.000000000000000E+20
  9
$PLIMMIN
 10
0.0
 20
0.0
  9
$PLIMMAX
 10
12.0
 20
9.0
  9
$UNITMODE
 70
     0
  9
$VISRETAIN
 70
     0
  9
$PLINEGEN
 70
     0
  9
$PSLTSCALE
 70
     0
  9
$TREEDEPTH
 70
  3020
  9
$CMLSTYLE
  2
Standard
  9
$CMLJUST
 70
     0
  9
$CMLSCALE
 40
1.0
  9
$PROXYGRAPHICS
 70
     1
  9
$MEASUREMENT
 70
     0
  9
$CELWEIGHT
370
    -1
  9
$ENDCAPS
280
     0
  9
$JOINSTYLE
280
     0
  9
$LWDISPLAY
290
     0
  9
$INSUNITS
 70
     0
  9
$HYPERLINKBASE
  1

  9
$STYLESHEET
  1
monochrome 1.ctb
  9
$XEDIT
290
     1
  9
$CEPSNTYPE
380
     0
  9
$PSTYLEMODE
290
     1
  9
$FINGERPRINTGUID
  2
{D68B0D0D-A558-11D7-B632-000102183313}
  9
$VERSIONGUID
  2
{C4D1D694-BA23-4D1D-AD06-F6092FF0C11A}
  9
$EXTNAMES
290
     1
  9
$PSVPSCALE
 40
0.0
  9
$OLESTARTUP
290
     0
  9
$SORTENTS
280
   127
  9
$INDEXCTL
280
     0
  9
$HIDETEXT
280
     0
  9
$XCLIPFRAME
290
     0
  9
$HALOGAP
280
     0
  9
$OBSCOLOR
 70
   257
  9
$OBSLTYPE
280
     0
  9
$INTERSECTIONDISPLAY
280
     0
  9
$INTERSECTIONCOLOR
 70
   257
  9
$DIMASSOC
280
     1
  9
$PROJECTNAME
  1

  0
ENDSEC
  0
SECTION
  2
CLASSES
  0
CLASS
  1
ACDBDICTIONARYWDFLT
  2
AcDbDictionaryWithDefault
  3
ObjectDBX Classes
 90
        0
 91
        1
280
     0
281
     0
  0
CLASS
  1
DICTIONARYVAR
  2
AcDbDictionaryVar
  3
ObjectDBX Classes
 90
        0
 91
        2
280
     0
281
     0
  0
ENDSEC
  0
SECTION
  2
TABLES
  0
TABLE
  2
VPORT
  5
8
330
0
100
AcDbSymbolTable
 70
     3
  0
VPORT
  5
7EA
330
8
100
AcDbSymbolTableRecord
100
AcDbViewportTableRecord
  2
*Active
 70
     0
 10
0.0
 20
0.0
 11
1.0
 21
1.0
 12
297.0000041492954
 22
420.0000058676908
 13
0.0
 23
0.0
 14
1.0
 24
1.0
 15
10.0
 25
10.0
 16
0.0
 26
0.0
 36
1.0
 17
0.0
 27
0.0
 37
0.0
 40
846.8091463683093
 41
1.336927223719676
 42
50.0
 43
0.0
 44
0.0
 50
0.0
 51
0.0
 71
     0
 72
  1500
 73
     1
 74
     0
 75
     0
 76
     0
 77
     0
 78
     0
281
     0
 65
     1
110
0.0
120
0.0
130
0.0
111
1.0
121
0.0
131
0.0
112
0.0
122
1.0
132
0.0
 79
     0
146
0.0
  0
ENDTAB
  0
TABLE
  2
LTYPE
  5
5
330
0
100
AcDbSymbolTable
 70
     2
  0
LTYPE
  5
13
330
5
100
AcDbSymbolTableRecord
100
AcDbLinetypeTableRecord
  2
ByBlock
 70
     0
  3

 72
    65
 73
     0
 40
0.0
  0
LTYPE
  5
14
330
5
100
AcDbSymbolTableRecord
100
AcDbLinetypeTableRecord
  2
ByLayer
 70
     0
  3

 72
    65
 73
     0
 40
0.0
  0
LTYPE
  5
15
330
5
100
AcDbSymbolTableRecord
100
AcDbLinetypeTableRecord
  2
Continuous
 70
     0
  3
Solid line
 72
    65
 73
     0
 40
0.0
  0
LTYPE
  5
25
330
5
100
AcDbSymbolTableRecord
100
AcDbLinetypeTableRecord
  2
STRICHPUNKT
 70
     0
  3
__ . __ . __ . __ . __ . __ . __ . __ . __ . __
 72
    65
 73
     4
 40
1.0
 49
0.5
 74
     0
 49
-0.25
 74
     0
 49
0.0
 74
     0
 49
-0.25
 74
     0
  0
ENDTAB
  0
TABLE
  2
LAYER
  5
2
330
0
100
AcDbSymbolTable
 70
     9
  0
LAYER
  5
10
330
2
100
AcDbSymbolTableRecord
100
AcDbLayerTableRecord
  2
0
 70
     0
 62
     7
  6
Continuous
370
    -3
390
F
  0
LAYER
  5
2B
330
2
100
AcDbSymbolTableRecord
100
AcDbLayerTableRecord
  2
VOLL
 70
     0
 62
     1
  6
Continuous
370
    -3
390
F
  0
LAYER
  5
2C
330
2
100
AcDbSymbolTableRecord
100
AcDbLayerTableRecord
  2
HILF
 70
     0
 62
     2
  6
Continuous
370
    -3
390
F
  0
LAYER
  5
2D
330
2
100
AcDbSymbolTableRecord
100
AcDbLayerTableRecord
  2
MITTEL
 70
     0
 62
     2
  6
STRICHPUNKT
370
    -3
390
F
  0
LAYER
  5
2F
330
2
100
AcDbSymbolTableRecord
100
AcDbLayerTableRecord
  2
BEM
 70
     0
 62
     7
  6
Continuous
370
    -3
390
F
  0
LAYER
  5
30
330
2
100
AcDbSymbolTableRecord
100
AcDbLayerTableRecord
  2
STEMPEL
 70
     0
 62
     3
  6
Continuous
370
    -3
390
F
  0
LAYER
  5
33
330
2
100
AcDbSymbolTableRecord
100
AcDbLayerTableRecord
  2
TEXT
 70
     0
 62
     7
  6
Continuous
370
    -3
390
F
  0
LAYER
  5
184
330
2
100
AcDbSymbolTableRecord
100
AcDbLayerTableRecord
  2
SCHRAFF
 70
     0
 62
     7
  6
Continuous
370
    -3
390
F
  0
LAYER
  5
306
330
2
100
AcDbSymbolTableRecord
100
AcDbLayerTableRecord
  2
DEFPOINTS
 70
     0
 62
     7
  6
Continuous
290
     0
370
    -3
390
F
  0
ENDTAB
  0
TABLE
  2
STYLE
  5
3
330
0
100
AcDbSymbolTable
 70
     2
  0
STYLE
  5
11
330
3
100
AcDbSymbolTableRecord
100
AcDbTextStyleTableRecord
  2
STANDARD
 70
     0
 40
0.0
 41
0.8
 50
0.0
 71
     0
 42
3.5
  3
simplex.shx
  4

  0
STYLE
  5
24
330
3
100
AcDbSymbolTableRecord
100
AcDbTextStyleTableRecord
  2
GREEKS
 70
     0
 40
0.0
 41
0.8
 50
0.0
 71
     0
 42
2.5
  3
SIMPLEX.shx
  4

  0
ENDTAB
  0
TABLE
  2
VIEW
  5
6
330
0
100
AcDbSymbolTable
 70
     0
  0
ENDTAB
  0
TABLE
  2
UCS
  5
7
330
0
100
AcDbSymbolTable
 70
     0
  0
ENDTAB
  0
TABLE
  2
APPID
  5
9
330
0
100
AcDbSymbolTable
 70
     1
  0
APPID
  5
12
330
9
100
AcDbSymbolTableRecord
100
AcDbRegAppTableRecord
  2
ACAD
 70
     0
  0
ENDTAB
  0
TABLE
  2
DIMSTYLE
  5
A
330
0
100
AcDbSymbolTable
 70
     1
100
AcDbDimStyleTable
 71
     1
340
A2
  0
DIMSTYLE
105
A2
102
{ACAD_REACTORS
330
373
330
43C
330
554
330
65E
330
66B
330
685
330
692
330
6B4
102
}
330
A
100
AcDbSymbolTableRecord
100
AcDbDimStyleTableRecord
  2
Standard
 70
     0
340
11
  0
ENDTAB
  0
TABLE
  2
BLOCK_RECORD
  5
1
330
0
100
AcDbSymbolTable
 70
     9
  0
BLOCK_RECORD
  5
1E
102
{ACAD_XDICTIONARY
360
DB
102
}
330
1
100
AcDbSymbolTableRecord
100
AcDbBlockTableRecord
  2
*Model_Space
340
21
  0
BLOCK_RECORD
  5
1A
102
{ACAD_XDICTIONARY
360
DD
102
}
330
1
100
AcDbSymbolTableRecord
100
AcDbBlockTableRecord
  2
*Paper_Space
340
1D
  0
BLOCK_RECORD
  5
22
330
1
100
AcDbSymbolTableRecord
100
AcDbBlockTableRecord
  2
LOGO
340
0
102
{BLKREFS
331
2AF
102
}
  0
BLOCK_RECORD
  5
382
330
1
100
AcDbSymbolTableRecord
100
AcDbBlockTableRecord
  2
*D1
340
0
  0
BLOCK_RECORD
  5
452
330
1
100
AcDbSymbolTableRecord
100
AcDbBlockTableRecord
  2
*D2
340
0
  0
BLOCK_RECORD
  5
555
330
1
100
AcDbSymbolTableRecord
100
AcDbBlockTableRecord
  2
*D3
340
0
  0
BLOCK_RECORD
  5
65F
330
1
100
AcDbSymbolTableRecord
100
AcDbBlockTableRecord
  2
*D4
340
0
  0
BLOCK_RECORD
  5
66C
330
1
100
AcDbSymbolTableRecord
100
AcDbBlockTableRecord
  2
*D5
340
0
  0
BLOCK_RECORD
  5
686
330
1
100
AcDbSymbolTableRecord
100
AcDbBlockTableRecord
  2
*D6
340
0
  0
BLOCK_RECORD
  5
693
330
1
100
AcDbSymbolTableRecord
100
AcDbBlockTableRecord
  2
*D7
340
0
  0
BLOCK_RECORD
  5
6B5
330
1
100
AcDbSymbolTableRecord
100
AcDbBlockTableRecord
  2
*D8
340
0
  0
ENDTAB
  0
ENDSEC
  0
SECTION
  2
BLOCKS
  0
BLOCK
  5
37
330
1E
100
AcDbEntity
  8
0
100
AcDbBlockBegin
  2
*Model_Space
 70
     0
 10
0.0
 20
0.0
 30
0.0
  3
*Model_Space
  1

  0
ENDBLK
  5
38
330
1E
100
AcDbEntity
  8
0
100
AcDbBlockEnd
  0
BLOCK
  5
35
330
1A
100
AcDbEntity
 67
     1
  8
0
100
AcDbBlockBegin
  2
*Paper_Space
 70
     0
 10
0.0
 20
0.0
 30
0.0
  3
*Paper_Space
  1

  0
ENDBLK
  5
36
330
1A
100
AcDbEntity
 67
     1
  8
0
100
AcDbBlockEnd
  0
BLOCK
  5
39
330
22
100
AcDbEntity
  8
0
100
AcDbBlockBegin
  2
LOGO
 70
     0
 10
0.0
 20
0.0
 30
0.0
  3
LOGO
  1

  0
ARC
  5
3A
330
22
100
AcDbEntity
  8
0
100
AcDbCircle
 10
11.59973089678112
 20
-9.271599258481501
 30
0.0
 40
4.5
100
AcDbArc
 50
270.0
 51
231.0575587310159
  0
LINE
  5
3B
330
22
100
AcDbEntity
  8
0
100
AcDbLine
 10
3.599730896781125
 20
-4.771599258481529
 30
0.0
 11
3.599730896781153
 21
-11.77159925848133
 31
0.0
  0
LINE
  5
3C
330
22
100
AcDbEntity
  8
0
100
AcDbLine
 10
2.599730896781125
 20
-4.771599258481529
 30
0.0
 11
2.599730896781153
 21
-11.77159925848133
 31
0.0
  0
CIRCLE
  5
3D
330
22
100
AcDbEntity
  8
0
100
AcDbCircle
 10
11.59973089678112
 20
-9.271599258481501
 30
0.0
 40
3.5
  0
ARC
  5
3E
330
22
100
AcDbEntity
  8
0
100
AcDbCircle
 10
31.59973089678115
 20
-9.271599258481472
 30
0.0
 40
4.5
100
AcDbArc
 50
270.0
 51
231.0575587310182
  0
LINE
  5
3F
330
22
100
AcDbEntity
  8
0
100
AcDbLine
 10
17.59973089678112
 20
-4.771599258481472
 30
0.0
 11
17.59973089678115
 21
-13.77159925848147
 31
0.0
  0
ARC
  5
40
330
22
100
AcDbEntity
  8
0
100
AcDbCircle
 10
22.59973089678116
 20
-7.271599258481472
 30
0.0
 40
2.5
100
AcDbArc
 50
293.1161887722295
 51
90.0
  0
CIRCLE
  5
41
330
22
100
AcDbEntity
  8
0
100
AcDbCircle
 10
31.59973089678115
 20
-9.271599258481472
 30
0.0
 40
3.5
  0
ARC
  5
42
330
22
100
AcDbEntity
  8
0
100
AcDbCircle
 10
4.599730896781153
 20
-11.77159925848133
 30
0.0
 40
1.0
100
AcDbArc
 50
180.0
 51
270.0
  0
ARC
  5
43
330
22
100
AcDbEntity
  8
0
100
AcDbCircle
 10
4.599730896781153
 20
-11.77159925848133
 30
0.0
 40
2.0
100
AcDbArc
 50
179.9999999999992
 51
270.0
  0
LINE
  5
44
330
22
100
AcDbEntity
  8
0
100
AcDbLine
 10
11.59973089678115
 20
-13.77159925848144
 30
0.0
 11
4.599730896781153
 21
-13.77159925848147
 31
0.0
  0
LINE
  5
45
330
22
100
AcDbEntity
  8
0
100
AcDbLine
 10
8.771303772034769
 20
-12.77159925848136
 30
0.0
 11
4.599730896781153
 21
-12.77159925848133
 31
0.0
  0
LINE
  5
46
330
22
100
AcDbEntity
  8
0
100
AcDbLine
 10
31.59973089678115
 20
-13.77159925848147
 30
0.0
 11
23.6715276665056
 21
-13.77159925848144
 31
0.0
  0
LINE
  5
47
330
22
100
AcDbEntity
  8
0
100
AcDbLine
 10
23.56565672307022
 20
-9.51278021337896
 30
0.0
 11
24.4388546544846
 21
-12.77159925848144
 31
0.0
  0
LINE
  5
48
330
22
100
AcDbEntity
  8
0
100
AcDbLine
 10
22.59973089678116
 20
-9.771599258481472
 30
0.0
 11
18.59973089678112
 21
-9.771599258481472
 31
0.0
  0
LINE
  5
49
330
22
100
AcDbEntity
  8
0
100
AcDbLine
 10
18.59973089678115
 20
-13.77159925848144
 30
0.0
 11
17.59973089678115
 21
-13.77159925848144
 31
0.0
  0
LINE
  5
4A
330
22
100
AcDbEntity
  8
0
100
AcDbLine
 10
18.59973089678115
 20
-9.771599258481472
 30
0.0
 11
18.59973089678115
 21
-13.77159925848144
 31
0.0
  0
LINE
  5
4B
330
22
100
AcDbEntity
  8
0
100
AcDbLine
 10
22.59973089678116
 20
-9.771599258481472
 30
0.0
 11
23.67152766650562
 21
-13.77159925848147
 31
0.0
  0
ARC
  5
4C
330
22
100
AcDbEntity
  8
0
100
AcDbCircle
 10
22.59973089678116
 20
-7.271599258481472
 30
0.0
 40
2.5
100
AcDbArc
 50
270.0
 51
270.0000000000007
  0
LINE
  5
4D
330
22
100
AcDbEntity
  8
0
100
AcDbLine
 10
28.77130377203494
 20
-12.77159925848147
 30
0.0
 11
24.43885465448463
 21
-12.77159925848144
 31
0.0
  0
LINE
  5
4E
330
22
100
AcDbEntity
  8
0
100
AcDbLine
 10
3.599730896781125
 20
-4.771599258481472
 30
0.0
 11
2.599730896781125
 21
-4.771599258481472
 31
0.0
  0
LINE
  5
4F
330
22
100
AcDbEntity
  8
0
100
AcDbLine
 10
22.59973089678116
 20
-8.771599258481472
 30
0.0
 11
18.59973089678115
 21
-8.771599258481472
 31
0.0
  0
LINE
  5
50
330
22
100
AcDbEntity
  8
0
100
AcDbLine
 10
22.59973089678116
 20
-5.771599258481472
 30
0.0
 11
18.59973089678115
 21
-5.771599258481472
 31
0.0
  0
LINE
  5
51
330
22
100
AcDbEntity
  8
0
100
AcDbLine
 10
22.59973089678116
 20
-4.771599258481472
 30
0.0
 11
17.59973089678115
 21
-4.771599258481472
 31
0.0
  0
LINE
  5
52
330
22
100
AcDbEntity
  8
0
100
AcDbLine
 10
18.59973089678115
 20
-5.771599258481472
 30
0.0
 11
18.59973089678115
 21
-8.771599258481472
 31
0.0
  0
ARC
  5
53
330
22
100
AcDbEntity
  8
0
100
AcDbCircle
 10
22.59973089678116
 20
-7.271599258481472
 30
0.0
 40
1.5
100
AcDbArc
 50
270.0
 51
90.0
  0
ENDBLK
  5
54
330
22
100
AcDbEntity
  8
0
100
AcDbBlockEnd
  0
BLOCK
  5
38C
330
382
100
AcDbEntity
  8
0
100
AcDbBlockBegin
  2
*D1
 70
     1
 10
0.0
 20
0.0
 30
0.0
  3
*D1
  1

  0
LINE
  5
7CE
330
382
100
AcDbEntity
  8
BEM
 62
     0
370
    -2
100
AcDbLine
 10
96.55516380941348
 20
611.4172352716549
 30
0.0
 11
96.55516380941348
 21
622.7223894487215
 31
0.0
  0
LINE
  5
7CF
330
382
100
AcDbEntity
  8
BEM
 62
     0
370
    -2
100
AcDbLine
 10
315.5551638094134
 20
611.4172352716551
 30
0.0
 11
315.5551638094134
 21
622.7223894487215
 31
0.0
  0
LINE
  5
7D0
330
382
100
AcDbEntity
  8
BEM
 62
     0
370
    -2
100
AcDbLine
 10
103.5551638094134
 20
620.7223894487214
 30
0.0
 11
308.5551638094135
 21
620.7223894487214
 31
0.0
  0
SOLID
  5
7D1
330
382
100
AcDbEntity
  8
BEM
 62
     0
100
AcDbTrace
 10
103.5551638094134
 20
621.8890561153881
 30
0.0
 11
103.5551638094134
 21
619.5557227820549
 31
0.0
 12
96.55516380941348
 22
620.7223894487214
 32
0.0
 13
96.55516380941348
 23
620.7223894487214
 33
0.0
  0
SOLID
  5
7D2
330
382
100
AcDbEntity
  8
BEM
 62
     0
100
AcDbTrace
 10
308.5551638094135
 20
621.8890561153881
 30
0.0
 11
308.5551638094135
 21
619.5557227820549
 31
0.0
 12
315.5551638094134
 22
620.7223894487214
 32
0.0
 13
315.5551638094134
 23
620.7223894487214
 33
0.0
  0
MTEXT
  5
7D3
330
382
100
AcDbEntity
  8
BEM
 62
     1
100
AcDbMText
 10
206.0551638094135
 20
627.2223894487215
 30
0.0
 40
7.0
 41
0.0
 71
     5
 72
     1
  1
\A1;%%c219
  7
GREEKS
 73
     1
 44
1.0
  0
POINT
  5
7D4
330
382
100
AcDbEntity
  8
DEFPOINTS
 62
     0
100
AcDbPoint
 10
96.55516380941348
 20
609.4172352716549
 30
0.0
  0
POINT
  5
7D5
330
382
100
AcDbEntity
  8
DEFPOINTS
 62
     0
100
AcDbPoint
 10
315.5551638094134
 20
609.417235271655
 30
0.0
  0
POINT
  5
7D6
330
382
100
AcDbEntity
  8
DEFPOINTS
 62
     0
100
AcDbPoint
 10
315.5551638094134
 20
620.7223894487214
 30
0.0
  0
ENDBLK
  5
38D
330
382
100
AcDbEntity
  8
0
100
AcDbBlockEnd
  0
BLOCK
  5
45C
330
452
100
AcDbEntity
  8
0
100
AcDbBlockBegin
  2
*D2
 70
     1
 10
0.0
 20
0.0
 30
0.0
  3
*D2
  1

  0
LINE
  5
7C5
330
452
100
AcDbEntity
  8
BEM
 62
     0
370
    -2
100
AcDbLine
 10
417.0269856425535
 20
520.1240718319995
 30
0.0
 11
431.0729548215249
 21
520.8601898845472
 31
0.0
  0
LINE
  5
7C6
330
452
100
AcDbEntity
  8
BEM
 62
     0
370
    -2
100
AcDbLine
 10
428.4885600597583
 20
301.424203720748
 30
0.0
 11
442.5345292387262
 21
302.1603217732955
 31
0.0
  0
LINE
  5
7C7
330
452
100
AcDbEntity
  8
BEM
 62
     0
370
    -2
100
AcDbLine
 10
429.4420474457163
 20
513.7651112287795
 30
0.0
 11
440.1709184755165
 21
309.0460566040917
 31
0.0
  0
SOLID
  5
7C8
330
452
100
AcDbEntity
  8
BEM
 62
     0
100
AcDbTrace
 10
430.6071152362632
 20
513.8261698443962
 30
0.0
 11
428.2769796551693
 21
513.7040526131626
 31
0.0
 12
429.0756957520158
 22
520.7555179720613
 32
0.0
 13
429.0756957520158
 23
520.7555179720613
 33
0.0
  0
SOLID
  5
7C9
330
452
100
AcDbEntity
  8
BEM
 62
     0
100
AcDbTrace
 10
441.3359862660636
 20
309.1071152197084
 30
0.0
 11
439.0058506849695
 21
308.984997988475
 31
0.0
 12
440.537270169217
 22
302.0556498608097
 32
0.0
 13
440.537270169217
 23
302.0556498608097
 33
0.0
  0
MTEXT
  5
7CA
330
452
100
AcDbEntity
  8
BEM
 62
     1
100
AcDbMText
 10
441.2975749365211
 20
411.7457676320146
 30
0.0
 40
7.0
 41
0.0
 71
     5
 72
     1
  1
\A1;%%c219
  7
GREEKS
 11
0.0523359562429282
 21
-0.9986295347545746
 31
0.0
 73
     1
 44
1.0
  0
POINT
  5
7CB
330
452
100
AcDbEntity
  8
DEFPOINTS
 62
     0
100
AcDbPoint
 10
415.0297265730443
 20
520.0193999195136
 30
0.0
  0
POINT
  5
7CC
330
452
100
AcDbEntity
  8
DEFPOINTS
 62
     0
100
AcDbPoint
 10
426.4913009902492
 20
301.3195318082621
 30
0.0
  0
POINT
  5
7CD
330
452
100
AcDbEntity
  8
DEFPOINTS
 62
     0
100
AcDbPoint
 10
440.537270169217
 20
302.0556498608097
 30
0.0
  0
ENDBLK
  5
45D
330
452
100
AcDbEntity
  8
0
100
AcDbBlockEnd
  0
BLOCK
  5
55F
330
555
100
AcDbEntity
  8
0
100
AcDbBlockBegin
  2
*D3
 70
     1
 10
0.0
 20
0.0
 30
0.0
  3
*D3
  1

  0
LINE
  5
7BC
330
555
100
AcDbEntity
  8
BEM
 62
     0
370
    -2
100
AcDbLine
 10
126.5551638094134
 20
217.3080829143745
 30
0.0
 11
126.5551638094134
 21
185.8071961456387
 31
0.0
  0
LINE
  5
7BD
330
555
100
AcDbEntity
  8
BEM
 62
     0
370
    -2
100
AcDbLine
 10
285.5551638094135
 20
217.308082914374
 30
0.0
 11
285.5551638094135
 21
185.8071961456387
 31
0.0
  0
LINE
  5
7BE
330
555
100
AcDbEntity
  8
BEM
 62
     0
370
    -2
100
AcDbLine
 10
133.5551638094134
 20
187.8071961456387
 30
0.0
 11
278.5551638094134
 21
187.8071961456387
 31
0.0
  0
SOLID
  5
7BF
330
555
100
AcDbEntity
  8
BEM
 62
     0
100
AcDbTrace
 10
133.5551638094134
 20
188.9738628123054
 30
0.0
 11
133.5551638094134
 21
186.640529478972
 31
0.0
 12
126.5551638094134
 22
187.8071961456387
 32
0.0
 13
126.5551638094134
 23
187.8071961456387
 33
0.0
  0
SOLID
  5
7C0
330
555
100
AcDbEntity
  8
BEM
 62
     0
100
AcDbTrace
 10
278.5551638094134
 20
188.9738628123054
 30
0.0
 11
278.5551638094134
 21
186.640529478972
 31
0.0
 12
285.5551638094135
 22
187.8071961456387
 32
0.0
 13
285.5551638094135
 23
187.8071961456387
 33
0.0
  0
MTEXT
  5
7C1
330
555
100
AcDbEntity
  8
BEM
 62
     1
100
AcDbMText
 10
206.0551638094135
 20
194.3071961456387
 30
0.0
 40
7.0
 41
0.0
 71
     5
 72
     1
  1
\A1;%%c159
 73
     1
 44
1.0
  0
POINT
  5
7C2
330
555
100
AcDbEntity
  8
DEFPOINTS
 62
     0
100
AcDbPoint
 10
126.5551638094134
 20
219.3080829143745
 30
0.0
  0
POINT
  5
7C3
330
555
100
AcDbEntity
  8
DEFPOINTS
 62
     0
100
AcDbPoint
 10
285.5551638094135
 20
219.308082914374
 30
0.0
  0
POINT
  5
7C4
330
555
100
AcDbEntity
  8
DEFPOINTS
 62
     0
100
AcDbPoint
 10
285.5551638094135
 20
187.8071961456387
 30
0.0
  0
ENDBLK
  5
560
330
555
100
AcDbEntity
  8
0
100
AcDbBlockEnd
  0
BLOCK
  5
669
330
65F
100
AcDbEntity
  8
0
100
AcDbBlockBegin
  2
*D4
 70
     1
 10
0.0
 20
0.0
 30
0.0
  3
*D4
  1

  0
LINE
  5
7B3
330
65F
100
AcDbEntity
  8
BEM
 62
     0
370
    -2
100
AcDbLine
 10
206.1598357218994
 20
397.419976202146
 30
0.0
 11
213.9511679048743
 21
248.7525018393053
 31
0.0
  0
LINE
  5
7B4
330
65F
100
AcDbEntity
  8
BEM
 62
     0
370
    -2
100
AcDbLine
 10
426.595972902735
 20
299.3222727387529
 30
0.0
 11
428.6565178771075
 21
260.0047324315381
 31
0.0
  0
LINE
  5
7B5
330
65F
100
AcDbEntity
  8
BEM
 62
     0
370
    -2
100
AcDbLine
 10
220.8369027356704
 20
251.116112602515
 30
0.0
 11
421.5614392213397
 21
261.6356398073467
 31
0.0
  0
SOLID
  5
7B6
330
65F
100
AcDbEntity
  8
BEM
 62
     0
100
AcDbTrace
 10
220.7758441200537
 20
252.281180393062
 30
0.0
 11
220.8979613512872
 21
249.951044811968
 31
0.0
 12
213.8464959923884
 22
250.7497609088144
 32
0.0
 13
213.8464959923884
 23
250.7497609088144
 33
0.0
  0
SOLID
  5
7B7
330
65F
100
AcDbEntity
  8
BEM
 62
     0
100
AcDbTrace
 10
421.5003806057229
 20
262.8007075978936
 30
0.0
 11
421.6224978369564
 21
260.4705720167996
 31
0.0
 12
428.5518459646216
 22
262.0019915010473
 32
0.0
 13
428.5518459646216
 23
262.0019915010473
 33
0.0
  0
MTEXT
  5
7B8
330
65F
100
AcDbEntity
  8
BEM
 62
     1
100
AcDbMText
 10
320.8589872629259
 20
262.8669681808355
 30
0.0
 40
7.0
 41
0.0
 71
     5
 72
     1
  1
\A1;215
 11
0.9986295347545739
 21
0.0523359562429435
 31
0.0
 73
     1
 44
1.0
  0
POINT
  5
7B9
330
65F
100
AcDbEntity
  8
DEFPOINTS
 62
     0
100
AcDbPoint
 10
206.0551638094135
 20
399.4172352716551
 30
0.0
  0
POINT
  5
7BA
330
65F
100
AcDbEntity
  8
DEFPOINTS
 62
     0
100
AcDbPoint
 10
426.4913009902491
 20
301.319531808262
 30
0.0
  0
POINT
  5
7BB
330
65F
100
AcDbEntity
  8
DEFPOINTS
 62
     0
100
AcDbPoint
 10
428.5518459646216
 20
262.0019915010473
 30
0.0
  0
ENDBLK
  5
66A
330
65F
100
AcDbEntity
  8
0
100
AcDbBlockEnd
  0
BLOCK
  5
676
330
66C
100
AcDbEntity
  8
0
100
AcDbBlockBegin
  2
*D5
 70
     1
 10
0.0
 20
0.0
 30
0.0
  3
*D5
  1

  0
LINE
  5
7AA
330
66C
100
AcDbEntity
  8
BEM
 62
     0
370
    -2
100
AcDbLine
 10
204.0551638094135
 20
399.417235271655
 30
0.0
 11
64.94274553242715
 21
399.4172352716551
 31
0.0
  0
LINE
  5
7AB
330
66C
100
AcDbEntity
  8
BEM
 62
     0
370
    -2
100
AcDbLine
 10
125.4205008508135
 20
209.417235271655
 30
0.0
 11
64.94274553242712
 21
209.417235271655
 31
0.0
  0
LINE
  5
7AC
330
66C
100
AcDbEntity
  8
BEM
 62
     0
370
    -2
100
AcDbLine
 10
66.94274553242717
 20
392.4172352716551
 30
0.0
 11
66.94274553242713
 21
216.417235271655
 31
0.0
  0
SOLID
  5
7AD
330
66C
100
AcDbEntity
  8
BEM
 62
     0
100
AcDbTrace
 10
65.7760788657605
 20
392.4172352716551
 30
0.0
 11
68.10941219909384
 21
392.4172352716551
 31
0.0
 12
66.94274553242717
 22
399.4172352716551
 32
0.0
 13
66.94274553242717
 23
399.4172352716551
 33
0.0
  0
SOLID
  5
7AE
330
66C
100
AcDbEntity
  8
BEM
 62
     0
100
AcDbTrace
 10
65.77607886576045
 20
216.417235271655
 30
0.0
 11
68.1094121990938
 21
216.417235271655
 31
0.0
 12
66.94274553242713
 22
209.417235271655
 32
0.0
 13
66.94274553242713
 23
209.417235271655
 33
0.0
  0
MTEXT
  5
7AF
330
66C
100
AcDbEntity
  8
BEM
 62
     1
100
AcDbMText
 10
60.4427455324271
 20
304.4172352716551
 30
0.0
 40
7.0
 41
0.0
 71
     5
 72
     1
  1
\A1;190
 11
0.0000000000000001
 21
1.0
 31
0.0
 73
     1
 44
1.0
  0
POINT
  5
7B0
330
66C
100
AcDbEntity
  8
DEFPOINTS
 62
     0
100
AcDbPoint
 10
206.0551638094135
 20
399.417235271655
 30
0.0
  0
POINT
  5
7B1
330
66C
100
AcDbEntity
  8
DEFPOINTS
 62
     0
100
AcDbPoint
 10
127.4205008508135
 20
209.417235271655
 30
0.0
  0
POINT
  5
7B2
330
66C
100
AcDbEntity
  8
DEFPOINTS
 62
     0
100
AcDbPoint
 10
66.94274553242713
 20
209.417235271655
 30
0.0
  0
ENDBLK
  5
677
330
66C
100
AcDbEntity
  8
0
100
AcDbBlockEnd
  0
BLOCK
  5
690
330
686
100
AcDbEntity
  8
0
100
AcDbBlockBegin
  2
*D6
 70
     1
 10
0.0
 20
0.0
 30
0.0
  3
*D6
  1

  0
LINE
  5
7A1
330
686
100
AcDbEntity
  8
BEM
 62
     0
370
    -2
100
AcDbLine
 10
94.55516380941345
 20
274.417235271655
 30
0.0
 11
80.23793131063484
 21
274.417235271655
 31
0.0
  0
LINE
  5
7A2
330
686
100
AcDbEntity
  8
BEM
 62
     0
370
    -2
100
AcDbLine
 10
125.4205008508135
 20
209.417235271655
 30
0.0
 11
80.23793131063483
 21
209.417235271655
 31
0.0
  0
LINE
  5
7A3
330
686
100
AcDbEntity
  8
BEM
 62
     0
370
    -2
100
AcDbLine
 10
82.23793131063485
 20
267.4172352716549
 30
0.0
 11
82.23793131063484
 21
216.417235271655
 31
0.0
  0
SOLID
  5
7A4
330
686
100
AcDbEntity
  8
BEM
 62
     0
100
AcDbTrace
 10
81.07126464396818
 20
267.4172352716549
 30
0.0
 11
83.40459797730153
 21
267.4172352716549
 31
0.0
 12
82.23793131063485
 22
274.417235271655
 32
0.0
 13
82.23793131063485
 23
274.417235271655
 33
0.0
  0
SOLID
  5
7A5
330
686
100
AcDbEntity
  8
BEM
 62
     0
100
AcDbTrace
 10
81.07126464396817
 20
216.417235271655
 30
0.0
 11
83.40459797730151
 21
216.417235271655
 31
0.0
 12
82.23793131063484
 22
209.417235271655
 32
0.0
 13
82.23793131063484
 23
209.417235271655
 33
0.0
  0
MTEXT
  5
7A6
330
686
100
AcDbEntity
  8
BEM
 62
     1
100
AcDbMText
 10
75.73793131063481
 20
241.917235271655
 30
0.0
 40
7.0
 41
0.0
 71
     5
 72
     1
  1
\A1;65
 11
0.0000000000000001
 21
1.0
 31
0.0
 73
     1
 44
1.0
  0
POINT
  5
7A7
330
686
100
AcDbEntity
  8
DEFPOINTS
 62
     0
100
AcDbPoint
 10
96.55516380941346
 20
274.417235271655
 30
0.0
  0
POINT
  5
7A8
330
686
100
AcDbEntity
  8
DEFPOINTS
 62
     0
100
AcDbPoint
 10
127.4205008508135
 20
209.417235271655
 30
0.0
  0
POINT
  5
7A9
330
686
100
AcDbEntity
  8
DEFPOINTS
 62
     0
100
AcDbPoint
 10
82.23793131063484
 20
209.417235271655
 30
0.0
  0
ENDBLK
  5
691
330
686
100
AcDbEntity
  8
0
100
AcDbBlockEnd
  0
BLOCK
  5
69D
330
693
100
AcDbEntity
  8
0
100
AcDbBlockBegin
  2
*D7
 70
     1
 10
0.0
 20
0.0
 30
0.0
  3
*D7
  1

  0
LINE
  5
798
330
693
100
AcDbEntity
  8
BEM
 62
     0
370
    -2
100
AcDbLine
 10
94.55516380941343
 20
609.4172352716553
 30
0.0
 11
47.00658913038259
 21
609.4172352716553
 31
0.0
  0
LINE
  5
799
330
693
100
AcDbEntity
  8
BEM
 62
     0
370
    -2
100
AcDbLine
 10
125.4205008508135
 20
209.417235271655
 30
0.0
 11
47.00658913038251
 21
209.417235271655
 31
0.0
  0
LINE
  5
79A
330
693
100
AcDbEntity
  8
BEM
 62
     0
370
    -2
100
AcDbLine
 10
49.0065891303826
 20
602.4172352716552
 30
0.0
 11
49.00658913038251
 21
216.417235271655
 31
0.0
  0
SOLID
  5
79B
330
693
100
AcDbEntity
  8
BEM
 62
     0
100
AcDbTrace
 10
47.83992246371592
 20
602.4172352716552
 30
0.0
 11
50.17325579704926
 21
602.4172352716552
 31
0.0
 12
49.0065891303826
 22
609.4172352716553
 32
0.0
 13
49.0065891303826
 23
609.4172352716553
 33
0.0
  0
SOLID
  5
79C
330
693
100
AcDbEntity
  8
BEM
 62
     0
100
AcDbTrace
 10
47.83992246371584
 20
216.417235271655
 30
0.0
 11
50.17325579704917
 21
216.417235271655
 31
0.0
 12
49.00658913038251
 22
209.417235271655
 32
0.0
 13
49.00658913038251
 23
209.417235271655
 33
0.0
  0
MTEXT
  5
79D
330
693
100
AcDbEntity
  8
BEM
 62
     1
100
AcDbMText
 10
42.50658913038249
 20
409.4172352716551
 30
0.0
 40
7.0
 41
0.0
 71
     5
 72
     1
  1
\A1;400
 11
0.0000000000000001
 21
1.0
 31
0.0
 73
     1
 44
1.0
  0
POINT
  5
79E
330
693
100
AcDbEntity
  8
DEFPOINTS
 62
     0
100
AcDbPoint
 10
96.55516380941342
 20
609.4172352716553
 30
0.0
  0
POINT
  5
79F
330
693
100
AcDbEntity
  8
DEFPOINTS
 62
     0
100
AcDbPoint
 10
127.4205008508135
 20
209.417235271655
 30
0.0
  0
POINT
  5
7A0
330
693
100
AcDbEntity
  8
DEFPOINTS
 62
     0
100
AcDbPoint
 10
49.00658913038251
 20
209.417235271655
 30
0.0
  0
ENDBLK
  5
69E
330
693
100
AcDbEntity
  8
0
100
AcDbBlockEnd
  0
BLOCK
  5
6BF
330
6B5
100
AcDbEntity
  8
0
100
AcDbBlockBegin
  2
*D8
 70
     1
 10
0.0
 20
0.0
 30
0.0
  3
*D8
  1

  0
ARC
  5
78F
330
6B5
100
AcDbEntity
  8
BEM
 62
     0
370
    -2
100
AcDbCircle
 10
206.0551638094135
 20
399.417235271655
 30
0.0
 40
73.71946917861485
100
AcDbArc
 50
8.442541693159903
 51
84.55745830684
  0
SOLID
  5
790
330
6B5
100
AcDbEntity
  8
BEM
 62
     0
100
AcDbTrace
 10
280.1366340099464
 20
410.3568486024735
 30
0.0
 11
277.8149238749118
 21
410.1242405774139
 31
0.0
 12
279.6736030176077
 22
403.2754141848399
 32
0.0
 13
279.6736030176077
 23
403.2754141848399
 33
0.0
  0
SOLID
  5
791
330
6B5
100
AcDbEntity
  8
BEM
 62
     0
100
AcDbTrace
 10
212.9918798737263
 20
471.6390124411387
 30
0.0
 11
213.1026601975357
 21
473.9697145165445
 31
0.0
 12
206.0551638094135
 22
473.1367044502698
 32
0.0
 13
206.0551638094135
 23
473.1367044502698
 33
0.0
  0
MTEXT
  5
792
330
6B5
100
AcDbEntity
  8
BEM
 62
     1
100
AcDbMText
 10
250.3029834437012
 20
466.329817742445
 30
0.0
 40
7.0
 41
0.0
 71
     5
 72
     1
  1
\A1;87°
 11
0.8341189882695941
 21
-0.5515845478329764
 31
0.0
 73
     1
 44
1.0
  0
POINT
  5
793
330
6B5
100
AcDbEntity
  8
DEFPOINTS
 62
     0
100
AcDbPoint
 10
268.5728192960002
 20
438.482602138449
 30
0.0
  0
POINT
  5
794
330
6B5
100
AcDbEntity
  8
DEFPOINTS
 62
     0
100
AcDbPoint
 10
425.7536614554198
 20
410.9311456451025
 30
0.0
  0
POINT
  5
795
330
6B5
100
AcDbEntity
  8
DEFPOINTS
 62
     0
100
AcDbPoint
 10
206.0551638094135
 20
614.4172352716552
 30
0.0
  0
POINT
  5
796
330
6B5
100
AcDbEntity
  8
DEFPOINTS
 62
     0
100
AcDbPoint
 10
206.0551638094135
 20
204.417235271655
 30
0.0
  0
POINT
  5
797
330
6B5
100
AcDbEntity
  8
DEFPOINTS
 62
     0
100
AcDbPoint
 10
206.0551638094135
 20
399.417235271655
 30
0.0
  0
ENDBLK
  5
6C0
330
6B5
100
AcDbEntity
  8
0
100
AcDbBlockEnd
  0
ENDSEC
  0
SECTION
  2
ENTITIES
  0
LINE
  5
59
330
1E
100
AcDbEntity
  8
STEMPEL
100
AcDbLine
 10
484.0
 20
460.0
 30
0.0
 11
584.0
 21
459.9999999999998
 31
0.0
  0
LINE
  5
87
330
1E
100
AcDbEntity
  8
HILF
100
AcDbLine
 10
594.0
 20
-0.0000000000000568
 30
0.0
 11
594.0
 21
840.0
 31
0.0
  0
LINE
  5
88
330
1E
100
AcDbEntity
  8
HILF
100
AcDbLine
 10
594.0
 20
840.0
 30
0.0
 11
0.0
 21
840.0
 31
0.0
  0
LINE
  5
89
330
1E
100
AcDbEntity
  8
HILF
100
AcDbLine
 10
0.0
 20
840.0
 30
0.0
 11
0.0
 21
0.0
 31
0.0
  0
LINE
  5
8B
330
1E
100
AcDbEntity
  8
STEMPEL
100
AcDbLine
 10
10.0
 20
830.0
 30
0.0
 11
10.0
 21
39.99999999999995
 31
0.0
  0
LINE
  5
8D
330
1E
100
AcDbEntity
  8
STEMPEL
100
AcDbLine
 10
584.0
 20
39.99999999999995
 30
0.0
 11
584.0
 21
830.0
 31
0.0
  0
LINE
  5
8E
330
1E
100
AcDbEntity
  8
STEMPEL
100
AcDbLine
 10
584.0
 20
830.0
 30
0.0
 11
10.0
 21
830.0
 31
0.0
  0
LINE
  5
9C
330
1E
100
AcDbEntity
  8
BEM
100
AcDbLine
 10
594.0
 20
455.9999999999999
 30
0.0
 11
584.0
 21
455.9999999999999
 31
0.0
  0
LINE
  5
13E
330
1E
100
AcDbEntity
  8
HILF
100
AcDbLine
 10
594.0
 20
-0.0000000000000568
 30
0.0
 11
0.0
 21
0.0
 31
0.0
  0
LINE
  5
13F
330
1E
100
AcDbEntity
  8
STEMPEL
100
AcDbLine
 10
584.0
 20
39.99999999999995
 30
0.0
 11
10.0
 21
39.99999999999995
 31
0.0
  0
LINE
  5
14A
330
1E
100
AcDbEntity
  8
HILF
100
AcDbLine
 10
297.0
 20
-0.0000000000000568
 30
0.0
 11
297.0
 21
39.99999999999995
 31
0.0
  0
TEXT
  5
15B
330
1E
100
AcDbEntity
  8
BEM
100
AcDbText
 10
583.8320989200114
 20
837.3022923857165
 30
0.0
 40
4.0
  1
Diese Zeichnung ist urheberrechtlich geschützt und bleibt unser Eigentum. Sie darf weder ganz noch teilweise verfielfältigt und nicht an Dritte weitergegeben werden.
 50
180.0
 41
0.8
  7
GREEKS
100
AcDbText
  0
HATCH
  5
1F5
330
1E
100
AcDbEntity
  8
SCHRAFF
100
AcDbHatch
 10
0.0
 20
0.0
 30
0.0
210
0.0
220
0.0
230
1.0
  2
_USER
 70
     0
 71
     1
 91
        1
 92
        7
 72
     1
 73
     1
 93
        3
 10
285.5551638094135
 20
487.5509742452554
 42
0.0
 10
285.5551638094135
 20
483.1927552314914
 42
0.0
 10
289.9074100354871
 20
483.4208467910928
 42
0.2025063028807273
 97
        3
330
251
330
22A
330
1F6
 75
     0
 76
     0
 52
0.0
 41
0.1
 77
     0
 78
     1
 53
0.0
 43
-402.9346121406733
 44
54.05739595511795
 45
0.0
 46
0.1
 79
     0
 47
0.1970738460957552
 98
        1
 10
287.0354515453096
 20
485.094381552803
  0
ARC
  5
1F6
102
{ACAD_REACTORS
330
1F5
330
65D
102
}
330
1E
100
AcDbEntity
  8
SCHRAFF
100
AcDbCircle
 10
282.8416170505757
 20
480.3332735880077
 30
0.0
 40
7.71093631085309
100
AcDbArc
 50
23.60411366695393
 51
69.39588633304523
  0
HATCH
  5
20E
330
1E
100
AcDbEntity
  8
SCHRAFF
100
AcDbHatch
 10
0.0
 20
0.0
 30
0.0
210
0.0
220
0.0
230
1.0
  2
_USER
 70
     0
 71
     1
 91
        1
 92
        7
 72
     1
 73
     1
 93
        3
 10
289.6852912635761
 20
324.1910030258506
 42
0.0
 10
285.5551638094135
 20
323.9745522178219
 42
0.0
 10
285.5551638094135
 20
319.8387567997771
 42
0.4107622017618517
 97
        3
330
22B
330
228
330
20F
 75
     0
 76
     0
 52
45.0
 41
0.1
 77
     0
 78
     1
 53
45.0
 43
-402.9346121406733
 44
54.05739595511795
 45
-0.0707106781186548
 46
0.0707106781186548
 79
     0
 47
0.0555938078411062
 98
        1
 10
287.1689048435405
 20
321.9337480966926
  0
ARC
  5
20F
102
{ACAD_REACTORS
330
20E
330
65D
102
}
330
1E
100
AcDbEntity
  8
SCHRAFF
100
AcDbCircle
 10
285.4182777746128
 20
324.1044522145263
 30
0.0
 40
4.267891183937938
100
AcDbArc
 50
271.8379890777464
 51
1.162010922246029
  0
LINE
  5
226
102
{ACAD_REACTORS
330
535
330
5C5
102
}
330
1E
100
AcDbEntity
  8
STEMPEL
100
AcDbLine
 10
206.0551638094135
 20
399.4172352716551
 30
0.0
 11
285.5551638094135
 21
323.974552217822
 31
0.0
  0
LINE
  5
227
102
{ACAD_REACTORS
330
535
330
5C5
102
}
330
1E
100
AcDbEntity
  8
STEMPEL
100
AcDbLine
 10
285.5551638094135
 20
483.1927552314914
 30
0.0
 11
206.0551638094135
 21
399.4172352716551
 31
0.0
  0
LINE
  5
228
102
{ACAD_REACTORS
330
20E
330
5C5
330
65D
102
}
330
1E
100
AcDbEntity
  8
STEMPEL
  6
Continuous
100
AcDbLine
 10
285.5551638094135
 20
323.974552217822
 30
0.0
 11
285.5551638094135
 21
219.308082914374
 31
0.0
  0
LINE
  5
229
330
1E
100
AcDbEntity
  8
MITTEL
100
AcDbLine
 10
425.7536614554198
 20
410.9311456451025
 30
0.0
 11
206.0551638094135
 21
399.417235271655
 31
0.0
  0
LINE
  5
22A
102
{ACAD_REACTORS
330
1F5
330
535
330
65D
102
}
330
1E
100
AcDbEntity
  8
STEMPEL
  6
Continuous
100
AcDbLine
 10
329.1920110822557
 20
485.4796654919742
 30
0.0
 11
285.5551638094135
 21
483.1927552314914
 31
0.0
  0
LINE
  5
22B
102
{ACAD_REACTORS
330
20E
330
535
330
65D
102
}
330
1E
100
AcDbEntity
  8
STEMPEL
  6
Continuous
100
AcDbLine
 10
337.5134281248838
 20
326.6975694659972
 30
0.0
 11
285.5551638094135
 21
323.974552217822
 31
0.0
  0
TEXT
  5
22C
330
1E
100
AcDbEntity
  8
TEXT
 62
     1
100
AcDbText
 10
383.9569368646995
 20
418.6270113497171
 30
0.0
 40
7.0
  1
DN150
 50
3.000000000000716
 41
0.8
  7
GREEKS
100
AcDbText
  0
LINE
  5
22D
102
{ACAD_REACTORS
330
535
330
5D5
330
5FD
102
}
330
1E
100
AcDbEntity
  8
STEMPEL
100
AcDbLine
 10
415.0297265730447
 20
520.0193999195136
 30
0.0
 11
426.491300990249
 21
301.319531808262
 31
0.0
  0
LINE
  5
22E
102
{ACAD_REACTORS
330
535
330
65D
102
}
330
1E
100
AcDbEntity
  8
STEMPEL
  6
Continuous
100
AcDbLine
 10
368.7603333705419
 20
323.3282886494001
 30
0.0
 11
353.7219427537871
 21
322.5401599931851
 31
0.0
  0
LINE
  5
22F
102
{ACAD_REACTORS
330
535
330
65D
102
}
330
1E
100
AcDbEntity
  8
STEMPEL
  6
Continuous
100
AcDbLine
 10
359.9155567654845
 20
492.096680022923
 30
0.0
 11
344.8771661487295
 21
491.3085513667079
 31
0.0
  0
LINE
  5
230
330
1E
100
AcDbEntity
  8
HILF
  6
Continuous
100
AcDbLine
 10
333.1589342507866
 20
481.153820503566
 30
0.0
 11
341.0064461442591
 21
331.4143734056457
 31
0.0
  0
LINE
  5
231
330
1E
100
AcDbEntity
  8
HILF
  6
Continuous
100
AcDbLine
 10
340.5583260452569
 20
485.2211575206554
 30
0.0
 11
348.7904557842561
 21
328.1427647396996
 31
0.0
  0
ARC
  5
232
102
{ACAD_REACTORS
330
535
330
65D
102
}
330
1E
100
AcDbEntity
  8
STEMPEL
  6
Continuous
100
AcDbCircle
 10
328.6686515198264
 20
495.46596083952
 30
0.0
 40
10.0
100
AcDbArc
 50
272.9999999999999
 51
307.7719440319496
  0
ARC
  5
233
102
{ACAD_REACTORS
330
535
330
65D
102
}
330
1E
100
AcDbEntity
  8
STEMPEL
  6
Continuous
100
AcDbCircle
 10
345.8192133611026
 20
473.3332197411256
 30
0.0
 40
18.0
100
AcDbArc
 50
92.99999999999991
 51
127.7719440319495
  0
ARC
  5
234
102
{ACAD_REACTORS
330
535
330
65D
102
}
330
1E
100
AcDbEntity
  8
STEMPEL
  6
Continuous
100
AcDbCircle
 10
338.0367876873135
 20
316.7112741184515
 30
0.0
 40
10.0
100
AcDbArc
 50
58.22805596805044
 51
92.99999999999991
  0
ARC
  5
235
102
{ACAD_REACTORS
330
535
330
65D
102
}
330
1E
100
AcDbEntity
  8
STEMPEL
  6
Continuous
100
AcDbCircle
 10
352.7798955414141
 20
340.5154916187674
 30
0.0
 40
18.0
100
AcDbArc
 50
238.2280559680505
 51
272.9999999999999
  0
LINE
  5
236
330
1E
100
AcDbEntity
  8
HILF
  6
Continuous
100
AcDbLine
 10
365.0816977880479
 20
487.8979268537142
 30
0.0
 11
373.4592845156238
 21
328.0440493915377
 31
0.0
  0
ARC
  5
237
102
{ACAD_REACTORS
330
535
330
5FD
102
}
330
1E
100
AcDbEntity
  8
STEMPEL
  6
Continuous
100
AcDbCircle
 10
402.0943941880252
 20
465.267381191039
 30
0.0
 40
35.0
100
AcDbArc
 50
68.00000000000818
 51
92.99999999999991
  0
ARC
  5
238
102
{ACAD_REACTORS
330
535
330
65D
102
}
330
1E
100
AcDbEntity
  8
STEMPEL
  6
Continuous
100
AcDbCircle
 10
385.8947299503432
 20
464.4183927632112
 30
0.0
 40
35.00004740563918
100
AcDbArc
 50
92.90569855090833
 51
120.5271836205503
  0
LINE
  5
239
102
{ACAD_REACTORS
330
535
330
5FD
330
65D
102
}
330
1E
100
AcDbEntity
  8
STEMPEL
  6
Continuous
100
AcDbLine
 10
400.262635719522
 20
500.219414907449
 30
0.0
 11
384.1204980646414
 21
499.3734413200757
 31
0.0
  0
ARC
  5
23A
102
{ACAD_REACTORS
330
535
330
65D
102
}
330
1E
100
AcDbEntity
  8
STEMPEL
  6
Continuous
100
AcDbCircle
 10
358.9735095531115
 20
510.0720116485053
 30
0.0
 40
18.0
100
AcDbArc
 50
272.9999999999999
 51
300.5271836205503
  0
LINE
  5
23B
102
{ACAD_REACTORS
330
535
330
5FD
102
}
330
1E
100
AcDbEntity
  8
STEMPEL
  6
Continuous
100
AcDbLine
 10
416.2199276110236
 20
497.3090112279519
 30
0.0
 11
415.2056249575816
 21
497.7188161008768
 31
0.0
  0
ARC
  5
23C
102
{ACAD_REACTORS
330
535
330
5FD
102
}
330
1E
100
AcDbEntity
  8
STEMPEL
  6
Continuous
100
AcDbCircle
 10
407.9036853309919
 20
354.4195028332815
 30
0.0
 40
35.0
100
AcDbArc
 50
272.9999999999999
 51
297.9999999999895
  0
ARC
  5
23D
102
{ACAD_REACTORS
330
535
330
65D
102
}
330
1E
100
AcDbEntity
  8
STEMPEL
  6
Continuous
100
AcDbCircle
 10
391.70402109331
 20
353.5705144054537
 30
0.0
 40
35.00004740563918
100
AcDbArc
 50
245.4728163794497
 51
273.0943014490915
  0
ARC
  5
23E
102
{ACAD_REACTORS
330
535
330
65D
102
}
330
1E
100
AcDbEntity
  8
STEMPEL
  6
Continuous
100
AcDbCircle
 10
369.702380582915
 20
305.3529570238178
 30
0.0
 40
18.0
100
AcDbArc
 50
65.47281637944973
 51
92.99999999999991
  0
LINE
  5
23F
102
{ACAD_REACTORS
330
535
330
5FD
330
65D
102
}
330
1E
100
AcDbEntity
  8
STEMPEL
  6
Continuous
100
AcDbLine
 10
409.7354437994949
 20
319.4674691168714
 30
0.0
 11
393.5933061446143
 21
318.621495529498
 31
0.0
  0
LINE
  5
240
102
{ACAD_REACTORS
330
535
330
5FD
102
}
330
1E
100
AcDbEntity
  8
STEMPEL
  6
Continuous
100
AcDbLine
 10
425.3010999522693
 20
324.0299204998238
 30
0.0
 11
424.3351900284978
 21
323.516337083219
 31
0.0
  0
LINE
  5
243
102
{ACAD_REACTORS
330
5C5
102
}
330
1E
100
AcDbEntity
  8
STEMPEL
100
AcDbLine
 10
285.5551638094135
 20
219.308082914374
 30
0.0
 11
284.6898267680135
 21
209.417235271655
 31
0.0
  0
LINE
  5
244
102
{ACAD_REACTORS
330
5C5
102
}
330
1E
100
AcDbEntity
  8
STEMPEL
100
AcDbLine
 10
126.5551638094134
 20
219.3080829143745
 30
0.0
 11
127.4205008508135
 21
209.417235271655
 31
0.0
  0
LINE
  5
245
330
1E
100
AcDbEntity
  8
HILF
100
AcDbLine
 10
280.545614215556
 20
219.4172352716549
 30
0.0
 11
131.564713403271
 21
219.4172352716549
 31
0.0
  0
LINE
  5
246
102
{ACAD_REACTORS
330
5C5
330
611
102
}
330
1E
100
AcDbEntity
  8
STEMPEL
  6
Continuous
100
AcDbLine
 10
292.8136086068196
 20
609.4172352716547
 30
0.0
 11
293.2759363556961
 21
608.4257702146452
 31
0.0
  0
LINE
  5
247
102
{ACAD_REACTORS
330
5C5
330
611
330
65D
102
}
330
1E
100
AcDbEntity
  8
STEMPEL
  6
Continuous
100
AcDbLine
 10
296.5551638094133
 20
593.634131053721
 30
0.0
 11
296.5551638094133
 21
577.4698408008318
 31
0.0
  0
ARC
  5
248
102
{ACAD_REACTORS
330
5C5
330
65D
102
}
330
1E
100
AcDbEntity
  8
STEMPEL
  6
Continuous
100
AcDbCircle
 10
308.5551638094133
 20
552.9172352716548
 30
0.0
 40
18.0
100
AcDbArc
 50
152.4728163794491
 51
180.0
  0
ARC
  5
249
102
{ACAD_REACTORS
330
5C5
330
65D
102
}
330
1E
100
AcDbEntity
  8
STEMPEL
  6
Continuous
100
AcDbCircle
 10
261.5551638094133
 20
577.4122352716548
 30
0.0
 40
35.00004740563918
100
AcDbArc
 50
332.4728163794492
 51
0.0943014490918224
  0
ARC
  5
24A
102
{ACAD_REACTORS
330
5C5
330
611
102
}
330
1E
100
AcDbEntity
  8
STEMPEL
  6
Continuous
100
AcDbCircle
 10
261.5551638094133
 20
593.634131053721
 30
0.0
 40
35.0
100
AcDbArc
 50
0.0
 51
24.99999999998912
  0
LINE
  5
24B
102
{ACAD_REACTORS
330
5C5
330
611
102
}
330
1E
100
AcDbEntity
  8
STEMPEL
  6
Continuous
100
AcDbLine
 10
119.2967190120072
 20
609.4172352716547
 30
0.0
 11
118.8343912631305
 21
608.4257702146452
 31
0.0
  0
ARC
  5
24C
102
{ACAD_REACTORS
330
5C5
330
65D
102
}
330
1E
100
AcDbEntity
  8
STEMPEL
  6
Continuous
100
AcDbCircle
 10
103.5551638094134
 20
552.9172352716548
 30
0.0
 40
18.0
100
AcDbArc
 50
0.0
 51
27.52718362055084
  0
LINE
  5
24D
102
{ACAD_REACTORS
330
5C5
330
611
330
65D
102
}
330
1E
100
AcDbEntity
  8
STEMPEL
  6
Continuous
100
AcDbLine
 10
115.5551638094134
 20
593.634131053721
 30
0.0
 11
115.5551638094134
 21
577.4698408008318
 31
0.0
  0
ARC
  5
24E
102
{ACAD_REACTORS
330
5C5
330
65D
102
}
330
1E
100
AcDbEntity
  8
STEMPEL
  6
Continuous
100
AcDbCircle
 10
150.5551638094134
 20
577.4122352716548
 30
0.0
 40
35.00004740563918
100
AcDbArc
 50
179.9056985509081
 51
207.5271836205509
  0
ARC
  5
24F
102
{ACAD_REACTORS
330
5C5
330
611
102
}
330
1E
100
AcDbEntity
  8
STEMPEL
  6
Continuous
100
AcDbCircle
 10
150.5551638094134
 20
593.634131053721
 30
0.0
 40
35.0
100
AcDbArc
 50
155.0000000000076
 51
180.0
  0
LINE
  5
250
330
1E
100
AcDbEntity
  8
HILF
  6
Continuous
100
AcDbLine
 10
126.0185376638314
 20
557.8565505153551
 30
0.0
 11
286.0917899549954
 21
557.8565505153551
 31
0.0
  0
LINE
  5
251
102
{ACAD_REACTORS
330
1F5
330
5C5
330
65D
102
}
330
1E
100
AcDbEntity
  8
STEMPEL
  6
Continuous
100
AcDbLine
 10
285.5551638094133
 20
521.8894873570506
 30
0.0
 11
285.5551638094135
 21
483.1927552314914
 31
0.0
  0
ARC
  5
253
102
{ACAD_REACTORS
330
5C5
330
65D
102
}
330
1E
100
AcDbEntity
  8
STEMPEL
  6
Continuous
100
AcDbCircle
 10
272.5551638094133
 20
537.8582067797218
 30
0.0
 40
18.0
100
AcDbArc
 50
325.2280559680514
 51
0.0
  0
ARC
  5
254
102
{ACAD_REACTORS
330
5C5
330
65D
102
}
330
1E
100
AcDbEntity
  8
STEMPEL
  6
Continuous
100
AcDbCircle
 10
295.5551638094133
 20
521.8894873570506
 30
0.0
 40
10.0
100
AcDbArc
 50
145.2280559680514
 51
180.0
  0
LINE
  5
255
102
{ACAD_REACTORS
330
5C5
330
65D
102
}
330
1E
100
AcDbEntity
  8
STEMPEL
  6
Continuous
100
AcDbLine
 10
126.5551638094134
 20
521.8894873570506
 30
0.0
 11
126.5551638094134
 21
219.3080829143745
 31
0.0
  0
ARC
  5
256
102
{ACAD_REACTORS
330
5C5
330
65D
102
}
330
1E
100
AcDbEntity
  8
STEMPEL
  6
Continuous
100
AcDbCircle
 10
139.5551638094134
 20
537.8582067797218
 30
0.0
 40
18.0
100
AcDbArc
 50
180.0
 51
214.7719440319486
  0
ARC
  5
257
102
{ACAD_REACTORS
330
5C5
330
65D
102
}
330
1E
100
AcDbEntity
  8
STEMPEL
  6
Continuous
100
AcDbCircle
 10
116.5551638094134
 20
521.8894873570506
 30
0.0
 40
10.0
100
AcDbArc
 50
0.0
 51
34.77194403194856
  0
LINE
  5
258
330
1E
100
AcDbEntity
  8
HILF
  6
Continuous
100
AcDbLine
 10
127.408184467089
 20
533.226695918551
 30
0.0
 11
284.7021431517378
 21
533.226695918551
 31
0.0
  0
LINE
  5
259
330
1E
100
AcDbEntity
  8
HILF
  6
Continuous
100
AcDbLine
 10
131.0826930949753
 20
525.6245767612206
 30
0.0
 11
281.0276345238515
 21
525.6245767612206
 31
0.0
  0
LINE
  5
25A
102
{ACAD_REACTORS
330
5C5
330
65D
102
}
330
1E
100
AcDbEntity
  8
STEMPEL
  6
Continuous
100
AcDbLine
 10
121.5551638094134
 20
552.9172352716548
 30
0.0
 11
121.5551638094134
 21
537.8582067797218
 31
0.0
  0
LINE
  5
25B
102
{ACAD_REACTORS
330
5C5
330
65D
102
}
330
1E
100
AcDbEntity
  8
STEMPEL
  6
Continuous
100
AcDbLine
 10
290.5551638094133
 20
552.9172352716548
 30
0.0
 11
290.5551638094133
 21
537.8582067797218
 31
0.0
  0
LINE
  5
25C
102
{ACAD_REACTORS
330
5C5
330
5E9
330
611
102
}
330
1E
100
AcDbEntity
  8
STEMPEL
100
AcDbLine
 10
96.55516380941344
 20
609.4172352716553
 30
0.0
 11
315.5551638094135
 21
609.4172352716549
 31
0.0
  0
TEXT
  5
25D
330
1E
100
AcDbEntity
  8
TEXT
 62
     1
100
AcDbText
 10
196.1823734720022
 20
573.0805621301271
 30
0.0
 40
7.0
  1
DN150
 50
90.0
 41
0.8
  7
GREEKS
100
AcDbText
  0
LINE
  5
25E
102
{ACAD_REACTORS
330
5C5
102
}
330
1E
100
AcDbEntity
  8
STEMPEL
100
AcDbLine
 10
284.6898267680135
 20
209.417235271655
 30
0.0
 11
127.4205008508135
 21
209.417235271655
 31
0.0
  0
LINE
  5
25F
330
1E
100
AcDbEntity
  8
MITTEL
100
AcDbLine
 10
206.0551638094135
 20
614.4172352716552
 30
0.0
 11
206.0551638094135
 21
204.417235271655
 31
0.0
  0
TEXT
  5
269
330
1E
100
AcDbEntity
  8
TEXT
 62
     1
100
AcDbText
 10
430.0926913090378
 20
593.8456677344458
 30
0.0
 40
7.0
  1
Außenrohr: P235 TR1 EN10217-1 feuerverzinkt
 50
90.0
 41
0.8
  7
GREEKS
100
AcDbText
  0
TEXT
  5
26A
330
1E
100
AcDbEntity
  8
TEXT
 62
     1
100
AcDbText
 10
441.4457593453928
 20
597.6178851053098
 30
0.0
 40
7.0
  1
Innenrohr: E195 EN10305 feuerverzinkt
 50
90.0
 41
0.8
  7
GREEKS
100
AcDbText
  0
TEXT
  5
26B
330
1E
100
AcDbEntity
  8
TEXT
 62
     1
100
AcDbText
 10
465.3096485700007
 20
590.1234744606126
 30
0.0
 40
7.0
  1
Dämmung: 2 K-PU-Schaum
 50
90.0
 41
0.8
  7
GREEKS
100
AcDbText
  0
TEXT
  5
26C
330
1E
100
AcDbEntity
  8
TEXT
 62
     1
100
AcDbText
 10
452.7148131846185
 20
645.2724139813235
 30
0.0
 40
7.0
  1
und innenbeschichtet
 50
90.0
 41
0.8
  7
GREEKS
100
AcDbText
  0
INSERT
  5
2AF
330
1E
100
AcDbEntity
  8
STEMPEL
100
AcDbBlockReference
  2
LOGO
 10
548.9789472355168
 20
560.9955485457795
 30
0.0
 41
2.0
 42
2.0
 43
2.0
 50
90.0
  0
TEXT
  5
2B0
330
1E
100
AcDbEntity
  8
TEXT
100
AcDbText
 10
503.2363615897698
 20
602.626132208084
 30
0.0
 40
4.0
  1
DIN EN1123-2
 50
90.0
 41
0.8
  7
GREEKS
 72
     1
 11
503.2363615897698
 21
619.6166083985602
 31
0.0
100
AcDbText
  0
TEXT
  5
2B1
330
1E
100
AcDbEntity
  8
TEXT
100
AcDbText
 10
551.3702584697737
 20
644.9837501577826
 30
0.0
 40
4.0
  1
58020FF0W.DWG
 50
90.0
 41
0.8
  7
GREEKS
100
AcDbText
  0
TEXT
  5
2B2
330
1E
100
AcDbEntity
  8
TEXT
100
AcDbText
 10
542.3598805695784
 20
645.1296391125315
 30
0.0
 40
5.0
  1
EDV-Art.Nr. 58020.FF0X
 50
90.0
 41
0.8
  7
GREEKS
100
AcDbText
  0
TEXT
  5
2B3
330
1E
100
AcDbEntity
  8
TEXT
100
AcDbText
 10
522.4966558241471
 20
645.1296391125315
 30
0.0
 40
5.0
  1
Einfach-Abzweig 87°
 50
90.0
 41
0.8
  7
GREEKS
100
AcDbText
  0
TEXT
  5
2B4
330
1E
100
AcDbEntity
  8
TEXT
 62
     1
100
AcDbText
 10
506.5825121074622
 20
644.9367181557188
 30
0.0
 40
7.0
  1
Verbundrohr DN150/150
 50
90.0
 41
0.8
  7
GREEKS
100
AcDbText
  0
TEXT
  5
2B5
330
1E
100
AcDbEntity
  8
TEXT
100
AcDbText
 10
530.8923495917427
 20
580.3989971082361
 30
0.0
 40
4.0
  1
24.09.
 50
90.0
 41
0.8
  7
GREEKS
 72
     1
 11
530.8923495917427
 21
587.4085209177599
 31
0.0
100
AcDbText
  0
TEXT
  5
2B6
330
1E
100
AcDbEntity
  8
TEXT
 62
     1
100
AcDbText
 10
505.8509857108604
 20
570.5006306481887
 30
0.0
 40
7.0
  1
1:2
 50
90.0
 41
0.8
  7
GREEKS
100
AcDbText
  0
TEXT
  5
2B7
330
1E
100
AcDbEntity
  8
TEXT
 62
     1
100
AcDbText
 10
505.8509857108604
 20
765.8791900623817
 30
0.0
 40
7.0
  1
58020FF0W
 50
90.0
 41
0.8
  7
GREEKS
 72
     1
 11
505.8509857108604
 21
789.3458567290483
 31
0.0
100
AcDbText
  0
TEXT
  5
2B8
330
1E
100
AcDbEntity
  8
TEXT
100
AcDbText
 10
530.9103608027649
 20
614.4216048581257
 30
0.0
 40
4.0
  1
Koeh
 50
90.0
 41
0.8
  7
GREEKS
 72
     1
 11
530.9103608027649
 21
619.6787477152686
 31
0.0
100
AcDbText
  0
TEXT
  5
2B9
330
1E
100
AcDbEntity
  8
TEXT
100
AcDbText
 10
482.3280000000001
 20
461.8550995097767
 30
0.0
 40
5.0
  1
Erstellt mit AUTOCAD 2004
 50
90.0
 41
0.8
  7
GREEKS
100
AcDbText
  0
TEXT
  5
2BA
330
1E
100
AcDbEntity
  8
TEXT
100
AcDbText
 10
520.8597452884832
 20
558.622109822104
 30
0.0
 40
4.0
  1
2007
 50
90.0
 41
0.8
  7
GREEKS
100
AcDbText
  0
TEXT
  5
2BC
330
1E
100
AcDbEntity
  8
TEXT
100
AcDbText
 10
541.925838221214
 20
757.2400861497006
 30
0.0
 40
5.0
  1
ersetzt durch:
 50
90.0
 41
0.8
  7
GREEKS
100
AcDbText
  0
TEXT
  5
2BE
330
1E
100
AcDbEntity
  8
TEXT
100
AcDbText
 10
550.4705361035019
 20
557.6006777387304
 30
0.0
 40
4.0
  1
Norm.
 50
90.0
 41
0.8
  7
GREEKS
100
AcDbText
  0
TEXT
  5
2BF
330
1E
100
AcDbEntity
  8
TEXT
100
AcDbText
 10
540.3107370857163
 20
557.5515086571672
 30
0.0
 40
4.0
  1
Gepr.
 50
90.0
 41
0.8
  7
GREEKS
100
AcDbText
  0
TEXT
  5
2C0
330
1E
100
AcDbEntity
  8
TEXT
100
AcDbText
 10
530.3700963038203
 20
557.5836127167615
 30
0.0
 40
4.0
  1
Gez.
 50
90.0
 41
0.8
  7
GREEKS
100
AcDbText
  0
TEXT
  5
2C1
330
1E
100
AcDbEntity
  8
TEXT
100
AcDbText
 10
520.6903890808478
 20
612.4626584226295
 30
0.0
 40
4.0
  1
Name
 50
90.0
 41
0.8
  7
GREEKS
100
AcDbText
  0
TEXT
  5
2C2
330
1E
100
AcDbEntity
  8
TEXT
100
AcDbText
 10
520.6811949877008
 20
582.331167315365
 30
0.0
 40
4.0
  1
Tag
 50
90.0
 41
0.8
  7
GREEKS
100
AcDbText
  0
TEXT
  5
2C3
330
1E
100
AcDbEntity
  8
TEXT
100
AcDbText
 10
575.4067578303359
 20
539.0122744386594
 30
0.0
 40
4.0
  1
Name
 50
90.0
 41
0.8
  7
GREEKS
 72
     1
 11
575.4067578303359
 21
545.3360839624687
 31
0.0
100
AcDbText
  0
TEXT
  5
2C4
330
1E
100
AcDbEntity
  8
TEXT
100
AcDbText
 10
575.3284373066019
 20
520.0934676075481
 30
0.0
 40
4.0
  1
Tag
 50
90.0
 41
0.8
  7
GREEKS
 72
     1
 11
575.3284373066019
 21
523.8268009408813
 31
0.0
100
AcDbText
  0
TEXT
  5
2C5
330
1E
100
AcDbEntity
  8
TEXT
100
AcDbText
 10
580.3453415397281
 20
468.2664110704576
 30
0.0
 40
4.0
  1
Index
 50
180.0
 41
0.8
  7
GREEKS
100
AcDbText
  0
TEXT
  5
2C6
330
1E
100
AcDbEntity
  8
TEXT
100
AcDbText
 10
520.8188176290002
 20
756.7238616296992
 30
0.0
 40
5.0
  1
Ersatz für:
 50
90.0
 41
0.8
  7
GREEKS
100
AcDbText
  0
TEXT
  5
2C7
330
1E
100
AcDbEntity
  8
TEXT
100
AcDbText
 10
563.1543942980694
 20
644.742238391136
 30
0.0
 40
5.0
  1
Bauvorhaben
 50
90.0
 41
0.8
  7
GREEKS
100
AcDbText
  0
TEXT
  5
2C8
330
1E
100
AcDbEntity
  8
TEXT
100
AcDbText
 10
491.6867965462863
 20
756.178754957634
 30
0.0
 40
5.0
  1
Zeichnungs Nr.
 50
90.0
 41
0.8
  7
GREEKS
100
AcDbText
  0
TEXT
  5
2C9
330
1E
100
AcDbEntity
  8
TEXT
100
AcDbText
 10
491.4510671988221
 20
644.877940380901
 30
0.0
 40
5.0
  1
Benennung
 50
90.0
 41
0.8
  7
GREEKS
100
AcDbText
  0
TEXT
  5
2CA
330
1E
100
AcDbEntity
  8
TEXT
100
AcDbText
 10
491.581583156518
 20
604.2858954734051
 30
0.0
 40
5.0
  1
Zul. Abw.
 50
90.0
 41
0.8
  7
GREEKS
100
AcDbText
  0
TEXT
  5
2CB
330
1E
100
AcDbEntity
  8
TEXT
100
AcDbText
 10
491.537910491291
 20
563.5163572150377
 30
0.0
 40
5.0
  1
Maßstab
 50
90.0
 41
0.8
  7
GREEKS
100
AcDbText
  0
TEXT
  5
2CC
330
1E
100
AcDbEntity
  8
TEXT
100
AcDbText
 10
575.3261810501586
 20
483.8616597963182
 30
0.0
 40
4.0
  1
Änderung
 50
90.0
 41
0.8
  7
GREEKS
 72
     1
 11
575.3261810501586
 21
494.6045169391753
 31
0.0
100
AcDbText
  0
LINE
  5
2CD
330
1E
100
AcDbEntity
  8
HILF
100
AcDbLine
 10
579.1060174197168
 20
643.4909699289885
 30
0.0
 11
579.1060174197168
 21
824.8588839326728
 31
0.0
  0
LINE
  5
2CE
330
1E
100
AcDbEntity
  8
HILF
100
AcDbLine
 10
510.2201636304418
 20
756.7238616296992
 30
0.0
 11
510.2201636304418
 21
824.8588839326728
 31
0.0
  0
LINE
  5
2CF
330
1E
100
AcDbEntity
  8
VOLL
100
AcDbLine
 10
534.0
 20
752.0
 30
0.0
 11
534.0
 21
830.0
 31
0.0
  0
LINE
  5
2D0
330
1E
100
AcDbEntity
  8
HILF
100
AcDbLine
 10
544.0
 20
644.7736801096947
 30
0.0
 11
544.0
 21
744.8353916556309
 31
0.0
  0
LINE
  5
2D1
330
1E
100
AcDbEntity
  8
HILF
100
AcDbLine
 10
534.0
 20
644.7736801096947
 30
0.0
 11
534.0
 21
744.8353916556309
 31
0.0
  0
LINE
  5
2D2
330
1E
100
AcDbEntity
  8
HILF
100
AcDbLine
 10
524.0000000000001
 20
644.7736801096947
 30
0.0
 11
524.0000000000001
 21
744.8353916556309
 31
0.0
  0
LINE
  5
2D3
330
1E
100
AcDbEntity
  8
HILF
100
AcDbLine
 10
509.9624175243587
 20
644.7736801096947
 30
0.0
 11
509.9624175243588
 21
744.835391655631
 31
0.0
  0
LINE
  5
2D4
330
1E
100
AcDbEntity
  8
HILF
100
AcDbLine
 10
544.0
 20
556.0000000000001
 30
0.0
 11
544.0
 21
640.0
 31
0.0
  0
LINE
  5
2D5
330
1E
100
AcDbEntity
  8
HILF
100
AcDbLine
 10
534.0
 20
556.0000000000001
 30
0.0
 11
534.0
 21
640.0
 31
0.0
  0
LINE
  5
2D6
330
1E
100
AcDbEntity
  8
HILF
100
AcDbLine
 10
524.0000000000001
 20
556.0000000000001
 30
0.0
 11
524.0000000000001
 21
640.0
 31
0.0
  0
LINE
  5
2D7
330
1E
100
AcDbEntity
  8
HILF
100
AcDbLine
 10
554.0
 20
460.0000000000001
 30
0.0
 11
554.0
 21
556.0000000000001
 31
0.0
  0
LINE
  5
2D8
330
1E
100
AcDbEntity
  8
HILF
100
AcDbLine
 10
544.0
 20
460.0000000000001
 30
0.0
 11
544.0
 21
556.0000000000001
 31
0.0
  0
LINE
  5
2D9
330
1E
100
AcDbEntity
  8
HILF
100
AcDbLine
 10
534.0
 20
460.0000000000001
 30
0.0
 11
534.0
 21
556.0000000000001
 31
0.0
  0
LINE
  5
2DA
330
1E
100
AcDbEntity
  8
HILF
100
AcDbLine
 10
524.0000000000001
 20
460.0000000000001
 30
0.0
 11
524.0000000000001
 21
556.0000000000001
 31
0.0
  0
LINE
  5
2DB
330
1E
100
AcDbEntity
  8
HILF
100
AcDbLine
 10
514.0
 20
460.0000000000001
 30
0.0
 11
514.0
 21
556.0000000000001
 31
0.0
  0
LINE
  5
2DC
330
1E
100
AcDbEntity
  8
HILF
100
AcDbLine
 10
504.0
 20
460.0000000000001
 30
0.0
 11
504.0
 21
556.0000000000001
 31
0.0
  0
LINE
  5
2DD
330
1E
100
AcDbEntity
  8
HILF
100
AcDbLine
 10
494.0
 20
460.0000000000001
 30
0.0
 11
494.0
 21
556.0000000000001
 31
0.0
  0
LINE
  5
2DE
330
1E
100
AcDbEntity
  8
VOLL
100
AcDbLine
 10
484.0000000000002
 20
600.0
 30
0.0
 11
554.0
 21
600.0
 31
0.0
  0
LINE
  5
2DF
330
1E
100
AcDbEntity
  8
VOLL
100
AcDbLine
 10
514.0
 20
574.0000000000001
 30
0.0
 11
554.0
 21
574.0000000000001
 31
0.0
  0
LINE
  5
2E0
330
1E
100
AcDbEntity
  8
VOLL
100
AcDbLine
 10
484.0
 20
534.0000000000001
 30
0.0
 11
584.0
 21
534.0
 31
0.0
  0
LINE
  5
2E1
330
1E
100
AcDbEntity
  8
VOLL
100
AcDbLine
 10
484.0
 20
514.0000000000001
 30
0.0
 11
584.0
 21
514.0
 31
0.0
  0
LINE
  5
2E2
330
1E
100
AcDbEntity
  8
VOLL
100
AcDbLine
 10
484.0
 20
474.0000000000001
 30
0.0
 11
584.0
 21
474.0
 31
0.0
  0
LINE
  5
2E3
330
1E
100
AcDbEntity
  8
STEMPEL
100
AcDbLine
 10
514.0000000000001
 20
830.0
 30
0.0
 11
514.0
 21
556.0000000000001
 31
0.0
  0
LINE
  5
2E4
330
1E
100
AcDbEntity
  8
STEMPEL
100
AcDbLine
 10
554.0
 20
830.0
 30
0.0
 11
554.0
 21
556.0000000000001
 31
0.0
  0
LINE
  5
2E5
330
1E
100
AcDbEntity
  8
STEMPEL
100
AcDbLine
 10
564.0
 20
555.9999999999998
 30
0.0
 11
564.0
 21
460.0
 31
0.0
  0
LINE
  5
2E6
330
1E
100
AcDbEntity
  8
STEMPEL
100
AcDbLine
 10
484.0000000000003
 20
752.0
 30
0.0
 11
554.0
 21
752.0
 31
0.0
  0
LINE
  5
2E7
330
1E
100
AcDbEntity
  8
STEMPEL
100
AcDbLine
 10
484.0
 20
640.0
 30
0.0
 11
584.0
 21
640.0
 31
0.0
  0
LINE
  5
2E8
330
1E
100
AcDbEntity
  8
STEMPEL
100
AcDbLine
 10
484.0
 20
556.0000000000001
 30
0.0
 11
584.0
 21
556.0
 31
0.0
  0
LINE
  5
2E9
330
1E
100
AcDbEntity
  8
STEMPEL
100
AcDbLine
 10
484.0000000000001
 20
830.0
 30
0.0
 11
484.0
 21
460.0
 31
0.0
  0
LINE
  5
31C
102
{ACAD_REACTORS
330
65D
102
}
330
1E
100
AcDbEntity
  8
STEMPEL
100
AcDbLine
 10
312.6551638094135
 20
288.5672352716548
 30
0.0
 11
310.8051638094133
 21
290.417235271655
 31
0.0
  0
LINE
  5
31E
330
1E
100
AcDbEntity
  8
STEMPEL
100
AcDbLine
 10
285.5551638094132
 20
281.417235271655
 30
0.0
 11
292.8551638094134
 21
281.417235271655
 31
0.0
  0
LINE
  5
31F
102
{ACAD_REACTORS
330
5E9
102
}
330
1E
100
AcDbEntity
  8
STEMPEL
  6
Continuous
100
AcDbLine
 10
315.5551638094134
 20
274.4172352716551
 30
0.0
 11
312.6551638094135
 21
274.4172352716551
 31
0.0
  0
LINE
  5
320
102
{ACAD_REACTORS
330
65D
102
}
330
1E
100
AcDbEntity
  8
STEMPEL
100
AcDbLine
 10
285.5551638094132
 20
290.417235271655
 30
0.0
 11
310.8051638094135
 21
290.417235271655
 31
0.0
  0
LINE
  5
321
330
1E
100
AcDbEntity
  8
STEMPEL
100
AcDbLine
 10
119.2551638094134
 20
281.417235271655
 30
0.0
 11
126.5551638094136
 21
281.417235271655
 31
0.0
  0
LINE
  5
323
102
{ACAD_REACTORS
330
65D
102
}
330
1E
100
AcDbEntity
  8
STEMPEL
100
AcDbLine
 10
99.45516380941336
 20
288.567235271655
 30
0.0
 11
101.3051638094134
 21
290.417235271655
 31
0.0
  0
LINE
  5
324
102
{ACAD_REACTORS
330
5E9
102
}
330
1E
100
AcDbEntity
  8
STEMPEL
  6
Continuous
100
AcDbLine
 10
99.45516380941342
 20
274.417235271655
 30
0.0
 11
96.55516380941344
 21
274.417235271655
 31
0.0
  0
LINE
  5
325
102
{ACAD_REACTORS
330
65D
102
}
330
1E
100
AcDbEntity
  8
STEMPEL
100
AcDbLine
 10
101.3051638094134
 20
290.417235271655
 30
0.0
 11
126.5551638094136
 21
290.417235271655
 31
0.0
  0
LINE
  5
326
102
{ACAD_REACTORS
330
5D5
330
5E9
102
}
330
1E
100
AcDbEntity
  8
STEMPEL
100
AcDbLine
 10
315.5551638094134
 20
609.4172352716549
 30
0.0
 11
315.5551638094134
 21
511.9021791865263
 31
0.0
  0
LINE
  5
327
102
{ACAD_REACTORS
330
5E9
330
611
330
65D
102
}
330
1E
100
AcDbEntity
  8
STEMPEL
100
AcDbLine
 10
312.6551638094135
 20
609.4172352716549
 30
0.0
 11
312.6551638094134
 21
511.9021791865263
 31
0.0
  0
LINE
  5
328
102
{ACAD_REACTORS
330
5E9
102
}
330
1E
100
AcDbEntity
  8
STEMPEL
100
AcDbLine
 10
96.55516380941344
 20
609.4172352716553
 30
0.0
 11
96.55516380941344
 21
272.417235271655
 31
0.0
  0
LINE
  5
329
102
{ACAD_REACTORS
330
5E9
330
611
330
65D
102
}
330
1E
100
AcDbEntity
  8
STEMPEL
100
AcDbLine
 10
99.45516380941342
 20
609.4172352716553
 30
0.0
 11
99.45516380941342
 21
274.417235271655
 31
0.0
  0
LINE
  5
370
102
{ACAD_REACTORS
330
611
330
65D
102
}
330
1E
100
AcDbEntity
  8
STEMPEL
  6
Continuous
100
AcDbLine
 10
312.6551638094136
 20
591.417235271655
 30
0.0
 11
296.5551638094135
 21
591.417235271655
 31
0.0
  0
DIMENSION
  5
373
330
1E
100
AcDbEntity
  8
BEM
100
AcDbDimension
  2
*D1
 10
315.5551638094134
 20
620.7223894487214
 30
0.0
 11
206.0551638094135
 21
627.2223894487215
 31
0.0
 70
    32
  1
%%c<>
 71
     5
 42
219.0
  3
Standard
100
AcDbAlignedDimension
 13
96.55516380941348
 23
609.4172352716549
 33
0.0
 14
315.5551638094134
 24
609.417235271655
 34
0.0
100
AcDbRotatedDimension
1001
ACAD
1000
DSTYLE
1002
{
1070
    40
1040
2.0
1070
    41
1040
3.5
1070
    42
1040
1.0
1070
    43
1040
7.0
1070
    44
1040
1.0
1070
    73
1070
     0
1070
    74
1070
     0
1070
    77
1070
     1
1070
    78
1070
     8
1070
    79
1070
     2
1070
   140
1040
3.5
1070
   141
1040
1.5
1070
   146
1040
0.5142857142857144
1070
   147
1040
1.5
1070
   172
1070
     1
1070
   178
1070
     1
1070
   179
1070
     2
1070
   271
1070
     2
1070
   272
1070
     2
1070
   284
1070
     8
1070
   285
1070
     8
1070
   286
1070
     8
1070
   289
1070
     0
1070
   340
1005
24
1002
}
  0
LINE
  5
375
102
{ACAD_REACTORS
330
611
330
65D
102
}
330
1E
100
AcDbEntity
  8
STEMPEL
  6
Continuous
100
AcDbLine
 10
115.5551638094134
 20
591.417235271655
 30
0.0
 11
99.45516380941342
 21
591.4172352716549
 31
0.0
  0
DIMENSION
  5
43C
330
1E
100
AcDbEntity
  8
BEM
100
AcDbDimension
  2
*D2
 10
440.537270169217
 20
302.0556498608097
 30
0.0
 11
441.2975749365211
 21
411.7457676320146
 31
0.0
 70
    32
  1
%%c<>
 71
     5
 42
218.9999999999999
  3
Standard
100
AcDbAlignedDimension
 13
415.0297265730443
 23
520.0193999195136
 33
0.0
 14
426.4913009902491
 24
301.319531808262
 34
0.0
 50
272.9999999999991
100
AcDbRotatedDimension
1001
ACAD
1000
DSTYLE
1002
{
1070
    40
1040
2.0
1070
    41
1040
3.5
1070
    42
1040
1.0
1070
    43
1040
7.0
1070
    44
1040
1.0
1070
    73
1070
     0
1070
    74
1070
     0
1070
    77
1070
     1
1070
    78
1070
     8
1070
    79
1070
     2
1070
   140
1040
3.5
1070
   141
1040
1.5
1070
   146
1040
0.5142857142857144
1070
   147
1040
1.5
1070
   172
1070
     1
1070
   178
1070
     1
1070
   179
1070
     2
1070
   271
1070
     2
1070
   272
1070
     2
1070
   284
1070
     8
1070
   285
1070
     8
1070
   286
1070
     8
1070
   289
1070
     0
1070
   340
1005
24
1002
}
  0
LINE
  5
43D
102
{ACAD_REACTORS
330
5FD
330
65D
102
}
330
1E
100
AcDbEntity
  8
STEMPEL
  6
Continuous
100
AcDbLine
 10
408.3641950915622
 20
303.273510246677
 30
0.0
 11
407.5215861960507
 21
319.3514457562259
 31
0.0
  0
LINE
  5
43E
102
{ACAD_REACTORS
330
5D5
330
5FD
330
65D
102
}
330
1E
100
AcDbEntity
  8
STEMPEL
100
AcDbLine
 10
426.3395267171444
 20
304.2155574590502
 30
0.0
 11
315.5551638094134
 21
298.4095950197694
 31
0.0
  0
LINE
  5
43F
102
{ACAD_REACTORS
330
5D5
102
}
330
1E
100
AcDbEntity
  8
STEMPEL
100
AcDbLine
 10
426.491300990249
 20
301.319531808262
 30
0.0
 11
315.5551638094134
 21
295.5056152163756
 31
0.0
  0
LINE
  5
443
102
{ACAD_REACTORS
330
5FD
330
65D
102
}
330
1E
100
AcDbEntity
  8
STEMPEL
  6
Continuous
100
AcDbLine
 10
398.048778116078
 20
500.1033915468036
 30
0.0
 11
397.2061692205664
 21
516.1813270563523
 31
0.0
  0
LINE
  5
444
102
{ACAD_REACTORS
330
5D5
330
5FD
330
65D
102
}
330
1E
100
AcDbEntity
  8
STEMPEL
100
AcDbLine
 10
415.1815008461491
 20
517.1233742687253
 30
0.0
 11
315.5551638094134
 21
511.9021791865263
 31
0.0
  0
LINE
  5
445
102
{ACAD_REACTORS
330
5D5
102
}
330
1E
100
AcDbEntity
  8
STEMPEL
100
AcDbLine
 10
415.0297265730446
 20
520.0193999195136
 30
0.0
 11
315.5551638094134
 21
514.8061589899201
 31
0.0
  0
LINE
  5
4C3
102
{ACAD_REACTORS
330
5E9
330
65D
102
}
330
1E
100
AcDbEntity
  8
STEMPEL
100
AcDbLine
 10
315.5551638094134
 20
511.9021791865263
 30
0.0
 11
312.6551638094134
 21
511.9021791865263
 31
0.0
  0
LINE
  5
4C4
102
{ACAD_REACTORS
330
5E9
330
65D
102
}
330
1E
100
AcDbEntity
  8
STEMPEL
100
AcDbLine
 10
315.5551638094134
 20
298.4095950197694
 30
0.0
 11
312.6551638094135
 21
298.4095950197694
 31
0.0
  0
LINE
  5
4C5
102
{ACAD_REACTORS
330
5E9
330
65D
102
}
330
1E
100
AcDbEntity
  8
STEMPEL
100
AcDbLine
 10
312.6551638094135
 20
298.4095950197694
 30
0.0
 11
312.6551638094135
 21
274.4172352716552
 31
0.0
  0
LINE
  5
4C6
102
{ACAD_REACTORS
330
5D5
330
5E9
102
}
330
1E
100
AcDbEntity
  8
STEMPEL
100
AcDbLine
 10
315.5551638094135
 20
298.4095950197694
 30
0.0
 11
315.5551638094134
 21
272.417235271655
 31
0.0
  0
ARC
  5
4C7
102
{ACAD_REACTORS
330
535
102
}
330
1E
100
AcDbEntity
  8
STEMPEL
  6
Continuous
100
AcDbCircle
 10
402.0943941880252
 20
465.267381191039
 30
0.0
 40
32.5
100
AcDbArc
 50
68.00000000000818
 51
92.99999999999991
  0
LINE
  5
4C8
102
{ACAD_REACTORS
330
535
102
}
330
1E
100
AcDbEntity
  8
STEMPEL
  6
Continuous
100
AcDbLine
 10
400.3934756101292
 20
497.7228410705626
 30
0.0
 11
384.2513379552487
 21
496.8768674831892
 31
0.0
  0
ARC
  5
4C9
102
{ACAD_REACTORS
330
535
102
}
330
1E
100
AcDbEntity
  8
STEMPEL
  6
Continuous
100
AcDbCircle
 10
385.8947299503432
 20
464.4183927632112
 30
0.0
 40
32.50004740563918
100
AcDbArc
 50
92.90569855090833
 51
120.5271836205503
  0
ARC
  5
4CA
102
{ACAD_REACTORS
330
535
102
}
330
1E
100
AcDbEntity
  8
STEMPEL
  6
Continuous
100
AcDbCircle
 10
358.9735095531115
 20
510.0720116485053
 30
0.0
 40
20.5
100
AcDbArc
 50
272.9999999999999
 51
300.5271836205503
  0
LINE
  5
4CB
102
{ACAD_REACTORS
330
535
102
}
330
1E
100
AcDbEntity
  8
STEMPEL
  6
Continuous
100
AcDbLine
 10
360.0463966560918
 20
489.6001061860365
 30
0.0
 11
345.0080060393369
 21
488.8119775298214
 31
0.0
  0
ARC
  5
4CC
102
{ACAD_REACTORS
330
535
102
}
330
1E
100
AcDbEntity
  8
STEMPEL
  6
Continuous
100
AcDbCircle
 10
345.8192133611026
 20
473.3332197411256
 30
0.0
 40
15.5
100
AcDbArc
 50
92.99999999999991
 51
127.7719440319495
  0
ARC
  5
4CF
102
{ACAD_REACTORS
330
535
102
}
330
1E
100
AcDbEntity
  8
STEMPEL
  6
Continuous
100
AcDbCircle
 10
328.6686515198264
 20
495.46596083952
 30
0.0
 40
12.5
100
AcDbArc
 50
272.9999999999999
 51
307.7719440319496
  0
LINE
  5
4D1
102
{ACAD_REACTORS
330
535
102
}
330
1E
100
AcDbEntity
  8
STEMPEL
  6
Continuous
100
AcDbLine
 10
329.3228509728631
 20
482.9830916550878
 30
0.0
 11
283.0551638094134
 21
480.558304918289
 31
0.0
  0
LINE
  5
4D2
102
{ACAD_REACTORS
330
535
102
}
330
1E
100
AcDbEntity
  8
STEMPEL
  6
Continuous
100
AcDbLine
 10
416.3642934572398
 20
494.5543467832717
 30
0.0
 11
414.2691084740417
 21
495.4008564644598
 31
0.0
  0
LINE
  5
4D3
102
{ACAD_REACTORS
330
535
102
}
330
1E
100
AcDbEntity
  8
STEMPEL
  6
Continuous
100
AcDbLine
 10
337.3825882342765
 20
329.1941433028836
 30
0.0
 11
283.0551638094135
 21
326.3469636346093
 31
0.0
  0
ARC
  5
4D4
102
{ACAD_REACTORS
330
535
102
}
330
1E
100
AcDbEntity
  8
STEMPEL
  6
Continuous
100
AcDbCircle
 10
338.0367876873135
 20
316.7112741184515
 30
0.0
 40
12.5
100
AcDbArc
 50
58.22805596805044
 51
92.99999999999991
  0
ARC
  5
4D6
102
{ACAD_REACTORS
330
535
102
}
330
1E
100
AcDbEntity
  8
STEMPEL
  6
Continuous
100
AcDbCircle
 10
352.7798955414141
 20
340.5154916187674
 30
0.0
 40
15.5
100
AcDbArc
 50
238.2280559680505
 51
272.9999999999999
  0
LINE
  5
4D8
102
{ACAD_REACTORS
330
535
102
}
330
1E
100
AcDbEntity
  8
STEMPEL
  6
Continuous
100
AcDbLine
 10
368.6294934799346
 20
325.8248624862865
 30
0.0
 11
353.5911028631797
 21
325.0367338300715
 31
0.0
  0
ARC
  5
4D9
102
{ACAD_REACTORS
330
535
102
}
330
1E
100
AcDbEntity
  8
STEMPEL
  6
Continuous
100
AcDbCircle
 10
369.702380582915
 20
305.3529570238178
 30
0.0
 40
20.5
100
AcDbArc
 50
65.47281637944973
 51
92.99999999999991
  0
ARC
  5
4DB
102
{ACAD_REACTORS
330
535
102
}
330
1E
100
AcDbEntity
  8
STEMPEL
  6
Continuous
100
AcDbCircle
 10
391.70402109331
 20
353.5705144054537
 30
0.0
 40
32.50004740563918
100
AcDbArc
 50
245.4728163794497
 51
273.0943014490915
  0
LINE
  5
4DC
102
{ACAD_REACTORS
330
535
102
}
330
1E
100
AcDbEntity
  8
STEMPEL
  6
Continuous
100
AcDbLine
 10
409.6046039088876
 20
321.9640429537578
 30
0.0
 11
393.462466254007
 21
321.1180693663845
 31
0.0
  0
ARC
  5
4DD
102
{ACAD_REACTORS
330
535
102
}
330
1E
100
AcDbEntity
  8
STEMPEL
  6
Continuous
100
AcDbCircle
 10
407.9036853309919
 20
354.4195028332815
 30
0.0
 40
32.5
100
AcDbArc
 50
272.9999999999999
 51
297.9999999999895
  0
LINE
  5
4DE
102
{ACAD_REACTORS
330
535
102
}
330
1E
100
AcDbEntity
  8
STEMPEL
  6
Continuous
100
AcDbLine
 10
425.156734106054
 20
326.7845849445039
 30
0.0
 11
423.161511121533
 21
325.7237060653663
 31
0.0
  0
HATCH
  5
535
330
1E
100
AcDbEntity
  8
SCHRAFF
100
AcDbHatch
 10
0.0
 20
0.0
 30
0.0
210
0.0
220
0.0
230
1.0
  2
_USER
 70
     0
 71
     1
 91
        2
 92
        7
 72
     1
 73
     1
 93
       20
 10
329.3228509728631
 20
482.9830916550878
 42
0.1528962216020413
 10
336.3251523418247
 20
485.5852728491653
 42
-0.1528962216020379
 10
345.0080060393369
 20
488.8119775298214
 42
0.0
 10
360.0463966560918
 20
489.6001061860365
 42
0.1206909349745694
 10
369.386425109948
 20
492.4135522138266
 42
-0.1211241773289872
 10
384.2492453761465
 20
496.8767578157655
 42
0.0
 10
400.3934756101292
 20
497.7228410705626
 42
-0.1095178116832381
 10
414.2691084740417
 20
495.4008564644598
 42
0.0
 10
416.3642934572398
 20
494.5543467832718
 42
0.0
 10
416.2199276110242
 20
497.3090112279518
 42
0.0
 10
415.2056249575816
 20
497.7188161008768
 42
0.1095178116832372
 10
400.2626357195222
 20
500.219414907449
 42
0.0
 10
384.0054448990526
 20
499.3674116391677
 42
0.1202734944247692
 10
368.1165573591142
 20
494.5670228765923
 42
-0.1206909349745671
 10
359.9155567654846
 20
492.096680022923
 42
0.0
 10
344.8771661487295
 20
491.3085513667079
 42
0.1528962216020393
 10
334.793852177425
 20
487.5614104472362
 42
-0.1528962216020405
 10
329.1920110822557
 20
485.4796654919742
 42
0.0
 10
285.5551638094135
 20
483.1927552314914
 42
0.0
 10
283.0551638094134
 20
480.558304918289
 42
0.0
 97
       20
330
4CC
330
4CB
330
4CA
330
4C9
330
4C8
330
4C7
330
4D2
330
22D
330
23B
330
237
330
239
330
238
330
23A
330
22F
330
233
330
232
330
22A
330
227
330
4D1
330
4CF
 92
        7
 72
     1
 73
     1
 93
       20
 10
337.5134281248838
 20
326.6975694659972
 42
-0.1528962216020478
 10
343.3021833494925
 20
325.2127803685642
 42
0.1528962216020337
 10
353.7219427537871
 20
322.5401599931851
 42
0.0
 10
368.7603333705419
 20
323.3282886494001
 42
-0.1206909349745612
 10
377.1746291670728
 20
321.7287165816689
 42
0.1202734944245215
 10
393.4782529789909
 20
318.6154658485882
 42
0.0
 10
409.7354437994949
 20
319.4674691168714
 42
0.10951781168324
 10
424.3351900284978
 20
323.516337083219
 42
0.0
 10
425.3010999522697
 20
324.0299204998239
 42
0.0
 10
425.156734106054
 20
326.784584944504
 42
0.0
 10
423.161511121533
 20
325.7237060653663
 42
-0.1095178116832406
 10
409.6046039088873
 20
321.9640429537578
 42
0.0
 10
393.4603736748945
 20
321.1179596989602
 42
-0.1211241773289004
 10
378.2124414704295
 20
324.0031276313698
 42
0.1206909349745797
 10
368.6294934799347
 20
325.8248624862865
 42
0.0
 10
353.5911028631797
 20
325.0367338300715
 42
-0.1528962216020426
 10
344.6185322650367
 20
327.3381569310926
 42
0.1528962216020354
 10
337.3825882342765
 20
329.1941433028836
 42
0.0
 10
283.0551638094133
 20
326.3469636346093
 42
0.0
 10
285.5551638094135
 20
323.974552217822
 42
0.0
 97
       20
330
234
330
235
330
22E
330
23E
330
23D
330
23F
330
23C
330
240
330
22D
330
4DE
330
4DD
330
4DC
330
4DB
330
4D9
330
4D8
330
4D6
330
4D4
330
4D3
330
226
330
22B
 75
     0
 76
     0
 52
135.0
 41
2.0
 77
     0
 78
     1
 53
135.0
 43
10.04035403494117
 44
0.0
 45
-1.414213562373095
 46
-1.414213562373094
 79
     0
 47
0.4068003894471517
 98
        2
 10
317.5441743566439
 20
483.2476209356212
 10
305.3315748837958
 20
326.2226692988424
  0
LINE
  5
536
102
{ACAD_REACTORS
330
5C5
102
}
330
1E
100
AcDbEntity
  8
STEMPEL
  6
Continuous
100
AcDbLine
 10
283.0551638094133
 20
521.8894873570506
 30
0.0
 11
283.0551638094135
 21
480.558304918289
 31
0.0
  0
ARC
  5
537
102
{ACAD_REACTORS
330
5C5
102
}
330
1E
100
AcDbEntity
  8
STEMPEL
  6
Continuous
100
AcDbCircle
 10
295.5551638094133
 20
521.8894873570506
 30
0.0
 40
12.5
100
AcDbArc
 50
145.2280559680514
 51
180.0
  0
ARC
  5
539
102
{ACAD_REACTORS
330
5C5
102
}
330
1E
100
AcDbEntity
  8
STEMPEL
  6
Continuous
100
AcDbCircle
 10
272.5551638094133
 20
537.8582067797218
 30
0.0
 40
15.5
100
AcDbArc
 50
325.2280559680514
 51
0.0
  0
LINE
  5
53B
102
{ACAD_REACTORS
330
5C5
102
}
330
1E
100
AcDbEntity
  8
STEMPEL
  6
Continuous
100
AcDbLine
 10
288.0551638094133
 20
552.9172352716548
 30
0.0
 11
288.0551638094133
 21
537.8582067797218
 31
0.0
  0
ARC
  5
53C
102
{ACAD_REACTORS
330
5C5
102
}
330
1E
100
AcDbEntity
  8
STEMPEL
  6
Continuous
100
AcDbCircle
 10
308.5551638094133
 20
552.9172352716548
 30
0.0
 40
20.5
100
AcDbArc
 50
152.4728163794491
 51
180.0
  0
ARC
  5
53E
102
{ACAD_REACTORS
330
5C5
102
}
330
1E
100
AcDbEntity
  8
STEMPEL
  6
Continuous
100
AcDbCircle
 10
261.5551638094133
 20
577.4122352716548
 30
0.0
 40
32.50004740563918
100
AcDbArc
 50
332.4728163794492
 51
0.0943014490918224
  0
LINE
  5
53F
102
{ACAD_REACTORS
330
5C5
102
}
330
1E
100
AcDbEntity
  8
STEMPEL
  6
Continuous
100
AcDbLine
 10
294.0551638094133
 20
593.634131053721
 30
0.0
 11
294.0551638094133
 21
577.4698408008318
 31
0.0
  0
ARC
  5
540
102
{ACAD_REACTORS
330
5C5
102
}
330
1E
100
AcDbEntity
  8
STEMPEL
  6
Continuous
100
AcDbCircle
 10
261.5551638094133
 20
593.634131053721
 30
0.0
 40
32.5
100
AcDbArc
 50
0.0
 51
24.99999999998912
  0
LINE
  5
541
102
{ACAD_REACTORS
330
5C5
102
}
330
1E
100
AcDbEntity
  8
STEMPEL
  6
Continuous
100
AcDbLine
 10
290.0551638094134
 20
609.4172352716549
 30
0.0
 11
291.0101668881044
 21
607.3692245602936
 31
0.0
  0
LINE
  5
543
102
{ACAD_REACTORS
330
5C5
102
}
330
1E
100
AcDbEntity
  8
STEMPEL
  6
Continuous
100
AcDbLine
 10
122.0551638094136
 20
609.4172352716553
 30
0.0
 11
121.1001607307221
 21
607.3692245602934
 31
0.0
  0
ARC
  5
544
102
{ACAD_REACTORS
330
5C5
102
}
330
1E
100
AcDbEntity
  8
STEMPEL
  6
Continuous
100
AcDbCircle
 10
150.5551638094134
 20
593.634131053721
 30
0.0
 40
32.5
100
AcDbArc
 50
155.0000000000076
 51
180.0
  0
LINE
  5
545
102
{ACAD_REACTORS
330
5C5
102
}
330
1E
100
AcDbEntity
  8
STEMPEL
  6
Continuous
100
AcDbLine
 10
118.0551638094134
 20
593.634131053721
 30
0.0
 11
118.0551638094134
 21
577.4698408008318
 31
0.0
  0
ARC
  5
546
102
{ACAD_REACTORS
330
5C5
102
}
330
1E
100
AcDbEntity
  8
STEMPEL
  6
Continuous
100
AcDbCircle
 10
150.5551638094134
 20
577.4122352716548
 30
0.0
 40
32.50004740563918
100
AcDbArc
 50
179.9056985509081
 51
207.5271836205509
  0
ARC
  5
547
102
{ACAD_REACTORS
330
5C5
102
}
330
1E
100
AcDbEntity
  8
STEMPEL
  6
Continuous
100
AcDbCircle
 10
103.5551638094134
 20
552.9172352716548
 30
0.0
 40
20.5
100
AcDbArc
 50
0.0
 51
27.52718362055084
  0
LINE
  5
549
102
{ACAD_REACTORS
330
5C5
102
}
330
1E
100
AcDbEntity
  8
STEMPEL
  6
Continuous
100
AcDbLine
 10
124.0551638094134
 20
552.9172352716548
 30
0.0
 11
124.0551638094134
 21
537.8582067797218
 31
0.0
  0
ARC
  5
54A
102
{ACAD_REACTORS
330
5C5
102
}
330
1E
100
AcDbEntity
  8
STEMPEL
  6
Continuous
100
AcDbCircle
 10
139.5551638094134
 20
537.8582067797218
 30
0.0
 40
15.5
100
AcDbArc
 50
180.0
 51
214.7719440319486
  0
ARC
  5
54C
102
{ACAD_REACTORS
330
5C5
102
}
330
1E
100
AcDbEntity
  8
STEMPEL
  6
Continuous
100
AcDbCircle
 10
116.5551638094134
 20
521.8894873570506
 30
0.0
 40
12.5
100
AcDbArc
 50
0.0
 51
34.77194403194856
  0
LINE
  5
54E
102
{ACAD_REACTORS
330
5C5
102
}
330
1E
100
AcDbEntity
  8
STEMPEL
  6
Continuous
100
AcDbLine
 10
129.0551638094134
 20
521.8894873570506
 30
0.0
 11
129.0551638094134
 21
219.4172352716454
 31
0.0
  0
LINE
  5
54F
102
{ACAD_REACTORS
330
5C5
102
}
330
1E
100
AcDbEntity
  8
STEMPEL
100
AcDbLine
 10
129.0551638094134
 20
219.4172352716454
 30
0.0
 11
129.9300504446718
 21
209.417235271655
 31
0.0
  0
LINE
  5
551
102
{ACAD_REACTORS
330
5C5
102
}
330
1E
100
AcDbEntity
  8
STEMPEL
100
AcDbLine
 10
283.0551638094135
 20
219.417235271645
 30
0.0
 11
282.1802771741552
 21
209.417235271655
 31
0.0
  0
LINE
  5
553
102
{ACAD_REACTORS
330
5C5
102
}
330
1E
100
AcDbEntity
  8
STEMPEL
  6
Continuous
100
AcDbLine
 10
283.0551638094135
 20
326.3469636346093
 30
0.0
 11
283.0551638094135
 21
219.417235271645
 31
0.0
  0
DIMENSION
  5
554
330
1E
100
AcDbEntity
  8
BEM
100
AcDbDimension
  2
*D3
 10
285.5551638094135
 20
187.8071961456387
 30
0.0
 11
206.0551638094135
 21
194.3071961456387
 31
0.0
 70
    32
  1
%%c<>
 71
     5
 42
159.0
  3
Standard
100
AcDbAlignedDimension
 13
126.5551638094134
 23
219.3080829143745
 33
0.0
 14
285.5551638094135
 24
219.308082914374
 34
0.0
100
AcDbRotatedDimension
1001
ACAD
1000
DSTYLE
1002
{
1070
    40
1040
2.0
1070
    41
1040
3.5
1070
    42
1040
1.0
1070
    43
1040
7.0
1070
    44
1040
1.0
1070
    73
1070
     0
1070
    74
1070
     0
1070
    77
1070
     1
1070
    78
1070
     8
1070
    79
1070
     2
1070
   140
1040
3.5
1070
   141
1040
1.5
1070
   146
1040
0.5142857142857144
1070
   147
1040
1.5
1070
   172
1070
     1
1070
   178
1070
     1
1070
   179
1070
     2
1070
   271
1070
     2
1070
   272
1070
     2
1070
   284
1070
     8
1070
   285
1070
     8
1070
   286
1070
     8
1002
}
  0
HATCH
  5
5C5
330
1E
100
AcDbEntity
  8
SCHRAFF
100
AcDbHatch
 10
0.0
 20
0.0
 30
0.0
210
0.0
220
0.0
230
1.0
  2
_USER
 70
     0
 71
     1
 91
        3
 92
        7
 72
     1
 73
     1
 93
       20
 10
285.5551638094133
 20
521.8894873570506
 42
-0.1528962216020396
 10
287.3408780951276
 20
527.592601436576
 42
0.1528962216020397
 10
290.5551638094133
 20
537.8582067797218
 42
0.0
 10
290.5551638094133
 20
552.9172352716548
 42
-0.1206909349745635
 10
292.5929139358407
 20
561.2362844344876
 42
0.1202734944247878
 10
296.5551638094133
 20
577.3546297424939
 42
0.0
 10
296.5551638094133
 20
593.634131053721
 42
0.1095178116832398
 10
293.2759363556961
 20
608.4257702146452
 42
0.0
 10
292.8136086068194
 20
609.4172352716549
 42
0.0
 10
290.0551638094134
 20
609.4172352716549
 42
0.0
 10
291.0101668881044
 20
607.3692245602936
 42
-0.1095178116832432
 10
294.0551638094133
 20
593.6341310537207
 42
0.0
 10
294.0551638094133
 20
577.4677453499692
 42
-0.1211241773288447
 10
290.3759347867339
 20
562.3917079293264
 42
0.1206909349745763
 10
288.0551638094133
 20
552.9172352716548
 42
0.0
 10
288.0551638094133
 20
537.8582067797218
 42
-0.1528962216020397
 10
285.2873066665562
 20
529.0183799564573
 42
0.1528962216020396
 10
283.0551638094133
 20
521.8894873570504
 42
0.0
 10
283.0551638094135
 20
480.558304918289
 42
0.0
 10
285.5551638094135
 20
483.1927552314914
 42
0.0
 97
       20
330
254
330
253
330
25B
330
248
330
249
330
247
330
24A
330
246
330
25C
330
541
330
540
330
53F
330
53E
330
53C
330
53B
330
539
330
537
330
536
330
227
330
251
 92
        7
 72
     1
 73
     1
 93
       22
 10
129.0551638094134
 20
521.8894873570506
 42
0.1528962216020396
 10
126.8230209522706
 20
529.0183799564574
 42
-0.1528962216020379
 10
124.0551638094134
 20
537.8582067797218
 42
0.0
 10
124.0551638094134
 20
552.9172352716548
 42
0.1206909349745683
 10
121.7343928320932
 20
562.3917079293258
 42
-0.1211241773288171
 10
118.0551638094134
 20
577.467745349965
 42
0.0
 10
118.0551638094134
 20
593.634131053721
 42
-0.1095178116832383
 10
121.1001607307221
 20
607.3692245602934
 42
0.0
 10
122.0551638094136
 20
609.4172352716551
 42
0.0
 10
119.2967190120073
 20
609.417235271655
 42
0.0
 10
118.8343912631305
 20
608.4257702146452
 42
0.1095178116832388
 10
115.5551638094134
 20
593.6341310537211
 42
0.0
 10
115.5551638094134
 20
577.3546297424978
 42
0.1202734944248141
 10
119.5174136829859
 20
561.2362844344879
 42
-0.1206909349745687
 10
121.5551638094134
 20
552.9172352716548
 42
0.0
 10
121.5551638094134
 20
537.8582067797218
 42
0.1528962216020398
 10
124.7694495236991
 20
527.592601436576
 42
-0.1528962216020398
 10
126.5551638094134
 20
521.8894873570506
 42
0.0
 10
126.5551638094134
 20
219.3080829143747
 42
0.0
 10
127.4205008508135
 20
209.417235271655
 42
0.0
 10
129.9300504446718
 20
209.417235271655
 42
0.0
 10
129.0551638094134
 20
219.4172352716453
 42
0.0
 97
       22
330
54C
330
54A
330
549
330
547
330
546
330
545
330
544
330
543
330
25C
330
24B
330
24F
330
24D
330
24E
330
24C
330
25A
330
256
330
257
330
255
330
244
330
25E
330
54F
330
54E
 92
        7
 72
     0
 73
     1
 93
        6
 10
285.5551638094135
 20
323.974552217822
 10
283.0551638094135
 20
326.3469636346092
 10
283.0551638094135
 20
219.4172352716443
 10
282.1802771741552
 20
209.417235271655
 10
284.6898267680135
 20
209.417235271655
 10
285.5551638094135
 20
219.3080829143738
 97
        6
330
226
330
553
330
551
330
25E
330
243
330
228
 75
     0
 76
     0
 52
45.0
 41
2.0
 77
     0
 78
     1
 53
45.0
 43
10.04035403494117
 44
0.0
 45
-1.414213562373094
 46
1.414213562373095
 79
     0
 47
0.8234427270296396
 98
        3
 10
283.7477847539135
 20
505.4658113846819
 10
127.1836151292182
 20
479.9390864890881
 10
283.7477847539135
 20
307.0161127942681
  0
HATCH
  5
5D5
330
1E
100
AcDbEntity
  8
SCHRAFF
100
AcDbHatch
 10
0.0
 20
0.0
 30
0.0
210
0.0
220
0.0
230
1.0
  2
_USER
 70
     0
 71
     1
 91
        2
 92
        7
 72
     0
 73
     1
 93
        4
 10
415.1815008461492
 20
517.1233742687253
 10
415.0297265730446
 20
520.0193999195135
 10
315.5551638094134
 20
514.8061589899201
 10
315.5551638094134
 20
511.9021791865263
 97
        4
330
22D
330
445
330
326
330
444
 92
        7
 72
     0
 73
     1
 93
        4
 10
426.4913009902491
 20
301.319531808262
 10
426.3395267171445
 20
304.2155574590502
 10
315.5551638094136
 20
298.4095950197694
 10
315.5551638094135
 20
295.5056152163755
 97
        4
330
22D
330
43E
330
4C6
330
43F
 75
     0
 76
     0
 52
45.0
 41
2.0
 77
     0
 78
     1
 53
45.0
 43
10.04035403494117
 44
0.0
 45
-1.414213562373094
 46
1.414213562373095
 79
     0
 47
0.7512684614386095
 98
        2
 10
331.9645562999554
 20
513.6608707769062
 10
356.0220589031924
 20
298.7980905372074
  0
HATCH
  5
5E9
330
1E
100
AcDbEntity
  8
SCHRAFF
100
AcDbHatch
 10
0.0
 20
0.0
 30
0.0
210
0.0
220
0.0
230
1.0
  2
_USER
 70
     0
 71
     1
 91
        3
 92
        7
 72
     0
 73
     1
 93
        4
 10
312.6551638094134
 20
511.9021791865263
 10
315.5551638094134
 20
511.9021791865263
 10
315.5551638094134
 20
609.4172352716549
 10
312.6551638094135
 20
609.4172352716549
 97
        4
330
25C
330
327
330
4C3
330
326
 92
        7
 72
     0
 73
     1
 93
        4
 10
99.45516380941342
 20
609.4172352716551
 10
96.55516380941346
 20
609.4172352716553
 10
96.55516380941346
 20
274.417235271655
 10
99.45516380941342
 20
274.417235271655
 97
        4
330
25C
330
328
330
324
330
329
 92
        7
 72
     0
 73
     1
 93
        4
 10
312.6551638094135
 20
274.4172352716551
 10
315.5551638094135
 20
274.4172352716551
 10
315.5551638094135
 20
298.4095950197694
 10
312.6551638094135
 20
298.4095950197694
 97
        4
330
4C4
330
4C5
330
31F
330
4C6
 75
     0
 76
     0
 52
135.0
 41
2.0
 77
     0
 78
     1
 53
135.0
 43
10.04035403494117
 44
0.0
 45
-1.414213562373095
 46
-1.414213562373094
 79
     0
 47
0.7512684614386095
 98
        3
 10
313.9214340999438
 20
539.9552665656945
 10
98.15572010225379
 20
537.701462569313
 10
313.9214340999438
 20
296.5442845619504
  0
HATCH
  5
5FD
330
1E
100
AcDbEntity
  8
SCHRAFF
100
AcDbHatch
 10
0.0
 20
0.0
 30
0.0
210
0.0
220
0.0
230
1.0
  2
NET
 70
     0
 71
     1
 91
        2
 92
        7
 72
     1
 73
     1
 93
        6
 10
398.048778116078
 20
500.1033915468036
 42
0.0
 10
400.262635719522
 20
500.219414907449
 42
-0.1095178116832393
 10
415.2056249575816
 20
497.7188161008768
 42
0.0
 10
416.2199276110242
 20
497.3090112279517
 42
0.0
 10
415.1815008461492
 20
517.1233742687253
 42
0.0
 10
397.2061692205664
 20
516.1813270563523
 42
0.0
 97
        6
330
444
330
443
330
239
330
237
330
23B
330
22D
 92
        7
 72
     1
 73
     1
 93
        6
 10
408.364195091562
 20
303.2735102466771
 42
0.0
 10
426.3395267171445
 20
304.2155574590502
 42
0.0
 10
425.3010999522696
 20
324.0299204998239
 42
0.0
 10
424.3351900284978
 20
323.516337083219
 42
-0.1095178116832424
 10
409.7354437994946
 20
319.4674691168714
 42
0.0
 10
407.5215861960508
 20
319.3514457562261
 42
0.0
 97
        6
330
240
330
23C
330
23F
330
43D
330
43E
330
22D
 75
     0
 76
     1
 52
45.0
 41
20.0
 77
     0
 78
     2
 53
45.0
 43
10.04035403494117
 44
0.0
 45
-1.767766952966368
 46
1.767766952966368
 79
     0
 53
135.0
 43
10.04035403494117
 44
0.0
 45
-1.767766952966368
 46
-1.767766952966368
 79
     0
 47
0.7512684614386095
 98
        2
 10
401.8816700327325
 20
509.9045288040612
 10
413.9104194333844
 20
311.5696544322048
  0
HATCH
  5
611
330
1E
100
AcDbEntity
  8
SCHRAFF
100
AcDbHatch
 10
0.0
 20
0.0
 30
0.0
210
0.0
220
0.0
230
1.0
  2
NET
 70
     0
 71
     1
 91
        2
 92
        7
 72
     1
 73
     1
 93
        6
 10
312.6551638094135
 20
609.4172352716549
 42
0.0
 10
292.8136086068195
 20
609.4172352716549
 42
0.0
 10
293.2759363556961
 20
608.4257702146452
 42
-0.1095178116832406
 10
296.5551638094133
 20
593.6341310537208
 42
0.0
 10
296.5551638094133
 20
591.4172352716549
 42
0.0
 10
312.6551638094135
 20
591.417235271655
 42
0.0
 97
        6
330
25C
330
246
330
24A
330
247
330
370
330
327
 92
        7
 72
     1
 73
     1
 93
        6
 10
118.8343912631305
 20
608.4257702146452
 42
0.0
 10
119.2967190120074
 20
609.4172352716553
 42
0.0
 10
99.45516380941342
 20
609.4172352716553
 42
0.0
 10
99.45516380941342
 20
591.4172352716549
 42
0.0
 10
115.5551638094134
 20
591.417235271655
 42
0.0
 10
115.5551638094134
 20
593.634131053721
 42
-0.1095178116832397
 97
        6
330
24B
330
25C
330
329
330
375
330
24D
330
24F
 75
     0
 76
     1
 52
45.0
 41
20.0
 77
     0
 78
     2
 53
45.0
 43
10.04035403494117
 44
0.0
 45
-1.767766952966368
 46
1.767766952966368
 79
     0
 53
135.0
 43
10.04035403494117
 44
0.0
 45
-1.767766952966368
 46
-1.767766952966368
 79
     0
 47
0.7512684614386095
 98
        2
 10
304.899869198005
 20
599.3054760690426
 10
110.1844733048388
 20
599.3054760690426
  0
HATCH
  5
65D
330
1E
100
AcDbEntity
  8
SCHRAFF
100
AcDbHatch
 10
0.0
 20
0.0
 30
0.0
210
0.0
220
0.0
230
1.0
  2
HONEY
 70
     0
 71
     1
 91
        3
 92
        7
 72
     1
 73
     1
 93
       20
 10
285.5551638094135
 20
487.5509742452554
 42
-0.2025063028807273
 10
289.9074100354871
 20
483.4208467910928
 42
0.0
 10
329.1920110822557
 20
485.4796654919742
 42
0.1528962216020425
 10
334.793852177425
 20
487.5614104472363
 42
-0.152896221602039
 10
344.8771661487295
 20
491.3085513667079
 42
0.0
 10
359.9155567654845
 20
492.096680022923
 42
0.1206909349745695
 10
368.1165573591142
 20
494.5670228765923
 42
-0.1211084169870772
 10
384.1204980646414
 20
499.3734413200757
 42
0.0
 10
398.048778116078
 20
500.1033915468036
 42
0.0
 10
397.2061692205665
 20
516.1813270563523
 42
0.0
 10
315.5551638094138
 20
511.9021791865263
 42
0.0
 10
312.6551638094134
 20
511.9021791865263
 42
0.0
 10
312.6551638094134
 20
591.417235271655
 42
0.0
 10
296.5551638094133
 20
591.417235271655
 42
0.0
 10
296.5551638094133
 20
577.4698408008318
 42
-0.1211084169870717
 10
292.5929139358412
 20
561.2362844344886
 42
0.1206909349745796
 10
290.5551638094133
 20
552.9172352716548
 42
0.0
 10
290.5551638094133
 20
537.8582067797218
 42
-0.1528962216020397
 10
287.3408780951276
 20
527.592601436576
 42
0.1528962216020396
 10
285.5551638094133
 20
521.8894873570506
 42
0.0
 97
       20
330
444
330
4C3
330
327
330
370
330
247
330
249
330
248
330
25B
330
253
330
254
330
251
330
1F6
330
22A
330
232
330
233
330
22F
330
23A
330
238
330
239
330
443
 92
        7
 72
     1
 73
     1
 93
       11
 10
126.5551638094134
 20
521.8894873570506
 42
0.1528962216020398
 10
124.7694495236991
 20
527.592601436576
 42
-0.1528962216020398
 10
121.5551638094134
 20
537.8582067797218
 42
0.0
 10
121.5551638094134
 20
552.9172352716548
 42
0.1206909349745687
 10
119.5174136829859
 20
561.2362844344879
 42
-0.1211084169870774
 10
115.5551638094134
 20
577.4698408008318
 42
0.0
 10
115.5551638094134
 20
591.417235271655
 42
0.0
 10
99.45516380941342
 20
591.4172352716549
 42
0.0
 10
99.45516380941342
 20
288.567235271655
 42
0.0
 10
101.3051638094134
 20
290.417235271655
 42
0.0
 10
126.5551638094134
 20
290.4172352716551
 42
0.0
 97
       11
330
257
330
256
330
25A
330
24C
330
24E
330
24D
330
375
330
329
330
323
330
325
330
255
 92
        7
 72
     1
 73
     1
 93
       15
 10
289.6852912635761
 20
324.1910030258506
 42
-0.4107622017618516
 10
285.5551638094135
 20
319.8387567997771
 42
0.0
 10
285.5551638094134
 20
290.417235271655
 42
0.0
 10
310.8051638094133
 20
290.4172352716551
 42
0.0
 10
312.6551638094135
 20
288.5672352716548
 42
0.0
 10
312.6551638094135
 20
298.4095950197694
 42
0.0
 10
315.5551638094134
 20
298.4095950197694
 42
0.0
 10
408.3641950915622
 20
303.2735102466772
 42
0.0
 10
407.5215861960508
 20
319.351445756226
 42
0.0
 10
393.5933061446143
 20
318.621495529498
 42
-0.121108416987069
 10
377.1746291670743
 20
321.7287165816683
 42
0.1206909349745815
 10
368.7603333705421
 20
323.3282886494001
 42
0.0
 10
353.7219427537871
 20
322.5401599931851
 42
-0.1528962216020427
 10
343.3021833494919
 20
325.2127803685644
 42
0.1528962216020345
 10
337.5134281248837
 20
326.6975694659972
 42
0.0
 97
       15
330
23E
330
22E
330
235
330
234
330
22B
330
20F
330
228
330
320
330
31C
330
4C5
330
4C4
330
43E
330
43D
330
23F
330
23D
 75
     0
 76
     1
 52
0.0
 41
30.0
 77
     0
 78
     3
 53
0.0
 43
10.04035403494117
 44
0.0
 45
5.625
 46
3.247595249999999
 79
     2
 49
3.75
 49
-7.5
 53
120.0
 43
10.04035403494117
 44
0.0
 45
-5.624999987709673
 46
3.247595271287468
 79
     2
 49
3.749999999999999
 49
-7.499999999999999
 53
60.0
 43
10.04035403494117
 44
0.0
 45
0.0000000122903263
 46
6.495190521287468
 79
     2
 49
-7.5
 49
3.75
 47
0.7512684614386095
 98
        3
 10
299.6372906223573
 20
504.6456488547534
 10
123.7168149548474
 20
480.6050590412216
 10
306.4034652492946
 20
319.0823383778945
  0
DIMENSION
  5
65E
330
1E
100
AcDbEntity
  8
BEM
100
AcDbDimension
  2
*D4
 10
428.5518459646216
 20
262.0019915010473
 30
0.0
 11
320.8589872629259
 21
262.8669681808355
 31
0.0
 70
    32
 71
     5
 42
214.9999999999999
 51
357.0000000000001
  3
Standard
100
AcDbAlignedDimension
 13
206.0551638094135
 23
399.417235271655
 33
0.0
 14
426.4913009902491
 24
301.319531808262
 34
0.0
 50
2.999999999999964
100
AcDbRotatedDimension
1001
ACAD
1000
DSTYLE
1002
{
1070
    40
1040
2.0
1070
    41
1040
3.5
1070
    42
1040
1.0
1070
    43
1040
7.0
1070
    44
1040
1.0
1070
    73
1070
     0
1070
    74
1070
     0
1070
    77
1070
     1
1070
    78
1070
     8
1070
    79
1070
     2
1070
   140
1040
3.5
1070
   141
1040
1.5
1070
   146
1040
0.5142857142857144
1070
   147
1040
1.5
1070
   172
1070
     1
1070
   178
1070
     1
1070
   179
1070
     2
1070
   271
1070
     2
1070
   272
1070
     2
1070
   284
1070
     8
1070
   285
1070
     8
1070
   286
1070
     8
1002
}
  0
DIMENSION
  5
66B
330
1E
100
AcDbEntity
  8
BEM
100
AcDbDimension
  2
*D5
 10
66.94274553242713
 20
209.417235271655
 30
0.0
 11
60.4427455324271
 21
304.4172352716551
 31
0.0
 70
    32
 71
     5
 42
190.0000000000001
  3
Standard
100
AcDbAlignedDimension
 13
206.0551638094135
 23
399.417235271655
 33
0.0
 14
127.4205008508135
 24
209.417235271655
 34
0.0
 50
90.0
100
AcDbRotatedDimension
1001
ACAD
1000
DSTYLE
1002
{
1070
    40
1040
2.0
1070
    41
1040
3.5
1070
    42
1040
1.0
1070
    43
1040
7.0
1070
    44
1040
1.0
1070
    73
1070
     0
1070
    74
1070
     0
1070
    77
1070
     1
1070
    78
1070
     8
1070
    79
1070
     2
1070
   140
1040
3.5
1070
   141
1040
1.5
1070
   146
1040
0.5142857142857144
1070
   147
1040
1.5
1070
   172
1070
     1
1070
   178
1070
     1
1070
   179
1070
     2
1070
   271
1070
     2
1070
   272
1070
     2
1070
   284
1070
     8
1070
   285
1070
     8
1070
   286
1070
     8
1002
}
  0
DIMENSION
  5
685
330
1E
100
AcDbEntity
  8
BEM
100
AcDbDimension
  2
*D6
 10
82.23793131063484
 20
209.417235271655
 30
0.0
 11
75.73793131063481
 21
241.917235271655
 31
0.0
 70
    32
 71
     5
 42
64.99999999999992
  3
Standard
100
AcDbAlignedDimension
 13
96.55516380941346
 23
274.417235271655
 33
0.0
 14
127.4205008508135
 24
209.417235271655
 34
0.0
 50
90.0
100
AcDbRotatedDimension
1001
ACAD
1000
DSTYLE
1002
{
1070
   279
1070
     1
1070
    40
1040
2.0
1070
    41
1040
3.5
1070
    42
1040
1.0
1070
    43
1040
7.0
1070
    44
1040
1.0
1070
    73
1070
     0
1070
    74
1070
     0
1070
    77
1070
     1
1070
    78
1070
     8
1070
    79
1070
     2
1070
   140
1040
3.5
1070
   141
1040
1.5
1070
   146
1040
0.5142857142857144
1070
   147
1040
1.5
1070
   172
1070
     1
1070
   178
1070
     1
1070
   179
1070
     2
1070
   271
1070
     2
1070
   272
1070
     2
1070
   284
1070
     8
1070
   285
1070
     8
1070
   286
1070
     8
1002
}
  0
DIMENSION
  5
692
330
1E
100
AcDbEntity
  8
BEM
100
AcDbDimension
  2
*D7
 10
49.00658913038251
 20
209.417235271655
 30
0.0
 11
42.50658913038249
 21
409.4172352716551
 31
0.0
 70
    32
 71
     5
 42
400.0000000000002
  3
Standard
100
AcDbAlignedDimension
 13
96.55516380941342
 23
609.4172352716553
 33
0.0
 14
127.4205008508135
 24
209.417235271655
 34
0.0
 50
90.0
100
AcDbRotatedDimension
1001
ACAD
1000
DSTYLE
1002
{
1070
    40
1040
2.0
1070
    41
1040
3.5
1070
    42
1040
1.0
1070
    43
1040
7.0
1070
    44
1040
1.0
1070
    73
1070
     0
1070
    74
1070
     0
1070
    77
1070
     1
1070
    78
1070
     8
1070
    79
1070
     2
1070
   140
1040
3.5
1070
   141
1040
1.5
1070
   146
1040
0.5142857142857144
1070
   147
1040
1.5
1070
   172
1070
     1
1070
   178
1070
     1
1070
   179
1070
     2
1070
   271
1070
     2
1070
   272
1070
     2
1070
   284
1070
     8
1070
   285
1070
     8
1070
   286
1070
     8
1002
}
  0
DIMENSION
  5
6B4
330
1E
100
AcDbEntity
  8
BEM
100
AcDbDimension
  2
*D8
 10
206.0551638094135
 20
399.417235271655
 30
0.0
 11
246.7176838827867
 21
460.9080443186927
 31
0.0
 70
   162
 71
     5
 42
1.518436449235068
  3
Standard
100
AcDb2LineAngularDimension
 13
206.0551638094135
 23
614.4172352716552
 33
0.0
 14
206.0551638094135
 24
204.417235271655
 34
0.0
 15
425.7536614554198
 25
410.9311456451025
 35
0.0
 16
268.5728192960002
 26
438.482602138449
 36
0.0
1001
ACAD
1000
DSTYLE
1002
{
1070
    40
1040
2.0
1070
    41
1040
3.5
1070
    42
1040
1.0
1070
    43
1040
7.0
1070
    44
1040
1.0
1070
    73
1070
     0
1070
    74
1070
     0
1070
    77
1070
     1
1070
    78
1070
     8
1070
    79
1070
     2
1070
   140
1040
3.5
1070
   141
1040
1.5
1070
   146
1040
0.5142857142857144
1070
   147
1040
1.5
1070
   172
1070
     1
1070
   178
1070
     1
1070
   179
1070
     2
1070
   271
1070
     2
1070
   272
1070
     2
1070
   284
1070
     8
1070
   285
1070
     8
1070
   286
1070
     8
1002
}
  0
HATCH
  5
73D
330
1E
100
AcDbEntity
  8
SCHRAFF
100
AcDbHatch
 10
0.0
 20
0.0
 30
0.0
210
0.0
220
0.0
230
1.0
  2
NET
 70
     0
 71
     0
 91
        2
 92
        7
 72
     0
 73
     1
 93
       11
 10
312.6551638094135
 20
288.5672352716547
 10
310.8051638094133
 20
290.417235271655
 10
285.5551638094135
 20
290.417235271655
 10
285.5551638094134
 20
281.417235271655
 10
292.8551638094134
 20
281.417235271655
 10
296.8966156937407
 20
274.417235271655
 10
308.0551638094133
 20
274.417235271655
 10
308.0551638094135
 20
272.417235271655
 10
315.5551638094134
 20
272.417235271655
 10
315.5551638094134
 20
274.4172352716551
 10
312.6551638094135
 20
274.4172352716552
 97
        0
 92
        7
 72
     0
 73
     1
 93
       11
 10
126.5551638094133
 20
290.417235271655
 10
101.3051638094133
 20
290.417235271655
 10
99.45516380941336
 20
288.567235271655
 10
99.45516380941336
 20
274.417235271655
 10
96.55516380941342
 20
274.417235271655
 10
96.55516380941341
 20
272.417235271655
 10
104.1551638094134
 20
272.417235271655
 10
104.1551638094134
 20
274.4172352716552
 10
115.2137119250862
 20
274.4172352716551
 10
119.2551638094134
 20
281.417235271655
 10
126.5551638094133
 20
281.417235271655
 97
        0
 75
     0
 76
     1
 52
45.0
 41
20.0
 77
     0
 78
     2
 53
45.0
 43
-9.984693094884107
 44
16.42898047389804
 45
-1.767766952966368
 46
1.767766952966368
 79
     0
 53
135.0
 43
-9.984693094884107
 44
16.42898047389804
 45
-1.767766952966368
 46
-1.767766952966368
 79
     0
 47
0.2699286479089143
 98
        2
 10
303.545783976908
 20
285.4693320847621
 10
107.1892716610484
 20
283.8497608725629
  0
LINE
  5
73E
330
1E
100
AcDbEntity
  8
STEMPEL
100
AcDbLine
 10
315.5551638094134
 20
272.417235271655
 30
0.0
 11
285.5551638094135
 21
272.4172352716551
 31
0.0
  0
LINE
  5
73F
330
1E
100
AcDbEntity
  8
STEMPEL
100
AcDbLine
 10
292.8551638094134
 20
281.417235271655
 30
0.0
 11
296.8966156937408
 21
274.4172352716549
 31
0.0
  0
LINE
  5
740
330
1E
100
AcDbEntity
  8
STEMPEL
100
AcDbLine
 10
308.0551638094135
 20
274.417235271655
 30
0.0
 11
285.5551638094135
 21
274.417235271655
 31
0.0
  0
LINE
  5
741
330
1E
100
AcDbEntity
  8
STEMPEL
100
AcDbLine
 10
308.0551638094135
 20
272.417235271655
 30
0.0
 11
308.0551638094133
 21
274.417235271655
 31
0.0
  0
POINT
  5
742
330
1E
100
AcDbEntity
  8
DEFPOINTS
  6
ByBlock
 62
     0
100
AcDbPoint
 10
298.0551638094135
 20
274.417235271655
 30
0.0
  0
POINT
  5
743
330
1E
100
AcDbEntity
  8
DEFPOINTS
  6
ByBlock
 62
     0
100
AcDbPoint
 10
308.0551638094135
 20
272.417235271655
 30
0.0
  0
POINT
  5
744
330
1E
100
AcDbEntity
  8
DEFPOINTS
  6
ByBlock
 62
     0
100
AcDbPoint
 10
296.8966156937408
 20
274.417235271655
 30
0.0
  0
POINT
  5
745
330
1E
100
AcDbEntity
  8
DEFPOINTS
  6
ByBlock
 62
     0
100
AcDbPoint
 10
296.8966156937408
 20
274.417235271655
 30
0.0
  0
POINT
  5
746
330
1E
100
AcDbEntity
  8
DEFPOINTS
  6
ByBlock
 62
     0
100
AcDbPoint
 10
296.8966156937408
 20
274.4172352716549
 30
0.0
  0
POINT
  5
747
330
1E
100
AcDbEntity
  8
DEFPOINTS
  6
ByBlock
 62
     0
100
AcDbPoint
 10
308.0551638094135
 20
272.417235271655
 30
0.0
  0
LINE
  5
748
330
1E
100
AcDbEntity
  8
STEMPEL
100
AcDbLine
 10
126.5551638094133
 20
272.417235271655
 30
0.0
 11
96.55516380941339
 21
272.417235271655
 31
0.0
  0
LINE
  5
749
330
1E
100
AcDbEntity
  8
STEMPEL
100
AcDbLine
 10
126.5551638094133
 20
274.4172352716551
 30
0.0
 11
104.1551638094134
 21
274.4172352716551
 31
0.0
  0
LINE
  5
74A
330
1E
100
AcDbEntity
  8
STEMPEL
100
AcDbLine
 10
104.1551638094134
 20
272.417235271655
 30
0.0
 11
104.1551638094134
 21
274.417235271655
 31
0.0
  0
LINE
  5
74B
330
1E
100
AcDbEntity
  8
STEMPEL
100
AcDbLine
 10
119.2551638094134
 20
281.417235271655
 30
0.0
 11
115.213711925086
 21
274.4172352716549
 31
0.0
  0
POINT
  5
74C
330
1E
100
AcDbEntity
  8
DEFPOINTS
  6
ByBlock
 62
     0
100
AcDbPoint
 10
115.2137119250861
 20
274.417235271655
 30
0.0
  0
POINT
  5
74D
330
1E
100
AcDbEntity
  8
DEFPOINTS
  6
ByBlock
 62
     0
100
AcDbPoint
 10
104.1551638094134
 20
272.417235271655
 30
0.0
  0
POINT
  5
74E
330
1E
100
AcDbEntity
  8
DEFPOINTS
  6
ByBlock
 62
     0
100
AcDbPoint
 10
104.1551638094134
 20
274.417235271655
 30
0.0
  0
ENDSEC
  0
SECTION
  2
OBJECTS
  0
DICTIONARY
  5
C
330
0
100
AcDbDictionary
281
     1
  3
ACAD_COLOR
350
11A
  3
ACAD_GROUP
350
D
  3
ACAD_LAYOUT
350
19
  3
ACAD_MATERIAL
350
119
  3
ACAD_MLINESTYLE
350
16
  3
ACAD_PLOTSETTINGS
350
18
  3
ACAD_PLOTSTYLENAME
350
E
  3
AcDbVariableDictionary
350
125
  0
DICTIONARY
  5
DB
330
1E
100
AcDbDictionary
280
     1
281
     1
  3
ACAD_LAYOUTSELFREF
360
10F
  0
DICTIONARY
  5
DD
330
1A
100
AcDbDictionary
280
     1
281
     1
  3
ACAD_LAYOUTSELFREF
360
10E
  0
DICTIONARY
  5
11A
102
{ACAD_REACTORS
330
C
102
}
330
C
100
AcDbDictionary
281
     1
  0
DICTIONARY
  5
D
102
{ACAD_REACTORS
330
C
102
}
330
C
100
AcDbDictionary
281
     1
  0
DICTIONARY
  5
19
102
{ACAD_REACTORS
330
C
102
}
330
C
100
AcDbDictionary
281
     1
  3
Layout1
350
1D
  3
Model
350
21
  0
DICTIONARY
  5
119
102
{ACAD_REACTORS
330
C
102
}
330
C
100
AcDbDictionary
281
     1
  0
DICTIONARY
  5
16
102
{ACAD_REACTORS
330
C
102
}
330
C
100
AcDbDictionary
281
     1
  3
Standard
350
17
  0
DICTIONARY
  5
18
102
{ACAD_REACTORS
330
C
102
}
330
C
100
AcDbDictionary
281
     1
  0
ACDBDICTIONARYWDFLT
  5
E
102
{ACAD_REACTORS
330
C
102
}
330
C
100
AcDbDictionary
281
     1
  3
Normal
350
F
100
AcDbDictionaryWithDefault
340
F
  0
DICTIONARY
  5
125
102
{ACAD_REACTORS
330
C
102
}
330
C
100
AcDbDictionary
281
     1
  3
DIMASSOC
350
126
  3
PROJECTNAME
350
127
  0
XRECORD
  5
10F
102
{ACAD_REACTORS
330
DB
102
}
330
DB
100
AcDbXrecord
280
     1
340
1E
  0
XRECORD
  5
10E
102
{ACAD_REACTORS
330
DD
102
}
330
DD
100
AcDbXrecord
280
     1
340
1A
  0
LAYOUT
  5
1D
102
{ACAD_REACTORS
330
19
102
}
330
19
100
AcDbPlotSettings
  1

  2
\\NT_WORK01\HP LaserJet 5000 PCL 6
  4

  6

 40
0.0
 41
0.0
 42
0.0
 43
0.0
 44
0.0
 45
0.0
 46
0.0
 47
0.0
 48
0.0
 49
0.0
140
0.0
141
0.0
142
1.0
143
1.0
 70
   688
 72
     0
 73
     0
 74
     5
  7

 75
    16
147
1.0
 76
     0
 77
     2
 78
   300
148
0.0
149
0.0
100
AcDbLayout
  1
Layout1
 70
     0
 71
     1
 10
0.0
 20
0.0
 11
12.0
 21
9.0
 12
0.0
 22
0.0
 32
0.0
 14
1.000000000000000E+20
 24
1.000000000000000E+20
 34
1.000000000000000E+20
 15
-1.000000000000000E+20
 25
-1.000000000000000E+20
 35
-1.000000000000000E+20
146
0.0
 13
0.0
 23
0.0
 33
0.0
 16
1.0
 26
0.0
 36
0.0
 17
0.0
 27
1.0
 37
0.0
 76
     0
330
1A
  0
LAYOUT
  5
21
102
{ACAD_REACTORS
330
19
102
}
330
19
100
AcDbPlotSettings
  1

  2
none_device
  4
Letter_(8.50_x_11.00_Inches)
  6

 40
6.349999904632568
 41
6.349999904632568
 42
6.350006103515625
 43
6.350006103515625
 44
215.8999938964844
 45
279.3999938964844
 46
0.0
 47
0.0
 48
0.0
 49
0.0
140
0.0
141
0.0
142
1.0
143
1.0
 70
 11952
 72
     0
 73
     1
 74
     0
  7

 75
     0
147
1.0
 76
     0
 77
     2
 78
   300
148
3232.979308760778
149
108.7792942125838
100
AcDbLayout
  1
Model
 70
     1
 71
     0
 10
0.0
 20
0.0
 11
12.0
 21
9.0
 12
0.0
 22
0.0
 32
0.0
 14
0.0
 24
0.0
 34
0.0
 15
0.0
 25
0.0
 35
0.0
146
0.0
 13
0.0
 23
0.0
 33
0.0
 16
1.0
 26
0.0
 36
0.0
 17
0.0
 27
1.0
 37
0.0
 76
     0
330
1E
  0
MLINESTYLE
  5
17
102
{ACAD_REACTORS
330
16
102
}
330
16
100
AcDbMlineStyle
  2
STANDARD
 70
     0
  3

 62
   256
 51
90.0
 52
90.0
 71
     2
 49
0.5
 62
   256
  6
BYLAYER
 49
-0.5
 62
   256
  6
BYLAYER
  0
ACDBPLACEHOLDER
  5
F
102
{ACAD_REACTORS
330
E
102
}
330
E
  0
DICTIONARYVAR
  5
126
102
{ACAD_REACTORS
330
125
102
}
330
125
100
DictionaryVariables
280
     0
  1
1
  0
DICTIONARYVAR
  5
127
102
{ACAD_REACTORS
330
125
102
}
330
125
100
DictionaryVariables
280
     0
  1

  0
ENDSEC
  0
EOF
