  0
SECTION
  2
HEADER
  9
$ACADVER
  1
AC1018
  9
$ACADMAINTVER
 70
     2
  9
$DWGCODEPAGE
  3
ANSI_1252
  9
$INSBASE
 10
0.0
 20
0.0
 30
0.0
  9
$EXTMIN
 10
-0.0192209888436992
 20
-0.0271839699362317
 30
-0.0000000000000058
  9
$EXTMAX
 10
420.0192288123714
 20
594.0271950346398
 30
0.0000000000000104
  9
$LIMMIN
 10
0.0
 20
0.0
  9
$LIMMAX
 10
419.9999999999999
 20
594.0
  9
$ORTHOMODE
 70
     1
  9
$REGENMODE
 70
     1
  9
$FILLMODE
 70
     1
  9
$QTEXTMODE
 70
     0
  9
$MIRRTEXT
 70
     1
  9
$LTSCALE
 40
20.0
  9
$ATTMODE
 70
     1
  9
$TEXTSIZE
 40
3.5
  9
$TRACEWID
 40
0.5
  9
$TEXTSTYLE
  7
STANDARD
  9
$CLAYER
  8
BEM
  9
$CELTYPE
  6
ByLayer
  9
$CECOLOR
 62
   256
  9
$CELTSCALE
 40
1.0
  9
$DISPSILH
 70
     0
  9
$DIMSCALE
 40
2.0
  9
$DIMASZ
 40
3.5
  9
$DIMEXO
 40
1.0
  9
$DIMDLI
 40
7.0
  9
$DIMRND
 40
0.0
  9
$DIMDLE
 40
0.0
  9
$DIMEXE
 40
1.0
  9
$DIMTP
 40
0.0
  9
$DIMTM
 40
0.0
  9
$DIMTXT
 40
3.5
  9
$DIMCEN
 40
1.5
  9
$DIMTSZ
 40
0.0
  9
$DIMTOL
 70
     0
  9
$DIMLIM
 70
     0
  9
$DIMTIH
 70
     0
  9
$DIMTOH
 70
     0
  9
$DIMSE1
 70
     0
  9
$DIMSE2
 70
     0
  9
$DIMTAD
 70
     1
  9
$DIMZIN
 70
     8
  9
$DIMBLK
  1

  9
$DIMASO
 70
     1
  9
$DIMSHO
 70
     0
  9
$DIMPOST
  1

  9
$DIMAPOST
  1

  9
$DIMALT
 70
     0
  9
$DIMALTD
 70
     2
  9
$DIMALTF
 40
25.4
  9
$DIMLFAC
 40
1.0
  9
$DIMTOFL
 70
     1
  9
$DIMTVP
 40
0.0
  9
$DIMTIX
 70
     0
  9
$DIMSOXD
 70
     0
  9
$DIMSAH
 70
     0
  9
$DIMBLK1
  1

  9
$DIMBLK2
  1

  9
$DIMSTYLE
  2
Standard
  9
$DIMCLRD
 70
     0
  9
$DIMCLRE
 70
     0
  9
$DIMCLRT
 70
     1
  9
$DIMTFAC
 40
0.5142857142857144
  9
$DIMGAP
 40
1.5
  9
$DIMJUST
 70
     0
  9
$DIMSD1
 70
     0
  9
$DIMSD2
 70
     0
  9
$DIMTOLJ
 70
     1
  9
$DIMTZIN
 70
     8
  9
$DIMALTZ
 70
     8
  9
$DIMALTTZ
 70
     8
  9
$DIMUPT
 70
     0
  9
$DIMDEC
 70
     2
  9
$DIMTDEC
 70
     2
  9
$DIMALTU
 70
     2
  9
$DIMALTTD
 70
     2
  9
$DIMTXSTY
  7
STANDARD
  9
$DIMAUNIT
 70
     0
  9
$DIMADEC
 70
     2
  9
$DIMALTRND
 40
0.0
  9
$DIMAZIN
 70
     2
  9
$DIMDSEP
 70
    46
  9
$DIMATFIT
 70
     3
  9
$DIMFRAC
 70
     0
  9
$DIMLDRBLK
  1

  9
$DIMLUNIT
 70
     2
  9
$DIMLWD
 70
    -2
  9
$DIMLWE
 70
    -2
  9
$DIMTMOVE
 70
     0
  9
$LUNITS
 70
     2
  9
$LUPREC
 70
     2
  9
$SKETCHINC
 40
1.0
  9
$FILLETRAD
 40
0.0
  9
$AUNITS
 70
     0
  9
$AUPREC
 70
     0
  9
$MENU
  1
ACAD
  9
$ELEVATION
 40
0.0
  9
$PELEVATION
 40
0.0
  9
$THICKNESS
 40
0.0
  9
$LIMCHECK
 70
     0
  9
$CHAMFERA
 40
0.0
  9
$CHAMFERB
 40
0.0
  9
$CHAMFERC
 40
0.0
  9
$CHAMFERD
 40
0.0
  9
$SKPOLY
 70
     0
  9
$TDCREATE
 40
2455397.823042361
  9
$TDUCREATE
 40
2455397.781375695
  9
$TDUPDATE
 40
2455532.476517002
  9
$TDUUPDATE
 40
2455532.434850336
  9
$TDINDWG
 40
0.1564680440
  9
$TDUSRTIMER
 40
0.1564680440
  9
$USRTIMER
 70
     1
  9
$ANGBASE
 50
0.0
  9
$ANGDIR
 70
     0
  9
$PDMODE
 70
     0
  9
$PDSIZE
 40
0.0
  9
$PLINEWID
 40
0.0
  9
$SPLFRAME
 70
     0
  9
$SPLINETYPE
 70
     6
  9
$SPLINESEGS
 70
     8
  9
$HANDSEED
  5
1B6C
  9
$SURFTAB1
 70
     6
  9
$SURFTAB2
 70
     6
  9
$SURFTYPE
 70
     6
  9
$SURFU
 70
     6
  9
$SURFV
 70
     6
  9
$UCSBASE
  2

  9
$UCSNAME
  2

  9
$UCSORG
 10
0.0
 20
0.0
 30
0.0
  9
$UCSXDIR
 10
1.0
 20
0.0
 30
0.0
  9
$UCSYDIR
 10
0.0
 20
1.0
 30
0.0
  9
$UCSORTHOREF
  2

  9
$UCSORTHOVIEW
 70
     0
  9
$UCSORGTOP
 10
0.0
 20
0.0
 30
0.0
  9
$UCSORGBOTTOM
 10
0.0
 20
0.0
 30
0.0
  9
$UCSORGLEFT
 10
0.0
 20
0.0
 30
0.0
  9
$UCSORGRIGHT
 10
0.0
 20
0.0
 30
0.0
  9
$UCSORGFRONT
 10
0.0
 20
0.0
 30
0.0
  9
$UCSORGBACK
 10
0.0
 20
0.0
 30
0.0
  9
$PUCSBASE
  2

  9
$PUCSNAME
  2

  9
$PUCSORG
 10
0.0
 20
0.0
 30
0.0
  9
$PUCSXDIR
 10
1.0
 20
0.0
 30
0.0
  9
$PUCSYDIR
 10
0.0
 20
1.0
 30
0.0
  9
$PUCSORTHOREF
  2

  9
$PUCSORTHOVIEW
 70
     0
  9
$PUCSORGTOP
 10
0.0
 20
0.0
 30
0.0
  9
$PUCSORGBOTTOM
 10
0.0
 20
0.0
 30
0.0
  9
$PUCSORGLEFT
 10
0.0
 20
0.0
 30
0.0
  9
$PUCSORGRIGHT
 10
0.0
 20
0.0
 30
0.0
  9
$PUCSORGFRONT
 10
0.0
 20
0.0
 30
0.0
  9
$PUCSORGBACK
 10
0.0
 20
0.0
 30
0.0
  9
$USERI1
 70
     0
  9
$USERI2
 70
     0
  9
$USERI3
 70
     0
  9
$USERI4
 70
     0
  9
$USERI5
 70
     0
  9
$USERR1
 40
0.0
  9
$USERR2
 40
0.0
  9
$USERR3
 40
0.0
  9
$USERR4
 40
0.0
  9
$USERR5
 40
0.0
  9
$WORLDVIEW
 70
     1
  9
$SHADEDGE
 70
     3
  9
$SHADEDIF
 70
    70
  9
$TILEMODE
 70
     1
  9
$MAXACTVP
 70
    16
  9
$PINSBASE
 10
0.0
 20
0.0
 30
0.0
  9
$PLIMCHECK
 70
     0
  9
$PEXTMIN
 10
1.000000000000000E+20
 20
1.000000000000000E+20
 30
1.000000000000000E+20
  9
$PEXTMAX
 10
-1.000000000000000E+20
 20
-1.000000000000000E+20
 30
-1.000000000000000E+20
  9
$PLIMMIN
 10
0.0
 20
0.0
  9
$PLIMMAX
 10
12.0
 20
9.0
  9
$UNITMODE
 70
     0
  9
$VISRETAIN
 70
     0
  9
$PLINEGEN
 70
     0
  9
$PSLTSCALE
 70
     0
  9
$TREEDEPTH
 70
  3020
  9
$CMLSTYLE
  2
Standard
  9
$CMLJUST
 70
     0
  9
$CMLSCALE
 40
1.0
  9
$PROXYGRAPHICS
 70
     1
  9
$MEASUREMENT
 70
     0
  9
$CELWEIGHT
370
    -1
  9
$ENDCAPS
280
     0
  9
$JOINSTYLE
280
     0
  9
$LWDISPLAY
290
     0
  9
$INSUNITS
 70
     0
  9
$HYPERLINKBASE
  1

  9
$STYLESHEET
  1
monochrome 1.ctb
  9
$XEDIT
290
     1
  9
$CEPSNTYPE
380
     0
  9
$PSTYLEMODE
290
     1
  9
$FINGERPRINTGUID
  2
{D68B0D02-A558-11D7-B632-000102183313}
  9
$VERSIONGUID
  2
{E23D5CAA-7FC6-4EEC-97FC-67A712DBC440}
  9
$EXTNAMES
290
     1
  9
$PSVPSCALE
 40
0.0
  9
$OLESTARTUP
290
     0
  9
$SORTENTS
280
   127
  9
$INDEXCTL
280
     0
  9
$HIDETEXT
280
     0
  9
$XCLIPFRAME
290
     0
  9
$HALOGAP
280
     0
  9
$OBSCOLOR
 70
   257
  9
$OBSLTYPE
280
     0
  9
$INTERSECTIONDISPLAY
280
     0
  9
$INTERSECTIONCOLOR
 70
   257
  9
$DIMASSOC
280
     1
  9
$PROJECTNAME
  1

  0
ENDSEC
  0
SECTION
  2
CLASSES
  0
CLASS
  1
ACDBDICTIONARYWDFLT
  2
AcDbDictionaryWithDefault
  3
ObjectDBX Classes
 90
        0
 91
        1
280
     0
281
     0
  0
CLASS
  1
DICTIONARYVAR
  2
AcDbDictionaryVar
  3
ObjectDBX Classes
 90
        0
 91
        2
280
     0
281
     0
  0
ENDSEC
  0
SECTION
  2
TABLES
  0
TABLE
  2
VPORT
  5
8
330
0
100
AcDbSymbolTable
 70
     3
  0
VPORT
  5
1B6B
330
8
100
AcDbSymbolTableRecord
100
AcDbViewportTableRecord
  2
*Active
 70
     0
 10
0.0
 20
0.0
 11
1.0
 21
1.0
 12
210.0000039117638
 22
297.0000055323518
 13
0.0
 23
0.0
 14
1.0
 24
1.0
 15
10.0
 25
10.0
 16
0.0
 26
0.0
 36
1.0
 17
0.0
 27
0.0
 37
0.0
 40
598.8515879871163
 41
1.336927223719676
 42
50.0
 43
0.0
 44
0.0
 50
0.0
 51
0.0
 71
     0
 72
  1500
 73
     1
 74
     0
 75
     0
 76
     0
 77
     0
 78
     0
281
     0
 65
     1
110
0.0
120
0.0
130
0.0
111
1.0
121
0.0
131
0.0
112
0.0
122
1.0
132
0.0
 79
     0
146
0.0
  0
ENDTAB
  0
TABLE
  2
LTYPE
  5
5
330
0
100
AcDbSymbolTable
 70
     2
  0
LTYPE
  5
13
330
5
100
AcDbSymbolTableRecord
100
AcDbLinetypeTableRecord
  2
ByBlock
 70
     0
  3

 72
    65
 73
     0
 40
0.0
  0
LTYPE
  5
14
330
5
100
AcDbSymbolTableRecord
100
AcDbLinetypeTableRecord
  2
ByLayer
 70
     0
  3

 72
    65
 73
     0
 40
0.0
  0
LTYPE
  5
15
330
5
100
AcDbSymbolTableRecord
100
AcDbLinetypeTableRecord
  2
Continuous
 70
     0
  3
Solid line
 72
    65
 73
     0
 40
0.0
  0
LTYPE
  5
25
330
5
100
AcDbSymbolTableRecord
100
AcDbLinetypeTableRecord
  2
STRICHPUNKT
 70
     0
  3
__ . __ . __ . __ . __ . __ . __ . __ . __ . __
 72
    65
 73
     4
 40
1.0
 49
0.5
 74
     0
 49
-0.25
 74
     0
 49
0.0
 74
     0
 49
-0.25
 74
     0
  0
ENDTAB
  0
TABLE
  2
LAYER
  5
2
330
0
100
AcDbSymbolTable
 70
     9
  0
LAYER
  5
10
330
2
100
AcDbSymbolTableRecord
100
AcDbLayerTableRecord
  2
0
 70
     0
 62
     7
  6
Continuous
370
    -3
390
F
  0
LAYER
  5
2A
330
2
100
AcDbSymbolTableRecord
100
AcDbLayerTableRecord
  2
VOLL
 70
     0
 62
     1
  6
Continuous
370
    -3
390
F
  0
LAYER
  5
2B
330
2
100
AcDbSymbolTableRecord
100
AcDbLayerTableRecord
  2
HILF
 70
     0
 62
     2
  6
Continuous
370
    -3
390
F
  0
LAYER
  5
2C
330
2
100
AcDbSymbolTableRecord
100
AcDbLayerTableRecord
  2
MITTEL
 70
     0
 62
     2
  6
STRICHPUNKT
370
    -3
390
F
  0
LAYER
  5
2F
330
2
100
AcDbSymbolTableRecord
100
AcDbLayerTableRecord
  2
BEM
 70
     0
 62
     7
  6
Continuous
370
    -3
390
F
  0
LAYER
  5
30
330
2
100
AcDbSymbolTableRecord
100
AcDbLayerTableRecord
  2
STEMPEL
 70
     0
 62
     3
  6
Continuous
370
    -3
390
F
  0
LAYER
  5
31
330
2
100
AcDbSymbolTableRecord
100
AcDbLayerTableRecord
  2
TEXT
 70
     0
 62
     7
  6
Continuous
370
    -3
390
F
  0
LAYER
  5
1BC
330
2
100
AcDbSymbolTableRecord
100
AcDbLayerTableRecord
  2
Defpoints
 70
     0
 62
     7
  6
Continuous
290
     0
370
    -3
390
F
  0
LAYER
  5
1BD
330
2
100
AcDbSymbolTableRecord
100
AcDbLayerTableRecord
  2
SCHRAFF
 70
     0
 62
     7
  6
Continuous
370
    -3
390
F
  0
ENDTAB
  0
TABLE
  2
STYLE
  5
3
330
0
100
AcDbSymbolTable
 70
     2
  0
STYLE
  5
11
330
3
100
AcDbSymbolTableRecord
100
AcDbTextStyleTableRecord
  2
STANDARD
 70
     0
 40
0.0
 41
0.8
 50
0.0
 71
     0
 42
3.5
  3
simplex.shx
  4

  0
STYLE
  5
24
330
3
100
AcDbSymbolTableRecord
100
AcDbTextStyleTableRecord
  2
GREEKS
 70
     0
 40
0.0
 41
0.8
 50
0.0
 71
     0
 42
2.5
  3
SIMPLEX.shx
  4

  0
ENDTAB
  0
TABLE
  2
VIEW
  5
6
330
0
100
AcDbSymbolTable
 70
     0
  0
ENDTAB
  0
TABLE
  2
UCS
  5
7
330
0
100
AcDbSymbolTable
 70
     0
  0
ENDTAB
  0
TABLE
  2
APPID
  5
9
330
0
100
AcDbSymbolTable
 70
     1
  0
APPID
  5
12
330
9
100
AcDbSymbolTableRecord
100
AcDbRegAppTableRecord
  2
ACAD
 70
     0
  0
ENDTAB
  0
TABLE
  2
DIMSTYLE
  5
A
330
0
100
AcDbSymbolTable
 70
     1
100
AcDbDimStyleTable
 71
     1
340
9D
  0
DIMSTYLE
105
9D
102
{ACAD_REACTORS
330
14A7
330
161C
330
16CB
330
178D
330
17A7
330
17B4
330
19FA
330
1A19
102
}
330
A
100
AcDbSymbolTableRecord
100
AcDbDimStyleTableRecord
  2
Standard
 70
     0
340
11
  0
ENDTAB
  0
TABLE
  2
BLOCK_RECORD
  5
1
330
0
100
AcDbSymbolTable
 70
     9
  0
BLOCK_RECORD
  5
1E
102
{ACAD_XDICTIONARY
360
A0
102
}
330
1
100
AcDbSymbolTableRecord
100
AcDbBlockTableRecord
  2
*Model_Space
340
21
  0
BLOCK_RECORD
  5
1A
102
{ACAD_XDICTIONARY
360
A2
102
}
330
1
100
AcDbSymbolTableRecord
100
AcDbBlockTableRecord
  2
*Paper_Space
340
1D
  0
BLOCK_RECORD
  5
22
330
1
100
AcDbSymbolTableRecord
100
AcDbBlockTableRecord
  2
LOGO
340
0
102
{BLKREFS
331
9B
102
}
  0
BLOCK_RECORD
  5
151E
330
1
100
AcDbSymbolTableRecord
100
AcDbBlockTableRecord
  2
*D1
340
0
  0
BLOCK_RECORD
  5
1637
330
1
100
AcDbSymbolTableRecord
100
AcDbBlockTableRecord
  2
*D2
340
0
  0
BLOCK_RECORD
  5
16E6
330
1
100
AcDbSymbolTableRecord
100
AcDbBlockTableRecord
  2
*D3
340
0
  0
BLOCK_RECORD
  5
178E
330
1
100
AcDbSymbolTableRecord
100
AcDbBlockTableRecord
  2
*D4
340
0
  0
BLOCK_RECORD
  5
17A8
330
1
100
AcDbSymbolTableRecord
100
AcDbBlockTableRecord
  2
*D5
340
0
  0
BLOCK_RECORD
  5
17B5
330
1
100
AcDbSymbolTableRecord
100
AcDbBlockTableRecord
  2
*D6
340
0
  0
BLOCK_RECORD
  5
19FB
330
1
100
AcDbSymbolTableRecord
100
AcDbBlockTableRecord
  2
*D7
340
0
  0
BLOCK_RECORD
  5
1A1A
330
1
100
AcDbSymbolTableRecord
100
AcDbBlockTableRecord
  2
*D8
340
0
  0
ENDTAB
  0
ENDSEC
  0
SECTION
  2
BLOCKS
  0
BLOCK
  5
35
330
1E
100
AcDbEntity
  8
0
100
AcDbBlockBegin
  2
*Model_Space
 70
     0
 10
0.0
 20
0.0
 30
0.0
  3
*Model_Space
  1

  0
ENDBLK
  5
36
330
1E
100
AcDbEntity
  8
0
100
AcDbBlockEnd
  0
BLOCK
  5
33
330
1A
100
AcDbEntity
 67
     1
  8
0
100
AcDbBlockBegin
  2
*Paper_Space
 70
     0
 10
0.0
 20
0.0
 30
0.0
  3
*Paper_Space
  1

  0
ENDBLK
  5
34
330
1A
100
AcDbEntity
 67
     1
  8
0
100
AcDbBlockEnd
  0
BLOCK
  5
37
330
22
100
AcDbEntity
  8
0
100
AcDbBlockBegin
  2
LOGO
 70
     0
 10
0.0
 20
0.0
 30
0.0
  3
LOGO
  1

  0
ARC
  5
38
330
22
100
AcDbEntity
  8
0
100
AcDbCircle
 10
11.59973089678112
 20
-9.271599258481501
 30
0.0
 40
4.5
100
AcDbArc
 50
270.0
 51
231.0575587310159
  0
LINE
  5
39
330
22
100
AcDbEntity
  8
0
100
AcDbLine
 10
3.599730896781125
 20
-4.771599258481529
 30
0.0
 11
3.599730896781153
 21
-11.77159925848133
 31
0.0
  0
LINE
  5
3A
330
22
100
AcDbEntity
  8
0
100
AcDbLine
 10
2.599730896781125
 20
-4.771599258481529
 30
0.0
 11
2.599730896781153
 21
-11.77159925848133
 31
0.0
  0
CIRCLE
  5
3B
330
22
100
AcDbEntity
  8
0
100
AcDbCircle
 10
11.59973089678112
 20
-9.271599258481501
 30
0.0
 40
3.5
  0
ARC
  5
3C
330
22
100
AcDbEntity
  8
0
100
AcDbCircle
 10
31.59973089678115
 20
-9.271599258481472
 30
0.0
 40
4.5
100
AcDbArc
 50
270.0
 51
231.0575587310182
  0
LINE
  5
3D
330
22
100
AcDbEntity
  8
0
100
AcDbLine
 10
17.59973089678112
 20
-4.771599258481472
 30
0.0
 11
17.59973089678115
 21
-13.77159925848147
 31
0.0
  0
ARC
  5
3E
330
22
100
AcDbEntity
  8
0
100
AcDbCircle
 10
22.59973089678116
 20
-7.271599258481472
 30
0.0
 40
2.5
100
AcDbArc
 50
293.1161887722295
 51
90.0
  0
CIRCLE
  5
3F
330
22
100
AcDbEntity
  8
0
100
AcDbCircle
 10
31.59973089678115
 20
-9.271599258481472
 30
0.0
 40
3.5
  0
ARC
  5
40
330
22
100
AcDbEntity
  8
0
100
AcDbCircle
 10
4.599730896781153
 20
-11.77159925848133
 30
0.0
 40
1.0
100
AcDbArc
 50
180.0
 51
270.0
  0
ARC
  5
41
330
22
100
AcDbEntity
  8
0
100
AcDbCircle
 10
4.599730896781153
 20
-11.77159925848133
 30
0.0
 40
2.0
100
AcDbArc
 50
179.9999999999992
 51
270.0
  0
LINE
  5
42
330
22
100
AcDbEntity
  8
0
100
AcDbLine
 10
11.59973089678115
 20
-13.77159925848144
 30
0.0
 11
4.599730896781153
 21
-13.77159925848147
 31
0.0
  0
LINE
  5
43
330
22
100
AcDbEntity
  8
0
100
AcDbLine
 10
8.771303772034769
 20
-12.77159925848136
 30
0.0
 11
4.599730896781153
 21
-12.77159925848133
 31
0.0
  0
LINE
  5
44
330
22
100
AcDbEntity
  8
0
100
AcDbLine
 10
31.59973089678115
 20
-13.77159925848147
 30
0.0
 11
23.6715276665056
 21
-13.77159925848144
 31
0.0
  0
LINE
  5
45
330
22
100
AcDbEntity
  8
0
100
AcDbLine
 10
23.56565672307022
 20
-9.51278021337896
 30
0.0
 11
24.4388546544846
 21
-12.77159925848144
 31
0.0
  0
LINE
  5
46
330
22
100
AcDbEntity
  8
0
100
AcDbLine
 10
22.59973089678116
 20
-9.771599258481472
 30
0.0
 11
18.59973089678112
 21
-9.771599258481472
 31
0.0
  0
LINE
  5
47
330
22
100
AcDbEntity
  8
0
100
AcDbLine
 10
18.59973089678115
 20
-13.77159925848144
 30
0.0
 11
17.59973089678115
 21
-13.77159925848144
 31
0.0
  0
LINE
  5
48
330
22
100
AcDbEntity
  8
0
100
AcDbLine
 10
18.59973089678115
 20
-9.771599258481472
 30
0.0
 11
18.59973089678115
 21
-13.77159925848144
 31
0.0
  0
LINE
  5
49
330
22
100
AcDbEntity
  8
0
100
AcDbLine
 10
22.59973089678116
 20
-9.771599258481472
 30
0.0
 11
23.67152766650562
 21
-13.77159925848147
 31
0.0
  0
ARC
  5
4A
330
22
100
AcDbEntity
  8
0
100
AcDbCircle
 10
22.59973089678116
 20
-7.271599258481472
 30
0.0
 40
2.5
100
AcDbArc
 50
270.0
 51
270.0000000000007
  0
LINE
  5
4B
330
22
100
AcDbEntity
  8
0
100
AcDbLine
 10
28.77130377203494
 20
-12.77159925848147
 30
0.0
 11
24.43885465448463
 21
-12.77159925848144
 31
0.0
  0
LINE
  5
4C
330
22
100
AcDbEntity
  8
0
100
AcDbLine
 10
3.599730896781125
 20
-4.771599258481472
 30
0.0
 11
2.599730896781125
 21
-4.771599258481472
 31
0.0
  0
LINE
  5
4D
330
22
100
AcDbEntity
  8
0
100
AcDbLine
 10
22.59973089678116
 20
-8.771599258481472
 30
0.0
 11
18.59973089678115
 21
-8.771599258481472
 31
0.0
  0
LINE
  5
4E
330
22
100
AcDbEntity
  8
0
100
AcDbLine
 10
22.59973089678116
 20
-5.771599258481472
 30
0.0
 11
18.59973089678115
 21
-5.771599258481472
 31
0.0
  0
LINE
  5
4F
330
22
100
AcDbEntity
  8
0
100
AcDbLine
 10
22.59973089678116
 20
-4.771599258481472
 30
0.0
 11
17.59973089678115
 21
-4.771599258481472
 31
0.0
  0
LINE
  5
50
330
22
100
AcDbEntity
  8
0
100
AcDbLine
 10
18.59973089678115
 20
-5.771599258481472
 30
0.0
 11
18.59973089678115
 21
-8.771599258481472
 31
0.0
  0
ARC
  5
51
330
22
100
AcDbEntity
  8
0
100
AcDbCircle
 10
22.59973089678116
 20
-7.271599258481472
 30
0.0
 40
1.5
100
AcDbArc
 50
270.0
 51
90.0
  0
ENDBLK
  5
52
330
22
100
AcDbEntity
  8
0
100
AcDbBlockEnd
  0
BLOCK
  5
1528
330
151E
100
AcDbEntity
  8
0
100
AcDbBlockBegin
  2
*D1
 70
     1
 10
0.0
 20
0.0
 30
0.0
  3
*D1
  1

  0
LINE
  5
1B10
330
151E
100
AcDbEntity
  8
BEM
 62
     0
370
    -2
100
AcDbLine
 10
112.1484450995432
 20
197.2059451469998
 30
0.0
 11
112.1484450995432
 21
167.962022806895
 31
0.0
  0
LINE
  5
1B11
330
151E
100
AcDbEntity
  8
BEM
 62
     0
370
    -2
100
AcDbLine
 10
245.1484450995434
 20
197.2059451469963
 30
0.0
 11
245.1484450995434
 21
167.962022806895
 31
0.0
  0
LINE
  5
1B12
330
151E
100
AcDbEntity
  8
BEM
 62
     0
370
    -2
100
AcDbLine
 10
119.1484450995432
 20
169.962022806895
 30
0.0
 11
238.1484450995434
 21
169.962022806895
 31
0.0
  0
SOLID
  5
1B13
330
151E
100
AcDbEntity
  8
BEM
 62
     0
100
AcDbTrace
 10
119.1484450995432
 20
171.1286894735616
 30
0.0
 11
119.1484450995432
 21
168.7953561402283
 31
0.0
 12
112.1484450995432
 22
169.962022806895
 32
0.0
 13
112.1484450995432
 23
169.962022806895
 33
0.0
  0
SOLID
  5
1B14
330
151E
100
AcDbEntity
  8
BEM
 62
     0
100
AcDbTrace
 10
238.1484450995434
 20
171.1286894735616
 30
0.0
 11
238.1484450995434
 21
168.7953561402283
 31
0.0
 12
245.1484450995434
 22
169.962022806895
 32
0.0
 13
245.1484450995434
 23
169.962022806895
 33
0.0
  0
MTEXT
  5
1B15
330
151E
100
AcDbEntity
  8
BEM
 62
     1
100
AcDbMText
 10
178.6484450995433
 20
176.462022806895
 30
0.0
 40
7.0
 41
0.0
 71
     5
 72
     1
  1
\A1;%%C133
 73
     1
 44
1.0
  0
POINT
  5
1B16
330
151E
100
AcDbEntity
  8
Defpoints
 62
     0
100
AcDbPoint
 10
112.1484450995432
 20
199.2059451469998
 30
0.0
  0
POINT
  5
1B17
330
151E
100
AcDbEntity
  8
Defpoints
 62
     0
100
AcDbPoint
 10
245.1484450995434
 20
199.2059451469963
 30
0.0
  0
POINT
  5
1B18
330
151E
100
AcDbEntity
  8
Defpoints
 62
     0
100
AcDbPoint
 10
245.1484450995434
 20
169.962022806895
 30
0.0
  0
ENDBLK
  5
1529
330
151E
100
AcDbEntity
  8
0
100
AcDbBlockEnd
  0
BLOCK
  5
1641
330
1637
100
AcDbEntity
  8
0
100
AcDbBlockBegin
  2
*D2
 70
     1
 10
0.0
 20
0.0
 30
0.0
  3
*D2
  1

  0
LINE
  5
1B07
330
1637
100
AcDbEntity
  8
BEM
 62
     0
370
    -2
100
AcDbLine
 10
94.49844509954358
 20
553.3150975042676
 30
0.0
 11
94.49844509954358
 21
567.0837188922107
 31
0.0
  0
LINE
  5
1B08
330
1637
100
AcDbEntity
  8
BEM
 62
     0
370
    -2
100
AcDbLine
 10
262.7984450995437
 20
553.3150975042675
 30
0.0
 11
262.7984450995437
 21
567.0837188922107
 31
0.0
  0
LINE
  5
1B09
330
1637
100
AcDbEntity
  8
BEM
 62
     0
370
    -2
100
AcDbLine
 10
101.4984450995435
 20
565.0837188922107
 30
0.0
 11
255.7984450995436
 21
565.0837188922107
 31
0.0
  0
SOLID
  5
1B0A
330
1637
100
AcDbEntity
  8
BEM
 62
     0
100
AcDbTrace
 10
101.4984450995435
 20
566.2503855588774
 30
0.0
 11
101.4984450995435
 21
563.9170522255441
 31
0.0
 12
94.49844509954358
 22
565.0837188922107
 32
0.0
 13
94.49844509954358
 23
565.0837188922107
 33
0.0
  0
SOLID
  5
1B0B
330
1637
100
AcDbEntity
  8
BEM
 62
     0
100
AcDbTrace
 10
255.7984450995436
 20
566.2503855588774
 30
0.0
 11
255.7984450995436
 21
563.9170522255441
 31
0.0
 12
262.7984450995437
 22
565.0837188922107
 32
0.0
 13
262.7984450995437
 23
565.0837188922107
 33
0.0
  0
MTEXT
  5
1B0C
330
1637
100
AcDbEntity
  8
BEM
 62
     1
100
AcDbMText
 10
178.6484450995436
 20
571.5837188922107
 30
0.0
 40
7.0
 41
0.0
 71
     5
 72
     1
  1
\A1;%%c168.3
  7
GREEKS
 73
     1
 44
1.0
  0
POINT
  5
1B0D
330
1637
100
AcDbEntity
  8
Defpoints
 62
     0
100
AcDbPoint
 10
94.49844509954358
 20
551.3150975042676
 30
0.0
  0
POINT
  5
1B0E
330
1637
100
AcDbEntity
  8
Defpoints
 62
     0
100
AcDbPoint
 10
262.7984450995437
 20
551.3150975042675
 30
0.0
  0
POINT
  5
1B0F
330
1637
100
AcDbEntity
  8
Defpoints
 62
     0
100
AcDbPoint
 10
262.7984450995437
 20
565.0837188922107
 30
0.0
  0
ENDBLK
  5
1642
330
1637
100
AcDbEntity
  8
0
100
AcDbBlockEnd
  0
BLOCK
  5
16F0
330
16E6
100
AcDbEntity
  8
0
100
AcDbBlockBegin
  2
*D3
 70
     1
 10
0.0
 20
0.0
 30
0.0
  3
*D3
  1

  0
LINE
  5
1AFE
330
16E6
100
AcDbEntity
  8
BEM
 62
     0
370
    -2
100
AcDbLine
 10
370.9743927283511
 20
455.659956233725
 30
0.0
 11
388.3023166010411
 21
456.5680742434781
 31
0.0
  0
LINE
  5
1AFF
330
16E6
100
AcDbEntity
  8
BEM
 62
     0
370
    -2
100
AcDbLine
 10
379.7825341640384
 20
287.5906055345303
 30
0.0
 11
397.1104580367259
 21
288.4987235442831
 31
0.0
  0
LINE
  5
1B00
330
16E6
100
AcDbEntity
  8
BEM
 62
     0
370
    -2
100
AcDbLine
 10
386.6714092252324
 20
449.4729955877102
 30
0.0
 11
394.7468472735163
 21
295.3844583750793
 31
0.0
  0
SOLID
  5
1B01
330
16E6
100
AcDbEntity
  8
BEM
 62
     0
100
AcDbTrace
 10
387.8364770157795
 20
449.5340542033269
 30
0.0
 11
385.5063414346854
 21
449.4119369720935
 31
0.0
 12
386.3050575315319
 22
456.4634023309922
 32
0.0
 13
386.3050575315319
 23
456.4634023309922
 33
0.0
  0
SOLID
  5
1B02
330
16E6
100
AcDbEntity
  8
BEM
 62
     0
100
AcDbTrace
 10
395.9119150640633
 20
295.445516990696
 30
0.0
 11
393.5817794829692
 21
295.3233997594626
 31
0.0
 12
395.1131989672168
 22
288.3940516317973
 32
0.0
 13
395.1131989672168
 23
288.3940516317973
 33
0.0
  0
MTEXT
  5
1B03
330
16E6
100
AcDbEntity
  8
BEM
 62
     1
100
AcDbMText
 10
397.200220225279
 20
372.7689106969738
 30
0.0
 40
7.0
 41
0.0
 71
     5
 72
     1
  1
\A1;%%c168.3
  7
GREEKS
 11
0.0523359562429282
 21
-0.9986295347545746
 31
0.0
 73
     1
 44
1.0
  0
POINT
  5
1B04
330
16E6
100
AcDbEntity
  8
Defpoints
 62
     0
100
AcDbPoint
 10
368.9771336588419
 20
455.5552843212392
 30
0.0
  0
POINT
  5
1B05
330
16E6
100
AcDbEntity
  8
Defpoints
 62
     0
100
AcDbPoint
 10
377.7852750945293
 20
287.4859336220444
 30
0.0
  0
POINT
  5
1B06
330
16E6
100
AcDbEntity
  8
Defpoints
 62
     0
100
AcDbPoint
 10
395.1131989672168
 20
288.3940516317973
 30
0.0
  0
ENDBLK
  5
16F1
330
16E6
100
AcDbEntity
  8
0
100
AcDbBlockEnd
  0
BLOCK
  5
1798
330
178E
100
AcDbEntity
  8
0
100
AcDbBlockBegin
  2
*D4
 70
     1
 10
0.0
 20
0.0
 30
0.0
  3
*D4
  1

  0
LINE
  5
1B4F
330
178E
100
AcDbEntity
  8
BEM
 62
     0
370
    -2
100
AcDbLine
 10
110.8388048138924
 20
191.3150975042676
 30
0.0
 11
69.99567115631767
 21
191.3150975042676
 31
0.0
  0
LINE
  5
1B50
330
178E
100
AcDbEntity
  8
BEM
 62
     0
370
    -2
100
AcDbLine
 10
176.6484450995435
 20
361.3150975042677
 30
0.0
 11
69.99567115631771
 21
361.3150975042678
 31
0.0
  0
LINE
  5
1B51
330
178E
100
AcDbEntity
  8
BEM
 62
     0
370
    -2
100
AcDbLine
 10
71.99567115631767
 20
198.3150975042676
 30
0.0
 11
71.99567115631771
 21
354.3150975042678
 31
0.0
  0
SOLID
  5
1B52
330
178E
100
AcDbEntity
  8
BEM
 62
     0
100
AcDbTrace
 10
70.829004489651
 20
198.3150975042676
 30
0.0
 11
73.16233782298434
 21
198.3150975042676
 31
0.0
 12
71.99567115631767
 22
191.3150975042676
 32
0.0
 13
71.99567115631767
 23
191.3150975042676
 33
0.0
  0
SOLID
  5
1B53
330
178E
100
AcDbEntity
  8
BEM
 62
     0
100
AcDbTrace
 10
70.82900448965104
 20
354.3150975042678
 30
0.0
 11
73.16233782298438
 21
354.3150975042678
 31
0.0
 12
71.99567115631771
 22
361.3150975042678
 32
0.0
 13
71.99567115631771
 23
361.3150975042678
 33
0.0
  0
MTEXT
  5
1B54
330
178E
100
AcDbEntity
  8
BEM
 62
     1
100
AcDbMText
 10
65.49567115631764
 20
276.3150975042677
 30
0.0
 40
7.0
 41
0.0
 71
     5
 72
     1
  1
\A1;170
 11
0.0000000000000001
 21
1.0
 31
0.0
 73
     1
 44
1.0
  0
POINT
  5
1B55
330
178E
100
AcDbEntity
  8
Defpoints
 62
     0
100
AcDbPoint
 10
112.8388048138925
 20
191.3150975042676
 30
0.0
  0
POINT
  5
1B56
330
178E
100
AcDbEntity
  8
Defpoints
 62
     0
100
AcDbPoint
 10
178.6484450995435
 20
361.3150975042677
 30
0.0
  0
POINT
  5
1B57
330
178E
100
AcDbEntity
  8
Defpoints
 62
     0
100
AcDbPoint
 10
71.99567115631771
 20
361.3150975042678
 30
0.0
  0
ENDBLK
  5
1799
330
178E
100
AcDbEntity
  8
0
100
AcDbBlockEnd
  0
BLOCK
  5
17B2
330
17A8
100
AcDbEntity
  8
0
100
AcDbBlockBegin
  2
*D5
 70
     1
 10
0.0
 20
0.0
 30
0.0
  3
*D5
  1

  0
LINE
  5
1B46
330
17A8
100
AcDbEntity
  8
BEM
 62
     0
370
    -2
100
AcDbLine
 10
92.49844509954362
 20
251.3150975042675
 30
0.0
 11
82.71472650593478
 21
251.3150975042675
 31
0.0
  0
LINE
  5
1B47
330
17A8
100
AcDbEntity
  8
BEM
 62
     0
370
    -2
100
AcDbLine
 10
110.8388048138924
 20
191.3150975042676
 30
0.0
 11
82.71472650593477
 21
191.3150975042676
 31
0.0
  0
LINE
  5
1B48
330
17A8
100
AcDbEntity
  8
BEM
 62
     0
370
    -2
100
AcDbLine
 10
84.71472650593478
 20
244.3150975042676
 30
0.0
 11
84.71472650593476
 21
198.3150975042676
 31
0.0
  0
SOLID
  5
1B49
330
17A8
100
AcDbEntity
  8
BEM
 62
     0
100
AcDbTrace
 10
83.5480598392681
 20
244.3150975042676
 30
0.0
 11
85.88139317260145
 21
244.3150975042676
 31
0.0
 12
84.71472650593478
 22
251.3150975042675
 32
0.0
 13
84.71472650593478
 23
251.3150975042675
 33
0.0
  0
SOLID
  5
1B4A
330
17A8
100
AcDbEntity
  8
BEM
 62
     0
100
AcDbTrace
 10
83.54805983926809
 20
198.3150975042676
 30
0.0
 11
85.88139317260143
 21
198.3150975042676
 31
0.0
 12
84.71472650593476
 22
191.3150975042676
 32
0.0
 13
84.71472650593476
 23
191.3150975042676
 33
0.0
  0
MTEXT
  5
1B4B
330
17A8
100
AcDbEntity
  8
BEM
 62
     1
100
AcDbMText
 10
78.21472650593474
 20
221.3150975042676
 30
0.0
 40
7.0
 41
0.0
 71
     5
 72
     1
  1
\A1;60
 11
0.0000000000000001
 21
1.0
 31
0.0
 73
     1
 44
1.0
  0
POINT
  5
1B4C
330
17A8
100
AcDbEntity
  8
Defpoints
 62
     0
100
AcDbPoint
 10
94.49844509954363
 20
251.3150975042675
 30
0.0
  0
POINT
  5
1B4D
330
17A8
100
AcDbEntity
  8
Defpoints
 62
     0
100
AcDbPoint
 10
112.8388048138925
 20
191.3150975042676
 30
0.0
  0
POINT
  5
1B4E
330
17A8
100
AcDbEntity
  8
Defpoints
 62
     0
100
AcDbPoint
 10
84.71472650593476
 20
191.3150975042676
 30
0.0
  0
ENDBLK
  5
17B3
330
17A8
100
AcDbEntity
  8
0
100
AcDbBlockEnd
  0
BLOCK
  5
17BF
330
17B5
100
AcDbEntity
  8
0
100
AcDbBlockBegin
  2
*D6
 70
     1
 10
0.0
 20
0.0
 30
0.0
  3
*D6
  1

  0
LINE
  5
1B19
330
17B5
100
AcDbEntity
  8
BEM
 62
     0
370
    -2
100
AcDbLine
 10
92.49844509954357
 20
551.3150975042676
 30
0.0
 11
55.07041761285616
 21
551.3150975042676
 31
0.0
  0
LINE
  5
1B1A
330
17B5
100
AcDbEntity
  8
BEM
 62
     0
370
    -2
100
AcDbLine
 10
110.8388048138924
 20
191.3150975042676
 30
0.0
 11
55.07041761285609
 21
191.3150975042676
 31
0.0
  0
LINE
  5
1B1B
330
17B5
100
AcDbEntity
  8
BEM
 62
     0
370
    -2
100
AcDbLine
 10
57.07041761285617
 20
544.3150975042676
 30
0.0
 11
57.07041761285609
 21
198.3150975042676
 31
0.0
  0
SOLID
  5
1B1C
330
17B5
100
AcDbEntity
  8
BEM
 62
     0
100
AcDbTrace
 10
55.9037509461895
 20
544.3150975042676
 30
0.0
 11
58.23708427952283
 21
544.3150975042676
 31
0.0
 12
57.07041761285617
 22
551.3150975042676
 32
0.0
 13
57.07041761285617
 23
551.3150975042676
 33
0.0
  0
SOLID
  5
1B1D
330
17B5
100
AcDbEntity
  8
BEM
 62
     0
100
AcDbTrace
 10
55.90375094618942
 20
198.3150975042676
 30
0.0
 11
58.23708427952276
 21
198.3150975042676
 31
0.0
 12
57.07041761285609
 22
191.3150975042676
 32
0.0
 13
57.07041761285609
 23
191.3150975042676
 33
0.0
  0
MTEXT
  5
1B1E
330
17B5
100
AcDbEntity
  8
BEM
 62
     1
100
AcDbMText
 10
50.57041761285606
 20
371.3150975042676
 30
0.0
 40
7.0
 41
0.0
 71
     5
 72
     1
  1
\A1;360
 11
0.0000000000000001
 21
1.0
 31
0.0
 73
     1
 44
1.0
  0
POINT
  5
1B1F
330
17B5
100
AcDbEntity
  8
Defpoints
 62
     0
100
AcDbPoint
 10
94.49844509954358
 20
551.3150975042676
 30
0.0
  0
POINT
  5
1B20
330
17B5
100
AcDbEntity
  8
Defpoints
 62
     0
100
AcDbPoint
 10
112.8388048138925
 20
191.3150975042676
 30
0.0
  0
POINT
  5
1B21
330
17B5
100
AcDbEntity
  8
Defpoints
 62
     0
100
AcDbPoint
 10
57.07041761285609
 20
191.3150975042676
 30
0.0
  0
ENDBLK
  5
17C0
330
17B5
100
AcDbEntity
  8
0
100
AcDbBlockEnd
  0
BLOCK
  5
1A05
330
19FB
100
AcDbEntity
  8
0
100
AcDbBlockBegin
  2
*D7
 70
     1
 10
0.0
 20
0.0
 30
0.0
  3
*D7
  1

  0
ARC
  5
1AD1
330
19FB
100
AcDbEntity
  8
BEM
 62
     0
370
    -2
100
AcDbCircle
 10
178.6484450995434
 20
361.3150975042677
 30
0.0
 40
63.78068984826476
100
AcDbArc
 50
9.291434336495157
 51
83.70856566350479
  0
SOLID
  5
1AD2
330
19FB
100
AcDbEntity
  8
BEM
 62
     0
100
AcDbTrace
 10
242.7522853303945
 20
371.737791103104
 30
0.0
 11
240.4323620419561
 21
371.4879904221485
 31
0.0
 12
242.3417257290419
 22
364.6531208973112
 32
0.0
 13
242.3417257290419
 23
364.6531208973112
 33
0.0
  0
SOLID
  5
1AD3
330
19FB
100
AcDbEntity
  8
BEM
 62
     0
100
AcDbTrace
 10
185.5738760476191
 20
423.5467498143989
 30
0.0
 11
185.7019189817124
 21
425.8765672861062
 31
0.0
 12
178.6484450995435
 22
425.0957873525325
 32
0.0
 13
178.6484450995435
 23
425.0957873525325
 33
0.0
  0
MTEXT
  5
1AD4
330
19FB
100
AcDbEntity
  8
BEM
 62
     1
100
AcDbMText
 10
219.9998501106902
 20
418.1432302305159
 30
0.0
 40
7.0
 41
0.0
 71
     5
 72
     1
  1
\A1;87°
 11
0.8085881463164295
 21
-0.588375058645895
 31
0.0
 73
     1
 44
1.0
  0
POINT
  5
1AD5
330
19FB
100
AcDbEntity
  8
Defpoints
 62
     0
100
AcDbPoint
 10
232.7375376969079
 20
395.1137137409464
 30
0.0
  0
POINT
  5
1AD6
330
19FB
100
AcDbEntity
  8
Defpoints
 62
     0
100
AcDbPoint
 10
378.3743520504586
 20
371.7822887528564
 30
0.0
  0
POINT
  5
1AD7
330
19FB
100
AcDbEntity
  8
Defpoints
 62
     0
100
AcDbPoint
 10
178.6484450995435
 20
556.3150975042677
 30
0.0
  0
POINT
  5
1AD8
330
19FB
100
AcDbEntity
  8
Defpoints
 62
     0
100
AcDbPoint
 10
178.6484450995435
 20
186.3150975042676
 30
0.0
  0
POINT
  5
1AD9
330
19FB
100
AcDbEntity
  8
Defpoints
 62
     0
100
AcDbPoint
 10
178.6484450995436
 20
361.3150975042678
 30
0.0
  0
ENDBLK
  5
1A06
330
19FB
100
AcDbEntity
  8
0
100
AcDbBlockEnd
  0
BLOCK
  5
1A24
330
1A1A
100
AcDbEntity
  8
0
100
AcDbBlockBegin
  2
*D8
 70
     1
 10
0.0
 20
0.0
 30
0.0
  3
*D8
  1

  0
LINE
  5
1AC8
330
1A1A
100
AcDbEntity
  8
BEM
 62
     0
370
    -2
100
AcDbLine
 10
178.7531170120294
 20
359.3178384347587
 30
0.0
 11
185.6087629207667
 21
228.5043217674779
 31
0.0
  0
LINE
  5
1AC9
330
1A1A
100
AcDbEntity
  8
BEM
 62
     0
370
    -2
100
AcDbLine
 10
377.8899470070152
 20
285.4886745525352
 30
0.0
 11
380.3415221979088
 21
238.7098332348518
 31
0.0
  0
LINE
  5
1ACA
330
1A1A
100
AcDbEntity
  8
BEM
 62
     0
370
    -2
100
AcDbLine
 10
192.4944977515628
 20
230.8679325306877
 30
0.0
 11
373.2464435421409
 21
240.3407406106604
 31
0.0
  0
SOLID
  5
1ACB
330
1A1A
100
AcDbEntity
  8
BEM
 62
     0
100
AcDbTrace
 10
192.433439135946
 20
232.0330003212346
 30
0.0
 11
192.5555563671796
 21
229.7028647401407
 31
0.0
 12
185.5040910082808
 22
230.5015808369871
 32
0.0
 13
185.5040910082808
 23
230.5015808369871
 33
0.0
  0
SOLID
  5
1ACC
330
1A1A
100
AcDbEntity
  8
BEM
 62
     0
100
AcDbTrace
 10
373.1853849265241
 20
241.5058084012074
 30
0.0
 11
373.3075021577576
 21
239.1756728201134
 31
0.0
 12
380.2368502854229
 22
240.707092304361
 32
0.0
 13
380.2368502854229
 23
240.707092304361
 33
0.0
  0
MTEXT
  5
1ACD
330
1A1A
100
AcDbEntity
  8
BEM
 62
     1
100
AcDbMText
 10
282.5302869312727
 20
242.0954285465787
 30
0.0
 40
7.0
 41
0.0
 71
     5
 72
     1
  1
\A1;195
 11
0.9986295347545739
 21
0.0523359562429435
 31
0.0
 73
     1
 44
1.0
  0
POINT
  5
1ACE
330
1A1A
100
AcDbEntity
  8
Defpoints
 62
     0
100
AcDbPoint
 10
178.6484450995436
 20
361.3150975042678
 30
0.0
  0
POINT
  5
1ACF
330
1A1A
100
AcDbEntity
  8
Defpoints
 62
     0
100
AcDbPoint
 10
377.7852750945294
 20
287.4859336220443
 30
0.0
  0
POINT
  5
1AD0
330
1A1A
100
AcDbEntity
  8
Defpoints
 62
     0
100
AcDbPoint
 10
380.2368502854229
 20
240.707092304361
 30
0.0
  0
ENDBLK
  5
1A25
330
1A1A
100
AcDbEntity
  8
0
100
AcDbBlockEnd
  0
ENDSEC
  0
SECTION
  2
ENTITIES
  0
LINE
  5
57
330
1E
100
AcDbEntity
  8
STEMPEL
100
AcDbLine
 10
410.0
 20
110.0
 30
0.0
 11
39.99999999999997
 21
110.0
 31
0.0
  0
LINE
  5
58
330
1E
100
AcDbEntity
  8
STEMPEL
100
AcDbLine
 10
136.0000000000001
 20
109.9999999999999
 30
0.0
 11
136.0
 21
9.999999999999971
 31
0.0
  0
LINE
  5
59
330
1E
100
AcDbEntity
  8
STEMPEL
100
AcDbLine
 10
220.0
 20
110.0
 30
0.0
 11
220.0
 21
9.999999999999971
 31
0.0
  0
LINE
  5
5A
330
1E
100
AcDbEntity
  8
STEMPEL
100
AcDbLine
 10
332.0
 20
109.9999999999997
 30
0.0
 11
332.0
 21
40.0
 31
0.0
  0
LINE
  5
5B
330
1E
100
AcDbEntity
  8
STEMPEL
100
AcDbLine
 10
135.9999999999999
 20
29.99999999999997
 30
0.0
 11
39.99999999999997
 21
29.99999999999997
 31
0.0
  0
LINE
  5
5C
330
1E
100
AcDbEntity
  8
STEMPEL
100
AcDbLine
 10
410.0
 20
40.0
 30
0.0
 11
136.0000000000001
 21
39.99999999999997
 31
0.0
  0
LINE
  5
5D
330
1E
100
AcDbEntity
  8
STEMPEL
100
AcDbLine
 10
410.0
 20
80.0
 30
0.0
 11
136.0000000000001
 21
79.99999999999994
 31
0.0
  0
LINE
  5
5E
330
1E
100
AcDbEntity
  8
VOLL
100
AcDbLine
 10
54.00000000000009
 20
110.0
 30
0.0
 11
53.99999999999997
 21
9.999999999999971
 31
0.0
  0
LINE
  5
5F
330
1E
100
AcDbEntity
  8
VOLL
100
AcDbLine
 10
94.00000000000011
 20
109.9999999999999
 30
0.0
 11
94.0
 21
9.999999999999971
 31
0.0
  0
LINE
  5
60
330
1E
100
AcDbEntity
  8
VOLL
100
AcDbLine
 10
114.0000000000001
 20
109.9999999999999
 30
0.0
 11
114.0
 21
9.999999999999971
 31
0.0
  0
LINE
  5
61
330
1E
100
AcDbEntity
  8
VOLL
100
AcDbLine
 10
154.0000000000001
 20
79.99999999999994
 30
0.0
 11
154.0000000000001
 21
39.99999999999997
 31
0.0
  0
LINE
  5
62
330
1E
100
AcDbEntity
  8
VOLL
100
AcDbLine
 10
180.0000000000001
 20
109.9999999999998
 30
0.0
 11
180.0
 21
39.99999999999997
 31
0.0
  0
LINE
  5
63
330
1E
100
AcDbEntity
  8
HILF
100
AcDbLine
 10
40.00000000000008
 20
100.0
 30
0.0
 11
136.0000000000001
 21
100.0
 31
0.0
  0
LINE
  5
64
330
1E
100
AcDbEntity
  8
HILF
100
AcDbLine
 10
40.00000000000008
 20
90.00000000000005
 30
0.0
 11
136.0000000000001
 21
90.00000000000005
 31
0.0
  0
LINE
  5
65
330
1E
100
AcDbEntity
  8
HILF
100
AcDbLine
 10
40.00000000000008
 20
79.99999999999994
 30
0.0
 11
136.0000000000001
 21
79.99999999999994
 31
0.0
  0
LINE
  5
66
330
1E
100
AcDbEntity
  8
HILF
100
AcDbLine
 10
40.00000000000008
 20
69.99999999999994
 30
0.0
 11
136.0000000000001
 21
69.99999999999994
 31
0.0
  0
LINE
  5
67
330
1E
100
AcDbEntity
  8
HILF
100
AcDbLine
 10
40.00000000000008
 20
59.99999999999997
 30
0.0
 11
136.0000000000001
 21
59.99999999999997
 31
0.0
  0
LINE
  5
68
330
1E
100
AcDbEntity
  8
HILF
100
AcDbLine
 10
40.00000000000008
 20
49.99999999999997
 30
0.0
 11
136.0000000000001
 21
49.99999999999997
 31
0.0
  0
LINE
  5
69
330
1E
100
AcDbEntity
  8
HILF
100
AcDbLine
 10
40.00000000000008
 20
39.99999999999997
 30
0.0
 11
136.0000000000001
 21
39.99999999999997
 31
0.0
  0
LINE
  5
6A
330
1E
100
AcDbEntity
  8
HILF
100
AcDbLine
 10
136.0000000000001
 20
69.99999999999994
 30
0.0
 11
220.0
 21
69.99999999999994
 31
0.0
  0
LINE
  5
6B
330
1E
100
AcDbEntity
  8
HILF
100
AcDbLine
 10
136.0000000000001
 20
59.99999999999997
 30
0.0
 11
220.0
 21
59.99999999999997
 31
0.0
  0
LINE
  5
6C
330
1E
100
AcDbEntity
  8
HILF
100
AcDbLine
 10
136.0000000000001
 20
49.99999999999997
 30
0.0
 11
220.0
 21
49.99999999999997
 31
0.0
  0
LINE
  5
6D
330
1E
100
AcDbEntity
  8
HILF
100
AcDbLine
 10
224.7736801096948
 20
84.03758247564139
 30
0.0
 11
324.8353916556311
 21
84.03758247564139
 31
0.0
  0
LINE
  5
6E
330
1E
100
AcDbEntity
  8
HILF
100
AcDbLine
 10
224.7736801096948
 20
69.99999999999994
 30
0.0
 11
324.835391655631
 21
69.99999999999994
 31
0.0
  0
LINE
  5
6F
330
1E
100
AcDbEntity
  8
HILF
100
AcDbLine
 10
224.7736801096948
 20
59.99999999999997
 30
0.0
 11
324.835391655631
 21
59.99999999999997
 31
0.0
  0
LINE
  5
70
330
1E
100
AcDbEntity
  8
HILF
100
AcDbLine
 10
224.7736801096948
 20
49.99999999999997
 30
0.0
 11
324.835391655631
 21
49.99999999999997
 31
0.0
  0
LINE
  5
71
330
1E
100
AcDbEntity
  8
VOLL
100
AcDbLine
 10
332.0
 20
60.0
 30
0.0
 11
410.0
 21
60.0
 31
0.0
  0
LINE
  5
72
330
1E
100
AcDbEntity
  8
HILF
100
AcDbLine
 10
336.7238616296993
 20
83.77983636955827
 30
0.0
 11
404.8588839326728
 21
83.77983636955827
 31
0.0
  0
LINE
  5
73
330
1E
100
AcDbEntity
  8
HILF
100
AcDbLine
 10
223.4909699289885
 20
14.89398258028314
 30
0.0
 11
404.8588839326728
 21
14.89398258028314
 31
0.0
  0
TEXT
  5
74
330
1E
100
AcDbEntity
  8
TEXT
100
AcDbText
 10
63.86165979631819
 20
18.67381894984132
 30
0.0
 40
4.0
  1
Änderung
 41
0.8
  7
GREEKS
 72
     1
 11
74.60451693917534
 21
18.67381894984132
 31
0.0
100
AcDbText
  0
TEXT
  5
75
330
1E
100
AcDbEntity
  8
TEXT
100
AcDbText
 10
143.5163572150377
 20
102.4620895087088
 30
0.0
 40
5.0
  1
Maßstab
 41
0.8
  7
GREEKS
100
AcDbText
  0
TEXT
  5
76
330
1E
100
AcDbEntity
  8
TEXT
100
AcDbText
 10
184.2858954734051
 20
102.4184168434819
 30
0.0
 40
5.0
  1
Zul. Abw.
 41
0.8
  7
GREEKS
100
AcDbText
  0
TEXT
  5
77
330
1E
100
AcDbEntity
  8
TEXT
100
AcDbText
 10
224.877940380901
 20
102.5489328011779
 30
0.0
 40
5.0
  1
Benennung
 41
0.8
  7
GREEKS
100
AcDbText
  0
TEXT
  5
78
330
1E
100
AcDbEntity
  8
TEXT
100
AcDbText
 10
336.178754957634
 20
102.3132034537136
 30
0.0
 40
5.0
  1
Zeichnungs Nr.
 41
0.8
  7
GREEKS
100
AcDbText
  0
TEXT
  5
79
330
1E
100
AcDbEntity
  8
TEXT
100
AcDbText
 10
224.742238391136
 20
30.84560570193057
 30
0.0
 40
5.0
  1
Bauvorhaben
 41
0.8
  7
GREEKS
100
AcDbText
  0
TEXT
  5
7A
330
1E
100
AcDbEntity
  8
TEXT
100
AcDbText
 10
336.7238616296993
 20
73.1811823709997
 30
0.0
 40
5.0
  1
Ersatz für:
 41
0.8
  7
GREEKS
100
AcDbText
  0
TEXT
  5
7B
330
1E
100
AcDbEntity
  8
TEXT
100
AcDbText
 10
48.26641107045756
 20
13.65465846027192
 30
0.0
 40
4.0
  1
Index
 50
90.0
 41
0.8
  7
GREEKS
100
AcDbText
  0
TEXT
  5
7C
330
1E
100
AcDbEntity
  8
TEXT
100
AcDbText
 10
100.0934676075481
 20
18.6715626933981
 30
0.0
 40
4.0
  1
Tag
 41
0.8
  7
GREEKS
 72
     1
 11
103.8268009408814
 21
18.6715626933981
 31
0.0
100
AcDbText
  0
TEXT
  5
7D
330
1E
100
AcDbEntity
  8
TEXT
100
AcDbText
 10
119.0122744386592
 20
18.59324216966408
 30
0.0
 40
4.0
  1
Name
 41
0.8
  7
GREEKS
 72
     1
 11
125.3360839624688
 21
18.59324216966408
 31
0.0
100
AcDbText
  0
TEXT
  5
7E
330
1E
100
AcDbEntity
  8
TEXT
100
AcDbText
 10
162.3311673153651
 20
73.31880501229926
 30
0.0
 40
4.0
  1
Tag
 41
0.8
  7
GREEKS
100
AcDbText
  0
TEXT
  5
7F
330
1E
100
AcDbEntity
  8
TEXT
100
AcDbText
 10
192.4626584226295
 20
73.30961091915225
 30
0.0
 40
4.0
  1
Name
 41
0.8
  7
GREEKS
100
AcDbText
  0
TEXT
  5
80
330
1E
100
AcDbEntity
  8
TEXT
100
AcDbText
 10
137.5836127167615
 20
63.62990369617964
 30
0.0
 40
4.0
  1
Gez.
 41
0.8
  7
GREEKS
100
AcDbText
  0
TEXT
  5
81
330
1E
100
AcDbEntity
  8
TEXT
100
AcDbText
 10
137.5515086571672
 20
53.68926291428377
 30
0.0
 40
4.0
  1
Gepr.
 41
0.8
  7
GREEKS
100
AcDbText
  0
TEXT
  5
82
330
1E
100
AcDbEntity
  8
TEXT
100
AcDbText
 10
137.6006777387304
 20
43.52946389649807
 30
0.0
 40
4.0
  1
Norm.
 41
0.8
  7
GREEKS
100
AcDbText
  0
LINE
  5
83
330
1E
100
AcDbEntity
  8
STEMPEL
100
AcDbLine
 10
49.99999999999989
 20
10.0
 30
0.0
 11
410.0
 21
10.0
 31
0.0
  0
TEXT
  5
84
330
1E
100
AcDbEntity
  8
TEXT
100
AcDbText
 10
337.2400861497006
 20
52.07416177878602
 30
0.0
 40
5.0
  1
ersetzt durch:
 41
0.8
  7
GREEKS
100
AcDbText
  0
LINE
  5
85
330
1E
100
AcDbEntity
  8
STEMPEL
100
AcDbLine
 10
410.0
 20
10.0
 30
0.0
 11
39.99999999999989
 21
10.0
 31
0.0
  0
LINE
  5
86
330
1E
100
AcDbEntity
  8
STEMPEL
100
AcDbLine
 10
410.0
 20
10.0
 30
0.0
 11
410.0
 21
584.0
 31
0.0
  0
LINE
  5
87
330
1E
100
AcDbEntity
  8
STEMPEL
100
AcDbLine
 10
40.0
 20
10.0
 30
0.0
 11
39.99999999999989
 21
584.0
 31
0.0
  0
LINE
  5
88
330
1E
100
AcDbEntity
  8
STEMPEL
100
AcDbLine
 10
410.0
 20
584.0
 30
0.0
 11
39.99999999999989
 21
584.0
 31
0.0
  0
LINE
  5
89
330
1E
100
AcDbEntity
  8
HILF
100
AcDbLine
 10
0.0
 20
0.0
 30
0.0
 11
-0.0000000000001137
 21
594.0
 31
0.0
  0
LINE
  5
8A
330
1E
100
AcDbEntity
  8
HILF
100
AcDbLine
 10
419.9999999999999
 20
594.0000000000002
 30
0.0
 11
0.0
 21
594.0
 31
0.0
  0
LINE
  5
8B
330
1E
100
AcDbEntity
  8
HILF
100
AcDbLine
 10
420.0
 20
0.0
 30
0.0
 11
0.0
 21
0.0
 31
0.0
  0
LINE
  5
8C
330
1E
100
AcDbEntity
  8
HILF
100
AcDbLine
 10
31.08767135713856
 20
297.0
 30
0.0
 11
0.0000000000001137
 21
297.0
 31
0.0
  0
TEXT
  5
8D
330
1E
100
AcDbEntity
  8
TEXT
100
AcDbText
 10
138.622109822104
 20
73.14025471151666
 30
0.0
 40
4.0
  1
2007
 41
0.8
  7
GREEKS
100
AcDbText
  0
LINE
  5
8E
330
1E
100
AcDbEntity
  8
HILF
100
AcDbLine
 10
420.0
 20
-0.0000000000001137
 30
0.0
 11
419.9999999999999
 21
594.0
 31
0.0
  0
TEXT
  5
8F
330
1E
100
AcDbEntity
  8
VOLL
100
AcDbText
 10
78.07675471698113
 20
31.02594776470585
 30
0.0
 40
1.8
  1

  7
GREEKS
100
AcDbText
  0
TEXT
  5
90
330
1E
100
AcDbEntity
  8
TEXT
100
AcDbText
 10
41.85509950977674
 20
111.6719999999999
 30
0.0
 40
5.0
  1
Erstellt mit AUTOCAD 2004
 41
0.8
  7
GREEKS
100
AcDbText
  0
TEXT
  5
91
330
1E
100
AcDbEntity
  8
TEXT
100
AcDbText
 10
194.4216048581257
 20
63.0896391972351
 30
0.0
 40
4.0
  1
Koeh
 41
0.8
  7
GREEKS
 72
     1
 11
199.6787477152685
 21
63.0896391972351
 31
0.0
100
AcDbText
  0
TEXT
  5
92
330
1E
100
AcDbEntity
  8
TEXT
 62
     1
100
AcDbText
 10
345.6125233957149
 20
88.14901428913959
 30
0.0
 40
7.0
  1
58020EE0W
 41
0.8
  7
GREEKS
 72
     1
 11
369.3458567290483
 21
88.14901428913959
 31
0.0
100
AcDbText
  0
TEXT
  5
93
330
1E
100
AcDbEntity
  8
TEXT
 62
     1
100
AcDbText
 10
150.5006306481887
 20
88.14901428913959
 30
0.0
 40
7.0
  1
1:2
 41
0.8
  7
GREEKS
100
AcDbText
  0
TEXT
  5
94
330
1E
100
AcDbEntity
  8
TEXT
100
AcDbText
 10
160.398997108236
 20
63.10765040825732
 30
0.0
 40
4.0
  1
24.09.
 41
0.8
  7
GREEKS
 72
     1
 11
167.4085209177598
 21
63.10765040825732
 31
0.0
100
AcDbText
  0
TEXT
  5
95
330
1E
100
AcDbEntity
  8
TEXT
 62
     1
100
AcDbText
 10
224.9367181557188
 20
87.41748789253779
 30
0.0
 40
7.0
  1
Verbundrohr DN125/125
 41
0.8
  7
GREEKS
100
AcDbText
  0
TEXT
  5
96
330
1E
100
AcDbEntity
  8
TEXT
100
AcDbText
 10
225.1296391125315
 20
71.50334417585288
 30
0.0
 40
5.0
  1
Einfach-Abzweig 87°
 41
0.8
  7
GREEKS
100
AcDbText
  0
TEXT
  5
98
330
1E
100
AcDbEntity
  8
TEXT
100
AcDbText
 10
225.1296391125315
 20
51.64011943042158
 30
0.0
 40
5.0
  1
EDV-Art.Nr. 58020.EE0X
 41
0.8
  7
GREEKS
100
AcDbText
  0
TEXT
  5
99
330
1E
100
AcDbEntity
  8
TEXT
100
AcDbText
 10
224.9837501577827
 20
42.62974153022632
 30
0.0
 40
4.0
  1
58020EE0W.DWG
 41
0.8
  7
GREEKS
100
AcDbText
  0
TEXT
  5
9A
330
1E
100
AcDbEntity
  8
TEXT
100
AcDbText
 10
182.626132208084
 20
90.76363841023022
 30
0.0
 40
4.0
  1
DIN EN1123-2
 41
0.8
  7
GREEKS
 72
     1
 11
199.6166083985602
 21
90.76363841023022
 31
0.0
100
AcDbText
  0
INSERT
  5
9B
330
1E
100
AcDbEntity
  8
STEMPEL
100
AcDbBlockReference
  2
LOGO
 10
140.9955485457794
 20
45.02105276448322
 30
0.0
 41
2.0
 42
2.0
 43
2.0
  0
TEXT
  5
118
330
1E
100
AcDbEntity
  8
BEM
100
AcDbText
 10
417.3022923857165
 20
10.16790107998849
 30
0.0
 40
4.0
  1
Diese Zeichnung ist urheberrechtlich geschützt und bleibt unser Eigentum. Sie darf weder ganz noch teilweise verfielfältigt und nicht an Dritte weitergegeben werden.
 50
90.0
 41
0.8
  7
GREEKS
100
AcDbText
  0
TEXT
  5
422
330
1E
100
AcDbEntity
  8
VOLL
100
AcDbText
 10
513.181667332345
 20
218.2094568136298
 30
0.0
 40
1.8
  1

  7
GREEKS
100
AcDbText
  0
TEXT
  5
430
330
1E
100
AcDbEntity
  8
BEM
100
AcDbText
 10
987.7858805324283
 20
233.0575201688864
 30
0.0
 40
2.5
  1

 41
0.8
  7
GREEKS
 72
     4
 11
987.7858805324283
 21
233.0575201688864
 31
0.0
100
AcDbText
  0
TEXT
  5
431
330
1E
100
AcDbEntity
  8
BEM
100
AcDbText
 10
1026.267416198392
 20
203.9734875438834
 30
0.0
 40
2.5
  1

 41
0.8
  7
GREEKS
 72
     4
 11
1026.267416198392
 21
203.9734875438834
 31
0.0
100
AcDbText
  0
TEXT
  5
782
330
1E
100
AcDbEntity
  8
TEXT
 62
     1
100
AcDbText
 10
288.4028461802934
 20
130.2916325662397
 30
0.0
 40
7.0
  1
und innenbeschichtet
 41
0.65
  7
GREEKS
100
AcDbText
  0
TEXT
  5
783
330
1E
100
AcDbEntity
  8
TEXT
 62
     1
100
AcDbText
 10
238.813047439997
 20
117.6967971808577
 30
0.0
 40
7.0
  1
Dämmung: 2 K-PU-Schaum
 41
0.65
  7
GREEKS
100
AcDbText
  0
TEXT
  5
784
330
1E
100
AcDbEntity
  8
TEXT
 62
     1
100
AcDbText
 10
246.3074580846942
 20
141.5606864054655
 30
0.0
 40
7.0
  1
Innenrohr: E195 EN10305 feuerverzinkt
 41
0.65
  7
GREEKS
100
AcDbText
  0
TEXT
  5
785
330
1E
100
AcDbEntity
  8
TEXT
 62
     1
100
AcDbText
 10
242.5352407138301
 20
152.9137544418205
 30
0.0
 40
7.0
  1
Außenrohr: P235 TR1 EN10217-1 feuerverzinkt
 41
0.65
  7
GREEKS
100
AcDbText
  0
HATCH
  5
145E
330
1E
100
AcDbEntity
  8
SCHRAFF
100
AcDbHatch
 10
0.0
 20
0.0
 30
0.0
210
0.0
220
0.0
230
1.0
  2
_USER
 70
     0
 71
     1
 91
        1
 92
        7
 72
     1
 73
     1
 93
        3
 10
245.1484450995434
 20
435.7496948492157
 42
0.0
 10
245.1484450995434
 20
431.3914758354516
 42
0.0
 10
249.5006913256172
 20
431.6195673950532
 42
0.2321436963127322
 97
        3
330
14B7
330
148C
330
145F
 75
     0
 76
     0
 52
0.0
 41
0.1
 77
     0
 78
     1
 53
0.0
 43
-388.1779947646742
 44
1.520726082208511
 45
0.0
 46
0.1
 79
     0
 47
0.1713776629080146
 98
        1
 10
247.3023951677224
 20
433.2151941892666
  0
ARC
  5
145F
102
{ACAD_REACTORS
330
145E
330
19AC
102
}
330
1E
100
AcDbEntity
  8
SCHRAFF
100
AcDbCircle
 10
243.116450488259
 20
429.2502002994023
 30
0.0
 40
6.809730648369604
100
AcDbArc
 50
20.36127296286364
 51
72.63872703713208
  0
HATCH
  5
1473
330
1E
100
AcDbEntity
  8
SCHRAFF
100
AcDbHatch
 10
0.0
 20
0.0
 30
0.0
210
0.0
220
0.0
230
1.0
  2
_USER
 70
     0
 71
     1
 91
        1
 92
        7
 72
     1
 73
     1
 93
        3
 10
245.1484450995434
 20
294.0731583996828
 42
0.2946176943252067
 10
249.2785725537058
 20
298.4254046257566
 42
0.0
 10
245.1484450995434
 20
298.2089538177281
 42
0.0
 97
        3
330
148D
330
1489
330
1474
 75
     0
 76
     0
 52
0.0
 41
0.1
 77
     0
 78
     1
 53
0.0
 43
-388.1779947646742
 44
1.520726082208511
 45
0.0
 46
0.1
 79
     0
 47
0.0894595453486748
 98
        1
 10
245.9853936002428
 20
296.1047221142251
  0
ARC
  5
1474
102
{ACAD_REACTORS
330
1473
330
19AC
102
}
330
1E
100
AcDbEntity
  8
SCHRAFF
100
AcDbCircle
 10
243.8409406366753
 20
299.4497292238112
 30
0.0
 40
5.533270438654633
100
AcDbArc
 50
283.6681874748813
 51
349.3318125251174
  0
LINE
  5
1487
102
{ACAD_REACTORS
330
196D
102
}
330
1E
100
AcDbEntity
  8
STEMPEL
100
AcDbLine
 10
178.6484450995435
 20
361.3150975042676
 30
0.0
 11
245.1484450995434
 21
298.208953817728
 31
0.0
  0
LINE
  5
1488
330
1E
100
AcDbEntity
  8
STEMPEL
100
AcDbLine
 10
245.1484450995434
 20
431.3914758354516
 30
0.0
 11
178.6484450995435
 21
361.3150975042676
 31
0.0
  0
LINE
  5
1489
102
{ACAD_REACTORS
330
1473
330
196D
330
19AC
102
}
330
1E
100
AcDbEntity
  8
STEMPEL
100
AcDbLine
 10
245.1484450995434
 20
298.2089538177281
 30
0.0
 11
245.1484450995434
 21
199.2059451469963
 31
0.0
  0
LINE
  5
148B
330
1E
100
AcDbEntity
  8
MITTEL
100
AcDbLine
 10
378.3743520504586
 20
371.7822887528565
 30
0.0
 11
178.6484450995435
 21
361.3150975042677
 31
0.0
  0
LINE
  5
148C
102
{ACAD_REACTORS
330
145E
330
18DF
330
19AC
102
}
330
1E
100
AcDbEntity
  8
STEMPEL
100
AcDbLine
 10
287.5139266692774
 20
433.611756642778
 30
0.0
 11
245.1484450995434
 21
431.3914758354516
 31
0.0
  0
LINE
  5
148D
102
{ACAD_REACTORS
330
1473
330
18DE
330
19AC
102
}
330
1E
100
AcDbEntity
  8
STEMPEL
100
AcDbLine
 10
294.474608849589
 20
300.7940285204195
 30
0.0
 11
245.1484450995434
 21
298.208953817728
 31
0.0
  0
TEXT
  5
148E
330
1E
100
AcDbEntity
  8
TEXT
 62
     1
100
AcDbText
 10
336.7150499467764
 20
379.4853564648399
 30
0.0
 40
7.0
  1
DN125
 50
2.99999999999909
 41
0.8
  7
GREEKS
100
AcDbText
  0
LINE
  5
148F
102
{ACAD_REACTORS
330
1909
330
19DE
102
}
330
1E
100
AcDbEntity
  8
STEMPEL
100
AcDbLine
 10
368.9771336588417
 20
455.5552843212391
 30
0.0
 11
377.7852750945293
 21
287.4859336220444
 31
0.0
  0
LINE
  5
1490
102
{ACAD_REACTORS
330
18DE
330
19AC
330
19DE
102
}
330
1E
100
AcDbEntity
  8
STEMPEL
100
AcDbLine
 10
363.7750011922278
 20
294.9128708995605
 30
0.0
 11
344.6945635988618
 21
293.9129075375435
 31
0.0
  0
LINE
  5
1491
102
{ACAD_REACTORS
330
18DF
330
19AC
330
19DE
102
}
330
1E
100
AcDbEntity
  8
STEMPEL
100
AcDbLine
 10
355.8199358433003
 20
446.7045601822557
 30
0.0
 11
336.7394982499345
 21
445.7045968202388
 31
0.0
  0
LINE
  5
1492
330
1E
100
AcDbEntity
  8
HILF
100
AcDbLine
 10
321.4210170965853
 20
435.8292275664177
 30
0.0
 11
328.4277415157675
 21
302.1329611907608
 31
0.0
  0
LINE
  5
1493
330
1E
100
AcDbEntity
  8
HILF
100
AcDbLine
 10
291.4808498378083
 20
429.2859116543695
 30
0.0
 11
297.9676268689642
 21
305.5108324600679
 31
0.0
  0
LINE
  5
1494
330
1E
100
AcDbEntity
  8
HILF
100
AcDbLine
 10
298.8802416322788
 20
433.3532486714591
 30
0.0
 11
305.7516365089614
 21
302.2392237941218
 31
0.0
  0
LINE
  5
1495
102
{ACAD_REACTORS
330
18DF
330
19AC
102
}
330
1E
100
AcDbEntity
  8
STEMPEL
100
AcDbLine
 10
316.7118181633227
 20
440.1488150257176
 30
0.0
 11
303.1990817357512
 21
439.4406425175116
 31
0.0
  0
ARC
  5
1496
102
{ACAD_REACTORS
330
18DF
330
19AC
102
}
330
1E
100
AcDbEntity
  8
STEMPEL
100
AcDbCircle
 10
304.1411289481242
 20
421.465310891929
 30
0.0
 40
18.0
100
AcDbArc
 50
92.9999999999989
 51
127.7719440319492
  0
ARC
  5
1497
102
{ACAD_REACTORS
330
18DF
330
19AC
102
}
330
1E
100
AcDbEntity
  8
STEMPEL
100
AcDbCircle
 10
286.990567106848
 20
443.5980519903235
 30
0.0
 40
10.0
100
AcDbArc
 50
272.9999999999989
 51
307.7719440319492
  0
ARC
  5
1498
102
{ACAD_REACTORS
330
18DF
330
19AC
102
}
330
1E
100
AcDbEntity
  8
STEMPEL
100
AcDbCircle
 10
315.7697709509497
 20
458.1241466512998
 30
0.0
 40
18.0
100
AcDbArc
 50
272.9999999999989
 51
298.007158336547
  0
ARC
  5
1499
102
{ACAD_REACTORS
330
18DF
330
19AC
102
}
330
1E
100
AcDbEntity
  8
STEMPEL
100
AcDbCircle
 10
338.309576937223
 20
415.7457107776013
 30
0.0
 40
29.99973625969209
100
AcDbArc
 50
92.9999999999989
 51
118.0071583365469
  0
LINE
  5
149A
102
{ACAD_REACTORS
330
18DF
330
19AC
102
}
330
1E
100
AcDbEntity
  8
STEMPEL
100
AcDbLine
 10
336.7395120530357
 20
445.7043334413777
 30
0.0
 11
336.7394982499345
 21
445.7045968202388
 31
0.0
  0
LINE
  5
149B
102
{ACAD_REACTORS
330
18DE
330
19AC
102
}
330
1E
100
AcDbEntity
  8
STEMPEL
100
AcDbLine
 10
324.1958599060636
 20
297.3447915558135
 30
0.0
 11
310.6831234784922
 21
296.6366190476074
 31
0.0
  0
ARC
  5
149C
102
{ACAD_REACTORS
330
18DE
330
19AC
102
}
330
1E
100
AcDbEntity
  8
STEMPEL
100
AcDbCircle
 10
294.9979684120185
 20
290.8077331728737
 30
0.0
 40
10.0
100
AcDbArc
 50
58.22805596805353
 51
92.9999999999989
  0
ARC
  5
149D
102
{ACAD_REACTORS
330
18DE
330
19AC
102
}
330
1E
100
AcDbEntity
  8
STEMPEL
100
AcDbCircle
 10
309.7410762661193
 20
314.6119506731896
 30
0.0
 40
18.0
100
AcDbArc
 50
238.2280559680535
 51
272.9999999999989
  0
ARC
  5
149E
102
{ACAD_REACTORS
330
18DE
330
19AC
102
}
330
1E
100
AcDbEntity
  8
STEMPEL
100
AcDbCircle
 10
325.1379071184367
 20
279.3694599302311
 30
0.0
 40
18.0
100
AcDbArc
 50
67.99284166345775
 51
92.9999999999989
  0
ARC
  5
149F
102
{ACAD_REACTORS
330
18DE
330
19AC
102
}
330
1E
100
AcDbEntity
  8
STEMPEL
100
AcDbCircle
 10
343.1244849115736
 20
323.8717935801806
 30
0.0
 40
29.99973625969209
100
AcDbArc
 50
247.9928416634578
 51
272.9999999999989
  0
LINE
  5
14A0
102
{ACAD_REACTORS
330
18DE
330
19AC
102
}
330
1E
100
AcDbEntity
  8
STEMPEL
100
AcDbLine
 10
344.6945497957606
 20
293.9131709164046
 30
0.0
 11
344.6945635988618
 21
293.9129075375435
 31
0.0
  0
ARC
  5
14A1
102
{ACAD_REACTORS
330
18DF
330
19DE
102
}
330
1E
100
AcDbEntity
  8
STEMPEL
100
AcDbCircle
 10
357.3900145305889
 20
416.7456741396184
 30
0.0
 40
30.0
100
AcDbArc
 50
68.00000000000531
 51
92.9999999999989
  0
LINE
  5
14A2
102
{ACAD_REACTORS
330
18DF
330
19DE
102
}
330
1E
100
AcDbEntity
  8
STEMPEL
100
AcDbLine
 10
369.5733215934637
 20
444.1793408491417
 30
0.0
 11
368.6282123330664
 21
444.561189776622
 31
0.0
  0
ARC
  5
14A3
102
{ACAD_REACTORS
330
18DE
330
19DE
102
}
330
1E
100
AcDbEntity
  8
STEMPEL
100
AcDbCircle
 10
362.2049225049395
 20
324.8717569421976
 30
0.0
 40
30.0
100
AcDbArc
 50
272.9999999999989
 51
297.9999999999932
  0
LINE
  5
14A4
102
{ACAD_REACTORS
330
18DE
330
19DE
102
}
330
1E
100
AcDbEntity
  8
STEMPEL
100
AcDbLine
 10
377.1890871599071
 20
298.8618770941414
 30
0.0
 11
376.2890693885165
 21
298.38332915643
 31
0.0
  0
DIMENSION
  5
14A7
330
1E
100
AcDbEntity
  8
BEM
100
AcDbDimension
  2
*D1
 10
245.1484450995434
 20
169.962022806895
 30
0.0
 11
178.6484450995433
 21
176.462022806895
 31
0.0
 70
    32
  1
%%C<>
 71
     5
 42
133.0000000000002
  3
Standard
100
AcDbAlignedDimension
 13
112.1484450995432
 23
199.2059451469998
 33
0.0
 14
245.1484450995434
 24
199.2059451469963
 34
0.0
100
AcDbRotatedDimension
1001
ACAD
1000
DSTYLE
1002
{
1070
    40
1040
2.0
1070
    41
1040
3.5
1070
    42
1040
1.0
1070
    43
1040
7.0
1070
    44
1040
1.0
1070
    73
1070
     0
1070
    74
1070
     0
1070
    77
1070
     1
1070
    78
1070
     8
1070
    79
1070
     2
1070
   140
1040
3.5
1070
   141
1040
1.5
1070
   146
1040
0.5142857142857144
1070
   147
1040
1.5
1070
   172
1070
     1
1070
   178
1070
     1
1070
   179
1070
     2
1070
   271
1070
     2
1070
   272
1070
     2
1070
   284
1070
     8
1070
   285
1070
     8
1070
   286
1070
     8
1002
}
  0
LINE
  5
14A9
102
{ACAD_REACTORS
330
196D
102
}
330
1E
100
AcDbEntity
  8
STEMPEL
100
AcDbLine
 10
245.1484450995434
 20
199.2059451469963
 30
0.0
 11
244.4580853851944
 21
191.3150975042676
 31
0.0
  0
LINE
  5
14AA
102
{ACAD_REACTORS
330
1964
102
}
330
1E
100
AcDbEntity
  8
STEMPEL
100
AcDbLine
 10
112.1484450995432
 20
199.2059451469998
 30
0.0
 11
112.8388048138925
 21
191.3150975042676
 31
0.0
  0
LINE
  5
14AB
330
1E
100
AcDbEntity
  8
HILF
100
AcDbLine
 10
240.138895505685
 20
199.3150975042676
 30
0.0
 11
117.1579946934019
 21
199.3150975042675
 31
0.0
  0
LINE
  5
14AC
102
{ACAD_REACTORS
330
1949
330
19C5
102
}
330
1E
100
AcDbEntity
  8
STEMPEL
100
AcDbLine
 10
251.4068898969498
 20
551.3150975042676
 30
0.0
 11
251.837678710643
 21
550.3912679120246
 31
0.0
  0
ARC
  5
14AD
102
{ACAD_REACTORS
330
1949
330
19C5
102
}
330
1E
100
AcDbEntity
  8
STEMPEL
100
AcDbCircle
 10
224.6484450995435
 20
537.7127200598033
 30
0.0
 40
30.0
100
AcDbArc
 50
0.0
 51
24.99999999999207
  0
LINE
  5
14AE
102
{ACAD_REACTORS
330
1964
330
19C5
102
}
330
1E
100
AcDbEntity
  8
STEMPEL
100
AcDbLine
 10
105.8900003021373
 20
551.3150975042676
 30
0.0
 11
105.4592114884441
 21
550.3912679120246
 31
0.0
  0
ARC
  5
14AF
102
{ACAD_REACTORS
330
1964
330
19C5
102
}
330
1E
100
AcDbEntity
  8
STEMPEL
100
AcDbCircle
 10
132.6484450995435
 20
537.7127200598034
 30
0.0
 40
30.0
100
AcDbArc
 50
155.0000000000079
 51
180.0
  0
LINE
  5
14B0
102
{ACAD_REACTORS
330
1949
330
19AC
102
}
330
1E
100
AcDbEntity
  8
STEMPEL
100
AcDbLine
 10
254.6481813592357
 20
518.6060975042676
 30
0.0
 11
254.6484450995436
 21
518.6060975042676
 31
0.0
  0
ARC
  5
14B1
102
{ACAD_REACTORS
330
1949
330
19AC
102
}
330
1E
100
AcDbEntity
  8
STEMPEL
100
AcDbCircle
 10
224.6484450995435
 20
518.6060975042676
 30
0.0
 40
29.99973625969209
100
AcDbArc
 50
334.9928416634577
 51
0.0
  0
ARC
  5
14B2
102
{ACAD_REACTORS
330
1949
330
19AC
102
}
330
1E
100
AcDbEntity
  8
STEMPEL
100
AcDbCircle
 10
268.1484450995435
 20
498.3150975042677
 30
0.0
 40
18.0
100
AcDbArc
 50
154.9928416634576
 51
180.0
  0
ARC
  5
14B3
102
{ACAD_REACTORS
330
1949
330
19AC
102
}
330
1E
100
AcDbEntity
  8
STEMPEL
100
AcDbCircle
 10
232.1484450995435
 20
484.7838169269388
 30
0.0
 40
18.0
100
AcDbArc
 50
325.228055968051
 51
0.0
  0
ARC
  5
14B4
102
{ACAD_REACTORS
330
1949
330
19AC
102
}
330
1E
100
AcDbEntity
  8
STEMPEL
100
AcDbCircle
 10
255.1484450995435
 20
468.8150975042676
 30
0.0
 40
10.0
100
AcDbArc
 50
145.2280559680509
 51
180.0
  0
LINE
  5
14B5
102
{ACAD_REACTORS
330
1949
330
19AC
102
}
330
1E
100
AcDbEntity
  8
STEMPEL
100
AcDbLine
 10
250.1484450995436
 20
498.3150975042677
 30
0.0
 11
250.1484450995436
 21
484.7838169269388
 31
0.0
  0
LINE
  5
14B7
102
{ACAD_REACTORS
330
145E
330
1949
330
19AC
102
}
330
1E
100
AcDbEntity
  8
STEMPEL
100
AcDbLine
 10
245.1484450995435
 20
468.8150975042676
 30
0.0
 11
245.1484450995434
 21
431.3914758354516
 31
0.0
  0
LINE
  5
14B8
102
{ACAD_REACTORS
330
1964
330
19AC
102
}
330
1E
100
AcDbEntity
  8
STEMPEL
100
AcDbLine
 10
102.6487088398514
 20
518.6060975042677
 30
0.0
 11
102.6484450995435
 21
518.6060975042677
 31
0.0
  0
ARC
  5
14B9
102
{ACAD_REACTORS
330
1964
330
19AC
102
}
330
1E
100
AcDbEntity
  8
STEMPEL
100
AcDbCircle
 10
132.6484450995435
 20
518.6060975042677
 30
0.0
 40
29.99973625969209
100
AcDbArc
 50
180.0
 51
205.0071583365423
  0
ARC
  5
14BA
102
{ACAD_REACTORS
330
1964
330
19AC
102
}
330
1E
100
AcDbEntity
  8
STEMPEL
100
AcDbCircle
 10
89.14844509954354
 20
498.3150975042677
 30
0.0
 40
18.0
100
AcDbArc
 50
0.0
 51
25.00715833654233
  0
ARC
  5
14BB
102
{ACAD_REACTORS
330
1964
330
19AC
102
}
330
1E
100
AcDbEntity
  8
STEMPEL
100
AcDbCircle
 10
102.1484450995434
 20
468.8150975042677
 30
0.0
 40
10.0
100
AcDbArc
 50
0.0
 51
34.77194403194904
  0
ARC
  5
14BC
102
{ACAD_REACTORS
330
1964
330
19AC
102
}
330
1E
100
AcDbEntity
  8
STEMPEL
100
AcDbCircle
 10
125.1484450995435
 20
484.7838169269389
 30
0.0
 40
18.0
100
AcDbArc
 50
180.0
 51
214.7719440319491
  0
LINE
  5
14BD
102
{ACAD_REACTORS
330
1964
330
19AC
102
}
330
1E
100
AcDbEntity
  8
STEMPEL
100
AcDbLine
 10
107.1484450995435
 20
498.3150975042677
 30
0.0
 11
107.1484450995434
 21
484.7838169269389
 31
0.0
  0
LINE
  5
14BE
102
{ACAD_REACTORS
330
1964
330
19AC
102
}
330
1E
100
AcDbEntity
  8
STEMPEL
100
AcDbLine
 10
112.1484450995434
 20
468.8150975042677
 30
0.0
 11
112.1484450995432
 21
199.2059451469998
 31
0.0
  0
LINE
  5
14BF
330
1E
100
AcDbEntity
  8
HILF
100
AcDbLine
 10
113.001465757219
 20
480.1523060657681
 30
0.0
 11
244.2954244418681
 21
480.1523060657681
 31
0.0
  0
LINE
  5
14C0
330
1E
100
AcDbEntity
  8
HILF
100
AcDbLine
 10
116.6759743851053
 20
472.5501869084376
 30
0.0
 11
240.6209158139817
 21
472.5501869084375
 31
0.0
  0
LINE
  5
14C1
330
1E
100
AcDbEntity
  8
HILF
100
AcDbLine
 10
111.7085731436663
 20
502.7917729038009
 30
0.0
 11
245.5883170554208
 21
502.7917729038009
 31
0.0
  0
LINE
  5
14C2
102
{ACAD_REACTORS
330
1964
330
19AC
330
19C5
102
}
330
1E
100
AcDbEntity
  8
STEMPEL
100
AcDbLine
 10
102.6484450995435
 20
537.7127200598034
 30
0.0
 11
102.6484450995435
 21
518.6060975042677
 31
0.0
  0
LINE
  5
14C3
102
{ACAD_REACTORS
330
1949
330
19AC
330
19C5
102
}
330
1E
100
AcDbEntity
  8
STEMPEL
100
AcDbLine
 10
254.6484450995436
 20
537.7127200598033
 30
0.0
 11
254.6484450995436
 21
518.6060975042676
 31
0.0
  0
LINE
  5
14C4
102
{ACAD_REACTORS
330
18F6
330
19C5
102
}
330
1E
100
AcDbEntity
  8
STEMPEL
100
AcDbLine
 10
94.49844509954358
 20
551.3150975042676
 30
0.0
 11
262.7984450995437
 21
551.3150975042675
 31
0.0
  0
TEXT
  5
14C5
330
1E
100
AcDbEntity
  8
TEXT
 62
     1
100
AcDbText
 10
168.7756547621324
 20
515.1160354409781
 30
0.0
 40
7.0
  1
DN125
 50
90.0
 41
0.8
  7
GREEKS
100
AcDbText
  0
LINE
  5
14C6
102
{ACAD_REACTORS
330
196D
102
}
330
1E
100
AcDbEntity
  8
STEMPEL
100
AcDbLine
 10
244.4580853851944
 20
191.3150975042676
 30
0.0
 11
112.8388048138925
 21
191.3150975042676
 31
0.0
  0
LINE
  5
14C7
330
1E
100
AcDbEntity
  8
MITTEL
100
AcDbLine
 10
178.6484450995435
 20
556.3150975042677
 30
0.0
 11
178.6484450995435
 21
186.3150975042676
 31
0.0
  0
LINE
  5
15C0
102
{ACAD_REACTORS
330
19AC
102
}
330
1E
100
AcDbEntity
  8
STEMPEL
100
AcDbLine
 10
259.7984450995435
 20
265.3150975042677
 30
0.0
 11
257.7984450995435
 21
267.3150975042677
 31
0.0
  0
LINE
  5
15C2
102
{ACAD_REACTORS
330
19AC
102
}
330
1E
100
AcDbEntity
  8
STEMPEL
100
AcDbLine
 10
257.7984450995435
 20
267.3150975042677
 30
0.0
 11
245.1484450995434
 21
267.3150975042677
 31
0.0
  0
LINE
  5
15C3
330
1E
100
AcDbEntity
  8
STEMPEL
100
AcDbLine
 10
252.5048515600946
 20
257.3150975042677
 30
0.0
 11
245.1484450995434
 21
257.3150975042677
 31
0.0
  0
LINE
  5
15C4
102
{ACAD_REACTORS
330
18F6
102
}
330
1E
100
AcDbEntity
  8
STEMPEL
100
AcDbLine
 10
262.7984450995433
 20
251.3150975042675
 30
0.0
 11
259.8984450995438
 21
251.3150975042674
 31
0.0
  0
LINE
  5
15C6
102
{ACAD_REACTORS
330
19AC
102
}
330
1E
100
AcDbEntity
  8
STEMPEL
100
AcDbLine
 10
112.1484450995438
 20
267.3150975042677
 30
0.0
 11
99.49844509954363
 21
267.3150975042677
 31
0.0
  0
LINE
  5
15C7
330
1E
100
AcDbEntity
  8
STEMPEL
100
AcDbLine
 10
112.1484450995438
 20
257.3150975042677
 30
0.0
 11
104.7920386389926
 21
257.3150975042677
 31
0.0
  0
LINE
  5
15C8
102
{ACAD_REACTORS
330
18F6
102
}
330
1E
100
AcDbEntity
  8
STEMPEL
100
AcDbLine
 10
97.39844509954361
 20
251.3150975042675
 30
0.0
 11
94.4984450995433
 21
251.3150975042675
 31
0.0
  0
LINE
  5
15C9
102
{ACAD_REACTORS
330
19AC
102
}
330
1E
100
AcDbEntity
  8
STEMPEL
100
AcDbLine
 10
97.39844509954361
 20
265.2150975042676
 30
0.0
 11
99.49844509954363
 21
267.3150975042677
 31
0.0
  0
LINE
  5
1614
102
{ACAD_REACTORS
330
19AC
330
19C5
102
}
330
1E
100
AcDbEntity
  8
STEMPEL
100
AcDbLine
 10
259.8984450995437
 20
535.3150975042677
 30
0.0
 11
254.6484450995436
 21
535.3150975042677
 31
0.0
  0
LINE
  5
1615
102
{ACAD_REACTORS
330
18F6
330
1909
330
1A5B
102
}
330
1E
100
AcDbEntity
  8
STEMPEL
100
AcDbLine
 10
262.7984450995437
 20
551.3150975042675
 30
0.0
 11
262.7984450995437
 21
447.0867152432667
 31
0.0
  0
LINE
  5
1616
102
{ACAD_REACTORS
330
18F6
330
19AC
330
19C5
102
}
330
1E
100
AcDbEntity
  8
STEMPEL
100
AcDbLine
 10
259.8984450995437
 20
551.3150975042675
 30
0.0
 11
259.8984450995437
 21
447.0867152432667
 31
0.0
  0
LINE
  5
1617
102
{ACAD_REACTORS
330
18F6
330
19AC
330
19C5
102
}
330
1E
100
AcDbEntity
  8
STEMPEL
100
AcDbLine
 10
97.39844509954355
 20
551.3150975042676
 30
0.0
 11
97.39844509954361
 21
251.3150975042675
 31
0.0
  0
LINE
  5
1618
102
{ACAD_REACTORS
330
19AC
330
19C5
102
}
330
1E
100
AcDbEntity
  8
STEMPEL
100
AcDbLine
 10
102.6484450995435
 20
535.3150975042677
 30
0.0
 11
97.3984450995435
 21
535.3150975042677
 31
0.0
  0
LINE
  5
1619
102
{ACAD_REACTORS
330
18F6
102
}
330
1E
100
AcDbEntity
  8
STEMPEL
100
AcDbLine
 10
94.49844509954358
 20
551.3150975042676
 30
0.0
 11
94.49844509954363
 21
249.3150975042676
 31
0.0
  0
DIMENSION
  5
161C
330
1E
100
AcDbEntity
  8
BEM
100
AcDbDimension
  2
*D2
 10
262.7984450995437
 20
565.0837188922107
 30
0.0
 11
178.6484450995436
 21
571.5837188922107
 31
0.0
 70
    32
  1
%%c<>
 71
     5
 42
168.3
  3
Standard
100
AcDbAlignedDimension
 13
94.49844509954358
 23
551.3150975042676
 33
0.0
 14
262.7984450995437
 24
551.3150975042675
 34
0.0
100
AcDbRotatedDimension
1001
ACAD
1000
DSTYLE
1002
{
1070
    40
1040
2.0
1070
    41
1040
3.5
1070
    42
1040
1.0
1070
    43
1040
7.0
1070
    44
1040
1.0
1070
    73
1070
     0
1070
    74
1070
     0
1070
    77
1070
     1
1070
    78
1070
     8
1070
    79
1070
     2
1070
   140
1040
3.5
1070
   141
1040
1.5
1070
   146
1040
0.5142857142857144
1070
   147
1040
1.5
1070
   172
1070
     1
1070
   178
1070
     1
1070
   179
1070
     2
1070
   271
1070
     2
1070
   272
1070
     2
1070
   284
1070
     8
1070
   285
1070
     8
1070
   286
1070
     8
1070
   289
1070
     0
1070
   340
1005
24
1002
}
  0
LINE
  5
16C3
102
{ACAD_REACTORS
330
19AC
330
19DE
102
}
330
1E
100
AcDbEntity
  8
STEMPEL
100
AcDbLine
 10
361.6554282653515
 20
289.5445839729455
 30
0.0
 11
361.3806644950761
 21
294.7873890304071
 31
0.0
  0
LINE
  5
16C4
102
{ACAD_REACTORS
330
1909
330
1A60
102
}
330
1E
100
AcDbEntity
  8
STEMPEL
100
AcDbLine
 10
377.7852750945291
 20
287.4859336220443
 30
0.0
 11
262.7984450995437
 21
281.4597292152106
 31
0.0
  0
LINE
  5
16C5
102
{ACAD_REACTORS
330
1909
330
19AC
330
19DE
102
}
330
1E
100
AcDbEntity
  8
STEMPEL
100
AcDbLine
 10
377.6335008214246
 20
290.3819592728325
 30
0.0
 11
262.7984450995437
 21
284.3637090186044
 31
0.0
  0
LINE
  5
16C6
102
{ACAD_REACTORS
330
1909
330
19AC
330
19DE
102
}
330
1E
100
AcDbEntity
  8
STEMPEL
100
AcDbLine
 10
369.1289079319464
 20
452.6592586704508
 30
0.0
 11
262.7984450995437
 21
447.0867152432667
 31
0.0
  0
LINE
  5
16C7
102
{ACAD_REACTORS
330
19AC
330
19DE
102
}
330
1E
100
AcDbEntity
  8
STEMPEL
100
AcDbLine
 10
353.4255991461486
 20
446.5790783131023
 30
0.0
 11
353.150835375873
 21
451.8218833705638
 31
0.0
  0
LINE
  5
16C8
102
{ACAD_REACTORS
330
1909
330
1A5B
102
}
330
1E
100
AcDbEntity
  8
STEMPEL
100
AcDbLine
 10
368.9771336588418
 20
455.5552843212391
 30
0.0
 11
262.7984450995437
 21
449.9906950466606
 31
0.0
  0
DIMENSION
  5
16CB
330
1E
100
AcDbEntity
  8
BEM
100
AcDbDimension
  2
*D3
 10
395.1131989672168
 20
288.3940516317973
 30
0.0
 11
397.200220225279
 21
372.7689106969738
 31
0.0
 70
    32
  1
%%c<>
 71
     5
 42
168.3
  3
Standard
100
AcDbAlignedDimension
 13
368.9771336588418
 23
455.5552843212391
 33
0.0
 14
377.7852750945291
 24
287.4859336220443
 34
0.0
 50
272.9999999999991
100
AcDbRotatedDimension
1001
ACAD
1000
DSTYLE
1002
{
1070
    40
1040
2.0
1070
    41
1040
3.5
1070
    42
1040
1.0
1070
    43
1040
7.0
1070
    44
1040
1.0
1070
    73
1070
     0
1070
    74
1070
     0
1070
    77
1070
     1
1070
    78
1070
     8
1070
    79
1070
     2
1070
   140
1040
3.5
1070
   141
1040
1.5
1070
   146
1040
0.5142857142857144
1070
   147
1040
1.5
1070
   172
1070
     1
1070
   178
1070
     1
1070
   179
1070
     2
1070
   271
1070
     2
1070
   272
1070
     2
1070
   284
1070
     8
1070
   285
1070
     8
1070
   286
1070
     8
1070
   289
1070
     0
1070
   340
1005
24
1002
}
  0
DIMENSION
  5
178D
330
1E
100
AcDbEntity
  8
BEM
100
AcDbDimension
  2
*D4
 10
71.99567115631771
 20
361.3150975042678
 30
0.0
 11
65.49567115631764
 21
276.3150975042677
 31
0.0
 70
    32
 71
     5
 42
170.0000000000001
  3
Standard
100
AcDbAlignedDimension
 13
112.8388048138925
 23
191.3150975042676
 33
0.0
 14
178.6484450995435
 24
361.3150975042677
 34
0.0
 50
90.0
100
AcDbRotatedDimension
1001
ACAD
1000
DSTYLE
1002
{
1070
    40
1040
2.0
1070
    41
1040
3.5
1070
    42
1040
1.0
1070
    43
1040
7.0
1070
    44
1040
1.0
1070
    73
1070
     0
1070
    74
1070
     0
1070
    77
1070
     1
1070
    78
1070
     8
1070
    79
1070
     2
1070
   140
1040
3.5
1070
   141
1040
1.5
1070
   146
1040
0.5142857142857144
1070
   147
1040
1.5
1070
   172
1070
     1
1070
   178
1070
     1
1070
   179
1070
     2
1070
   271
1070
     2
1070
   272
1070
     2
1070
   284
1070
     8
1070
   285
1070
     8
1070
   286
1070
     8
1002
}
  0
DIMENSION
  5
17A7
330
1E
100
AcDbEntity
  8
BEM
100
AcDbDimension
  2
*D5
 10
84.71472650593476
 20
191.3150975042676
 30
0.0
 11
78.21472650593474
 21
221.3150975042676
 31
0.0
 70
    32
 71
     5
 42
59.99999999999994
  3
Standard
100
AcDbAlignedDimension
 13
94.49844509954363
 23
251.3150975042675
 33
0.0
 14
112.8388048138925
 24
191.3150975042676
 34
0.0
 50
90.0
100
AcDbRotatedDimension
1001
ACAD
1000
DSTYLE
1002
{
1070
   279
1070
     1
1070
    40
1040
2.0
1070
    41
1040
3.5
1070
    42
1040
1.0
1070
    43
1040
7.0
1070
    44
1040
1.0
1070
    73
1070
     0
1070
    74
1070
     0
1070
    77
1070
     1
1070
    78
1070
     8
1070
    79
1070
     2
1070
   140
1040
3.5
1070
   141
1040
1.5
1070
   146
1040
0.5142857142857144
1070
   147
1040
1.5
1070
   172
1070
     1
1070
   178
1070
     1
1070
   179
1070
     2
1070
   271
1070
     2
1070
   272
1070
     2
1070
   284
1070
     8
1070
   285
1070
     8
1070
   286
1070
     8
1002
}
  0
DIMENSION
  5
17B4
330
1E
100
AcDbEntity
  8
BEM
100
AcDbDimension
  2
*D6
 10
57.07041761285609
 20
191.3150975042676
 30
0.0
 11
50.57041761285606
 21
371.3150975042676
 31
0.0
 70
    32
 71
     5
 42
360.0
  3
Standard
100
AcDbAlignedDimension
 13
94.49844509954358
 23
551.3150975042676
 33
0.0
 14
112.8388048138925
 24
191.3150975042676
 34
0.0
 50
90.0
100
AcDbRotatedDimension
1001
ACAD
1000
DSTYLE
1002
{
1070
    40
1040
2.0
1070
    41
1040
3.5
1070
    42
1040
1.0
1070
    43
1040
7.0
1070
    44
1040
1.0
1070
    73
1070
     0
1070
    74
1070
     0
1070
    77
1070
     1
1070
    78
1070
     8
1070
    79
1070
     2
1070
   140
1040
3.5
1070
   141
1040
1.5
1070
   146
1040
0.5142857142857144
1070
   147
1040
1.5
1070
   172
1070
     1
1070
   178
1070
     1
1070
   179
1070
     2
1070
   271
1070
     2
1070
   272
1070
     2
1070
   284
1070
     8
1070
   285
1070
     8
1070
   286
1070
     8
1002
}
  0
LINE
  5
1876
102
{ACAD_REACTORS
330
18F6
330
19AC
102
}
330
1E
100
AcDbEntity
  8
STEMPEL
100
AcDbLine
 10
262.7984450995437
 20
447.0867152432667
 30
0.0
 11
259.8984450995437
 21
447.0867152432667
 31
0.0
  0
LINE
  5
1877
102
{ACAD_REACTORS
330
18F6
330
19AC
102
}
330
1E
100
AcDbEntity
  8
STEMPEL
100
AcDbLine
 10
262.7984450995437
 20
284.3637090186044
 30
0.0
 11
259.8984450995438
 21
284.3637090186044
 31
0.0
  0
LINE
  5
1878
102
{ACAD_REACTORS
330
18F6
330
1909
330
1A60
102
}
330
1E
100
AcDbEntity
  8
STEMPEL
100
AcDbLine
 10
262.7984450995437
 20
284.3637090186044
 30
0.0
 11
262.7984450995437
 21
249.3150975042666
 31
0.0
  0
LINE
  5
1879
102
{ACAD_REACTORS
330
18F6
330
19AC
102
}
330
1E
100
AcDbEntity
  8
STEMPEL
100
AcDbLine
 10
259.8984450995438
 20
284.3637090186044
 30
0.0
 11
259.8984450995438
 21
251.3150975042674
 31
0.0
  0
LINE
  5
1882
102
{ACAD_REACTORS
330
18DF
102
}
330
1E
100
AcDbEntity
  8
STEMPEL
100
AcDbLine
 10
287.6447665598848
 20
431.1151828058915
 30
0.0
 11
242.6484450995435
 21
428.7570255222493
 31
0.0
  0
ARC
  5
1883
102
{ACAD_REACTORS
330
18DF
102
}
330
1E
100
AcDbEntity
  8
STEMPEL
100
AcDbCircle
 10
286.990567106848
 20
443.5980519903235
 30
0.0
 40
12.5
100
AcDbArc
 50
272.9999999999999
 51
307.7719440319482
  0
ARC
  5
1885
102
{ACAD_REACTORS
330
18DF
102
}
330
1E
100
AcDbEntity
  8
STEMPEL
100
AcDbCircle
 10
304.1411289481242
 20
421.465310891929
 30
0.0
 40
15.5
100
AcDbArc
 50
92.99999999999949
 51
127.7719440319484
  0
LINE
  5
1887
102
{ACAD_REACTORS
330
18DF
102
}
330
1E
100
AcDbEntity
  8
STEMPEL
100
AcDbLine
 10
316.8426580539297
 20
437.6522411888311
 30
0.0
 11
303.3299216263588
 21
436.9440686806252
 31
0.0
  0
ARC
  5
1888
102
{ACAD_REACTORS
330
18DF
102
}
330
1E
100
AcDbEntity
  8
STEMPEL
100
AcDbCircle
 10
315.7697709509497
 20
458.1241466512998
 30
0.0
 40
20.5
100
AcDbArc
 50
272.9999999999992
 51
298.0071583365525
  0
ARC
  5
188A
102
{ACAD_REACTORS
330
18DF
102
}
330
1E
100
AcDbEntity
  8
STEMPEL
100
AcDbCircle
 10
338.309576937223
 20
415.7457107776013
 30
0.0
 40
27.4997362596921
100
AcDbArc
 50
92.9999999999989
 51
118.0071583365526
  0
LINE
  5
188B
102
{ACAD_REACTORS
330
18DF
102
}
330
1E
100
AcDbEntity
  8
STEMPEL
100
AcDbLine
 10
355.950775733908
 20
444.2079863453692
 30
0.0
 11
336.8703381405419
 21
443.2080229833523
 31
0.0
  0
ARC
  5
188C
102
{ACAD_REACTORS
330
18DF
102
}
330
1E
100
AcDbEntity
  8
STEMPEL
100
AcDbCircle
 10
357.3900145305889
 20
416.7456741396184
 30
0.0
 40
27.5
100
AcDbArc
 50
67.99999999999754
 51
93.0
  0
LINE
  5
188D
102
{ACAD_REACTORS
330
18DF
102
}
330
1E
100
AcDbEntity
  8
STEMPEL
100
AcDbLine
 10
369.7176874396793
 20
441.4246764044618
 30
0.0
 11
367.6916958495275
 21
442.2432301402046
 31
0.0
  0
LINE
  5
188E
102
{ACAD_REACTORS
330
18DE
102
}
330
1E
100
AcDbEntity
  8
STEMPEL
100
AcDbLine
 10
294.3437689589817
 20
303.290602357306
 30
0.0
 11
242.6484450995435
 21
300.5813652345152
 31
0.0
  0
ARC
  5
188F
102
{ACAD_REACTORS
330
18DE
102
}
330
1E
100
AcDbEntity
  8
STEMPEL
100
AcDbCircle
 10
294.9979684120185
 20
290.8077331728737
 30
0.0
 40
12.5
100
AcDbArc
 50
58.2280559680517
 51
93.00000000000009
  0
ARC
  5
1891
102
{ACAD_REACTORS
330
18DE
102
}
330
1E
100
AcDbEntity
  8
STEMPEL
100
AcDbCircle
 10
309.7410762661193
 20
314.6119506731896
 30
0.0
 40
15.5
100
AcDbArc
 50
238.2280559680515
 51
272.9999999999999
  0
LINE
  5
1893
102
{ACAD_REACTORS
330
18DE
102
}
330
1E
100
AcDbEntity
  8
STEMPEL
100
AcDbLine
 10
324.0650200154564
 20
299.8413653927
 30
0.0
 11
310.5522835878849
 21
299.1331928844939
 31
0.0
  0
ARC
  5
1894
102
{ACAD_REACTORS
330
18DE
102
}
330
1E
100
AcDbEntity
  8
STEMPEL
100
AcDbCircle
 10
325.1379071184367
 20
279.3694599302311
 30
0.0
 40
20.5
100
AcDbArc
 50
67.99284166344778
 51
93.00000000000002
  0
ARC
  5
1896
102
{ACAD_REACTORS
330
18DE
102
}
330
1E
100
AcDbEntity
  8
STEMPEL
100
AcDbCircle
 10
343.1244849115736
 20
323.8717935801806
 30
0.0
 40
27.4997362596921
100
AcDbArc
 50
247.9928416634476
 51
272.9999999999989
  0
LINE
  5
1897
102
{ACAD_REACTORS
330
18DE
102
}
330
1E
100
AcDbEntity
  8
STEMPEL
100
AcDbLine
 10
363.6441613016204
 20
297.4094447364469
 30
0.0
 11
344.5637237082544
 21
296.40948137443
 31
0.0
  0
ARC
  5
1898
102
{ACAD_REACTORS
330
18DE
102
}
330
1E
100
AcDbEntity
  8
STEMPEL
100
AcDbCircle
 10
362.2049225049395
 20
324.8717569421976
 30
0.0
 40
27.5
100
AcDbArc
 50
272.9999999999999
 51
298.0000000000078
  0
LINE
  5
1899
102
{ACAD_REACTORS
330
18DE
102
}
330
1E
100
AcDbEntity
  8
STEMPEL
100
AcDbLine
 10
377.0447213136915
 20
301.6165415388216
 30
0.0
 11
375.1153904815549
 21
300.5906981385789
 31
0.0
  0
HATCH
  5
18DE
330
1E
100
AcDbEntity
  8
SCHRAFF
100
AcDbHatch
 10
0.0
 20
0.0
 30
0.0
210
0.0
220
0.0
230
1.0
  2
_USER
 70
     0
 71
     1
 91
        1
 92
       33
 93
       19
 72
     1
 10
294.3437689589817
 20
303.290602357306
 11
242.6484450995435
 21
300.5813652345152
 72
     1
 10
294.474608849589
 20
300.7940285204195
 11
245.1484450995434
 21
298.208953817728
 72
     1
 10
324.0650200154564
 20
299.8413653927
 11
310.5522835878849
 21
299.1331928844939
 72
     2
 10
309.7410762661193
 20
314.6119506731896
 40
15.5
 50
238.2280559680515
 51
272.9999999999999
 73
     1
 72
     2
 10
294.9979684120185
 20
290.8077331728737
 40
12.5
 50
58.2280559680517
 51
93.00000000000009
 73
     1
 72
     2
 10
309.7410762661193
 20
314.6119506731896
 40
18.0
 50
238.2280559680535
 51
272.9999999999989
 73
     1
 72
     2
 10
294.9979684120185
 20
290.8077331728737
 40
10.0
 50
58.22805596805353
 51
92.9999999999989
 73
     1
 72
     1
 10
324.1958599060636
 20
297.3447915558135
 11
310.6831234784922
 21
296.6366190476074
 72
     1
 10
363.6441613016204
 20
297.4094447364469
 11
344.5637237082544
 21
296.40948137443
 72
     2
 10
343.1244849115736
 20
323.8717935801806
 40
27.4997362596921
 50
247.9928416634476
 51
272.9999999999989
 73
     1
 72
     2
 10
325.1379071184367
 20
279.3694599302311
 40
20.5
 50
67.99284166344778
 51
93.00000000000002
 73
     1
 72
     1
 10
344.6945497957606
 20
293.9131709164046
 11
344.6945635988618
 21
293.9129075375435
 72
     2
 10
343.1244849115736
 20
323.8717935801806
 40
29.99973625969209
 50
247.9928416634578
 51
272.9999999999989
 73
     1
 72
     2
 10
325.1379071184367
 20
279.3694599302311
 40
18.0
 50
67.99284166345775
 51
92.9999999999989
 73
     1
 72
     1
 10
363.7750011922278
 20
294.9128708995605
 11
344.6945635988618
 21
293.9129075375435
 72
     1
 10
377.0447213136915
 20
301.6165415388216
 11
375.1153904815549
 21
300.5906981385789
 72
     2
 10
362.2049225049395
 20
324.8717569421976
 40
27.5
 50
272.9999999999999
 51
298.0000000000078
 73
     1
 72
     1
 10
377.1890871599071
 20
298.8618770941414
 11
376.2890693885165
 21
298.38332915643
 72
     2
 10
362.2049225049395
 20
324.8717569421976
 40
30.0
 50
272.9999999999989
 51
297.9999999999932
 73
     1
 97
       19
330
188E
330
148D
330
1893
330
1891
330
188F
330
149D
330
149C
330
149B
330
1897
330
1896
330
1894
330
14A0
330
149F
330
149E
330
1490
330
1899
330
1898
330
14A4
330
14A3
 75
     0
 76
     0
 52
135.0
 41
2.0
 77
     0
 78
     1
 53
135.0
 43
9.14787584925898
 44
16.25312559071062
 45
-1.414213562373095
 46
-1.414213562373094
 79
     0
 98
        1
 10
9.14787584925898
 20
16.25312559071062
  0
HATCH
  5
18DF
330
1E
100
AcDbEntity
  8
SCHRAFF
100
AcDbHatch
 10
0.0
 20
0.0
 30
0.0
210
0.0
220
0.0
230
1.0
  2
_USER
 70
     0
 71
     1
 91
        1
 92
       33
 93
       19
 72
     1
 10
369.7176874396793
 20
441.4246764044618
 11
367.6916958495275
 21
442.2432301402046
 72
     2
 10
357.3900145305889
 20
416.7456741396184
 40
27.5
 50
67.99999999999754
 51
93.0
 73
     1
 72
     1
 10
355.950775733908
 20
444.2079863453692
 11
336.8703381405419
 21
443.2080229833523
 72
     2
 10
338.309576937223
 20
415.7457107776013
 40
27.4997362596921
 50
92.9999999999989
 51
118.0071583365526
 73
     1
 72
     2
 10
315.7697709509497
 20
458.1241466512998
 40
20.5
 50
272.9999999999992
 51
298.0071583365525
 73
     1
 72
     1
 10
316.8426580539297
 20
437.6522411888311
 11
303.3299216263588
 21
436.9440686806252
 72
     2
 10
304.1411289481242
 20
421.465310891929
 40
15.5
 50
92.99999999999949
 51
127.7719440319484
 73
     1
 72
     2
 10
286.990567106848
 20
443.5980519903235
 40
12.5
 50
272.9999999999999
 51
307.7719440319482
 73
     1
 72
     1
 10
287.6447665598848
 20
431.1151828058915
 11
242.6484450995435
 21
428.7570255222493
 72
     1
 10
369.5733215934637
 20
444.1793408491417
 11
368.6282123330664
 21
444.561189776622
 72
     2
 10
357.3900145305889
 20
416.7456741396184
 40
30.0
 50
68.00000000000531
 51
92.9999999999989
 73
     1
 72
     1
 10
336.7395120530357
 20
445.7043334413777
 11
336.7394982499345
 21
445.7045968202388
 72
     2
 10
338.309576937223
 20
415.7457107776013
 40
29.99973625969209
 50
92.9999999999989
 51
118.0071583365469
 73
     1
 72
     2
 10
315.7697709509497
 20
458.1241466512998
 40
18.0
 50
272.9999999999989
 51
298.007158336547
 73
     1
 72
     2
 10
286.990567106848
 20
443.5980519903235
 40
10.0
 50
272.9999999999989
 51
307.7719440319492
 73
     1
 72
     2
 10
304.1411289481242
 20
421.465310891929
 40
18.0
 50
92.9999999999989
 51
127.7719440319492
 73
     1
 72
     1
 10
316.7118181633227
 20
440.1488150257176
 11
303.1990817357512
 21
439.4406425175116
 72
     1
 10
355.8199358433003
 20
446.7045601822557
 11
336.7394982499345
 21
445.7045968202388
 72
     1
 10
287.5139266692774
 20
433.611756642778
 11
245.1484450995434
 21
431.3914758354516
 97
       19
330
188D
330
188C
330
188B
330
188A
330
1888
330
1887
330
1885
330
1883
330
1882
330
14A2
330
14A1
330
149A
330
1499
330
1498
330
1497
330
1496
330
1495
330
1491
330
148C
 75
     0
 76
     0
 52
135.0
 41
2.0
 77
     0
 78
     1
 53
135.0
 43
9.14787584925898
 44
16.25312559071062
 45
-1.414213562373095
 46
-1.414213562373094
 79
     0
 98
        1
 10
9.14787584925898
 20
16.25312559071062
  0
HATCH
  5
18F6
330
1E
100
AcDbEntity
  8
SCHRAFF
100
AcDbHatch
 10
0.0
 20
0.0
 30
0.0
210
0.0
220
0.0
230
1.0
  2
_USER
 70
     0
 71
     1
 91
        3
 92
        7
 72
     0
 73
     1
 93
        4
 10
262.7984450995437
 20
551.3150975042675
 10
259.8984450995437
 20
551.3150975042674
 10
259.8984450995437
 20
447.0867152432667
 10
262.7984450995437
 20
447.0867152432667
 97
        4
330
14C4
330
1616
330
1876
330
1615
 92
        7
 72
     0
 73
     1
 93
        4
 10
97.39844509954355
 20
551.3150975042678
 10
94.49844509954358
 20
551.3150975042676
 10
94.49844509954363
 20
251.3150975042675
 10
97.39844509954362
 20
251.3150975042675
 97
        4
330
14C4
330
1619
330
15C8
330
1617
 92
        7
 72
     0
 73
     1
 93
        4
 10
259.8984450995438
 20
251.3150975042674
 10
262.7984450995437
 20
251.3150975042674
 10
262.7984450995436
 20
284.3637090186044
 10
259.8984450995438
 20
284.3637090186044
 97
        4
330
1877
330
1879
330
15C4
330
1878
 75
     0
 76
     0
 52
135.0
 41
2.0
 77
     0
 78
     1
 53
135.0
 43
9.14787584925898
 44
16.25312559071062
 45
-1.414213562373095
 46
-1.414213562373094
 79
     0
 47
0.6495908753015552
 98
        3
 10
261.856359067152
 20
499.0811564709003
 10
96.09417312010601
 20
494.5340202795971
 10
261.206311204201
 20
277.5706681130821
  0
HATCH
  5
1909
330
1E
100
AcDbEntity
  8
SCHRAFF
100
AcDbHatch
 10
0.0
 20
0.0
 30
0.0
210
0.0
220
0.0
230
1.0
  2
_USER
 70
     0
 71
     1
 91
        2
 92
        7
 72
     0
 73
     1
 93
        4
 10
262.7984450995437
 20
449.9906950466606
 10
262.7984450995437
 20
447.0867152432666
 10
369.1289079319462
 20
452.6592586704508
 10
368.9771336588417
 20
455.5552843212391
 97
        4
330
148F
330
16C8
330
1615
330
16C6
 92
        7
 72
     0
 73
     1
 93
        4
 10
262.7984450995437
 20
284.3637090186044
 10
262.7984450995437
 20
281.4597292152106
 10
377.7852750945293
 20
287.4859336220443
 10
377.6335008214247
 20
290.3819592728325
 97
        4
330
148F
330
16C5
330
1878
330
16C4
 75
     0
 76
     0
 52
45.0
 41
2.0
 77
     0
 78
     1
 53
45.0
 43
9.14787584925898
 44
16.25312559071062
 45
-1.414213562373094
 46
1.414213562373095
 79
     0
 47
0.6495908753015552
 98
        2
 10
292.408605896499
 20
450.3618405413951
 10
285.9081299963431
 20
284.7161672334414
  0
ARC
  5
1912
102
{ACAD_REACTORS
330
1949
102
}
330
1E
100
AcDbEntity
  8
STEMPEL
100
AcDbCircle
 10
224.6484450995435
 20
537.7127200598033
 30
0.0
 40
27.5
100
AcDbArc
 50
0.0
 51
24.99999999999207
  0
LINE
  5
1913
102
{ACAD_REACTORS
330
1949
102
}
330
1E
100
AcDbEntity
  8
STEMPEL
100
AcDbLine
 10
248.6484450995435
 20
551.3150975042675
 30
0.0
 11
249.5719092430515
 21
549.3347222576727
 31
0.0
  0
LINE
  5
1914
102
{ACAD_REACTORS
330
1949
102
}
330
1E
100
AcDbEntity
  8
STEMPEL
100
AcDbLine
 10
252.1484450995436
 20
537.7127200598033
 30
0.0
 11
252.1484450995436
 21
518.6060975042676
 31
0.0
  0
ARC
  5
1915
102
{ACAD_REACTORS
330
1949
102
}
330
1E
100
AcDbEntity
  8
STEMPEL
100
AcDbCircle
 10
224.6484450995435
 20
518.6060975042676
 30
0.0
 40
27.4997362596921
100
AcDbArc
 50
334.9928416634577
 51
0.0
  0
ARC
  5
1916
102
{ACAD_REACTORS
330
1949
102
}
330
1E
100
AcDbEntity
  8
STEMPEL
100
AcDbCircle
 10
268.1484450995435
 20
498.3150975042677
 30
0.0
 40
20.5
100
AcDbArc
 50
154.9928416634576
 51
180.0
  0
LINE
  5
1918
102
{ACAD_REACTORS
330
1949
102
}
330
1E
100
AcDbEntity
  8
STEMPEL
100
AcDbLine
 10
247.6484450995435
 20
498.3150975042677
 30
0.0
 11
247.6484450995435
 21
484.7838169269388
 31
0.0
  0
ARC
  5
1919
102
{ACAD_REACTORS
330
1949
102
}
330
1E
100
AcDbEntity
  8
STEMPEL
100
AcDbCircle
 10
232.1484450995435
 20
484.7838169269388
 30
0.0
 40
15.5
100
AcDbArc
 50
325.228055968051
 51
0.0
  0
ARC
  5
191B
102
{ACAD_REACTORS
330
1949
102
}
330
1E
100
AcDbEntity
  8
STEMPEL
100
AcDbCircle
 10
255.1484450995435
 20
468.8150975042676
 30
0.0
 40
12.5
100
AcDbArc
 50
145.2280559680509
 51
180.0
  0
LINE
  5
191D
102
{ACAD_REACTORS
330
1949
102
}
330
1E
100
AcDbEntity
  8
STEMPEL
100
AcDbLine
 10
242.6484450995435
 20
468.8150975042676
 30
0.0
 11
242.6484450995435
 21
428.7570255222493
 31
0.0
  0
LINE
  5
191E
102
{ACAD_REACTORS
330
1964
102
}
330
1E
100
AcDbEntity
  8
STEMPEL
100
AcDbLine
 10
108.6484450995436
 20
551.3150975042676
 30
0.0
 11
107.7249809560356
 21
549.3347222576727
 31
0.0
  0
ARC
  5
1920
102
{ACAD_REACTORS
330
1964
102
}
330
1E
100
AcDbEntity
  8
STEMPEL
100
AcDbCircle
 10
132.6484450995435
 20
537.7127200598034
 30
0.0
 40
27.5
100
AcDbArc
 50
155.0000000000079
 51
180.0
  0
LINE
  5
1921
102
{ACAD_REACTORS
330
1964
102
}
330
1E
100
AcDbEntity
  8
STEMPEL
100
AcDbLine
 10
105.1484450995435
 20
537.7127200598034
 30
0.0
 11
105.1484450995435
 21
518.6060975042677
 31
0.0
  0
ARC
  5
1922
102
{ACAD_REACTORS
330
1964
102
}
330
1E
100
AcDbEntity
  8
STEMPEL
100
AcDbCircle
 10
132.6484450995435
 20
518.6060975042677
 30
0.0
 40
27.4997362596921
100
AcDbArc
 50
180.0
 51
205.0071583365423
  0
ARC
  5
1923
102
{ACAD_REACTORS
330
1964
102
}
330
1E
100
AcDbEntity
  8
STEMPEL
100
AcDbCircle
 10
89.14844509954354
 20
498.3150975042677
 30
0.0
 40
20.5
100
AcDbArc
 50
0.0
 51
25.00715833654233
  0
LINE
  5
1925
102
{ACAD_REACTORS
330
1964
102
}
330
1E
100
AcDbEntity
  8
STEMPEL
100
AcDbLine
 10
109.6484450995435
 20
498.3150975042677
 30
0.0
 11
109.6484450995434
 21
484.7838169269389
 31
0.0
  0
ARC
  5
1926
102
{ACAD_REACTORS
330
1964
102
}
330
1E
100
AcDbEntity
  8
STEMPEL
100
AcDbCircle
 10
125.1484450995435
 20
484.7838169269389
 30
0.0
 40
15.5
100
AcDbArc
 50
180.0
 51
214.7719440319491
  0
ARC
  5
1928
102
{ACAD_REACTORS
330
1964
102
}
330
1E
100
AcDbEntity
  8
STEMPEL
100
AcDbCircle
 10
102.1484450995434
 20
468.8150975042677
 30
0.0
 40
12.5
100
AcDbArc
 50
0.0
 51
34.77194403194904
  0
LINE
  5
192A
102
{ACAD_REACTORS
330
1964
102
}
330
1E
100
AcDbEntity
  8
STEMPEL
100
AcDbLine
 10
114.6484450995434
 20
468.8150975042677
 30
0.0
 11
114.6484450995432
 21
199.3150975042711
 31
0.0
  0
LINE
  5
192B
102
{ACAD_REACTORS
330
196D
102
}
330
1E
100
AcDbEntity
  8
STEMPEL
100
AcDbLine
 10
242.6484450995435
 20
300.5813652345153
 30
0.0
 11
242.6484450995435
 21
199.3150975042678
 31
0.0
  0
LINE
  5
192C
102
{ACAD_REACTORS
330
196D
102
}
330
1E
100
AcDbEntity
  8
STEMPEL
100
AcDbLine
 10
242.6484450995435
 20
199.3150975042678
 30
0.0
 11
241.948535791336
 21
191.3150975042676
 31
0.0
  0
LINE
  5
192E
102
{ACAD_REACTORS
330
1964
102
}
330
1E
100
AcDbEntity
  8
STEMPEL
100
AcDbLine
 10
114.6484450995432
 20
199.3150975042711
 30
0.0
 11
115.3483544077508
 21
191.3150975042676
 31
0.0
  0
HATCH
  5
1949
330
1E
100
AcDbEntity
  8
SCHRAFF
100
AcDbHatch
 10
0.0
 20
0.0
 30
0.0
210
0.0
220
0.0
230
1.0
  2
_USER
 70
     0
 71
     1
 91
        1
 92
       33
 93
       19
 72
     1
 10
242.6484450995435
 20
468.8150975042676
 11
242.6484450995435
 21
428.7570255222493
 72
     2
 10
255.1484450995435
 20
468.8150975042676
 40
12.5
 50
145.2280559680509
 51
180.0
 73
     1
 72
     2
 10
232.1484450995435
 20
484.7838169269388
 40
15.5
 50
325.228055968051
 51
360.0
 73
     1
 72
     1
 10
247.6484450995435
 20
498.3150975042677
 11
247.6484450995435
 21
484.7838169269388
 72
     2
 10
268.1484450995435
 20
498.3150975042677
 40
20.5
 50
154.9928416634576
 51
180.0
 73
     1
 72
     2
 10
224.6484450995435
 20
518.6060975042676
 40
27.4997362596921
 50
334.9928416634577
 51
360.0
 73
     1
 72
     1
 10
252.1484450995436
 20
537.7127200598033
 11
252.1484450995436
 21
518.6060975042676
 72
     1
 10
248.6484450995435
 20
551.3150975042675
 11
249.5719092430515
 21
549.3347222576727
 72
     2
 10
224.6484450995435
 20
537.7127200598033
 40
27.5
 50
0.0
 51
24.99999999999207
 73
     1
 72
     1
 10
254.6484450995436
 20
537.7127200598033
 11
254.6484450995436
 21
518.6060975042676
 72
     1
 10
245.1484450995435
 20
468.8150975042676
 11
245.1484450995434
 21
431.3914758354516
 72
     1
 10
250.1484450995436
 20
498.3150975042677
 11
250.1484450995436
 21
484.7838169269388
 72
     2
 10
255.1484450995435
 20
468.8150975042676
 40
10.0
 50
145.2280559680509
 51
180.0
 73
     1
 72
     2
 10
232.1484450995435
 20
484.7838169269388
 40
18.0
 50
325.228055968051
 51
360.0
 73
     1
 72
     2
 10
268.1484450995435
 20
498.3150975042677
 40
18.0
 50
154.9928416634576
 51
180.0
 73
     1
 72
     2
 10
224.6484450995435
 20
518.6060975042676
 40
29.99973625969209
 50
334.9928416634577
 51
360.0
 73
     1
 72
     1
 10
254.6481813592357
 20
518.6060975042676
 11
254.6484450995436
 21
518.6060975042676
 72
     2
 10
224.6484450995435
 20
537.7127200598033
 40
30.0
 50
0.0
 51
24.99999999999207
 73
     1
 72
     1
 10
251.4068898969498
 20
551.3150975042676
 11
251.837678710643
 21
550.3912679120246
 97
       19
330
191D
330
191B
330
1919
330
1918
330
1916
330
1915
330
1914
330
1913
330
1912
330
14C3
330
14B7
330
14B5
330
14B4
330
14B3
330
14B2
330
14B1
330
14B0
330
14AD
330
14AC
 75
     0
 76
     0
 52
45.0
 41
2.0
 77
     0
 78
     1
 53
45.0
 43
9.14787584925898
 44
16.25312559071062
 45
-1.414213562373094
 46
1.414213562373095
 79
     0
 98
        1
 10
9.14787584925898
 20
16.25312559071062
  0
HATCH
  5
1964
330
1E
100
AcDbEntity
  8
SCHRAFF
100
AcDbHatch
 10
0.0
 20
0.0
 30
0.0
210
0.0
220
0.0
230
1.0
  2
_USER
 70
     0
 71
     1
 91
        1
 92
       33
 93
       21
 72
     2
 10
102.1484450995434
 20
468.8150975042677
 40
12.5
 50
0.0
 51
34.77194403194904
 73
     1
 72
     2
 10
125.1484450995435
 20
484.7838169269389
 40
15.5
 50
180.0
 51
214.7719440319491
 73
     1
 72
     1
 10
109.6484450995435
 20
498.3150975042677
 11
109.6484450995434
 21
484.7838169269389
 72
     2
 10
89.14844509954354
 20
498.3150975042677
 40
20.5
 50
0.0
 51
25.00715833654233
 73
     1
 72
     2
 10
132.6484450995435
 20
518.6060975042677
 40
27.4997362596921
 50
180.0
 51
205.0071583365423
 73
     1
 72
     1
 10
105.1484450995435
 20
537.7127200598034
 11
105.1484450995435
 21
518.6060975042677
 72
     2
 10
132.6484450995435
 20
537.7127200598034
 40
27.5
 50
155.0000000000079
 51
180.0
 73
     1
 72
     1
 10
108.6484450995436
 20
551.3150975042676
 11
107.7249809560356
 21
549.3347222576727
 72
     1
 10
102.6484450995435
 20
537.7127200598034
 11
102.6484450995435
 21
518.6060975042677
 72
     1
 10
107.1484450995435
 20
498.3150975042677
 11
107.1484450995434
 21
484.7838169269389
 72
     2
 10
125.1484450995435
 20
484.7838169269389
 40
18.0
 50
180.0
 51
214.7719440319491
 73
     1
 72
     2
 10
102.1484450995434
 20
468.8150975042677
 40
10.0
 50
0.0
 51
34.77194403194904
 73
     1
 72
     2
 10
89.14844509954354
 20
498.3150975042677
 40
18.0
 50
0.0
 51
25.00715833654233
 73
     1
 72
     2
 10
132.6484450995435
 20
518.6060975042677
 40
29.99973625969209
 50
180.0
 51
205.0071583365423
 73
     1
 72
     1
 10
102.6487088398514
 20
518.6060975042677
 11
102.6484450995435
 21
518.6060975042677
 72
     2
 10
132.6484450995435
 20
537.7127200598034
 40
30.0
 50
155.0000000000079
 51
180.0
 73
     1
 72
     1
 10
105.8900003021373
 20
551.3150975042676
 11
105.4592114884441
 21
550.3912679120246
 72
     1
 10
114.6484450995434
 20
468.8150975042677
 11
114.6484450995432
 21
199.3150975042712
 72
     1
 10
112.1484450995434
 20
468.8150975042677
 11
112.1484450995432
 21
199.2059451469998
 72
     1
 10
114.6484450995432
 20
199.3150975042711
 11
115.3483544077508
 21
191.3150975042676
 72
     1
 10
112.1484450995432
 20
199.2059451469998
 11
112.8388048138925
 21
191.3150975042676
 97
       21
330
1928
330
1926
330
1925
330
1923
330
1922
330
1921
330
1920
330
191E
330
14C2
330
14BD
330
14BC
330
14BB
330
14BA
330
14B9
330
14B8
330
14AF
330
14AE
330
192A
330
14BE
330
192E
330
14AA
 75
     0
 76
     0
 52
45.0
 41
2.0
 77
     0
 78
     1
 53
45.0
 43
9.14787584925898
 44
16.25312559071062
 45
-1.414213562373094
 46
1.414213562373095
 79
     0
 98
        1
 10
9.14787584925898
 20
16.25312559071062
  0
HATCH
  5
196D
330
1E
100
AcDbEntity
  8
SCHRAFF
100
AcDbHatch
 10
0.0
 20
0.0
 30
0.0
210
0.0
220
0.0
230
1.0
  2
_USER
 70
     0
 71
     1
 91
        1
 92
        7
 72
     0
 73
     1
 93
        6
 10
242.6484450995435
 20
199.3150975042677
 10
241.948535791336
 20
191.3150975042676
 10
244.4580853851944
 20
191.3150975042676
 10
245.1484450995434
 20
199.2059451469961
 10
245.1484450995434
 20
298.208953817728
 10
242.6484450995435
 20
300.5813652345152
 97
        6
330
1487
330
192B
330
192C
330
14C6
330
14A9
330
1489
 75
     0
 76
     0
 52
45.0
 41
2.0
 77
     0
 78
     1
 53
45.0
 43
9.14787584925898
 44
16.25312559071062
 45
-1.414213562373094
 46
1.414213562373095
 79
     0
 47
0.2740205141320103
 98
        1
 10
243.4290364596654
 20
268.1233222911351
  0
HATCH
  5
19AC
330
1E
100
AcDbEntity
  8
SCHRAFF
100
AcDbHatch
 10
0.0
 20
0.0
 30
0.0
210
0.0
220
0.0
230
1.0
  2
HONEY
 70
     0
 71
     1
 91
        3
 92
        7
 72
     1
 73
     1
 93
       22
 10
259.8984450995437
 20
447.0867152432668
 42
0.0
 10
259.8984450995437
 20
535.3150975042677
 42
0.0
 10
254.6484450995435
 20
535.3150975042677
 42
0.0
 10
254.6484450995436
 20
518.6060975042675
 42
0.0
 10
254.6481813592357
 20
518.6060975042676
 42
-0.1095494205537221
 10
251.835855468558
 20
505.9242643135223
 42
0.1095494205538412
 10
250.1484450995436
 20
498.3150975042675
 42
0.0
 10
250.1484450995436
 20
484.7838169269388
 42
-0.1528962216020418
 10
246.9341593852577
 20
474.5182115837928
 42
0.1528962216020348
 10
245.1484450995435
 20
468.8150975042675
 42
0.0
 10
245.1484450995434
 20
435.7496948492157
 42
-0.2321436963127322
 10
249.5006913256172
 20
431.6195673950532
 42
0.0
 10
287.5139266692774
 20
433.611756642778
 42
0.1528962216020435
 10
293.1157677644469
 20
435.6935015980399
 42
-0.1528962216020354
 10
303.1990817357512
 20
439.4406425175116
 42
0.0
 10
316.7118181633227
 20
440.1488150257176
 42
0.1095494205537708
 10
324.2222446386778
 20
442.2321458786384
 42
-0.1095494205537634
 10
336.7395120530357
 20
445.7043334413776
 42
0.0
 10
336.7394982499345
 20
445.7045968202388
 42
0.0
 10
353.4255991461486
 20
446.5790783131022
 42
0.0
 10
353.150835375873
 20
451.8218833705637
 42
0.0
 10
262.7984450995436
 20
447.0867152432667
 42
0.0
 97
       22
330
1499
330
149A
330
1491
330
16C7
330
16C6
330
1876
330
1616
330
1614
330
14C3
330
14B0
330
14B1
330
14B2
330
14B5
330
14B3
330
14B4
330
14B7
330
145F
330
148C
330
1497
330
1496
330
1495
330
1498
 92
        7
 72
     1
 73
     1
 93
       16
 10
259.8984450995437
 20
284.3637090186044
 42
0.0
 10
262.7984450995438
 20
284.3637090186044
 42
0.0
 10
361.6554282653515
 20
289.5445839729454
 42
0.0
 10
361.3806644950762
 20
294.7873890304069
 42
0.0
 10
344.6945635988618
 20
293.9129075375435
 42
0.0
 10
344.6945497957606
 20
293.9131709164046
 42
-0.1095494205537205
 10
331.8829108518963
 20
296.0579267452388
 42
0.1095494205538411
 10
324.1958599060637
 20
297.3447915558135
 42
0.0
 10
310.6831234784922
 20
296.6366190476074
 42
-0.152896221602029
 10
300.2633640741979
 20
299.3092394229862
 42
0.1528962216020576
 10
294.474608849589
 20
300.7940285204195
 42
0.0
 10
249.2785725537058
 20
298.4254046257566
 42
-0.2946176943252032
 10
245.1484450995434
 20
294.0731583996828
 42
0.0
 10
245.1484450995434
 20
267.3150975042677
 42
0.0
 10
257.7984450995435
 20
267.3150975042677
 42
0.0
 10
259.8984450995438
 20
265.2150975042674
 42
0.0
 97
       16
330
1490
330
14A0
330
149F
330
149E
330
149B
330
149D
330
149C
330
148D
330
1474
330
1489
330
15C2
330
15C0
330
1879
330
1877
330
16C5
330
16C3
 92
        7
 72
     1
 73
     1
 93
       12
 10
97.39844509954359
 20
265.2150975042675
 42
0.0
 10
99.49844509954367
 20
267.3150975042677
 42
0.0
 10
112.1484450995432
 20
267.3150975042677
 42
0.0
 10
112.1484450995434
 20
468.8150975042677
 42
0.1528962216020394
 10
110.3627308138292
 20
474.5182115837931
 42
-0.1528962216020392
 10
107.1484450995434
 20
484.7838169269389
 42
0.0
 10
107.1484450995435
 20
498.3150975042677
 42
0.1095494205537671
 10
105.4610347305313
 20
505.9242643135176
 42
-0.1095494205537665
 10
102.6487088398514
 20
518.6060975042677
 42
0.0
 10
102.6484450995435
 20
518.6060975042677
 42
0.0
 10
102.6484450995435
 20
535.3150975042677
 42
0.0
 10
97.39844509954357
 20
535.3150975042677
 42
0.0
 97
       12
330
14BB
330
14BC
330
14BD
330
14BA
330
14B9
330
14B8
330
14C2
330
1618
330
1617
330
15C9
330
15C6
330
14BE
 75
     0
 76
     1
 52
0.0
 41
30.0
 77
     0
 78
     3
 53
0.0
 43
9.14787584925898
 44
16.25312559071062
 45
5.625
 46
3.247595249999999
 79
     2
 49
3.75
 49
-7.5
 53
120.0
 43
9.14787584925898
 44
16.25312559071062
 45
-5.624999987709673
 46
3.247595271287468
 79
     2
 49
3.749999999999999
 49
-7.499999999999999
 53
60.0
 43
9.14787584925898
 44
16.25312559071062
 45
0.0000000122903263
 46
6.495190521287468
 79
     2
 49
-7.5
 49
3.75
 47
0.7980687910118134
 98
        3
 10
257.5161298105804
 20
441.8591615386817
 10
254.3216102877464
 20
290.226090088182
 10
103.3805096114033
 20
319.7546356933271
  0
HATCH
  5
19C5
330
1E
100
AcDbEntity
  8
SCHRAFF
100
AcDbHatch
 10
0.0
 20
0.0
 30
0.0
210
0.0
220
0.0
230
1.0
  2
NET
 70
     0
 71
     1
 91
        2
 92
        7
 72
     1
 73
     1
 93
        6
 10
259.8984450995437
 20
551.3150975042676
 42
0.0
 10
251.4068898969498
 20
551.3150975042676
 42
0.0
 10
251.837678710643
 20
550.3912679120246
 42
-0.1095178116832424
 10
254.6484450995436
 20
537.7127200598035
 42
0.0
 10
254.6484450995436
 20
535.3150975042677
 42
0.0
 10
259.8984450995438
 20
535.3150975042678
 42
0.0
 97
        6
330
14C4
330
14AC
330
14AD
330
14C3
330
1614
330
1616
 92
        7
 72
     1
 73
     1
 93
        6
 10
97.39844509954357
 20
535.3150975042677
 42
0.0
 10
102.6484450995435
 20
535.3150975042677
 42
0.0
 10
102.6484450995435
 20
537.7127200598034
 42
-0.1095178116832434
 10
105.4592114884441
 20
550.3912679120246
 42
0.0
 10
105.8900003021373
 20
551.3150975042676
 42
0.0
 10
97.39844509954357
 20
551.3150975042676
 42
0.0
 97
        6
330
14AE
330
14C4
330
1617
330
1618
330
14C2
330
14AF
 75
     0
 76
     1
 52
45.0
 41
15.0
 77
     0
 78
     2
 53
45.0
 43
9.14787584925898
 44
16.25312559071062
 45
-1.325825214724776
 46
1.325825214724776
 79
     0
 53
135.0
 43
9.14787584925898
 44
16.25312559071062
 45
-1.325825214724776
 46
-1.325825214724776
 79
     0
 47
0.7980687910118134
 98
        2
 10
257.5161298105804
 20
546.4061734738188
 10
100.1859900885692
 20
547.2042421587734
  0
HATCH
  5
19DE
330
1E
100
AcDbEntity
  8
SCHRAFF
100
AcDbHatch
 10
0.0
 20
0.0
 30
0.0
210
0.0
220
0.0
230
1.0
  2
NET
 70
     0
 71
     1
 91
        2
 92
        7
 72
     1
 73
     1
 93
        6
 10
368.6282123330664
 20
444.561189776622
 42
0.0
 10
369.5733215934637
 20
444.1793408491417
 42
0.0
 10
369.1289079319461
 20
452.6592586704508
 42
0.0
 10
353.150835375873
 20
451.8218833705637
 42
0.0
 10
353.4255991461485
 20
446.5790783131021
 42
0.0
 10
355.8199358433003
 20
446.7045601822557
 42
-0.1095178116832453
 97
        6
330
16C6
330
16C7
330
1491
330
14A1
330
14A2
330
148F
 92
        7
 72
     1
 73
     1
 93
        6
 10
363.7750011922276
 20
294.9128708995605
 42
0.0
 10
361.3806644950761
 20
294.7873890304069
 42
0.0
 10
361.6554282653515
 20
289.5445839729454
 42
0.0
 10
377.6335008214247
 20
290.3819592728327
 42
0.0
 10
377.1890871599072
 20
298.8618770941415
 42
0.0
 10
376.2890693885165
 20
298.38332915643
 42
-0.1095178116832453
 97
        6
330
14A4
330
14A3
330
1490
330
16C3
330
16C5
330
148F
 75
     0
 76
     1
 52
45.0
 41
15.0
 77
     0
 78
     2
 53
45.0
 43
9.14787584925898
 44
16.25312559071062
 45
-1.325825214724776
 46
1.325825214724776
 79
     0
 53
135.0
 43
9.14787584925898
 44
16.25312559071062
 45
-1.325825214724776
 46
-1.325825214724776
 79
     0
 47
0.7980687910118134
 98
        2
 10
364.5325693071436
 20
449.0417797032741
 10
367.7270915593331
 20
293.4183648280007
  0
DIMENSION
  5
19FA
330
1E
100
AcDbEntity
  8
BEM
100
AcDbDimension
  2
*D7
 10
178.6484450995435
 20
361.3150975042677
 30
0.0
 11
216.1754122294919
 21
412.8874072794591
 31
0.0
 70
   162
 71
     5
 42
1.518436449235066
  3
Standard
100
AcDb2LineAngularDimension
 13
178.6484450995435
 23
556.3150975042677
 33
0.0
 14
178.6484450995435
 24
186.3150975042676
 34
0.0
 15
378.3743520504586
 25
371.7822887528565
 35
0.0
 16
232.7375376969079
 26
395.1137137409464
 36
0.0
1001
ACAD
1000
DSTYLE
1002
{
1070
    40
1040
2.0
1070
    41
1040
3.5
1070
    42
1040
1.0
1070
    43
1040
7.0
1070
    44
1040
1.0
1070
    73
1070
     0
1070
    74
1070
     0
1070
    77
1070
     1
1070
    78
1070
     8
1070
    79
1070
     2
1070
   140
1040
3.5
1070
   141
1040
1.5
1070
   146
1040
0.5142857142857144
1070
   147
1040
1.5
1070
   172
1070
     1
1070
   178
1070
     1
1070
   179
1070
     2
1070
   271
1070
     2
1070
   272
1070
     2
1070
   284
1070
     8
1070
   285
1070
     8
1070
   286
1070
     8
1002
}
  0
DIMENSION
  5
1A19
330
1E
100
AcDbEntity
  8
BEM
100
AcDbDimension
  2
*D8
 10
380.2368502854229
 20
240.707092304361
 30
0.0
 11
282.5302869312727
 21
242.0954285465787
 31
0.0
 70
    32
 71
     5
 42
195.0000000000002
 51
357.0000000000001
  3
Standard
100
AcDbAlignedDimension
 13
178.6484450995435
 23
361.3150975042677
 33
0.0
 14
377.7852750945293
 24
287.4859336220443
 34
0.0
 50
2.999999999999891
100
AcDbRotatedDimension
1001
ACAD
1000
DSTYLE
1002
{
1070
    40
1040
2.0
1070
    41
1040
3.5
1070
    42
1040
1.0
1070
    43
1040
7.0
1070
    44
1040
1.0
1070
    73
1070
     0
1070
    74
1070
     0
1070
    77
1070
     1
1070
    78
1070
     8
1070
    79
1070
     2
1070
   140
1040
3.5
1070
   141
1040
1.5
1070
   146
1040
0.5142857142857144
1070
   147
1040
1.5
1070
   172
1070
     1
1070
   178
1070
     1
1070
   179
1070
     2
1070
   271
1070
     2
1070
   272
1070
     2
1070
   284
1070
     8
1070
   285
1070
     8
1070
   286
1070
     8
1002
}
  0
ARC
  5
1A57
102
{ACAD_REACTORS
330
1A5B
102
}
330
1E
100
AcDbEntity
  8
SCHRAFF
100
AcDbCircle
 10
262.7984450995437
 20
449.9906950466606
 30
0.0
 40
4.0
100
AcDbArc
 50
3.000000000000716
 51
90.0
  0
HATCH
  5
1A5B
330
1E
100
AcDbEntity
  8
SCHRAFF
100
AcDbHatch
 10
0.0
 20
0.0
 30
0.0
210
0.0
220
0.0
230
1.0
  2
_USER
 70
     0
 71
     1
 91
        1
 92
        7
 72
     1
 73
     1
 93
        3
 10
266.7929632385619
 20
450.2000388716324
 42
0.3989595459737157
 10
262.7984450995437
 20
453.9906950466606
 42
0.0
 10
262.7984450995437
 20
449.9906950466606
 42
0.0
 97
        3
330
1615
330
16C8
330
1A57
 75
     0
 76
     0
 52
0.0
 41
0.1
 77
     0
 78
     1
 53
0.0
 43
9.14787584925898
 44
16.25312559071062
 45
0.0
 46
0.1
 79
     0
 47
0.1282133276274127
 98
        1
 10
264.976613162004
 20
451.4531475121664
  0
ARC
  5
1A5C
102
{ACAD_REACTORS
330
1A60
102
}
330
1E
100
AcDbEntity
  8
SCHRAFF
100
AcDbCircle
 10
262.7984450995437
 20
281.4597292152106
 30
0.0
 40
4.0
100
AcDbArc
 50
270.0
 51
2.999999999999881
  0
HATCH
  5
1A60
330
1E
100
AcDbEntity
  8
SCHRAFF
100
AcDbHatch
 10
0.0
 20
0.0
 30
0.0
210
0.0
220
0.0
230
1.0
  2
_USER
 70
     0
 71
     1
 91
        1
 92
        7
 72
     1
 73
     1
 93
        3
 10
262.7984450995437
 20
281.4597292152106
 42
0.0
 10
262.7984450995437
 20
277.4597292152106
 42
0.4296339059668354
 10
266.7929632385619
 20
281.6690730401824
 42
0.0
 97
        3
330
16C4
330
1878
330
1A5C
 75
     0
 76
     0
 52
0.0
 41
0.1
 77
     0
 78
     1
 53
0.0
 43
9.14787584925898
 44
16.25312559071062
 45
0.0
 46
0.1
 79
     0
 47
0.044078035442699
 98
        1
 10
263.997829347496
 20
280.5261489009463
  0
HATCH
  5
1AA6
330
1E
100
AcDbEntity
  8
SCHRAFF
100
AcDbHatch
 10
0.0
 20
0.0
 30
0.0
210
0.0
220
0.0
230
1.0
  2
NET
 70
     0
 71
     0
 91
        2
 92
        7
 72
     0
 73
     1
 93
        9
 10
252.5048515600946
 20
257.3150975042677
 10
254.648445099544
 20
249.3150975042667
 10
262.7984450995436
 20
249.3150975042665
 10
262.7984450995435
 20
251.3150975042675
 10
259.8984450995435
 20
251.3150975042675
 10
259.8984450995435
 20
265.2150975042678
 10
257.7984450995435
 20
267.3150975042676
 10
245.1484450995434
 20
267.3150975042677
 10
245.1484450995435
 20
257.3150975042677
 97
        0
 92
        7
 72
     0
 73
     1
 93
        9
 10
104.7920386389926
 20
257.3150975042677
 10
112.1484450995434
 20
257.3150975042677
 10
112.1484450995434
 20
267.3150975042677
 10
99.49844509954363
 20
267.3150975042676
 10
97.3984450995435
 20
265.2150975042675
 10
97.3984450995435
 20
251.3150975042675
 10
94.49844509954349
 20
251.3150975042675
 10
94.49844509954351
 20
249.3150975042676
 10
102.6484450995435
 20
249.3150975042675
 97
        0
 75
     0
 76
     1
 52
45.0
 41
20.0
 77
     0
 78
     2
 53
45.0
 43
-46.3515549004565
 44
-62.2705129473594
 45
-1.767766952966368
 46
1.767766952966368
 79
     0
 53
135.0
 43
-46.3515549004565
 44
-62.2705129473594
 45
-1.767766952966368
 46
-1.767766952966368
 79
     0
 47
0.2115359210124944
 98
        2
 10
254.8082086348572
 20
259.7083551930592
 10
103.4687819941318
 20
261.4006426750046
  0
LINE
  5
1AA7
330
1E
100
AcDbEntity
  8
STEMPEL
100
AcDbLine
 10
262.7984450995436
 20
249.3150975042665
 30
0.0
 11
245.1484450995434
 21
249.3150975042667
 31
0.0
  0
LINE
  5
1AA8
330
1E
100
AcDbEntity
  8
STEMPEL
100
AcDbLine
 10
254.6484450995439
 20
249.3150975042666
 30
0.0
 11
252.5048515600946
 21
257.3150975042677
 31
0.0
  0
LINE
  5
1AA9
330
1E
100
AcDbEntity
  8
STEMPEL
100
AcDbLine
 10
112.1484450995433
 20
249.3150975042675
 30
0.0
 11
94.49844509954351
 21
249.3150975042676
 31
0.0
  0
LINE
  5
1AAA
330
1E
100
AcDbEntity
  8
STEMPEL
100
AcDbLine
 10
102.6484450995436
 20
249.3150975042676
 30
0.0
 11
104.7920386389926
 21
257.3150975042677
 31
0.0
  0
ENDSEC
  0
SECTION
  2
OBJECTS
  0
DICTIONARY
  5
C
330
0
100
AcDbDictionary
281
     1
  3
ACAD_COLOR
350
DF
  3
ACAD_GROUP
350
D
  3
ACAD_LAYOUT
350
19
  3
ACAD_MATERIAL
350
DE
  3
ACAD_MLINESTYLE
350
16
  3
ACAD_PLOTSETTINGS
350
18
  3
ACAD_PLOTSTYLENAME
350
E
  3
AcDbVariableDictionary
350
EA
  0
DICTIONARY
  5
A0
330
1E
100
AcDbDictionary
280
     1
281
     1
  3
ACAD_LAYOUTSELFREF
360
D4
  0
DICTIONARY
  5
A2
330
1A
100
AcDbDictionary
280
     1
281
     1
  3
ACAD_LAYOUTSELFREF
360
D3
  0
DICTIONARY
  5
DF
102
{ACAD_REACTORS
330
C
102
}
330
C
100
AcDbDictionary
281
     1
  0
DICTIONARY
  5
D
102
{ACAD_REACTORS
330
C
102
}
330
C
100
AcDbDictionary
281
     1
  0
DICTIONARY
  5
19
102
{ACAD_REACTORS
330
C
102
}
330
C
100
AcDbDictionary
281
     1
  3
Layout1
350
1D
  3
Model
350
21
  0
DICTIONARY
  5
DE
102
{ACAD_REACTORS
330
C
102
}
330
C
100
AcDbDictionary
281
     1
  0
DICTIONARY
  5
16
102
{ACAD_REACTORS
330
C
102
}
330
C
100
AcDbDictionary
281
     1
  3
Standard
350
17
  0
DICTIONARY
  5
18
102
{ACAD_REACTORS
330
C
102
}
330
C
100
AcDbDictionary
281
     1
  0
ACDBDICTIONARYWDFLT
  5
E
102
{ACAD_REACTORS
330
C
102
}
330
C
100
AcDbDictionary
281
     1
  3
Normal
350
F
100
AcDbDictionaryWithDefault
340
F
  0
DICTIONARY
  5
EA
102
{ACAD_REACTORS
330
C
102
}
330
C
100
AcDbDictionary
281
     1
  3
DIMASSOC
350
EB
  3
PROJECTNAME
350
EC
  0
XRECORD
  5
D4
102
{ACAD_REACTORS
330
A0
102
}
330
A0
100
AcDbXrecord
280
     1
340
1E
  0
XRECORD
  5
D3
102
{ACAD_REACTORS
330
A2
102
}
330
A2
100
AcDbXrecord
280
     1
340
1A
  0
LAYOUT
  5
1D
102
{ACAD_REACTORS
330
19
102
}
330
19
100
AcDbPlotSettings
  1

  2
\\NT_WORK01\HP LaserJet 5000 PCL 6
  4

  6

 40
0.0
 41
0.0
 42
0.0
 43
0.0
 44
0.0
 45
0.0
 46
0.0
 47
0.0
 48
0.0
 49
0.0
140
0.0
141
0.0
142
1.0
143
1.0
 70
   688
 72
     0
 73
     0
 74
     5
  7

 75
    16
147
1.0
 76
     0
 77
     2
 78
   300
148
0.0
149
0.0
100
AcDbLayout
  1
Layout1
 70
     0
 71
     1
 10
0.0
 20
0.0
 11
12.0
 21
9.0
 12
0.0
 22
0.0
 32
0.0
 14
1.000000000000000E+20
 24
1.000000000000000E+20
 34
1.000000000000000E+20
 15
-1.000000000000000E+20
 25
-1.000000000000000E+20
 35
-1.000000000000000E+20
146
0.0
 13
0.0
 23
0.0
 33
0.0
 16
1.0
 26
0.0
 36
0.0
 17
0.0
 27
1.0
 37
0.0
 76
     0
330
1A
  0
LAYOUT
  5
21
102
{ACAD_REACTORS
330
19
102
}
330
19
100
AcDbPlotSettings
  1

  2
none_device
  4
Letter_(8.50_x_11.00_Inches)
  6

 40
6.349999904632568
 41
6.349999904632568
 42
6.350006103515625
 43
6.350006103515625
 44
215.8999938964844
 45
279.3999938964844
 46
0.0
 47
0.0
 48
0.0
 49
0.0
140
0.0
141
0.0
142
1.0
143
1.0
 70
 11952
 72
     0
 73
     1
 74
     0
  7

 75
     0
147
1.0
 76
     0
 77
     2
 78
   300
148
2299.19079060625
149
89.3907803160642
100
AcDbLayout
  1
Model
 70
     1
 71
     0
 10
0.0
 20
0.0
 11
12.0
 21
9.0
 12
0.0
 22
0.0
 32
0.0
 14
0.0
 24
0.0
 34
0.0
 15
0.0
 25
0.0
 35
0.0
146
0.0
 13
0.0
 23
0.0
 33
0.0
 16
1.0
 26
0.0
 36
0.0
 17
0.0
 27
1.0
 37
0.0
 76
     0
330
1E
  0
MLINESTYLE
  5
17
102
{ACAD_REACTORS
330
16
102
}
330
16
100
AcDbMlineStyle
  2
STANDARD
 70
     0
  3

 62
   256
 51
90.0
 52
90.0
 71
     2
 49
0.5
 62
   256
  6
BYLAYER
 49
-0.5
 62
   256
  6
BYLAYER
  0
ACDBPLACEHOLDER
  5
F
102
{ACAD_REACTORS
330
E
102
}
330
E
  0
DICTIONARYVAR
  5
EB
102
{ACAD_REACTORS
330
EA
102
}
330
EA
100
DictionaryVariables
280
     0
  1
1
  0
DICTIONARYVAR
  5
EC
102
{ACAD_REACTORS
330
EA
102
}
330
EA
100
DictionaryVariables
280
     0
  1

  0
ENDSEC
  0
EOF
