  0
SECTION
  2
HEADER
  9
$ACADVER
  1
AC1018
  9
$ACADMAINTVER
 70
     2
  9
$DWGCODEPAGE
  3
ANSI_1252
  9
$INSBASE
 10
0.0
 20
0.0
 30
0.0
  9
$EXTMIN
 10
-0.0064041928749248
 20
-0.0090573584946014
 30
-0.0000000000112498
  9
$EXTMAX
 10
420.0064100605654
 20
594.0090656570857
 30
0.0000000000002956
  9
$LIMMIN
 10
0.0
 20
0.0
  9
$LIMMAX
 10
419.9999999999999
 20
594.0
  9
$ORTHOMODE
 70
     0
  9
$REGENMODE
 70
     1
  9
$FILLMODE
 70
     1
  9
$QTEXTMODE
 70
     0
  9
$MIRRTEXT
 70
     1
  9
$LTSCALE
 40
20.0
  9
$ATTMODE
 70
     1
  9
$TEXTSIZE
 40
3.5
  9
$TRACEWID
 40
0.5
  9
$TEXTSTYLE
  7
STANDARD
  9
$CLAYER
  8
BEM
  9
$CELTYPE
  6
ByLayer
  9
$CECOLOR
 62
   256
  9
$CELTSCALE
 40
1.0
  9
$DISPSILH
 70
     0
  9
$DIMSCALE
 40
2.0
  9
$DIMASZ
 40
3.5
  9
$DIMEXO
 40
1.0
  9
$DIMDLI
 40
7.0
  9
$DIMRND
 40
0.0
  9
$DIMDLE
 40
0.0
  9
$DIMEXE
 40
1.0
  9
$DIMTP
 40
0.0
  9
$DIMTM
 40
0.0
  9
$DIMTXT
 40
3.5
  9
$DIMCEN
 40
1.5
  9
$DIMTSZ
 40
0.0
  9
$DIMTOL
 70
     0
  9
$DIMLIM
 70
     0
  9
$DIMTIH
 70
     0
  9
$DIMTOH
 70
     0
  9
$DIMSE1
 70
     0
  9
$DIMSE2
 70
     0
  9
$DIMTAD
 70
     1
  9
$DIMZIN
 70
     8
  9
$DIMBLK
  1

  9
$DIMASO
 70
     1
  9
$DIMSHO
 70
     0
  9
$DIMPOST
  1

  9
$DIMAPOST
  1

  9
$DIMALT
 70
     0
  9
$DIMALTD
 70
     2
  9
$DIMALTF
 40
25.4
  9
$DIMLFAC
 40
1.0
  9
$DIMTOFL
 70
     1
  9
$DIMTVP
 40
0.0
  9
$DIMTIX
 70
     0
  9
$DIMSOXD
 70
     0
  9
$DIMSAH
 70
     0
  9
$DIMBLK1
  1

  9
$DIMBLK2
  1

  9
$DIMSTYLE
  2
Standard
  9
$DIMCLRD
 70
     0
  9
$DIMCLRE
 70
     0
  9
$DIMCLRT
 70
     1
  9
$DIMTFAC
 40
0.5142857142857144
  9
$DIMGAP
 40
1.5
  9
$DIMJUST
 70
     0
  9
$DIMSD1
 70
     0
  9
$DIMSD2
 70
     0
  9
$DIMTOLJ
 70
     1
  9
$DIMTZIN
 70
     8
  9
$DIMALTZ
 70
     8
  9
$DIMALTTZ
 70
     8
  9
$DIMUPT
 70
     0
  9
$DIMDEC
 70
     2
  9
$DIMTDEC
 70
     2
  9
$DIMALTU
 70
     2
  9
$DIMALTTD
 70
     2
  9
$DIMTXSTY
  7
STANDARD
  9
$DIMAUNIT
 70
     0
  9
$DIMADEC
 70
     2
  9
$DIMALTRND
 40
0.0
  9
$DIMAZIN
 70
     2
  9
$DIMDSEP
 70
    46
  9
$DIMATFIT
 70
     3
  9
$DIMFRAC
 70
     0
  9
$DIMLDRBLK
  1

  9
$DIMLUNIT
 70
     2
  9
$DIMLWD
 70
    -2
  9
$DIMLWE
 70
    -2
  9
$DIMTMOVE
 70
     0
  9
$LUNITS
 70
     2
  9
$LUPREC
 70
     2
  9
$SKETCHINC
 40
1.0
  9
$FILLETRAD
 40
0.0
  9
$AUNITS
 70
     0
  9
$AUPREC
 70
     0
  9
$MENU
  1
ACAD
  9
$ELEVATION
 40
0.0
  9
$PELEVATION
 40
0.0
  9
$THICKNESS
 40
0.0
  9
$LIMCHECK
 70
     0
  9
$CHAMFERA
 40
0.0
  9
$CHAMFERB
 40
0.0
  9
$CHAMFERC
 40
0.0
  9
$CHAMFERD
 40
0.0
  9
$SKPOLY
 70
     0
  9
$TDCREATE
 40
2455397.823042361
  9
$TDUCREATE
 40
2455397.781375695
  9
$TDUPDATE
 40
2455532.463765637
  9
$TDUUPDATE
 40
2455532.422098970
  9
$TDINDWG
 40
0.0578736343
  9
$TDUSRTIMER
 40
0.0578736343
  9
$USRTIMER
 70
     1
  9
$ANGBASE
 50
0.0
  9
$ANGDIR
 70
     0
  9
$PDMODE
 70
     0
  9
$PDSIZE
 40
0.0
  9
$PLINEWID
 40
0.0
  9
$SPLFRAME
 70
     0
  9
$SPLINETYPE
 70
     6
  9
$SPLINESEGS
 70
     8
  9
$HANDSEED
  5
CC6
  9
$SURFTAB1
 70
     6
  9
$SURFTAB2
 70
     6
  9
$SURFTYPE
 70
     6
  9
$SURFU
 70
     6
  9
$SURFV
 70
     6
  9
$UCSBASE
  2

  9
$UCSNAME
  2

  9
$UCSORG
 10
0.0
 20
0.0
 30
0.0
  9
$UCSXDIR
 10
1.0
 20
0.0
 30
0.0
  9
$UCSYDIR
 10
0.0
 20
1.0
 30
0.0
  9
$UCSORTHOREF
  2

  9
$UCSORTHOVIEW
 70
     0
  9
$UCSORGTOP
 10
0.0
 20
0.0
 30
0.0
  9
$UCSORGBOTTOM
 10
0.0
 20
0.0
 30
0.0
  9
$UCSORGLEFT
 10
0.0
 20
0.0
 30
0.0
  9
$UCSORGRIGHT
 10
0.0
 20
0.0
 30
0.0
  9
$UCSORGFRONT
 10
0.0
 20
0.0
 30
0.0
  9
$UCSORGBACK
 10
0.0
 20
0.0
 30
0.0
  9
$PUCSBASE
  2

  9
$PUCSNAME
  2

  9
$PUCSORG
 10
0.0
 20
0.0
 30
0.0
  9
$PUCSXDIR
 10
1.0
 20
0.0
 30
0.0
  9
$PUCSYDIR
 10
0.0
 20
1.0
 30
0.0
  9
$PUCSORTHOREF
  2

  9
$PUCSORTHOVIEW
 70
     0
  9
$PUCSORGTOP
 10
0.0
 20
0.0
 30
0.0
  9
$PUCSORGBOTTOM
 10
0.0
 20
0.0
 30
0.0
  9
$PUCSORGLEFT
 10
0.0
 20
0.0
 30
0.0
  9
$PUCSORGRIGHT
 10
0.0
 20
0.0
 30
0.0
  9
$PUCSORGFRONT
 10
0.0
 20
0.0
 30
0.0
  9
$PUCSORGBACK
 10
0.0
 20
0.0
 30
0.0
  9
$USERI1
 70
     0
  9
$USERI2
 70
     0
  9
$USERI3
 70
     0
  9
$USERI4
 70
     0
  9
$USERI5
 70
     0
  9
$USERR1
 40
0.0
  9
$USERR2
 40
0.0
  9
$USERR3
 40
0.0
  9
$USERR4
 40
0.0
  9
$USERR5
 40
0.0
  9
$WORLDVIEW
 70
     1
  9
$SHADEDGE
 70
     3
  9
$SHADEDIF
 70
    70
  9
$TILEMODE
 70
     1
  9
$MAXACTVP
 70
    16
  9
$PINSBASE
 10
0.0
 20
0.0
 30
0.0
  9
$PLIMCHECK
 70
     0
  9
$PEXTMIN
 10
1.000000000000000E+20
 20
1.000000000000000E+20
 30
1.000000000000000E+20
  9
$PEXTMAX
 10
-1.000000000000000E+20
 20
-1.000000000000000E+20
 30
-1.000000000000000E+20
  9
$PLIMMIN
 10
0.0
 20
0.0
  9
$PLIMMAX
 10
12.0
 20
9.0
  9
$UNITMODE
 70
     0
  9
$VISRETAIN
 70
     0
  9
$PLINEGEN
 70
     0
  9
$PSLTSCALE
 70
     0
  9
$TREEDEPTH
 70
  3020
  9
$CMLSTYLE
  2
Standard
  9
$CMLJUST
 70
     0
  9
$CMLSCALE
 40
1.0
  9
$PROXYGRAPHICS
 70
     1
  9
$MEASUREMENT
 70
     0
  9
$CELWEIGHT
370
    -1
  9
$ENDCAPS
280
     0
  9
$JOINSTYLE
280
     0
  9
$LWDISPLAY
290
     0
  9
$INSUNITS
 70
     0
  9
$HYPERLINKBASE
  1

  9
$STYLESHEET
  1
monochrome 1.ctb
  9
$XEDIT
290
     1
  9
$CEPSNTYPE
380
     0
  9
$PSTYLEMODE
290
     1
  9
$FINGERPRINTGUID
  2
{D68B0D02-A558-11D7-B632-000102183313}
  9
$VERSIONGUID
  2
{791830F1-E0FA-406D-89C5-0AB493A9B1E5}
  9
$EXTNAMES
290
     1
  9
$PSVPSCALE
 40
0.0
  9
$OLESTARTUP
290
     0
  9
$SORTENTS
280
   127
  9
$INDEXCTL
280
     0
  9
$HIDETEXT
280
     0
  9
$XCLIPFRAME
290
     0
  9
$HALOGAP
280
     0
  9
$OBSCOLOR
 70
   257
  9
$OBSLTYPE
280
     0
  9
$INTERSECTIONDISPLAY
280
     0
  9
$INTERSECTIONCOLOR
 70
   257
  9
$DIMASSOC
280
     1
  9
$PROJECTNAME
  1

  0
ENDSEC
  0
SECTION
  2
CLASSES
  0
CLASS
  1
ACDBDICTIONARYWDFLT
  2
AcDbDictionaryWithDefault
  3
ObjectDBX Classes
 90
        0
 91
        1
280
     0
281
     0
  0
CLASS
  1
DICTIONARYVAR
  2
AcDbDictionaryVar
  3
ObjectDBX Classes
 90
        0
 91
        2
280
     0
281
     0
  0
ENDSEC
  0
SECTION
  2
TABLES
  0
TABLE
  2
VPORT
  5
8
330
0
100
AcDbSymbolTable
 70
     2
  0
VPORT
  5
CC5
330
8
100
AcDbSymbolTableRecord
100
AcDbViewportTableRecord
  2
*Active
 70
     0
 10
0.0
 20
0.0
 11
1.0
 21
1.0
 12
210.0000029338453
 22
297.0000041492956
 13
0.0
 23
0.0
 14
1.0
 24
1.0
 15
10.0
 25
10.0
 16
0.0
 26
0.0
 36
1.0
 17
0.0
 27
0.0
 37
0.0
 40
598.8150392175905
 41
1.336927223719676
 42
50.0
 43
0.0
 44
0.0
 50
0.0
 51
0.0
 71
     0
 72
  1500
 73
     1
 74
     0
 75
     0
 76
     0
 77
     0
 78
     0
281
     0
 65
     1
110
0.0
120
0.0
130
0.0
111
1.0
121
0.0
131
0.0
112
0.0
122
1.0
132
0.0
 79
     0
146
0.0
  0
ENDTAB
  0
TABLE
  2
LTYPE
  5
5
330
0
100
AcDbSymbolTable
 70
     2
  0
LTYPE
  5
13
330
5
100
AcDbSymbolTableRecord
100
AcDbLinetypeTableRecord
  2
ByBlock
 70
     0
  3

 72
    65
 73
     0
 40
0.0
  0
LTYPE
  5
14
330
5
100
AcDbSymbolTableRecord
100
AcDbLinetypeTableRecord
  2
ByLayer
 70
     0
  3

 72
    65
 73
     0
 40
0.0
  0
LTYPE
  5
15
330
5
100
AcDbSymbolTableRecord
100
AcDbLinetypeTableRecord
  2
Continuous
 70
     0
  3
Solid line
 72
    65
 73
     0
 40
0.0
  0
LTYPE
  5
25
330
5
100
AcDbSymbolTableRecord
100
AcDbLinetypeTableRecord
  2
STRICHPUNKT
 70
     0
  3
__ . __ . __ . __ . __ . __ . __ . __ . __ . __
 72
    65
 73
     4
 40
1.0
 49
0.5
 74
     0
 49
-0.25
 74
     0
 49
0.0
 74
     0
 49
-0.25
 74
     0
  0
ENDTAB
  0
TABLE
  2
LAYER
  5
2
330
0
100
AcDbSymbolTable
 70
     9
  0
LAYER
  5
10
330
2
100
AcDbSymbolTableRecord
100
AcDbLayerTableRecord
  2
0
 70
     0
 62
     7
  6
Continuous
370
    -3
390
F
  0
LAYER
  5
2A
330
2
100
AcDbSymbolTableRecord
100
AcDbLayerTableRecord
  2
VOLL
 70
     0
 62
     1
  6
Continuous
370
    -3
390
F
  0
LAYER
  5
2B
330
2
100
AcDbSymbolTableRecord
100
AcDbLayerTableRecord
  2
HILF
 70
     0
 62
     2
  6
Continuous
370
    -3
390
F
  0
LAYER
  5
2C
330
2
100
AcDbSymbolTableRecord
100
AcDbLayerTableRecord
  2
MITTEL
 70
     0
 62
     2
  6
STRICHPUNKT
370
    -3
390
F
  0
LAYER
  5
2F
330
2
100
AcDbSymbolTableRecord
100
AcDbLayerTableRecord
  2
BEM
 70
     0
 62
     7
  6
Continuous
370
    -3
390
F
  0
LAYER
  5
30
330
2
100
AcDbSymbolTableRecord
100
AcDbLayerTableRecord
  2
STEMPEL
 70
     0
 62
     3
  6
Continuous
370
    -3
390
F
  0
LAYER
  5
31
330
2
100
AcDbSymbolTableRecord
100
AcDbLayerTableRecord
  2
TEXT
 70
     0
 62
     7
  6
Continuous
370
    -3
390
F
  0
LAYER
  5
199
330
2
100
AcDbSymbolTableRecord
100
AcDbLayerTableRecord
  2
DEFPOINTS
 70
     0
 62
     7
  6
Continuous
290
     0
370
    -3
390
F
  0
LAYER
  5
19A
330
2
100
AcDbSymbolTableRecord
100
AcDbLayerTableRecord
  2
SCHRAFF
 70
     0
 62
     7
  6
Continuous
370
    -3
390
F
  0
ENDTAB
  0
TABLE
  2
STYLE
  5
3
330
0
100
AcDbSymbolTable
 70
     2
  0
STYLE
  5
11
330
3
100
AcDbSymbolTableRecord
100
AcDbTextStyleTableRecord
  2
STANDARD
 70
     0
 40
0.0
 41
0.8
 50
0.0
 71
     0
 42
3.5
  3
simplex.shx
  4

  0
STYLE
  5
24
330
3
100
AcDbSymbolTableRecord
100
AcDbTextStyleTableRecord
  2
GREEKS
 70
     0
 40
0.0
 41
0.8
 50
0.0
 71
     0
 42
2.5
  3
SIMPLEX.shx
  4

  0
ENDTAB
  0
TABLE
  2
VIEW
  5
6
330
0
100
AcDbSymbolTable
 70
     0
  0
ENDTAB
  0
TABLE
  2
UCS
  5
7
330
0
100
AcDbSymbolTable
 70
     0
  0
ENDTAB
  0
TABLE
  2
APPID
  5
9
330
0
100
AcDbSymbolTable
 70
     1
  0
APPID
  5
12
330
9
100
AcDbSymbolTableRecord
100
AcDbRegAppTableRecord
  2
ACAD
 70
     0
  0
ENDTAB
  0
TABLE
  2
DIMSTYLE
  5
A
330
0
100
AcDbSymbolTable
 70
     1
100
AcDbDimStyleTable
 71
     1
340
9D
  0
DIMSTYLE
105
9D
102
{ACAD_REACTORS
330
9B9
330
9BA
330
9E5
330
C8A
102
}
330
A
100
AcDbSymbolTableRecord
100
AcDbDimStyleTableRecord
  2
Standard
 70
     0
340
11
  0
ENDTAB
  0
TABLE
  2
BLOCK_RECORD
  5
1
330
0
100
AcDbSymbolTable
 70
     5
  0
BLOCK_RECORD
  5
1E
102
{ACAD_XDICTIONARY
360
A0
102
}
330
1
100
AcDbSymbolTableRecord
100
AcDbBlockTableRecord
  2
*Model_Space
340
21
  0
BLOCK_RECORD
  5
1A
102
{ACAD_XDICTIONARY
360
A2
102
}
330
1
100
AcDbSymbolTableRecord
100
AcDbBlockTableRecord
  2
*Paper_Space
340
1D
  0
BLOCK_RECORD
  5
22
330
1
100
AcDbSymbolTableRecord
100
AcDbBlockTableRecord
  2
LOGO
340
0
102
{BLKREFS
331
9B
102
}
  0
BLOCK_RECORD
  5
A04
330
1
100
AcDbSymbolTableRecord
100
AcDbBlockTableRecord
  2
*D1
340
0
  0
BLOCK_RECORD
  5
A10
330
1
100
AcDbSymbolTableRecord
100
AcDbBlockTableRecord
  2
*D2
340
0
  0
BLOCK_RECORD
  5
A42
330
1
100
AcDbSymbolTableRecord
100
AcDbBlockTableRecord
  2
*D3
340
0
  0
BLOCK_RECORD
  5
C8B
330
1
100
AcDbSymbolTableRecord
100
AcDbBlockTableRecord
  2
*D4
340
0
  0
ENDTAB
  0
ENDSEC
  0
SECTION
  2
BLOCKS
  0
BLOCK
  5
35
330
1E
100
AcDbEntity
  8
0
100
AcDbBlockBegin
  2
*Model_Space
 70
     0
 10
0.0
 20
0.0
 30
0.0
  3
*Model_Space
  1

  0
ENDBLK
  5
36
330
1E
100
AcDbEntity
  8
0
100
AcDbBlockEnd
  0
BLOCK
  5
33
330
1A
100
AcDbEntity
 67
     1
  8
0
100
AcDbBlockBegin
  2
*Paper_Space
 70
     0
 10
0.0
 20
0.0
 30
0.0
  3
*Paper_Space
  1

  0
ENDBLK
  5
34
330
1A
100
AcDbEntity
 67
     1
  8
0
100
AcDbBlockEnd
  0
BLOCK
  5
37
330
22
100
AcDbEntity
  8
0
100
AcDbBlockBegin
  2
LOGO
 70
     0
 10
0.0
 20
0.0
 30
0.0
  3
LOGO
  1

  0
ARC
  5
38
330
22
100
AcDbEntity
  8
0
100
AcDbCircle
 10
11.59973089678112
 20
-9.271599258481501
 30
0.0
 40
4.5
100
AcDbArc
 50
270.0
 51
231.0575587310159
  0
LINE
  5
39
330
22
100
AcDbEntity
  8
0
100
AcDbLine
 10
3.599730896781125
 20
-4.771599258481529
 30
0.0
 11
3.599730896781153
 21
-11.77159925848133
 31
0.0
  0
LINE
  5
3A
330
22
100
AcDbEntity
  8
0
100
AcDbLine
 10
2.599730896781125
 20
-4.771599258481529
 30
0.0
 11
2.599730896781153
 21
-11.77159925848133
 31
0.0
  0
CIRCLE
  5
3B
330
22
100
AcDbEntity
  8
0
100
AcDbCircle
 10
11.59973089678112
 20
-9.271599258481501
 30
0.0
 40
3.5
  0
ARC
  5
3C
330
22
100
AcDbEntity
  8
0
100
AcDbCircle
 10
31.59973089678115
 20
-9.271599258481472
 30
0.0
 40
4.5
100
AcDbArc
 50
270.0
 51
231.0575587310182
  0
LINE
  5
3D
330
22
100
AcDbEntity
  8
0
100
AcDbLine
 10
17.59973089678112
 20
-4.771599258481472
 30
0.0
 11
17.59973089678115
 21
-13.77159925848147
 31
0.0
  0
ARC
  5
3E
330
22
100
AcDbEntity
  8
0
100
AcDbCircle
 10
22.59973089678116
 20
-7.271599258481472
 30
0.0
 40
2.5
100
AcDbArc
 50
293.1161887722295
 51
90.0
  0
CIRCLE
  5
3F
330
22
100
AcDbEntity
  8
0
100
AcDbCircle
 10
31.59973089678115
 20
-9.271599258481472
 30
0.0
 40
3.5
  0
ARC
  5
40
330
22
100
AcDbEntity
  8
0
100
AcDbCircle
 10
4.599730896781153
 20
-11.77159925848133
 30
0.0
 40
1.0
100
AcDbArc
 50
180.0
 51
270.0
  0
ARC
  5
41
330
22
100
AcDbEntity
  8
0
100
AcDbCircle
 10
4.599730896781153
 20
-11.77159925848133
 30
0.0
 40
2.0
100
AcDbArc
 50
179.9999999999992
 51
270.0
  0
LINE
  5
42
330
22
100
AcDbEntity
  8
0
100
AcDbLine
 10
11.59973089678115
 20
-13.77159925848144
 30
0.0
 11
4.599730896781153
 21
-13.77159925848147
 31
0.0
  0
LINE
  5
43
330
22
100
AcDbEntity
  8
0
100
AcDbLine
 10
8.771303772034769
 20
-12.77159925848136
 30
0.0
 11
4.599730896781153
 21
-12.77159925848133
 31
0.0
  0
LINE
  5
44
330
22
100
AcDbEntity
  8
0
100
AcDbLine
 10
31.59973089678115
 20
-13.77159925848147
 30
0.0
 11
23.6715276665056
 21
-13.77159925848144
 31
0.0
  0
LINE
  5
45
330
22
100
AcDbEntity
  8
0
100
AcDbLine
 10
23.56565672307022
 20
-9.51278021337896
 30
0.0
 11
24.4388546544846
 21
-12.77159925848144
 31
0.0
  0
LINE
  5
46
330
22
100
AcDbEntity
  8
0
100
AcDbLine
 10
22.59973089678116
 20
-9.771599258481472
 30
0.0
 11
18.59973089678112
 21
-9.771599258481472
 31
0.0
  0
LINE
  5
47
330
22
100
AcDbEntity
  8
0
100
AcDbLine
 10
18.59973089678115
 20
-13.77159925848144
 30
0.0
 11
17.59973089678115
 21
-13.77159925848144
 31
0.0
  0
LINE
  5
48
330
22
100
AcDbEntity
  8
0
100
AcDbLine
 10
18.59973089678115
 20
-9.771599258481472
 30
0.0
 11
18.59973089678115
 21
-13.77159925848144
 31
0.0
  0
LINE
  5
49
330
22
100
AcDbEntity
  8
0
100
AcDbLine
 10
22.59973089678116
 20
-9.771599258481472
 30
0.0
 11
23.67152766650562
 21
-13.77159925848147
 31
0.0
  0
ARC
  5
4A
330
22
100
AcDbEntity
  8
0
100
AcDbCircle
 10
22.59973089678116
 20
-7.271599258481472
 30
0.0
 40
2.5
100
AcDbArc
 50
270.0
 51
270.0000000000007
  0
LINE
  5
4B
330
22
100
AcDbEntity
  8
0
100
AcDbLine
 10
28.77130377203494
 20
-12.77159925848147
 30
0.0
 11
24.43885465448463
 21
-12.77159925848144
 31
0.0
  0
LINE
  5
4C
330
22
100
AcDbEntity
  8
0
100
AcDbLine
 10
3.599730896781125
 20
-4.771599258481472
 30
0.0
 11
2.599730896781125
 21
-4.771599258481472
 31
0.0
  0
LINE
  5
4D
330
22
100
AcDbEntity
  8
0
100
AcDbLine
 10
22.59973089678116
 20
-8.771599258481472
 30
0.0
 11
18.59973089678115
 21
-8.771599258481472
 31
0.0
  0
LINE
  5
4E
330
22
100
AcDbEntity
  8
0
100
AcDbLine
 10
22.59973089678116
 20
-5.771599258481472
 30
0.0
 11
18.59973089678115
 21
-5.771599258481472
 31
0.0
  0
LINE
  5
4F
330
22
100
AcDbEntity
  8
0
100
AcDbLine
 10
22.59973089678116
 20
-4.771599258481472
 30
0.0
 11
17.59973089678115
 21
-4.771599258481472
 31
0.0
  0
LINE
  5
50
330
22
100
AcDbEntity
  8
0
100
AcDbLine
 10
18.59973089678115
 20
-5.771599258481472
 30
0.0
 11
18.59973089678115
 21
-8.771599258481472
 31
0.0
  0
ARC
  5
51
330
22
100
AcDbEntity
  8
0
100
AcDbCircle
 10
22.59973089678116
 20
-7.271599258481472
 30
0.0
 40
1.5
100
AcDbArc
 50
270.0
 51
90.0
  0
ENDBLK
  5
52
330
22
100
AcDbEntity
  8
0
100
AcDbBlockEnd
  0
BLOCK
  5
A0E
330
A04
100
AcDbEntity
  8
0
100
AcDbBlockBegin
  2
*D1
 70
     1
 10
0.0
 20
0.0
 30
0.0
  3
*D1
  1

  0
LINE
  5
CB2
330
A04
100
AcDbEntity
  8
BEM
 62
     0
370
    -2
100
AcDbLine
 10
148.711224044998
 20
218.2206701228516
 30
0.0
 11
148.711224044998
 21
186.2937617801135
 31
0.0
  0
LINE
  5
CB3
330
A04
100
AcDbEntity
  8
BEM
 62
     0
370
    -2
100
AcDbLine
 10
307.7112240449982
 20
218.2206701228517
 30
0.0
 11
307.7112240449982
 21
186.2937617801135
 31
0.0
  0
LINE
  5
CB4
330
A04
100
AcDbEntity
  8
BEM
 62
     0
370
    -2
100
AcDbLine
 10
155.711224044998
 20
188.2937617801135
 30
0.0
 11
300.7112240449982
 21
188.2937617801135
 31
0.0
  0
SOLID
  5
CB5
330
A04
100
AcDbEntity
  8
BEM
 62
     0
100
AcDbTrace
 10
155.711224044998
 20
189.4604284467802
 30
0.0
 11
155.711224044998
 21
187.1270951134468
 31
0.0
 12
148.711224044998
 22
188.2937617801135
 32
0.0
 13
148.711224044998
 23
188.2937617801135
 33
0.0
  0
SOLID
  5
CB6
330
A04
100
AcDbEntity
  8
BEM
 62
     0
100
AcDbTrace
 10
300.7112240449982
 20
189.4604284467802
 30
0.0
 11
300.7112240449982
 21
187.1270951134468
 31
0.0
 12
307.7112240449982
 22
188.2937617801135
 32
0.0
 13
307.7112240449982
 23
188.2937617801135
 33
0.0
  0
MTEXT
  5
CB7
330
A04
100
AcDbEntity
  8
BEM
 62
     1
100
AcDbMText
 10
228.2112240449981
 20
194.7937617801135
 30
0.0
 40
7.0
 41
0.0
 71
     5
 72
     1
  1
\A1;%%c159
  7
GREEKS
 73
     1
 44
1.0
  0
POINT
  5
CB8
330
A04
100
AcDbEntity
  8
DEFPOINTS
 62
     0
100
AcDbPoint
 10
148.711224044998
 20
220.2206701228516
 30
0.0
  0
POINT
  5
CB9
330
A04
100
AcDbEntity
  8
DEFPOINTS
 62
     0
100
AcDbPoint
 10
307.7112240449982
 20
220.2206701228517
 30
0.0
  0
POINT
  5
CBA
330
A04
100
AcDbEntity
  8
DEFPOINTS
 62
     0
100
AcDbPoint
 10
307.7112240449982
 20
188.2937617801135
 30
0.0
  0
ENDBLK
  5
A0F
330
A04
100
AcDbEntity
  8
0
100
AcDbBlockEnd
  0
BLOCK
  5
A1A
330
A10
100
AcDbEntity
  8
0
100
AcDbBlockBegin
  2
*D2
 70
     1
 10
0.0
 20
0.0
 30
0.0
  3
*D2
  1

  0
LINE
  5
CA9
330
A10
100
AcDbEntity
  8
BEM
 62
     0
370
    -2
100
AcDbLine
 10
118.711224044998
 20
542.2206701228516
 30
0.0
 11
118.711224044998
 21
557.6821558672268
 31
0.0
  0
LINE
  5
CAA
330
A10
100
AcDbEntity
  8
BEM
 62
     0
370
    -2
100
AcDbLine
 10
337.7112240449979
 20
542.2206701228517
 30
0.0
 11
337.7112240449979
 21
557.6821558672268
 31
0.0
  0
LINE
  5
CAB
330
A10
100
AcDbEntity
  8
BEM
 62
     0
370
    -2
100
AcDbLine
 10
125.711224044998
 20
555.6821558672267
 30
0.0
 11
330.7112240449979
 21
555.6821558672267
 31
0.0
  0
SOLID
  5
CAC
330
A10
100
AcDbEntity
  8
BEM
 62
     0
100
AcDbTrace
 10
125.711224044998
 20
556.8488225338934
 30
0.0
 11
125.711224044998
 21
554.5154892005601
 31
0.0
 12
118.711224044998
 22
555.6821558672267
 32
0.0
 13
118.711224044998
 23
555.6821558672267
 33
0.0
  0
SOLID
  5
CAD
330
A10
100
AcDbEntity
  8
BEM
 62
     0
100
AcDbTrace
 10
330.7112240449979
 20
556.8488225338934
 30
0.0
 11
330.7112240449979
 21
554.5154892005601
 31
0.0
 12
337.7112240449979
 22
555.6821558672267
 32
0.0
 13
337.7112240449979
 23
555.6821558672267
 33
0.0
  0
MTEXT
  5
CAE
330
A10
100
AcDbEntity
  8
BEM
 62
     1
100
AcDbMText
 10
228.211224044998
 20
562.1821558672268
 30
0.0
 40
7.0
 41
0.0
 71
     5
 72
     1
  1
\A1;%%c219
  7
GREEKS
 73
     1
 44
1.0
  0
POINT
  5
CAF
330
A10
100
AcDbEntity
  8
DEFPOINTS
 62
     0
100
AcDbPoint
 10
118.711224044998
 20
540.2206701228516
 30
0.0
  0
POINT
  5
CB0
330
A10
100
AcDbEntity
  8
DEFPOINTS
 62
     0
100
AcDbPoint
 10
337.7112240449979
 20
540.2206701228517
 30
0.0
  0
POINT
  5
CB1
330
A10
100
AcDbEntity
  8
DEFPOINTS
 62
     0
100
AcDbPoint
 10
337.7112240449979
 20
555.6821558672267
 30
0.0
  0
ENDBLK
  5
A1B
330
A10
100
AcDbEntity
  8
0
100
AcDbBlockEnd
  0
BLOCK
  5
A4C
330
A42
100
AcDbEntity
  8
0
100
AcDbBlockBegin
  2
*D3
 70
     1
 10
0.0
 20
0.0
 30
0.0
  3
*D3
  1

  0
LINE
  5
CA0
330
A42
100
AcDbEntity
  8
BEM
 62
     0
370
    -2
100
AcDbLine
 10
116.711224044998
 20
540.2206701228517
 30
0.0
 11
84.34554142876693
 21
540.2206701228517
 31
0.0
  0
LINE
  5
CA1
330
A42
100
AcDbEntity
  8
BEM
 62
     0
370
    -2
100
AcDbLine
 10
147.5765610863981
 20
210.2206701228517
 30
0.0
 11
84.34554142876686
 21
210.2206701228517
 31
0.0
  0
LINE
  5
CA2
330
A42
100
AcDbEntity
  8
BEM
 62
     0
370
    -2
100
AcDbLine
 10
86.34554142876693
 20
533.2206701228517
 30
0.0
 11
86.34554142876686
 21
217.2206701228517
 31
0.0
  0
SOLID
  5
CA3
330
A42
100
AcDbEntity
  8
BEM
 62
     0
100
AcDbTrace
 10
85.17887476210026
 20
533.2206701228517
 30
0.0
 11
87.5122080954336
 21
533.2206701228517
 31
0.0
 12
86.34554142876693
 22
540.2206701228517
 32
0.0
 13
86.34554142876693
 23
540.2206701228517
 33
0.0
  0
SOLID
  5
CA4
330
A42
100
AcDbEntity
  8
BEM
 62
     0
100
AcDbTrace
 10
85.17887476210018
 20
217.2206701228517
 30
0.0
 11
87.51220809543353
 21
217.2206701228517
 31
0.0
 12
86.34554142876686
 22
210.2206701228517
 32
0.0
 13
86.34554142876686
 23
210.2206701228517
 33
0.0
  0
MTEXT
  5
CA5
330
A42
100
AcDbEntity
  8
BEM
 62
     1
100
AcDbMText
 10
79.84554142876685
 20
375.2206701228518
 30
0.0
 40
7.0
 41
0.0
 71
     5
 72
     1
  1
\A1;2580
  7
GREEKS
 11
0.0000000000000001
 21
1.0
 31
0.0
 73
     1
 44
1.0
  0
POINT
  5
CA6
330
A42
100
AcDbEntity
  8
DEFPOINTS
 62
     0
100
AcDbPoint
 10
118.711224044998
 20
540.2206701228517
 30
0.0
  0
POINT
  5
CA7
330
A42
100
AcDbEntity
  8
DEFPOINTS
 62
     0
100
AcDbPoint
 10
149.5765610863981
 20
210.2206701228517
 30
0.0
  0
POINT
  5
CA8
330
A42
100
AcDbEntity
  8
DEFPOINTS
 62
     0
100
AcDbPoint
 10
86.34554142876686
 20
210.2206701228517
 30
0.0
  0
ENDBLK
  5
A4D
330
A42
100
AcDbEntity
  8
0
100
AcDbBlockEnd
  0
BLOCK
  5
C95
330
C8B
100
AcDbEntity
  8
0
100
AcDbBlockBegin
  2
*D4
 70
     1
 10
0.0
 20
0.0
 30
0.0
  3
*D4
  1

  0
LINE
  5
C97
330
C8B
100
AcDbEntity
  8
BEM
 62
     0
370
    -2
100
AcDbLine
 10
147.5765610863981
 20
210.2206701228516
 30
0.0
 11
100.9400949711148
 21
210.2206701228516
 31
0.0
  0
LINE
  5
C98
330
C8B
100
AcDbEntity
  8
BEM
 62
     0
370
    -2
100
AcDbLine
 10
116.711224044998
 20
275.2206701228516
 30
0.0
 11
100.9400949711148
 21
275.2206701228516
 31
0.0
  0
LINE
  5
C99
330
C8B
100
AcDbEntity
  8
BEM
 62
     0
370
    -2
100
AcDbLine
 10
102.9400949711148
 20
217.2206701228516
 30
0.0
 11
102.9400949711148
 21
268.2206701228516
 31
0.0
  0
SOLID
  5
C9A
330
C8B
100
AcDbEntity
  8
BEM
 62
     0
100
AcDbTrace
 10
101.7734283044481
 20
217.2206701228516
 30
0.0
 11
104.1067616377815
 21
217.2206701228516
 31
0.0
 12
102.9400949711148
 22
210.2206701228516
 32
0.0
 13
102.9400949711148
 23
210.2206701228516
 33
0.0
  0
SOLID
  5
C9B
330
C8B
100
AcDbEntity
  8
BEM
 62
     0
100
AcDbTrace
 10
101.7734283044481
 20
268.2206701228516
 30
0.0
 11
104.1067616377815
 21
268.2206701228516
 31
0.0
 12
102.9400949711148
 22
275.2206701228516
 32
0.0
 13
102.9400949711148
 23
275.2206701228516
 33
0.0
  0
MTEXT
  5
C9C
330
C8B
100
AcDbEntity
  8
BEM
 62
     1
100
AcDbMText
 10
96.44009497111479
 20
242.7206701228517
 30
0.0
 40
7.0
 41
0.0
 71
     5
 72
     1
  1
\A1;65
 11
0.0000000000000001
 21
1.0
 31
0.0
 73
     1
 44
1.0
  0
POINT
  5
C9D
330
C8B
100
AcDbEntity
  8
DEFPOINTS
 62
     0
100
AcDbPoint
 10
149.5765610863981
 20
210.2206701228516
 30
0.0
  0
POINT
  5
C9E
330
C8B
100
AcDbEntity
  8
DEFPOINTS
 62
     0
100
AcDbPoint
 10
118.711224044998
 20
275.2206701228516
 30
0.0
  0
POINT
  5
C9F
330
C8B
100
AcDbEntity
  8
DEFPOINTS
 62
     0
100
AcDbPoint
 10
102.9400949711148
 20
275.2206701228516
 30
0.0
  0
ENDBLK
  5
C96
330
C8B
100
AcDbEntity
  8
0
100
AcDbBlockEnd
  0
ENDSEC
  0
SECTION
  2
ENTITIES
  0
LINE
  5
57
330
1E
100
AcDbEntity
  8
STEMPEL
100
AcDbLine
 10
410.0
 20
110.0
 30
0.0
 11
39.99999999999997
 21
110.0
 31
0.0
  0
LINE
  5
58
330
1E
100
AcDbEntity
  8
STEMPEL
100
AcDbLine
 10
136.0000000000001
 20
109.9999999999999
 30
0.0
 11
136.0
 21
9.999999999999971
 31
0.0
  0
LINE
  5
59
330
1E
100
AcDbEntity
  8
STEMPEL
100
AcDbLine
 10
220.0
 20
110.0
 30
0.0
 11
220.0
 21
9.999999999999971
 31
0.0
  0
LINE
  5
5A
330
1E
100
AcDbEntity
  8
STEMPEL
100
AcDbLine
 10
332.0
 20
109.9999999999997
 30
0.0
 11
332.0
 21
40.0
 31
0.0
  0
LINE
  5
5B
330
1E
100
AcDbEntity
  8
STEMPEL
100
AcDbLine
 10
135.9999999999999
 20
29.99999999999997
 30
0.0
 11
39.99999999999997
 21
29.99999999999997
 31
0.0
  0
LINE
  5
5C
330
1E
100
AcDbEntity
  8
STEMPEL
100
AcDbLine
 10
410.0
 20
40.0
 30
0.0
 11
136.0000000000001
 21
39.99999999999997
 31
0.0
  0
LINE
  5
5D
330
1E
100
AcDbEntity
  8
STEMPEL
100
AcDbLine
 10
410.0
 20
80.0
 30
0.0
 11
136.0000000000001
 21
79.99999999999994
 31
0.0
  0
LINE
  5
5E
330
1E
100
AcDbEntity
  8
VOLL
100
AcDbLine
 10
54.00000000000009
 20
110.0
 30
0.0
 11
53.99999999999997
 21
9.999999999999971
 31
0.0
  0
LINE
  5
5F
330
1E
100
AcDbEntity
  8
VOLL
100
AcDbLine
 10
94.00000000000011
 20
109.9999999999999
 30
0.0
 11
94.0
 21
9.999999999999971
 31
0.0
  0
LINE
  5
60
330
1E
100
AcDbEntity
  8
VOLL
100
AcDbLine
 10
114.0000000000001
 20
109.9999999999999
 30
0.0
 11
114.0
 21
9.999999999999971
 31
0.0
  0
LINE
  5
61
330
1E
100
AcDbEntity
  8
VOLL
100
AcDbLine
 10
154.0000000000001
 20
79.99999999999994
 30
0.0
 11
154.0000000000001
 21
39.99999999999997
 31
0.0
  0
LINE
  5
62
330
1E
100
AcDbEntity
  8
VOLL
100
AcDbLine
 10
180.0000000000001
 20
109.9999999999998
 30
0.0
 11
180.0
 21
39.99999999999997
 31
0.0
  0
LINE
  5
63
330
1E
100
AcDbEntity
  8
HILF
100
AcDbLine
 10
40.00000000000008
 20
100.0
 30
0.0
 11
136.0000000000001
 21
100.0
 31
0.0
  0
LINE
  5
64
330
1E
100
AcDbEntity
  8
HILF
100
AcDbLine
 10
40.00000000000008
 20
90.00000000000005
 30
0.0
 11
136.0000000000001
 21
90.00000000000005
 31
0.0
  0
LINE
  5
65
330
1E
100
AcDbEntity
  8
HILF
100
AcDbLine
 10
40.00000000000008
 20
79.99999999999994
 30
0.0
 11
136.0000000000001
 21
79.99999999999994
 31
0.0
  0
LINE
  5
66
330
1E
100
AcDbEntity
  8
HILF
100
AcDbLine
 10
40.00000000000008
 20
69.99999999999994
 30
0.0
 11
136.0000000000001
 21
69.99999999999994
 31
0.0
  0
LINE
  5
67
330
1E
100
AcDbEntity
  8
HILF
100
AcDbLine
 10
40.00000000000008
 20
59.99999999999997
 30
0.0
 11
136.0000000000001
 21
59.99999999999997
 31
0.0
  0
LINE
  5
68
330
1E
100
AcDbEntity
  8
HILF
100
AcDbLine
 10
40.00000000000008
 20
49.99999999999997
 30
0.0
 11
136.0000000000001
 21
49.99999999999997
 31
0.0
  0
LINE
  5
69
330
1E
100
AcDbEntity
  8
HILF
100
AcDbLine
 10
40.00000000000008
 20
39.99999999999997
 30
0.0
 11
136.0000000000001
 21
39.99999999999997
 31
0.0
  0
LINE
  5
6A
330
1E
100
AcDbEntity
  8
HILF
100
AcDbLine
 10
136.0000000000001
 20
69.99999999999994
 30
0.0
 11
220.0
 21
69.99999999999994
 31
0.0
  0
LINE
  5
6B
330
1E
100
AcDbEntity
  8
HILF
100
AcDbLine
 10
136.0000000000001
 20
59.99999999999997
 30
0.0
 11
220.0
 21
59.99999999999997
 31
0.0
  0
LINE
  5
6C
330
1E
100
AcDbEntity
  8
HILF
100
AcDbLine
 10
136.0000000000001
 20
49.99999999999997
 30
0.0
 11
220.0
 21
49.99999999999997
 31
0.0
  0
LINE
  5
6D
330
1E
100
AcDbEntity
  8
HILF
100
AcDbLine
 10
224.7736801096948
 20
84.03758247564139
 30
0.0
 11
324.8353916556311
 21
84.03758247564139
 31
0.0
  0
LINE
  5
6E
330
1E
100
AcDbEntity
  8
HILF
100
AcDbLine
 10
224.7736801096948
 20
69.99999999999994
 30
0.0
 11
324.835391655631
 21
69.99999999999994
 31
0.0
  0
LINE
  5
6F
330
1E
100
AcDbEntity
  8
HILF
100
AcDbLine
 10
224.7736801096948
 20
59.99999999999997
 30
0.0
 11
324.835391655631
 21
59.99999999999997
 31
0.0
  0
LINE
  5
70
330
1E
100
AcDbEntity
  8
HILF
100
AcDbLine
 10
224.7736801096948
 20
49.99999999999997
 30
0.0
 11
324.835391655631
 21
49.99999999999997
 31
0.0
  0
LINE
  5
71
330
1E
100
AcDbEntity
  8
VOLL
100
AcDbLine
 10
332.0
 20
60.0
 30
0.0
 11
410.0
 21
60.0
 31
0.0
  0
LINE
  5
72
330
1E
100
AcDbEntity
  8
HILF
100
AcDbLine
 10
336.7238616296993
 20
83.77983636955827
 30
0.0
 11
404.8588839326728
 21
83.77983636955827
 31
0.0
  0
LINE
  5
73
330
1E
100
AcDbEntity
  8
HILF
100
AcDbLine
 10
223.4909699289885
 20
14.89398258028314
 30
0.0
 11
404.8588839326728
 21
14.89398258028314
 31
0.0
  0
TEXT
  5
74
330
1E
100
AcDbEntity
  8
TEXT
100
AcDbText
 10
63.86165979631819
 20
18.67381894984132
 30
0.0
 40
4.0
  1
Änderung
 41
0.8
  7
GREEKS
 72
     1
 11
74.60451693917534
 21
18.67381894984132
 31
0.0
100
AcDbText
  0
TEXT
  5
75
330
1E
100
AcDbEntity
  8
TEXT
100
AcDbText
 10
143.5163572150377
 20
102.4620895087088
 30
0.0
 40
5.0
  1
Maßstab
 41
0.8
  7
GREEKS
100
AcDbText
  0
TEXT
  5
76
330
1E
100
AcDbEntity
  8
TEXT
100
AcDbText
 10
184.2858954734051
 20
102.4184168434819
 30
0.0
 40
5.0
  1
Zul. Abw.
 41
0.8
  7
GREEKS
100
AcDbText
  0
TEXT
  5
77
330
1E
100
AcDbEntity
  8
TEXT
100
AcDbText
 10
224.877940380901
 20
102.5489328011779
 30
0.0
 40
5.0
  1
Benennung
 41
0.8
  7
GREEKS
100
AcDbText
  0
TEXT
  5
78
330
1E
100
AcDbEntity
  8
TEXT
100
AcDbText
 10
336.178754957634
 20
102.3132034537136
 30
0.0
 40
5.0
  1
Zeichnungs Nr.
 41
0.8
  7
GREEKS
100
AcDbText
  0
TEXT
  5
79
330
1E
100
AcDbEntity
  8
TEXT
100
AcDbText
 10
224.742238391136
 20
30.84560570193057
 30
0.0
 40
5.0
  1
Bauvorhaben
 41
0.8
  7
GREEKS
100
AcDbText
  0
TEXT
  5
7A
330
1E
100
AcDbEntity
  8
TEXT
100
AcDbText
 10
336.7238616296993
 20
73.1811823709997
 30
0.0
 40
5.0
  1
Ersatz für:
 41
0.8
  7
GREEKS
100
AcDbText
  0
TEXT
  5
7B
330
1E
100
AcDbEntity
  8
TEXT
100
AcDbText
 10
48.26641107045756
 20
13.65465846027192
 30
0.0
 40
4.0
  1
Index
 50
90.0
 41
0.8
  7
GREEKS
100
AcDbText
  0
TEXT
  5
7C
330
1E
100
AcDbEntity
  8
TEXT
100
AcDbText
 10
100.0934676075481
 20
18.6715626933981
 30
0.0
 40
4.0
  1
Tag
 41
0.8
  7
GREEKS
 72
     1
 11
103.8268009408814
 21
18.6715626933981
 31
0.0
100
AcDbText
  0
TEXT
  5
7D
330
1E
100
AcDbEntity
  8
TEXT
100
AcDbText
 10
119.0122744386592
 20
18.59324216966408
 30
0.0
 40
4.0
  1
Name
 41
0.8
  7
GREEKS
 72
     1
 11
125.3360839624688
 21
18.59324216966408
 31
0.0
100
AcDbText
  0
TEXT
  5
7E
330
1E
100
AcDbEntity
  8
TEXT
100
AcDbText
 10
162.3311673153651
 20
73.31880501229926
 30
0.0
 40
4.0
  1
Tag
 41
0.8
  7
GREEKS
100
AcDbText
  0
TEXT
  5
7F
330
1E
100
AcDbEntity
  8
TEXT
100
AcDbText
 10
192.4626584226295
 20
73.30961091915225
 30
0.0
 40
4.0
  1
Name
 41
0.8
  7
GREEKS
100
AcDbText
  0
TEXT
  5
80
330
1E
100
AcDbEntity
  8
TEXT
100
AcDbText
 10
137.5836127167615
 20
63.62990369617964
 30
0.0
 40
4.0
  1
Gez.
 41
0.8
  7
GREEKS
100
AcDbText
  0
TEXT
  5
81
330
1E
100
AcDbEntity
  8
TEXT
100
AcDbText
 10
137.5515086571672
 20
53.68926291428377
 30
0.0
 40
4.0
  1
Gepr.
 41
0.8
  7
GREEKS
100
AcDbText
  0
TEXT
  5
82
330
1E
100
AcDbEntity
  8
TEXT
100
AcDbText
 10
137.6006777387304
 20
43.52946389649807
 30
0.0
 40
4.0
  1
Norm.
 41
0.8
  7
GREEKS
100
AcDbText
  0
LINE
  5
83
330
1E
100
AcDbEntity
  8
STEMPEL
100
AcDbLine
 10
49.99999999999989
 20
10.0
 30
0.0
 11
410.0
 21
10.0
 31
0.0
  0
TEXT
  5
84
330
1E
100
AcDbEntity
  8
TEXT
100
AcDbText
 10
337.2400861497006
 20
52.07416177878602
 30
0.0
 40
5.0
  1
ersetzt durch:
 41
0.8
  7
GREEKS
100
AcDbText
  0
LINE
  5
85
330
1E
100
AcDbEntity
  8
STEMPEL
100
AcDbLine
 10
410.0
 20
10.0
 30
0.0
 11
39.99999999999989
 21
10.0
 31
0.0
  0
LINE
  5
86
330
1E
100
AcDbEntity
  8
STEMPEL
100
AcDbLine
 10
410.0
 20
10.0
 30
0.0
 11
410.0
 21
584.0
 31
0.0
  0
LINE
  5
87
330
1E
100
AcDbEntity
  8
STEMPEL
100
AcDbLine
 10
40.0
 20
10.0
 30
0.0
 11
39.99999999999989
 21
584.0
 31
0.0
  0
LINE
  5
88
330
1E
100
AcDbEntity
  8
STEMPEL
100
AcDbLine
 10
410.0
 20
584.0
 30
0.0
 11
39.99999999999989
 21
584.0
 31
0.0
  0
LINE
  5
89
330
1E
100
AcDbEntity
  8
HILF
100
AcDbLine
 10
0.0
 20
0.0
 30
0.0
 11
-0.0000000000001137
 21
594.0
 31
0.0
  0
LINE
  5
8A
330
1E
100
AcDbEntity
  8
HILF
100
AcDbLine
 10
419.9999999999999
 20
594.0000000000002
 30
0.0
 11
0.0
 21
594.0
 31
0.0
  0
LINE
  5
8B
330
1E
100
AcDbEntity
  8
HILF
100
AcDbLine
 10
420.0
 20
0.0
 30
0.0
 11
0.0
 21
0.0
 31
0.0
  0
LINE
  5
8C
330
1E
100
AcDbEntity
  8
HILF
100
AcDbLine
 10
31.08767135713856
 20
297.0
 30
0.0
 11
0.0000000000001137
 21
297.0
 31
0.0
  0
TEXT
  5
8D
330
1E
100
AcDbEntity
  8
TEXT
100
AcDbText
 10
138.622109822104
 20
73.14025471151666
 30
0.0
 40
4.0
  1
2007
 41
0.8
  7
GREEKS
100
AcDbText
  0
LINE
  5
8E
330
1E
100
AcDbEntity
  8
HILF
100
AcDbLine
 10
420.0
 20
-0.0000000000001137
 30
0.0
 11
419.9999999999999
 21
594.0
 31
0.0
  0
TEXT
  5
8F
330
1E
100
AcDbEntity
  8
VOLL
100
AcDbText
 10
78.07675471698113
 20
31.02594776470585
 30
0.0
 40
1.8
  1

  7
GREEKS
100
AcDbText
  0
TEXT
  5
90
330
1E
100
AcDbEntity
  8
TEXT
100
AcDbText
 10
41.85509950977674
 20
111.6719999999999
 30
0.0
 40
5.0
  1
Erstellt mit AUTOCAD 2004
 41
0.8
  7
GREEKS
100
AcDbText
  0
TEXT
  5
91
330
1E
100
AcDbEntity
  8
TEXT
100
AcDbText
 10
194.4216048581257
 20
63.0896391972351
 30
0.0
 40
4.0
  1
Koeh
 41
0.8
  7
GREEKS
 72
     1
 11
199.6787477152685
 21
63.0896391972351
 31
0.0
100
AcDbText
  0
TEXT
  5
92
330
1E
100
AcDbEntity
  8
TEXT
 62
     1
100
AcDbText
 10
347.2064127456858
 20
88.14901428913959
 30
0.0
 40
7.0
  1
58016150W
 41
0.8
  7
GREEKS
 72
     1
 11
370.1397460790191
 21
88.14901428913959
 31
0.0
100
AcDbText
  0
TEXT
  5
93
330
1E
100
AcDbEntity
  8
TEXT
 62
     1
100
AcDbText
 10
150.5006306481887
 20
88.14901428913959
 30
0.0
 40
7.0
  1
1:2
 41
0.8
  7
GREEKS
100
AcDbText
  0
TEXT
  5
94
330
1E
100
AcDbEntity
  8
TEXT
100
AcDbText
 10
160.398997108236
 20
63.10765040825732
 30
0.0
 40
4.0
  1
27.09.
 41
0.8
  7
GREEKS
 72
     1
 11
167.4085209177598
 21
63.10765040825732
 31
0.0
100
AcDbText
  0
TEXT
  5
95
330
1E
100
AcDbEntity
  8
TEXT
 62
     1
100
AcDbText
 10
226.8935731057402
 20
87.41748789253779
 30
0.0
 40
7.0
  1
Verbundrohr DN150
 41
0.8
  7
GREEKS
100
AcDbText
  0
TEXT
  5
96
330
1E
100
AcDbEntity
  8
TEXT
100
AcDbText
 10
225.1296391125315
 20
71.50334417585288
 30
0.0
 40
5.0
  1
2500mm lang
 41
0.8
  7
GREEKS
100
AcDbText
  0
TEXT
  5
98
330
1E
100
AcDbEntity
  8
TEXT
100
AcDbText
 10
225.1296391125315
 20
51.64011943042158
 30
0.0
 40
5.0
  1
EDV-Art.Nr. 58016.150X
 41
0.8
  7
GREEKS
100
AcDbText
  0
TEXT
  5
99
330
1E
100
AcDbEntity
  8
TEXT
100
AcDbText
 10
224.9837501577827
 20
42.62974153022632
 30
0.0
 40
4.0
  1
58016150W.DWG
 41
0.8
  7
GREEKS
100
AcDbText
  0
TEXT
  5
9A
330
1E
100
AcDbEntity
  8
TEXT
100
AcDbText
 10
182.626132208084
 20
90.76363841023022
 30
0.0
 40
4.0
  1
DIN EN1123-2
 41
0.8
  7
GREEKS
 72
     1
 11
199.6166083985602
 21
90.76363841023022
 31
0.0
100
AcDbText
  0
INSERT
  5
9B
330
1E
100
AcDbEntity
  8
STEMPEL
100
AcDbBlockReference
  2
LOGO
 10
140.9955485457794
 20
45.02105276448322
 30
0.0
 41
2.0
 42
2.0
 43
2.0
  0
TEXT
  5
118
330
1E
100
AcDbEntity
  8
TEXT
100
AcDbText
 10
417.3022923857165
 20
10.16790107998849
 30
0.0
 40
4.0
  1
Diese Zeichnung ist urheberrechtlich geschützt und bleibt unser Eigentum. Sie darf weder ganz noch teilweise verfielfältigt und nicht an Dritte weitergegeben werden.
 50
90.0
 41
0.8
  7
GREEKS
100
AcDbText
  0
TEXT
  5
3D8
330
1E
100
AcDbEntity
  8
TEXT
 62
     1
100
AcDbText
 10
193.6033828683802
 20
152.364339848487
 30
0.0
 40
7.0
  1
Außenrohr: P235 TR1 EN10217-1 feuerverzinkt
 41
0.8
  7
GREEKS
100
AcDbText
  0
TEXT
  5
3D9
330
1E
100
AcDbEntity
  8
TEXT
 62
     1
100
AcDbText
 10
197.3756002392442
 20
141.011271812132
 30
0.0
 40
7.0
  1
Innenrohr: E195 EN10305 feuerverzinkt
 41
0.8
  7
GREEKS
100
AcDbText
  0
TEXT
  5
3DA
330
1E
100
AcDbEntity
  8
TEXT
 62
     1
100
AcDbText
 10
189.8811895945471
 20
117.1473825875242
 30
0.0
 40
7.0
  1
Dämmung: 2 K-PU-Schaum
 41
0.8
  7
GREEKS
100
AcDbText
  0
TEXT
  5
3DB
330
1E
100
AcDbEntity
  8
TEXT
 62
     1
100
AcDbText
 10
245.030129115258
 20
129.7422179729062
 30
0.0
 40
7.0
  1
und innenbeschichtet
 41
0.8
  7
GREEKS
100
AcDbText
  0
TEXT
  5
478
330
1E
100
AcDbEntity
  8
TEXT
 62
     1
100
AcDbText
 10
215.0439769591498
 20
417.5865854069975
 30
0.0
 40
7.0
  1
DN150
 50
90.0
 41
0.8
  7
GREEKS
100
AcDbText
  0
DIMENSION
  5
9B9
330
1E
100
AcDbEntity
  8
BEM
100
AcDbDimension
  2
*D1
 10
307.7112240449982
 20
188.2937617801135
 30
0.0
 11
228.2112240449981
 21
194.7937617801135
 31
0.0
 70
    32
  1
%%c<>
 71
     5
 42
159.0000000000001
  3
Standard
100
AcDbAlignedDimension
 13
148.711224044998
 23
220.2206701228516
 33
0.0
 14
307.7112240449982
 24
220.2206701228517
 34
0.0
100
AcDbRotatedDimension
1001
ACAD
1000
DSTYLE
1002
{
1070
    40
1040
2.0
1070
    41
1040
3.5
1070
    42
1040
1.0
1070
    43
1040
7.0
1070
    44
1040
1.0
1070
    73
1070
     0
1070
    74
1070
     0
1070
    77
1070
     1
1070
    78
1070
     8
1070
    79
1070
     2
1070
   140
1040
3.5
1070
   141
1040
1.5
1070
   146
1040
0.5142857142857144
1070
   147
1040
1.5
1070
   172
1070
     1
1070
   178
1070
     1
1070
   179
1070
     2
1070
   271
1070
     2
1070
   272
1070
     2
1070
   284
1070
     8
1070
   285
1070
     8
1070
   286
1070
     8
1070
   289
1070
     0
1070
   340
1005
24
1002
}
  0
DIMENSION
  5
9BA
330
1E
100
AcDbEntity
  8
BEM
100
AcDbDimension
  2
*D2
 10
337.7112240449979
 20
555.6821558672267
 30
0.0
 11
228.211224044998
 21
562.1821558672268
 31
0.0
 70
    32
  1
%%c<>
 71
     5
 42
218.9999999999999
  3
Standard
100
AcDbAlignedDimension
 13
118.711224044998
 23
540.2206701228516
 33
0.0
 14
337.7112240449979
 24
540.2206701228517
 34
0.0
100
AcDbRotatedDimension
1001
ACAD
1000
DSTYLE
1002
{
1070
    40
1040
2.0
1070
    41
1040
3.5
1070
    42
1040
1.0
1070
    43
1040
7.0
1070
    44
1040
1.0
1070
    73
1070
     0
1070
    74
1070
     0
1070
    77
1070
     1
1070
    78
1070
     8
1070
    79
1070
     2
1070
   140
1040
3.5
1070
   141
1040
1.5
1070
   146
1040
0.5142857142857144
1070
   147
1040
1.5
1070
   172
1070
     1
1070
   178
1070
     1
1070
   179
1070
     2
1070
   271
1070
     2
1070
   272
1070
     2
1070
   284
1070
     8
1070
   285
1070
     8
1070
   286
1070
     8
1070
   289
1070
     0
1070
   340
1005
24
1002
}
  0
HATCH
  5
9BD
330
1E
100
AcDbEntity
  8
SCHRAFF
100
AcDbHatch
 10
0.0
 20
0.0
 30
0.0
210
0.0
220
0.0
230
1.0
  2
NET
 70
     0
 71
     1
 91
        2
 92
        7
 72
     1
 73
     1
 93
        6
 10
137.711224044998
 20
522.2206701228516
 42
0.0
 10
137.711224044998
 20
524.4375659049178
 42
-0.1095178116832392
 10
140.9904514987152
 20
539.229205065842
 42
0.0
 10
141.4527792475918
 20
540.2206701228516
 42
0.0
 10
121.611224044998
 20
540.2206701228514
 42
0.0
 10
121.611224044998
 20
522.2206701228515
 42
0.0
 97
        6
330
9E3
330
9C4
330
9C7
330
9DE
330
9E1
330
9E0
 92
        7
 72
     1
 73
     1
 93
        6
 10
314.9696688424043
 20
540.2206701228514
 42
0.0
 10
315.4319965912807
 20
539.229205065842
 42
-0.1095178116832409
 10
318.7112240449979
 20
524.4375659049175
 42
0.0
 10
318.7112240449979
 20
522.2206701228517
 42
0.0
 10
334.8112240449981
 20
522.2206701228517
 42
0.0
 10
334.811224044998
 20
540.2206701228514
 42
0.0
 97
        6
330
9C4
330
A03
330
A01
330
9FE
330
9FD
330
9E7
 75
     0
 76
     1
 52
45.0
 41
20.0
 77
     0
 78
     2
 53
45.0
 43
-356.2438121935038
 44
17.23241532509473
 45
-1.767766952966368
 46
1.767766952966368
 79
     0
 53
135.0
 43
-356.2438121935038
 44
17.23241532509473
 45
-1.767766952966368
 46
-1.767766952966368
 79
     0
 47
0.7473116165668432
 98
        2
 10
129.1589758890936
 20
528.2568895880192
 10
326.5792631142008
 20
533.4880715536996
  0
LINE
  5
9C1
330
1E
100
AcDbEntity
  8
HILF
  6
Continuous
100
AcDbLine
 10
302.7016744511404
 20
220.2206701228517
 30
0.0
 11
153.7207736388557
 21
220.2206701228516
 31
0.0
  0
LINE
  5
9C2
102
{ACAD_REACTORS
330
B61
102
}
330
1E
100
AcDbEntity
  8
STEMPEL
  6
Continuous
100
AcDbLine
 10
306.8458870035979
 20
210.2206701228517
 30
0.0
 11
149.5765610863981
 21
210.2206701228516
 31
0.0
  0
LINE
  5
9C3
330
1E
100
AcDbEntity
  8
HILF
  6
Continuous
100
AcDbLine
 10
148.1745978994159
 20
488.6599853665519
 30
0.0
 11
308.2478501905801
 21
488.6599853665519
 31
0.0
  0
LINE
  5
9C4
102
{ACAD_REACTORS
330
9BD
330
B61
330
B79
102
}
330
1E
100
AcDbEntity
  8
STEMPEL
  6
Continuous
100
AcDbLine
 10
337.7112240449979
 20
540.2206701228517
 30
0.0
 11
118.711224044998
 21
540.2206701228516
 31
0.0
  0
LINE
  5
9C5
330
1E
100
AcDbEntity
  8
HILF
  6
Continuous
100
AcDbLine
 10
149.5642447026735
 20
464.0301307697479
 30
0.0
 11
306.8582033873222
 21
464.0301307697479
 31
0.0
  0
LINE
  5
9C6
330
1E
100
AcDbEntity
  8
HILF
  6
Continuous
100
AcDbLine
 10
153.23875333056
 20
456.4280116124173
 30
0.0
 11
303.1836947594361
 21
456.4280116124173
 31
0.0
  0
LINE
  5
9C7
102
{ACAD_REACTORS
330
9BD
330
B79
330
BA3
102
}
330
1E
100
AcDbEntity
  8
STEMPEL
100
AcDbLine
 10
121.611224044998
 20
540.2206701228516
 30
0.0
 11
121.611224044998
 21
390.1006962818273
 31
0.0
  0
LINE
  5
9C8
102
{ACAD_REACTORS
330
B79
102
}
330
1E
100
AcDbEntity
  8
STEMPEL
100
AcDbLine
 10
118.711224044998
 20
540.2206701228516
 30
0.0
 11
118.711224044998
 21
389.8696030476604
 31
0.0
  0
LINE
  5
9C9
102
{ACAD_REACTORS
330
B61
102
}
330
1E
100
AcDbEntity
  8
STEMPEL
  6
Continuous
100
AcDbLine
 10
151.211224044998
 20
452.6929222082474
 30
0.0
 11
151.2112240449978
 21
392.1218253175963
 31
0.0
  0
LINE
  5
9CA
102
{ACAD_REACTORS
330
B61
330
BA3
102
}
330
1E
100
AcDbEntity
  8
STEMPEL
  6
Continuous
100
AcDbLine
 10
148.711224044998
 20
452.6929222082474
 30
0.0
 11
148.7112240449979
 21
391.9865567127954
 31
0.0
  0
LINE
  5
9CC
102
{ACAD_REACTORS
330
B61
102
}
330
1E
100
AcDbEntity
  8
STEMPEL
100
AcDbLine
 10
148.7207372997679
 20
220.0027807659825
 30
0.0
 11
149.5765610863981
 21
210.2206701228516
 31
0.0
  0
LINE
  5
9CD
102
{ACAD_REACTORS
330
B61
102
}
330
1E
100
AcDbEntity
  8
STEMPEL
100
AcDbLine
 10
151.2112240449972
 20
220.2206701228516
 30
0.0
 11
152.0861106802566
 21
210.2206701228516
 31
0.0
  0
LINE
  5
9CE
102
{ACAD_REACTORS
330
BA3
102
}
330
1E
100
AcDbEntity
  8
STEMPEL
100
AcDbLine
 10
123.461224044998
 20
291.2206701228517
 30
0.0
 11
148.7112240449983
 21
291.2206701228517
 31
0.0
  0
LINE
  5
9CF
102
{ACAD_REACTORS
330
B79
102
}
330
1E
100
AcDbEntity
  8
STEMPEL
  6
Continuous
100
AcDbLine
 10
121.611224044998
 20
275.2206701228516
 30
0.0
 11
118.711224044998
 21
275.2206701228516
 31
0.0
  0
LINE
  5
9D0
102
{ACAD_REACTORS
330
BA3
102
}
330
1E
100
AcDbEntity
  8
STEMPEL
100
AcDbLine
 10
121.611224044998
 20
289.3706701228516
 30
0.0
 11
123.461224044998
 21
291.2206701228517
 31
0.0
  0
LINE
  5
9D2
330
1E
100
AcDbEntity
  8
STEMPEL
100
AcDbLine
 10
141.411224044998
 20
282.2206701228517
 30
0.0
 11
148.7112240449982
 21
282.2206701228517
 31
0.0
  0
ARC
  5
9D3
102
{ACAD_REACTORS
330
B61
102
}
330
1E
100
AcDbEntity
  8
STEMPEL
  6
Continuous
100
AcDbCircle
 10
172.7092517247561
 20
508.2179716421337
 30
0.0
 40
32.5
100
AcDbArc
 50
179.3687711177352
 51
207.3071230068022
  0
ARC
  5
9D4
102
{ACAD_REACTORS
330
B61
330
BA3
102
}
330
1E
100
AcDbEntity
  8
STEMPEL
  6
Continuous
100
AcDbCircle
 10
172.711224044998
 20
508.2156701228516
 30
0.0
 40
35.00004740563918
100
AcDbArc
 50
179.9056985509049
 51
207.5271836205476
  0
ARC
  5
9D5
102
{ACAD_REACTORS
330
B61
102
}
330
1E
100
AcDbEntity
  8
STEMPEL
  6
Continuous
100
AcDbCircle
 10
138.711224044998
 20
452.6929222082474
 30
0.0
 40
12.5
100
AcDbArc
 50
0.0
 51
34.77194403194904
  0
ARC
  5
9D6
102
{ACAD_REACTORS
330
B61
330
BA3
102
}
330
1E
100
AcDbEntity
  8
STEMPEL
  6
Continuous
100
AcDbCircle
 10
138.711224044998
 20
452.6929222082474
 30
0.0
 40
10.0
100
AcDbArc
 50
0.0
 51
34.77194403194904
  0
LINE
  5
9D7
102
{ACAD_REACTORS
330
B61
102
}
330
1E
100
AcDbEntity
  8
STEMPEL
  6
Continuous
100
AcDbLine
 10
146.211224044998
 20
483.7206701228516
 30
0.0
 11
146.211224044998
 21
468.6616416309187
 31
0.0
  0
LINE
  5
9D8
102
{ACAD_REACTORS
330
B61
330
BA3
102
}
330
1E
100
AcDbEntity
  8
STEMPEL
  6
Continuous
100
AcDbLine
 10
143.711224044998
 20
483.7206701228516
 30
0.0
 11
143.711224044998
 21
468.6616416309187
 31
0.0
  0
ARC
  5
9D9
102
{ACAD_REACTORS
330
B61
102
}
330
1E
100
AcDbEntity
  8
STEMPEL
  6
Continuous
100
AcDbCircle
 10
161.711224044998
 20
468.6616416309187
 30
0.0
 40
15.5
100
AcDbArc
 50
180.0
 51
214.7719440319491
  0
ARC
  5
9DA
102
{ACAD_REACTORS
330
B61
330
BA3
102
}
330
1E
100
AcDbEntity
  8
STEMPEL
  6
Continuous
100
AcDbCircle
 10
161.711224044998
 20
468.6616416309187
 30
0.0
 40
18.0
100
AcDbArc
 50
180.0
 51
214.7719440319491
  0
ARC
  5
9DB
102
{ACAD_REACTORS
330
B61
102
}
330
1E
100
AcDbEntity
  8
STEMPEL
  6
Continuous
100
AcDbCircle
 10
125.711224044998
 20
483.7206701228516
 30
0.0
 40
20.5
100
AcDbArc
 50
0.0
 51
27.88431368737399
  0
ARC
  5
9DC
102
{ACAD_REACTORS
330
B61
330
BA3
102
}
330
1E
100
AcDbEntity
  8
STEMPEL
  6
Continuous
100
AcDbCircle
 10
125.711224044998
 20
483.7206701228516
 30
0.0
 40
18.0
100
AcDbArc
 50
0.0
 51
27.52718362054758
  0
LINE
  5
9DE
102
{ACAD_REACTORS
330
9BD
330
BA3
102
}
330
1E
100
AcDbEntity
  8
STEMPEL
  6
Continuous
100
AcDbLine
 10
137.711224044998
 20
522.2206701228517
 30
0.0
 11
121.611224044998
 21
522.2206701228516
 31
0.0
  0
ARC
  5
9DF
102
{ACAD_REACTORS
330
B61
102
}
330
1E
100
AcDbEntity
  8
STEMPEL
  6
Continuous
100
AcDbCircle
 10
172.711224044998
 20
524.4375659049178
 30
0.0
 40
32.5
100
AcDbArc
 50
155.0000000000079
 51
180.0
  0
ARC
  5
9E0
102
{ACAD_REACTORS
330
9BD
330
B61
102
}
330
1E
100
AcDbEntity
  8
STEMPEL
  6
Continuous
100
AcDbCircle
 10
172.711224044998
 20
524.4375659049178
 30
0.0
 40
35.0
100
AcDbArc
 50
155.0000000000079
 51
180.0
  0
LINE
  5
9E1
102
{ACAD_REACTORS
330
9BD
330
B61
330
BA3
102
}
330
1E
100
AcDbEntity
  8
STEMPEL
  6
Continuous
100
AcDbLine
 10
137.711224044998
 20
524.4375659049178
 30
0.0
 11
137.711224044998
 21
508.2732756520287
 31
0.0
  0
LINE
  5
9E2
102
{ACAD_REACTORS
330
B61
102
}
330
1E
100
AcDbEntity
  8
STEMPEL
  6
Continuous
100
AcDbLine
 10
140.211224044998
 20
524.4375659049178
 30
0.0
 11
140.211224044998
 21
508.5760176247723
 31
0.0
  0
LINE
  5
9E3
102
{ACAD_REACTORS
330
9BD
330
B61
102
}
330
1E
100
AcDbEntity
  8
STEMPEL
  6
Continuous
100
AcDbLine
 10
141.4527792475918
 20
540.2206701228516
 30
0.0
 11
140.9904514987152
 21
539.229205065842
 31
0.0
  0
LINE
  5
9E4
102
{ACAD_REACTORS
330
B61
102
}
330
1E
100
AcDbEntity
  8
STEMPEL
  6
Continuous
100
AcDbLine
 10
144.211224044998
 20
540.2206701228516
 30
0.0
 11
143.2562209663068
 21
538.1726594114905
 31
0.0
  0
DIMENSION
  5
9E5
330
1E
100
AcDbEntity
  8
BEM
100
AcDbDimension
  2
*D3
 10
86.34554142876686
 20
210.2206701228517
 30
0.0
 11
79.84554142876685
 21
375.2206701228518
 31
0.0
 70
    32
  1
2580
 71
     5
 42
330.0
  3
Standard
100
AcDbAlignedDimension
 13
118.711224044998
 23
540.2206701228517
 33
0.0
 14
149.5765610863981
 24
210.2206701228517
 34
0.0
 50
90.0
100
AcDbRotatedDimension
1001
ACAD
1000
DSTYLE
1002
{
1070
    40
1040
2.0
1070
    41
1040
3.5
1070
    42
1040
1.0
1070
    43
1040
7.0
1070
    44
1040
1.0
1070
    73
1070
     0
1070
    74
1070
     0
1070
    77
1070
     1
1070
    78
1070
     8
1070
    79
1070
     2
1070
   140
1040
3.5
1070
   141
1040
1.5
1070
   146
1040
0.5142857142857144
1070
   147
1040
1.5
1070
   172
1070
     1
1070
   178
1070
     1
1070
   179
1070
     2
1070
   271
1070
     2
1070
   272
1070
     2
1070
   284
1070
     8
1070
   285
1070
     8
1070
   286
1070
     8
1070
   289
1070
     0
1070
   340
1005
24
1002
}
  0
LINE
  5
9E7
102
{ACAD_REACTORS
330
9BD
330
B79
330
BA3
102
}
330
1E
100
AcDbEntity
  8
STEMPEL
100
AcDbLine
 10
334.8112240449981
 20
540.2206701228517
 30
0.0
 11
334.8112240449981
 21
389.6385098134936
 31
0.0
  0
LINE
  5
9E8
102
{ACAD_REACTORS
330
B79
102
}
330
1E
100
AcDbEntity
  8
STEMPEL
100
AcDbLine
 10
337.7112240449981
 20
540.2206701228517
 30
0.0
 11
337.7112240449981
 21
389.8696030476605
 31
0.0
  0
LINE
  5
9E9
102
{ACAD_REACTORS
330
B61
330
BA3
102
}
330
1E
100
AcDbEntity
  8
STEMPEL
  6
Continuous
100
AcDbLine
 10
307.7112240449979
 20
452.6929222082474
 30
0.0
 11
307.711224044998
 21
387.7526493825253
 31
0.0
  0
LINE
  5
9EA
102
{ACAD_REACTORS
330
B61
102
}
330
1E
100
AcDbEntity
  8
STEMPEL
  6
Continuous
100
AcDbLine
 10
305.211224044998
 20
452.6929222082474
 30
0.0
 11
305.2112240449983
 21
387.6173807777243
 31
0.0
  0
LINE
  5
9EB
330
1E
100
AcDbEntity
  8
MITTEL
100
AcDbLine
 10
228.211224044998
 20
545.2206701228516
 30
0.0
 11
228.211224044998
 21
205.2206701228517
 31
0.0
  0
LINE
  5
9EC
102
{ACAD_REACTORS
330
B61
102
}
330
1E
100
AcDbEntity
  8
STEMPEL
100
AcDbLine
 10
305.2112240449988
 20
220.2206701228516
 30
0.0
 11
304.3363374097396
 21
210.2206701228517
 31
0.0
  0
LINE
  5
9ED
102
{ACAD_REACTORS
330
B61
102
}
330
1E
100
AcDbEntity
  8
STEMPEL
100
AcDbLine
 10
307.7017107902282
 20
220.0027807659825
 30
0.0
 11
306.845887003598
 21
210.2206701228517
 31
0.0
  0
LINE
  5
9EE
102
{ACAD_REACTORS
330
BA3
102
}
330
1E
100
AcDbEntity
  8
STEMPEL
100
AcDbLine
 10
307.7112240449978
 20
291.2206701228517
 30
0.0
 11
332.9612240449982
 21
291.2206701228517
 31
0.0
  0
LINE
  5
9EF
102
{ACAD_REACTORS
330
B79
102
}
330
1E
100
AcDbEntity
  8
STEMPEL
  6
Continuous
100
AcDbLine
 10
337.7112240449981
 20
275.2206701228518
 30
0.0
 11
334.8112240449982
 21
275.2206701228518
 31
0.0
  0
LINE
  5
9F0
330
1E
100
AcDbEntity
  8
STEMPEL
100
AcDbLine
 10
307.7112240449978
 20
282.2206701228517
 30
0.0
 11
315.011224044998
 21
282.2206701228517
 31
0.0
  0
LINE
  5
9F2
102
{ACAD_REACTORS
330
BA3
102
}
330
1E
100
AcDbEntity
  8
STEMPEL
100
AcDbLine
 10
334.8112240449981
 20
289.3706701228516
 30
0.0
 11
332.9612240449979
 21
291.2206701228517
 31
0.0
  0
ARC
  5
9F3
102
{ACAD_REACTORS
330
B61
102
}
330
1E
100
AcDbEntity
  8
STEMPEL
  6
Continuous
100
AcDbCircle
 10
283.7131963652398
 20
508.2179716421337
 30
0.0
 40
32.5
100
AcDbArc
 50
332.6928769931978
 51
0.6312288822648352
  0
ARC
  5
9F4
102
{ACAD_REACTORS
330
B61
330
BA3
102
}
330
1E
100
AcDbEntity
  8
STEMPEL
  6
Continuous
100
AcDbCircle
 10
283.7112240449979
 20
508.2156701228516
 30
0.0
 40
35.00004740563918
100
AcDbArc
 50
332.4728163794524
 51
0.0943014490885628
  0
ARC
  5
9F5
102
{ACAD_REACTORS
330
B61
330
BA3
102
}
330
1E
100
AcDbEntity
  8
STEMPEL
  6
Continuous
100
AcDbCircle
 10
317.711224044998
 20
452.6929222082474
 30
0.0
 40
10.0
100
AcDbArc
 50
145.2280559680509
 51
180.0
  0
ARC
  5
9F6
102
{ACAD_REACTORS
330
B61
102
}
330
1E
100
AcDbEntity
  8
STEMPEL
  6
Continuous
100
AcDbCircle
 10
317.711224044998
 20
452.6929222082474
 30
0.0
 40
12.5
100
AcDbArc
 50
145.2280559680509
 51
180.0
  0
LINE
  5
9F7
102
{ACAD_REACTORS
330
B61
330
BA3
102
}
330
1E
100
AcDbEntity
  8
STEMPEL
  6
Continuous
100
AcDbLine
 10
312.7112240449979
 20
483.7206701228516
 30
0.0
 11
312.7112240449979
 21
468.6616416309187
 31
0.0
  0
LINE
  5
9F8
102
{ACAD_REACTORS
330
B61
102
}
330
1E
100
AcDbEntity
  8
STEMPEL
  6
Continuous
100
AcDbLine
 10
310.2112240449979
 20
483.7206701228516
 30
0.0
 11
310.2112240449979
 21
468.6616416309187
 31
0.0
  0
ARC
  5
9F9
102
{ACAD_REACTORS
330
B61
330
BA3
102
}
330
1E
100
AcDbEntity
  8
STEMPEL
  6
Continuous
100
AcDbCircle
 10
294.711224044998
 20
468.6616416309187
 30
0.0
 40
18.0
100
AcDbArc
 50
325.228055968051
 51
0.0
  0
ARC
  5
9FA
102
{ACAD_REACTORS
330
B61
102
}
330
1E
100
AcDbEntity
  8
STEMPEL
  6
Continuous
100
AcDbCircle
 10
294.711224044998
 20
468.6616416309187
 30
0.0
 40
15.5
100
AcDbArc
 50
325.228055968051
 51
0.0
  0
ARC
  5
9FB
102
{ACAD_REACTORS
330
B61
330
BA3
102
}
330
1E
100
AcDbEntity
  8
STEMPEL
  6
Continuous
100
AcDbCircle
 10
330.7112240449979
 20
483.7206701228516
 30
0.0
 40
18.0
100
AcDbArc
 50
152.4728163794524
 51
180.0
  0
ARC
  5
9FC
102
{ACAD_REACTORS
330
B61
102
}
330
1E
100
AcDbEntity
  8
STEMPEL
  6
Continuous
100
AcDbCircle
 10
330.7112240449979
 20
483.7206701228516
 30
0.0
 40
20.5
100
AcDbArc
 50
152.115686312626
 51
180.0
  0
LINE
  5
9FD
102
{ACAD_REACTORS
330
9BD
330
BA3
102
}
330
1E
100
AcDbEntity
  8
STEMPEL
  6
Continuous
100
AcDbLine
 10
334.8112240449981
 20
522.2206701228517
 30
0.0
 11
318.7112240449979
 21
522.2206701228517
 31
0.0
  0
LINE
  5
9FE
102
{ACAD_REACTORS
330
9BD
330
B61
330
BA3
102
}
330
1E
100
AcDbEntity
  8
STEMPEL
  6
Continuous
100
AcDbLine
 10
318.7112240449979
 20
524.4375659049178
 30
0.0
 11
318.7112240449979
 21
508.2732756520287
 31
0.0
  0
LINE
  5
9FF
102
{ACAD_REACTORS
330
B61
102
}
330
1E
100
AcDbEntity
  8
STEMPEL
  6
Continuous
100
AcDbLine
 10
316.2112240449979
 20
524.4375659049178
 30
0.0
 11
316.2112240449979
 21
508.5760176247723
 31
0.0
  0
LINE
  5
A00
102
{ACAD_REACTORS
330
B61
102
}
330
1E
100
AcDbEntity
  8
STEMPEL
  6
Continuous
100
AcDbLine
 10
312.2112240449979
 20
540.2206701228516
 30
0.0
 11
313.1662271236892
 21
538.1726594114905
 31
0.0
  0
ARC
  5
A01
102
{ACAD_REACTORS
330
9BD
330
B61
102
}
330
1E
100
AcDbEntity
  8
STEMPEL
  6
Continuous
100
AcDbCircle
 10
283.7112240449979
 20
524.4375659049178
 30
0.0
 40
35.0
100
AcDbArc
 50
0.0
 51
24.99999999999207
  0
ARC
  5
A02
102
{ACAD_REACTORS
330
B61
102
}
330
1E
100
AcDbEntity
  8
STEMPEL
  6
Continuous
100
AcDbCircle
 10
283.7112240449979
 20
524.4375659049178
 30
0.0
 40
32.5
100
AcDbArc
 50
0.0
 51
24.99999999999207
  0
LINE
  5
A03
102
{ACAD_REACTORS
330
9BD
330
B61
102
}
330
1E
100
AcDbEntity
  8
STEMPEL
  6
Continuous
100
AcDbLine
 10
314.9696688424042
 20
540.2206701228516
 30
0.0
 11
315.4319965912807
 21
539.229205065842
 31
0.0
  0
POLYLINE
  5
AEC
102
{ACAD_REACTORS
330
B61
330
B79
330
BA3
102
}
330
1E
100
AcDbEntity
  8
HILF
100
AcDb2dPolyline
 66
     1
 10
0.0
 20
0.0
 30
0.0
 70
     4
 75
     6
  0
VERTEX
  5
AED
330
AEC
100
AcDbEntity
  8
HILF
100
AcDbVertex
100
AcDb2dVertex
 10
118.711224044998
 20
384.8696030476604
 30
0.0
 70
    16
  0
VERTEX
  5
B04
330
AEC
100
AcDbEntity
  8
HILF
100
AcDbVertex
100
AcDb2dVertex
 10
118.711224044998
 20
384.8696030476604
 30
0.0
 70
     8
  0
VERTEX
  5
AF3
330
AEC
100
AcDbEntity
  8
HILF
100
AcDbVertex
100
AcDb2dVertex
 10
138.012737716873
 20
386.4076889851604
 30
0.0
 70
     8
  0
VERTEX
  5
AF4
330
AEC
100
AcDbEntity
  8
HILF
100
AcDbVertex
100
AcDb2dVertex
 10
155.068645919998
 20
387.3305405476603
 30
0.0
 70
     8
  0
VERTEX
  5
AF5
330
AEC
100
AcDbEntity
  8
HILF
100
AcDbVertex
100
AcDb2dVertex
 10
170.199749435623
 20
387.7260483601604
 30
0.0
 70
     8
  0
VERTEX
  5
AF6
330
AEC
100
AcDbEntity
  8
HILF
100
AcDbVertex
100
AcDb2dVertex
 10
183.726849044998
 20
387.6821030476604
 30
0.0
 70
     8
  0
VERTEX
  5
AF7
330
AEC
100
AcDbEntity
  8
HILF
100
AcDbVertex
100
AcDb2dVertex
 10
195.970745529373
 20
387.2865952351604
 30
0.0
 70
     8
  0
VERTEX
  5
AF8
330
AEC
100
AcDbEntity
  8
HILF
100
AcDbVertex
100
AcDb2dVertex
 10
207.2522396699981
 20
386.6274155476605
 30
0.0
 70
     8
  0
VERTEX
  5
AF9
330
AEC
100
AcDbEntity
  8
HILF
100
AcDbVertex
100
AcDb2dVertex
 10
217.892132248123
 20
385.7924546101605
 30
0.0
 70
     8
  0
VERTEX
  5
AFA
330
AEC
100
AcDbEntity
  8
HILF
100
AcDbVertex
100
AcDb2dVertex
 10
228.211224044998
 20
384.8696030476603
 30
0.0
 70
     8
  0
VERTEX
  5
AFB
330
AEC
100
AcDbEntity
  8
HILF
100
AcDbVertex
100
AcDb2dVertex
 10
238.530315841873
 20
383.9467514851603
 30
0.0
 70
     8
  0
VERTEX
  5
AFC
330
AEC
100
AcDbEntity
  8
HILF
100
AcDbVertex
100
AcDb2dVertex
 10
249.1702084199981
 20
383.1117905476603
 30
0.0
 70
     8
  0
VERTEX
  5
AFD
330
AEC
100
AcDbEntity
  8
HILF
100
AcDbVertex
100
AcDb2dVertex
 10
260.4517025606231
 20
382.4526108601603
 30
0.0
 70
     8
  0
VERTEX
  5
AFE
330
AEC
100
AcDbEntity
  8
HILF
100
AcDbVertex
100
AcDb2dVertex
 10
272.695599044998
 20
382.0571030476603
 30
0.0
 70
     8
  0
VERTEX
  5
AFF
330
AEC
100
AcDbEntity
  8
HILF
100
AcDbVertex
100
AcDb2dVertex
 10
286.2226986543731
 20
382.0131577351603
 30
0.0
 70
     8
  0
VERTEX
  5
B00
330
AEC
100
AcDbEntity
  8
HILF
100
AcDbVertex
100
AcDb2dVertex
 10
301.353802169998
 20
382.4086655476603
 30
0.0
 70
     8
  0
VERTEX
  5
B01
330
AEC
100
AcDbEntity
  8
HILF
100
AcDbVertex
100
AcDb2dVertex
 10
318.4097103731231
 20
383.3315171101603
 30
0.0
 70
     8
  0
VERTEX
  5
B02
330
AEC
100
AcDbEntity
  8
HILF
100
AcDbVertex
100
AcDb2dVertex
 10
337.7112240449981
 20
384.8696030476603
 30
0.0
 70
     8
  0
VERTEX
  5
AEE
330
AEC
100
AcDbEntity
  8
HILF
100
AcDbVertex
100
AcDb2dVertex
 10
173.461224044998
 20
389.8696030476603
 30
0.0
 70
    16
  0
VERTEX
  5
AEF
330
AEC
100
AcDbEntity
  8
HILF
100
AcDbVertex
100
AcDb2dVertex
 10
228.211224044998
 20
384.8696030476604
 30
0.0
 70
    16
  0
VERTEX
  5
AF0
330
AEC
100
AcDbEntity
  8
HILF
100
AcDbVertex
100
AcDb2dVertex
 10
282.9612240449981
 20
379.8696030476604
 30
0.0
 70
    16
  0
VERTEX
  5
AF1
330
AEC
100
AcDbEntity
  8
HILF
100
AcDbVertex
100
AcDb2dVertex
 10
337.7112240449981
 20
384.8696030476604
 30
0.0
 70
    16
  0
SEQEND
  5
AF2
330
AEC
100
AcDbEntity
  8
HILF
  0
POLYLINE
  5
B06
102
{ACAD_REACTORS
330
B61
330
B79
330
BA3
102
}
330
1E
100
AcDbEntity
  8
HILF
100
AcDb2dPolyline
 66
     1
 10
0.0
 20
0.0
 30
0.0
 70
     4
 75
     6
  0
VERTEX
  5
B07
330
B06
100
AcDbEntity
  8
HILF
100
AcDbVertex
100
AcDb2dVertex
 10
118.711224044998
 20
389.8696030476604
 30
0.0
 70
    16
  0
VERTEX
  5
B08
330
B06
100
AcDbEntity
  8
HILF
100
AcDbVertex
100
AcDb2dVertex
 10
118.711224044998
 20
389.8696030476604
 30
0.0
 70
     8
  0
VERTEX
  5
B09
330
B06
100
AcDbEntity
  8
HILF
100
AcDbVertex
100
AcDb2dVertex
 10
138.012737716873
 20
391.4076889851604
 30
0.0
 70
     8
  0
VERTEX
  5
B0A
330
B06
100
AcDbEntity
  8
HILF
100
AcDbVertex
100
AcDb2dVertex
 10
155.068645919998
 20
392.3305405476603
 30
0.0
 70
     8
  0
VERTEX
  5
B0B
330
B06
100
AcDbEntity
  8
HILF
100
AcDbVertex
100
AcDb2dVertex
 10
170.199749435623
 20
392.7260483601604
 30
0.0
 70
     8
  0
VERTEX
  5
B0C
330
B06
100
AcDbEntity
  8
HILF
100
AcDbVertex
100
AcDb2dVertex
 10
183.726849044998
 20
392.6821030476604
 30
0.0
 70
     8
  0
VERTEX
  5
B0D
330
B06
100
AcDbEntity
  8
HILF
100
AcDbVertex
100
AcDb2dVertex
 10
195.970745529373
 20
392.2865952351604
 30
0.0
 70
     8
  0
VERTEX
  5
B0E
330
B06
100
AcDbEntity
  8
HILF
100
AcDbVertex
100
AcDb2dVertex
 10
207.2522396699981
 20
391.6274155476605
 30
0.0
 70
     8
  0
VERTEX
  5
B0F
330
B06
100
AcDbEntity
  8
HILF
100
AcDbVertex
100
AcDb2dVertex
 10
217.892132248123
 20
390.7924546101605
 30
0.0
 70
     8
  0
VERTEX
  5
B10
330
B06
100
AcDbEntity
  8
HILF
100
AcDbVertex
100
AcDb2dVertex
 10
228.211224044998
 20
389.8696030476603
 30
0.0
 70
     8
  0
VERTEX
  5
B11
330
B06
100
AcDbEntity
  8
HILF
100
AcDbVertex
100
AcDb2dVertex
 10
238.530315841873
 20
388.9467514851603
 30
0.0
 70
     8
  0
VERTEX
  5
B12
330
B06
100
AcDbEntity
  8
HILF
100
AcDbVertex
100
AcDb2dVertex
 10
249.1702084199981
 20
388.1117905476603
 30
0.0
 70
     8
  0
VERTEX
  5
B13
330
B06
100
AcDbEntity
  8
HILF
100
AcDbVertex
100
AcDb2dVertex
 10
260.4517025606231
 20
387.4526108601603
 30
0.0
 70
     8
  0
VERTEX
  5
B14
330
B06
100
AcDbEntity
  8
HILF
100
AcDbVertex
100
AcDb2dVertex
 10
272.695599044998
 20
387.0571030476603
 30
0.0
 70
     8
  0
VERTEX
  5
B15
330
B06
100
AcDbEntity
  8
HILF
100
AcDbVertex
100
AcDb2dVertex
 10
286.2226986543731
 20
387.0131577351603
 30
0.0
 70
     8
  0
VERTEX
  5
B16
330
B06
100
AcDbEntity
  8
HILF
100
AcDbVertex
100
AcDb2dVertex
 10
301.353802169998
 20
387.4086655476603
 30
0.0
 70
     8
  0
VERTEX
  5
B17
330
B06
100
AcDbEntity
  8
HILF
100
AcDbVertex
100
AcDb2dVertex
 10
318.4097103731231
 20
388.3315171101603
 30
0.0
 70
     8
  0
VERTEX
  5
B18
330
B06
100
AcDbEntity
  8
HILF
100
AcDbVertex
100
AcDb2dVertex
 10
337.7112240449981
 20
389.8696030476603
 30
0.0
 70
     8
  0
VERTEX
  5
B19
330
B06
100
AcDbEntity
  8
HILF
100
AcDbVertex
100
AcDb2dVertex
 10
173.461224044998
 20
394.8696030476603
 30
0.0
 70
    16
  0
VERTEX
  5
B1A
330
B06
100
AcDbEntity
  8
HILF
100
AcDbVertex
100
AcDb2dVertex
 10
228.211224044998
 20
389.8696030476604
 30
0.0
 70
    16
  0
VERTEX
  5
B1B
330
B06
100
AcDbEntity
  8
HILF
100
AcDbVertex
100
AcDb2dVertex
 10
282.9612240449981
 20
384.8696030476604
 30
0.0
 70
    16
  0
VERTEX
  5
B1C
330
B06
100
AcDbEntity
  8
HILF
100
AcDbVertex
100
AcDb2dVertex
 10
337.7112240449981
 20
389.8696030476604
 30
0.0
 70
    16
  0
SEQEND
  5
B1D
330
B06
100
AcDbEntity
  8
HILF
  0
LINE
  5
B1E
102
{ACAD_REACTORS
330
B79
330
BA3
102
}
330
1E
100
AcDbEntity
  8
STEMPEL
100
AcDbLine
 10
334.8112240449981
 20
384.6385098134935
 30
0.0
 11
334.8112240449981
 21
275.2206701228518
 31
0.0
  0
LINE
  5
B1F
102
{ACAD_REACTORS
330
B79
102
}
330
1E
100
AcDbEntity
  8
STEMPEL
100
AcDbLine
 10
337.7112240449981
 20
384.8696030476605
 30
0.0
 11
337.7112240449979
 21
273.5596575130559
 31
0.0
  0
LINE
  5
B20
102
{ACAD_REACTORS
330
B61
330
BA3
102
}
330
1E
100
AcDbEntity
  8
STEMPEL
  6
Continuous
100
AcDbLine
 10
307.711224044998
 20
382.7526493825253
 30
0.0
 11
307.7112240449982
 21
220.2206701228517
 31
0.0
  0
LINE
  5
B21
102
{ACAD_REACTORS
330
B61
102
}
330
1E
100
AcDbEntity
  8
STEMPEL
  6
Continuous
100
AcDbLine
 10
305.2112240449983
 20
382.6173807777244
 30
0.0
 11
305.2112240449996
 21
220.2206701228517
 31
0.0
  0
LINE
  5
B22
102
{ACAD_REACTORS
330
B61
102
}
330
1E
100
AcDbEntity
  8
STEMPEL
  6
Continuous
100
AcDbLine
 10
151.2112240449978
 20
387.1218253175963
 30
0.0
 11
151.2112240449972
 21
220.2206701228516
 31
0.0
  0
LINE
  5
B23
102
{ACAD_REACTORS
330
B61
330
BA3
102
}
330
1E
100
AcDbEntity
  8
STEMPEL
  6
Continuous
100
AcDbLine
 10
148.7112240449979
 20
386.9865567127953
 30
0.0
 11
148.711224044998
 21
220.2206701228516
 31
0.0
  0
LINE
  5
B24
102
{ACAD_REACTORS
330
B79
330
BA3
102
}
330
1E
100
AcDbEntity
  8
STEMPEL
100
AcDbLine
 10
121.611224044998
 20
385.1006962818273
 30
0.0
 11
121.611224044998
 21
275.2206701228516
 31
0.0
  0
LINE
  5
B25
102
{ACAD_REACTORS
330
B79
102
}
330
1E
100
AcDbEntity
  8
STEMPEL
100
AcDbLine
 10
118.711224044998
 20
384.8696030476604
 30
0.0
 11
118.711224044998
 21
273.5596575130559
 31
0.0
  0
HATCH
  5
B61
330
1E
100
AcDbEntity
  8
SCHRAFF
100
AcDbHatch
 10
0.0
 20
0.0
 30
0.0
210
0.0
220
0.0
230
1.0
  2
_USER
 70
     0
 71
     1
 91
        4
 92
        7
 72
     1
 73
     1
 93
       20
 10
305.2112240449983
 20
387.6173807777243
 42
0.0
 10
307.711224044998
 20
387.7526493825253
 42
0.0
 10
307.7112240449979
 20
452.6929222082474
 42
-0.1528962216020417
 10
309.4969383307123
 20
458.3960362877729
 42
0.152896221602038
 10
312.7112240449979
 20
468.6616416309187
 42
0.0
 10
312.7112240449979
 20
483.7206701228516
 42
-0.1206909349745489
 10
314.7489741714248
 20
492.0397192856835
 42
0.1202734944247372
 10
318.7112240449979
 20
508.1580645936827
 42
0.0
 10
318.7112240449979
 20
524.4375659049178
 42
0.1095178116832393
 10
315.4319965912807
 20
539.229205065842
 42
0.0
 10
314.9696688424041
 20
540.2206701228517
 42
0.0
 10
312.2112240449979
 20
540.2206701228518
 42
0.0
 10
313.1662271236892
 20
538.1726594114905
 42
-0.1095178116832397
 10
316.2112240449979
 20
524.4375659049179
 42
0.0
 10
316.2112240449979
 20
508.5760176247723
 42
-0.1244894853098043
 10
312.4743363402649
 20
493.0836785520347
 42
0.1191385083150166
 10
310.2112240449979
 20
483.7206701228516
 42
0.0
 10
310.2112240449979
 20
468.6616416309187
 42
-0.1528962216020417
 10
307.4433669021407
 20
459.8218148076541
 42
0.1528962216020375
 10
305.211224044998
 20
452.6929222082473
 42
0.0
 97
       20
330
9F5
330
9F9
330
9F7
330
9FB
330
9F4
330
9FE
330
A01
330
A03
330
9C4
330
A00
330
A02
330
9FF
330
9F3
330
9FC
330
9F8
330
9FA
330
9F6
330
9EA
330
B06
330
9E9
 92
        7
 72
     0
 73
     1
 93
        6
 10
305.2112240449996
 20
220.2206701228595
 10
304.3363374097396
 20
210.2206701228517
 10
306.845887003598
 20
210.2206701228517
 10
307.7112240449981
 20
220.111517765573
 10
307.711224044998
 20
382.7526493825253
 10
305.2112240449984
 20
382.6173807777244
 97
        6
330
AEC
330
B21
330
9EC
330
9C2
330
9ED
330
B20
 92
        7
 72
     0
 73
     1
 93
        6
 10
151.2112240449978
 20
387.1218253175964
 10
148.7112240449979
 20
386.9865567127955
 10
148.711224044998
 20
220.1115177655719
 10
149.5765610863981
 20
210.2206701228517
 10
152.0861106802566
 20
210.2206701228517
 10
151.2112240449972
 20
220.2206701228516
 97
        6
330
AEC
330
B23
330
9CC
330
9C2
330
9CD
330
B22
 92
        7
 72
     1
 73
     1
 93
       20
 10
148.7112240449979
 20
391.9865567127954
 42
0.0
 10
151.2112240449978
 20
392.1218253175963
 42
0.0
 10
151.211224044998
 20
452.6929222082474
 42
0.1528962216020389
 10
148.9790811878551
 20
459.8218148076542
 42
-0.1528962216020395
 10
146.211224044998
 20
468.6616416309187
 42
0.0
 10
146.211224044998
 20
483.7206701228516
 42
0.1191385083149826
 10
143.9481117497323
 20
493.0836785520323
 42
-0.1244894853098254
 10
140.211224044998
 20
508.5760176247723
 42
0.0
 10
140.211224044998
 20
524.4375659049178
 42
-0.1095178116832407
 10
143.2562209663068
 20
538.1726594114905
 42
0.0
 10
144.2112240449979
 20
540.2206701228516
 42
0.0
 10
141.4527792475918
 20
540.2206701228516
 42
0.0
 10
140.9904514987152
 20
539.229205065842
 42
0.1095178116832392
 10
137.711224044998
 20
524.4375659049178
 42
0.0
 10
137.711224044998
 20
508.1580645937241
 42
0.1202734944250272
 10
141.6734739185705
 20
492.0397192856848
 42
-0.120690934974568
 10
143.711224044998
 20
483.7206701228517
 42
0.0
 10
143.711224044998
 20
468.6616416309187
 42
0.1528962216020391
 10
146.9255097592837
 20
458.3960362877729
 42
-0.1528962216020398
 10
148.711224044998
 20
452.6929222082474
 42
0.0
 97
       20
330
9D5
330
9D9
330
9D7
330
9DB
330
9D3
330
9E2
330
9DF
330
9E4
330
9C4
330
9E3
330
9E0
330
9E1
330
9D4
330
9DC
330
9D8
330
9DA
330
9D6
330
9CA
330
B06
330
9C9
 75
     0
 76
     0
 52
45.0
 41
2.0
 77
     0
 78
     1
 53
45.0
 43
12.17136714070057
 44
17.23241532509473
 45
-1.414213562373094
 46
1.414213562373095
 79
     0
 47
0.6890064374883624
 98
        4
 10
306.2335685191756
 20
432.232315198107
 10
306.2335685191756
 20
352.3075673937033
 10
150.4085833448798
 20
360.5756454766192
 10
149.7190909157098
 20
406.7390761917287
  0
HATCH
  5
B79
330
1E
100
AcDbEntity
  8
SCHRAFF
100
AcDbHatch
 10
0.0
 20
0.0
 30
0.0
210
0.0
220
0.0
230
1.0
  2
_USER
 70
     0
 71
     1
 91
        4
 92
        7
 72
     0
 73
     1
 93
        4
 10
334.811224044998
 20
389.6385098134934
 10
337.711224044998
 20
389.8696030476602
 10
337.7112240449981
 20
540.2206701228517
 10
334.8112240449981
 20
540.2206701228517
 97
        4
330
9C4
330
9E7
330
B06
330
9E8
 92
        7
 72
     0
 73
     1
 93
        4
 10
337.7112240449981
 20
384.8696030476603
 10
334.8112240449981
 20
384.6385098134934
 10
334.811224044998
 20
275.2206701228518
 10
337.7112240449979
 20
275.2206701228518
 97
        4
330
AEC
330
B1E
330
9EF
330
B1F
 92
        7
 72
     0
 73
     1
 93
        4
 10
121.611224044998
 20
385.1006962818274
 10
118.711224044998
 20
384.8696030476603
 10
118.711224044998
 20
275.2206701228516
 10
121.611224044998
 20
275.2206701228516
 97
        4
330
AEC
330
B25
330
9CF
330
B24
 92
        7
 72
     0
 73
     1
 93
        4
 10
118.711224044998
 20
389.8696030476605
 10
121.611224044998
 20
390.1006962818274
 10
121.611224044998
 20
540.2206701228517
 10
118.711224044998
 20
540.2206701228516
 97
        4
330
9C4
330
9C8
330
B06
330
9C7
 75
     0
 76
     0
 52
135.0
 41
2.0
 77
     0
 78
     1
 53
135.0
 43
12.17136714070057
 44
17.23241532509473
 45
-1.414213562373095
 46
-1.414213562373094
 79
     0
 47
0.6890064374883624
 98
        4
 10
335.8816838230541
 20
448.7684699645154
 10
336.5711762522242
 20
361.2646516336731
 10
120.7604653523449
 20
360.5756454766192
 10
120.0709756118312
 20
405.361063877621
  0
HATCH
  5
BA3
330
1E
100
AcDbEntity
  8
SCHRAFF
100
AcDbHatch
 10
0.0
 20
0.0
 30
0.0
210
0.0
220
0.0
230
1.0
  2
HONEY
 70
     0
 71
     1
 91
        4
 92
        7
 72
     1
 73
     1
 93
       11
 10
334.811224044998
 20
522.2206701228517
 42
0.0
 10
318.7112240449979
 20
522.2206701228516
 42
0.0
 10
318.7112240449979
 20
508.2732756520287
 42
-0.1211084169870577
 10
314.7489741714267
 20
492.0397192856872
 42
0.1206909349746067
 10
312.7112240449979
 20
483.7206701228516
 42
0.0
 10
312.7112240449979
 20
468.6616416309187
 42
-0.1528962216020418
 10
309.4969383307122
 20
458.3960362877727
 42
0.152896221602038
 10
307.7112240449979
 20
452.6929222082473
 42
0.0
 10
307.711224044998
 20
387.7526493825253
 42
0.0
 10
318.4097103731243
 20
388.3315171101604
 42
0.0
 10
334.8112240449981
 20
389.6385098134934
 42
0.0
 97
       10
330
9FD
330
9FE
330
9F4
330
9FB
330
9F7
330
9F9
330
9F5
330
9E9
330
B06
330
9E7
 92
        7
 72
     1
 73
     1
 93
       11
 10
148.711224044998
 20
452.6929222082474
 42
0.1528962216020396
 10
146.9255097592837
 20
458.3960362877729
 42
-0.1528962216020392
 10
143.711224044998
 20
468.6616416309187
 42
0.0
 10
143.711224044998
 20
483.7206701228516
 42
0.1206909349745688
 10
141.6734739185705
 20
492.0397192856848
 42
-0.1211084169870773
 10
137.711224044998
 20
508.2732756520287
 42
0.0
 10
137.711224044998
 20
522.2206701228517
 42
0.0
 10
121.611224044998
 20
522.2206701228515
 42
0.0
 10
121.611224044998
 20
390.1006962818273
 42
0.0
 10
138.0127377168731
 20
391.4076889851603
 42
0.0
 10
148.7112240449979
 20
391.9865567127954
 42
0.0
 97
       10
330
9D6
330
9DA
330
9D8
330
9DC
330
9D4
330
9E1
330
9DE
330
9C7
330
B06
330
9CA
 92
        7
 72
     0
 73
     1
 93
        6
 10
148.7112240449979
 20
386.9865567127955
 10
138.0127377168725
 20
386.4076889851605
 10
121.611224044998
 20
385.1006962818273
 10
121.611224044998
 20
289.3706701228517
 10
123.461224044998
 20
291.2206701228517
 10
148.7112240449979
 20
291.2206701228516
 97
        5
330
AEC
330
B24
330
9D0
330
9CE
330
B23
 92
        7
 72
     0
 73
     1
 93
        6
 10
334.8112240449981
 20
384.6385098134934
 10
318.4097103731243
 20
383.3315171101602
 10
307.7112240449981
 20
382.7526493825252
 10
307.7112240449981
 20
291.2206701228517
 10
332.9612240449979
 20
291.2206701228517
 10
334.8112240449981
 20
289.3706701228515
 97
        5
330
AEC
330
B20
330
9EE
330
9F2
330
B1E
 75
     0
 76
     1
 52
0.0
 41
30.0
 77
     0
 78
     3
 53
0.0
 43
12.17136714070057
 44
17.23241532509473
 45
5.625
 46
3.247595249999999
 79
     2
 49
3.75
 49
-7.5
 53
120.0
 43
12.17136714070057
 44
17.23241532509473
 45
-5.624999987709673
 46
3.247595271287468
 79
     2
 49
3.749999999999999
 49
-7.499999999999999
 53
60.0
 43
12.17136714070057
 44
17.23241532509473
 45
0.0000000122903263
 46
6.495190521287468
 79
     2
 49
-7.5
 49
3.75
 47
0.6890064374883624
 98
        4
 10
323.4708442958977
 20
419.8301987734446
 10
136.6187616480392
 20
429.4762891704683
 10
139.3767259874075
 20
371.5997481877505
 10
322.0918621262135
 20
357.8196194489806
  0
HATCH
  5
C49
330
1E
100
AcDbEntity
  8
SCHRAFF
100
AcDbHatch
 10
0.0
 20
0.0
 30
0.0
210
0.0
220
0.0
230
1.0
  2
NET
 70
     0
 71
     0
 91
        2
 92
        7
 72
     0
 73
     1
 93
       11
 10
334.8112240449982
 20
289.7096575130555
 10
332.9612240449981
 20
291.5596575130558
 10
307.7112240449982
 20
291.5596575130558
 10
307.7112240449981
 20
282.5596575130558
 10
315.0112240449982
 20
282.5596575130558
 10
319.0526759293255
 20
275.5596575130558
 10
330.211224044998
 20
275.5596575130558
 10
330.2112240449982
 20
273.5596575130559
 10
337.7112240449981
 20
273.5596575130559
 10
337.7112240449981
 20
275.5596575130559
 10
334.8112240449982
 20
275.559657513056
 97
        0
 92
        7
 72
     0
 73
     1
 93
       11
 10
148.711224044998
 20
291.5596575130558
 10
123.461224044998
 20
291.5596575130558
 10
121.611224044998
 20
289.7096575130559
 10
121.611224044998
 20
275.5596575130558
 10
118.7112240449981
 20
275.5596575130558
 10
118.7112240449981
 20
273.5596575130559
 10
126.3112240449981
 20
273.5596575130559
 10
126.3112240449981
 20
275.559657513056
 10
137.3697721606709
 20
275.5596575130559
 10
141.4112240449981
 20
282.5596575130558
 10
148.711224044998
 20
282.5596575130558
 97
        0
 75
     0
 76
     1
 52
45.0
 41
20.0
 77
     0
 78
     2
 53
45.0
 43
12.17136714070059
 44
17.57140271529886
 45
-1.767766952966368
 46
1.767766952966368
 79
     0
 53
135.0
 43
12.17136714070059
 44
17.57140271529886
 45
-1.767766952966368
 46
-1.767766952966368
 79
     0
 47
0.2699286479089143
 98
        2
 10
325.7018442124927
 20
286.6117543261629
 10
129.3453318966331
 20
284.9921831139637
  0
LINE
  5
C4A
330
1E
100
AcDbEntity
  8
STEMPEL
100
AcDbLine
 10
337.7112240449981
 20
273.5596575130559
 30
0.0
 11
307.7112240449982
 21
273.5596575130559
 31
0.0
  0
LINE
  5
C4B
330
1E
100
AcDbEntity
  8
STEMPEL
100
AcDbLine
 10
315.0112240449981
 20
282.5596575130558
 30
0.0
 11
319.0526759293256
 21
275.5596575130557
 31
0.0
  0
LINE
  5
C4C
330
1E
100
AcDbEntity
  8
STEMPEL
100
AcDbLine
 10
330.2112240449982
 20
275.5596575130558
 30
0.0
 11
307.7112240449982
 21
275.5596575130558
 31
0.0
  0
LINE
  5
C4D
330
1E
100
AcDbEntity
  8
STEMPEL
100
AcDbLine
 10
330.2112240449982
 20
273.5596575130558
 30
0.0
 11
330.211224044998
 21
275.5596575130558
 31
0.0
  0
POINT
  5
C4E
330
1E
100
AcDbEntity
  8
DEFPOINTS
  6
ByBlock
 62
     0
100
AcDbPoint
 10
320.2112240449982
 20
275.5596575130558
 30
0.0
  0
POINT
  5
C4F
330
1E
100
AcDbEntity
  8
DEFPOINTS
  6
ByBlock
 62
     0
100
AcDbPoint
 10
330.2112240449982
 20
273.5596575130558
 30
0.0
  0
POINT
  5
C50
330
1E
100
AcDbEntity
  8
DEFPOINTS
  6
ByBlock
 62
     0
100
AcDbPoint
 10
319.0526759293256
 20
275.5596575130558
 30
0.0
  0
POINT
  5
C51
330
1E
100
AcDbEntity
  8
DEFPOINTS
  6
ByBlock
 62
     0
100
AcDbPoint
 10
319.0526759293256
 20
275.5596575130558
 30
0.0
  0
POINT
  5
C52
330
1E
100
AcDbEntity
  8
DEFPOINTS
  6
ByBlock
 62
     0
100
AcDbPoint
 10
319.0526759293256
 20
275.5596575130557
 30
0.0
  0
POINT
  5
C53
330
1E
100
AcDbEntity
  8
DEFPOINTS
  6
ByBlock
 62
     0
100
AcDbPoint
 10
330.2112240449982
 20
273.5596575130558
 30
0.0
  0
LINE
  5
C54
330
1E
100
AcDbEntity
  8
STEMPEL
100
AcDbLine
 10
148.711224044998
 20
273.5596575130559
 30
0.0
 11
118.7112240449981
 21
273.5596575130559
 31
0.0
  0
LINE
  5
C55
330
1E
100
AcDbEntity
  8
STEMPEL
100
AcDbLine
 10
148.711224044998
 20
275.5596575130559
 30
0.0
 11
126.3112240449981
 21
275.5596575130559
 31
0.0
  0
LINE
  5
C56
330
1E
100
AcDbEntity
  8
STEMPEL
100
AcDbLine
 10
126.3112240449981
 20
273.5596575130558
 30
0.0
 11
126.3112240449981
 21
275.5596575130558
 31
0.0
  0
LINE
  5
C57
330
1E
100
AcDbEntity
  8
STEMPEL
100
AcDbLine
 10
141.4112240449981
 20
282.5596575130558
 30
0.0
 11
137.3697721606707
 21
275.5596575130557
 31
0.0
  0
POINT
  5
C58
330
1E
100
AcDbEntity
  8
DEFPOINTS
  6
ByBlock
 62
     0
100
AcDbPoint
 10
137.3697721606708
 20
275.5596575130558
 30
0.0
  0
POINT
  5
C59
330
1E
100
AcDbEntity
  8
DEFPOINTS
  6
ByBlock
 62
     0
100
AcDbPoint
 10
126.3112240449981
 20
273.5596575130558
 30
0.0
  0
POINT
  5
C5A
330
1E
100
AcDbEntity
  8
DEFPOINTS
  6
ByBlock
 62
     0
100
AcDbPoint
 10
126.3112240449981
 20
275.5596575130558
 30
0.0
  0
DIMENSION
  5
C8A
330
1E
100
AcDbEntity
  8
BEM
100
AcDbDimension
  2
*D4
 10
102.9400949711148
 20
275.2206701228516
 30
0.0
 11
96.44009497111479
 21
242.7206701228517
 31
0.0
 70
    32
 71
     5
 42
64.99999999999997
  3
Standard
100
AcDbAlignedDimension
 13
149.5765610863981
 23
210.2206701228516
 33
0.0
 14
118.711224044998
 24
275.2206701228516
 34
0.0
 50
90.0
100
AcDbRotatedDimension
1001
ACAD
1000
DSTYLE
1002
{
1070
    40
1040
2.0
1070
    41
1040
3.5
1070
    42
1040
1.0
1070
    43
1040
7.0
1070
    44
1040
1.0
1070
    73
1070
     0
1070
    74
1070
     0
1070
    77
1070
     1
1070
    78
1070
     8
1070
    79
1070
     2
1070
   140
1040
3.5
1070
   141
1040
1.5
1070
   146
1040
0.5142857142857144
1070
   147
1040
1.5
1070
   172
1070
     1
1070
   178
1070
     1
1070
   179
1070
     2
1070
   271
1070
     2
1070
   272
1070
     2
1070
   284
1070
     8
1070
   285
1070
     8
1070
   286
1070
     8
1002
}
  0
ENDSEC
  0
SECTION
  2
OBJECTS
  0
DICTIONARY
  5
C
330
0
100
AcDbDictionary
281
     1
  3
ACAD_COLOR
350
DF
  3
ACAD_GROUP
350
D
  3
ACAD_LAYOUT
350
19
  3
ACAD_MATERIAL
350
DE
  3
ACAD_MLINESTYLE
350
16
  3
ACAD_PLOTSETTINGS
350
18
  3
ACAD_PLOTSTYLENAME
350
E
  3
AcDbVariableDictionary
350
EA
  0
DICTIONARY
  5
A0
330
1E
100
AcDbDictionary
280
     1
281
     1
  3
ACAD_LAYOUTSELFREF
360
D4
  0
DICTIONARY
  5
A2
330
1A
100
AcDbDictionary
280
     1
281
     1
  3
ACAD_LAYOUTSELFREF
360
D3
  0
DICTIONARY
  5
DF
102
{ACAD_REACTORS
330
C
102
}
330
C
100
AcDbDictionary
281
     1
  0
DICTIONARY
  5
D
102
{ACAD_REACTORS
330
C
102
}
330
C
100
AcDbDictionary
281
     1
  0
DICTIONARY
  5
19
102
{ACAD_REACTORS
330
C
102
}
330
C
100
AcDbDictionary
281
     1
  3
Layout1
350
1D
  3
Model
350
21
  0
DICTIONARY
  5
DE
102
{ACAD_REACTORS
330
C
102
}
330
C
100
AcDbDictionary
281
     1
  0
DICTIONARY
  5
16
102
{ACAD_REACTORS
330
C
102
}
330
C
100
AcDbDictionary
281
     1
  3
Standard
350
17
  0
DICTIONARY
  5
18
102
{ACAD_REACTORS
330
C
102
}
330
C
100
AcDbDictionary
281
     1
  0
ACDBDICTIONARYWDFLT
  5
E
102
{ACAD_REACTORS
330
C
102
}
330
C
100
AcDbDictionary
281
     1
  3
Normal
350
F
100
AcDbDictionaryWithDefault
340
F
  0
DICTIONARY
  5
EA
102
{ACAD_REACTORS
330
C
102
}
330
C
100
AcDbDictionary
281
     1
  3
DIMASSOC
350
EB
  3
PROJECTNAME
350
EC
  0
XRECORD
  5
D4
102
{ACAD_REACTORS
330
A0
102
}
330
A0
100
AcDbXrecord
280
     1
340
1E
  0
XRECORD
  5
D3
102
{ACAD_REACTORS
330
A2
102
}
330
A2
100
AcDbXrecord
280
     1
340
1A
  0
LAYOUT
  5
1D
102
{ACAD_REACTORS
330
19
102
}
330
19
100
AcDbPlotSettings
  1

  2
\\NT_WORK01\HP LaserJet 5000 PCL 6
  4

  6

 40
0.0
 41
0.0
 42
0.0
 43
0.0
 44
0.0
 45
0.0
 46
0.0
 47
0.0
 48
0.0
 49
0.0
140
0.0
141
0.0
142
1.0
143
1.0
 70
   688
 72
     0
 73
     0
 74
     5
  7

 75
    16
147
1.0
 76
     0
 77
     2
 78
   300
148
0.0
149
0.0
100
AcDbLayout
  1
Layout1
 70
     0
 71
     1
 10
0.0
 20
0.0
 11
12.0
 21
9.0
 12
0.0
 22
0.0
 32
0.0
 14
1.000000000000000E+20
 24
1.000000000000000E+20
 34
1.000000000000000E+20
 15
-1.000000000000000E+20
 25
-1.000000000000000E+20
 35
-1.000000000000000E+20
146
0.0
 13
0.0
 23
0.0
 33
0.0
 16
1.0
 26
0.0
 36
0.0
 17
0.0
 27
1.0
 37
0.0
 76
     0
330
1A
  0
LAYOUT
  5
21
102
{ACAD_REACTORS
330
19
102
}
330
19
100
AcDbPlotSettings
  1

  2
none_device
  4
Letter_(8.50_x_11.00_Inches)
  6

 40
6.349999904632568
 41
6.349999904632568
 42
6.350006103515625
 43
6.350006103515625
 44
215.8999938964844
 45
279.3999938964844
 46
0.0
 47
0.0
 48
0.0
 49
0.0
140
0.0
141
0.0
142
1.0
143
1.0
 70
 11952
 72
     0
 73
     1
 74
     0
  7

 75
     0
147
1.0
 76
     0
 77
     2
 78
   300
148
2286.722511197659
149
76.92250090747274
100
AcDbLayout
  1
Model
 70
     1
 71
     0
 10
0.0
 20
0.0
 11
12.0
 21
9.0
 12
0.0
 22
0.0
 32
0.0
 14
0.0
 24
0.0
 34
0.0
 15
0.0
 25
0.0
 35
0.0
146
0.0
 13
0.0
 23
0.0
 33
0.0
 16
1.0
 26
0.0
 36
0.0
 17
0.0
 27
1.0
 37
0.0
 76
     0
330
1E
  0
MLINESTYLE
  5
17
102
{ACAD_REACTORS
330
16
102
}
330
16
100
AcDbMlineStyle
  2
STANDARD
 70
     0
  3

 62
   256
 51
90.0
 52
90.0
 71
     2
 49
0.5
 62
   256
  6
BYLAYER
 49
-0.5
 62
   256
  6
BYLAYER
  0
ACDBPLACEHOLDER
  5
F
102
{ACAD_REACTORS
330
E
102
}
330
E
  0
DICTIONARYVAR
  5
EB
102
{ACAD_REACTORS
330
EA
102
}
330
EA
100
DictionaryVariables
280
     0
  1
1
  0
DICTIONARYVAR
  5
EC
102
{ACAD_REACTORS
330
EA
102
}
330
EA
100
DictionaryVariables
280
     0
  1

  0
ENDSEC
  0
EOF
