  0
SECTION
  2
HEADER
  9
$ACADVER
  1
AC1018
  9
$ACADMAINTVER
 70
     2
  9
$DWGCODEPAGE
  3
ANSI_1252
  9
$INSBASE
 10
0.0
 20
0.0
 30
0.0
  9
$EXTMIN
 10
-0.0064041928749248
 20
-0.0090573584946014
 30
-0.0000000000112498
  9
$EXTMAX
 10
420.0064100605654
 20
594.0090656570857
 30
0.0000000000002956
  9
$LIMMIN
 10
0.0
 20
0.0
  9
$LIMMAX
 10
419.9999999999999
 20
594.0
  9
$ORTHOMODE
 70
     1
  9
$REGENMODE
 70
     1
  9
$FILLMODE
 70
     1
  9
$QTEXTMODE
 70
     0
  9
$MIRRTEXT
 70
     1
  9
$LTSCALE
 40
20.0
  9
$ATTMODE
 70
     1
  9
$TEXTSIZE
 40
3.5
  9
$TRACEWID
 40
0.5
  9
$TEXTSTYLE
  7
STANDARD
  9
$CLAYER
  8
BEM
  9
$CELTYPE
  6
ByLayer
  9
$CECOLOR
 62
   256
  9
$CELTSCALE
 40
1.0
  9
$DISPSILH
 70
     0
  9
$DIMSCALE
 40
2.0
  9
$DIMASZ
 40
3.5
  9
$DIMEXO
 40
1.0
  9
$DIMDLI
 40
7.0
  9
$DIMRND
 40
0.0
  9
$DIMDLE
 40
0.0
  9
$DIMEXE
 40
1.0
  9
$DIMTP
 40
0.0
  9
$DIMTM
 40
0.0
  9
$DIMTXT
 40
3.5
  9
$DIMCEN
 40
1.5
  9
$DIMTSZ
 40
0.0
  9
$DIMTOL
 70
     0
  9
$DIMLIM
 70
     0
  9
$DIMTIH
 70
     0
  9
$DIMTOH
 70
     0
  9
$DIMSE1
 70
     0
  9
$DIMSE2
 70
     0
  9
$DIMTAD
 70
     1
  9
$DIMZIN
 70
     8
  9
$DIMBLK
  1

  9
$DIMASO
 70
     1
  9
$DIMSHO
 70
     0
  9
$DIMPOST
  1

  9
$DIMAPOST
  1

  9
$DIMALT
 70
     0
  9
$DIMALTD
 70
     2
  9
$DIMALTF
 40
25.4
  9
$DIMLFAC
 40
1.0
  9
$DIMTOFL
 70
     1
  9
$DIMTVP
 40
0.0
  9
$DIMTIX
 70
     0
  9
$DIMSOXD
 70
     0
  9
$DIMSAH
 70
     0
  9
$DIMBLK1
  1

  9
$DIMBLK2
  1

  9
$DIMSTYLE
  2
Standard
  9
$DIMCLRD
 70
     0
  9
$DIMCLRE
 70
     0
  9
$DIMCLRT
 70
     1
  9
$DIMTFAC
 40
0.5142857142857144
  9
$DIMGAP
 40
1.5
  9
$DIMJUST
 70
     0
  9
$DIMSD1
 70
     0
  9
$DIMSD2
 70
     0
  9
$DIMTOLJ
 70
     1
  9
$DIMTZIN
 70
     8
  9
$DIMALTZ
 70
     8
  9
$DIMALTTZ
 70
     8
  9
$DIMUPT
 70
     0
  9
$DIMDEC
 70
     2
  9
$DIMTDEC
 70
     2
  9
$DIMALTU
 70
     2
  9
$DIMALTTD
 70
     2
  9
$DIMTXSTY
  7
STANDARD
  9
$DIMAUNIT
 70
     0
  9
$DIMADEC
 70
     2
  9
$DIMALTRND
 40
0.0
  9
$DIMAZIN
 70
     2
  9
$DIMDSEP
 70
    46
  9
$DIMATFIT
 70
     3
  9
$DIMFRAC
 70
     0
  9
$DIMLDRBLK
  1

  9
$DIMLUNIT
 70
     2
  9
$DIMLWD
 70
    -2
  9
$DIMLWE
 70
    -2
  9
$DIMTMOVE
 70
     0
  9
$LUNITS
 70
     2
  9
$LUPREC
 70
     2
  9
$SKETCHINC
 40
1.0
  9
$FILLETRAD
 40
0.0
  9
$AUNITS
 70
     0
  9
$AUPREC
 70
     0
  9
$MENU
  1
ACAD
  9
$ELEVATION
 40
0.0
  9
$PELEVATION
 40
0.0
  9
$THICKNESS
 40
0.0
  9
$LIMCHECK
 70
     0
  9
$CHAMFERA
 40
0.0
  9
$CHAMFERB
 40
0.0
  9
$CHAMFERC
 40
0.0
  9
$CHAMFERD
 40
0.0
  9
$SKPOLY
 70
     0
  9
$TDCREATE
 40
2455397.823042361
  9
$TDUCREATE
 40
2455397.781375695
  9
$TDUPDATE
 40
2455532.458920660
  9
$TDUUPDATE
 40
2455532.417253993
  9
$TDINDWG
 40
0.0587521065
  9
$TDUSRTIMER
 40
0.0587521065
  9
$USRTIMER
 70
     1
  9
$ANGBASE
 50
0.0
  9
$ANGDIR
 70
     0
  9
$PDMODE
 70
     0
  9
$PDSIZE
 40
0.0
  9
$PLINEWID
 40
0.0
  9
$SPLFRAME
 70
     0
  9
$SPLINETYPE
 70
     6
  9
$SPLINESEGS
 70
     8
  9
$HANDSEED
  5
89B
  9
$SURFTAB1
 70
     6
  9
$SURFTAB2
 70
     6
  9
$SURFTYPE
 70
     6
  9
$SURFU
 70
     6
  9
$SURFV
 70
     6
  9
$UCSBASE
  2

  9
$UCSNAME
  2

  9
$UCSORG
 10
0.0
 20
0.0
 30
0.0
  9
$UCSXDIR
 10
1.0
 20
0.0
 30
0.0
  9
$UCSYDIR
 10
0.0
 20
1.0
 30
0.0
  9
$UCSORTHOREF
  2

  9
$UCSORTHOVIEW
 70
     0
  9
$UCSORGTOP
 10
0.0
 20
0.0
 30
0.0
  9
$UCSORGBOTTOM
 10
0.0
 20
0.0
 30
0.0
  9
$UCSORGLEFT
 10
0.0
 20
0.0
 30
0.0
  9
$UCSORGRIGHT
 10
0.0
 20
0.0
 30
0.0
  9
$UCSORGFRONT
 10
0.0
 20
0.0
 30
0.0
  9
$UCSORGBACK
 10
0.0
 20
0.0
 30
0.0
  9
$PUCSBASE
  2

  9
$PUCSNAME
  2

  9
$PUCSORG
 10
0.0
 20
0.0
 30
0.0
  9
$PUCSXDIR
 10
1.0
 20
0.0
 30
0.0
  9
$PUCSYDIR
 10
0.0
 20
1.0
 30
0.0
  9
$PUCSORTHOREF
  2

  9
$PUCSORTHOVIEW
 70
     0
  9
$PUCSORGTOP
 10
0.0
 20
0.0
 30
0.0
  9
$PUCSORGBOTTOM
 10
0.0
 20
0.0
 30
0.0
  9
$PUCSORGLEFT
 10
0.0
 20
0.0
 30
0.0
  9
$PUCSORGRIGHT
 10
0.0
 20
0.0
 30
0.0
  9
$PUCSORGFRONT
 10
0.0
 20
0.0
 30
0.0
  9
$PUCSORGBACK
 10
0.0
 20
0.0
 30
0.0
  9
$USERI1
 70
     0
  9
$USERI2
 70
     0
  9
$USERI3
 70
     0
  9
$USERI4
 70
     0
  9
$USERI5
 70
     0
  9
$USERR1
 40
0.0
  9
$USERR2
 40
0.0
  9
$USERR3
 40
0.0
  9
$USERR4
 40
0.0
  9
$USERR5
 40
0.0
  9
$WORLDVIEW
 70
     1
  9
$SHADEDGE
 70
     3
  9
$SHADEDIF
 70
    70
  9
$TILEMODE
 70
     1
  9
$MAXACTVP
 70
    16
  9
$PINSBASE
 10
0.0
 20
0.0
 30
0.0
  9
$PLIMCHECK
 70
     0
  9
$PEXTMIN
 10
1.000000000000000E+20
 20
1.000000000000000E+20
 30
1.000000000000000E+20
  9
$PEXTMAX
 10
-1.000000000000000E+20
 20
-1.000000000000000E+20
 30
-1.000000000000000E+20
  9
$PLIMMIN
 10
0.0
 20
0.0
  9
$PLIMMAX
 10
12.0
 20
9.0
  9
$UNITMODE
 70
     0
  9
$VISRETAIN
 70
     0
  9
$PLINEGEN
 70
     0
  9
$PSLTSCALE
 70
     0
  9
$TREEDEPTH
 70
  3020
  9
$CMLSTYLE
  2
Standard
  9
$CMLJUST
 70
     0
  9
$CMLSCALE
 40
1.0
  9
$PROXYGRAPHICS
 70
     1
  9
$MEASUREMENT
 70
     0
  9
$CELWEIGHT
370
    -1
  9
$ENDCAPS
280
     0
  9
$JOINSTYLE
280
     0
  9
$LWDISPLAY
290
     0
  9
$INSUNITS
 70
     0
  9
$HYPERLINKBASE
  1

  9
$STYLESHEET
  1
monochrome 1.ctb
  9
$XEDIT
290
     1
  9
$CEPSNTYPE
380
     0
  9
$PSTYLEMODE
290
     1
  9
$FINGERPRINTGUID
  2
{D68B0D02-A558-11D7-B632-000102183313}
  9
$VERSIONGUID
  2
{B5ED1CBB-E8F4-460F-9AD3-02E1A8768C7C}
  9
$EXTNAMES
290
     1
  9
$PSVPSCALE
 40
0.0
  9
$OLESTARTUP
290
     0
  9
$SORTENTS
280
   127
  9
$INDEXCTL
280
     0
  9
$HIDETEXT
280
     0
  9
$XCLIPFRAME
290
     0
  9
$HALOGAP
280
     0
  9
$OBSCOLOR
 70
   257
  9
$OBSLTYPE
280
     0
  9
$INTERSECTIONDISPLAY
280
     0
  9
$INTERSECTIONCOLOR
 70
   257
  9
$DIMASSOC
280
     1
  9
$PROJECTNAME
  1

  0
ENDSEC
  0
SECTION
  2
CLASSES
  0
CLASS
  1
ACDBDICTIONARYWDFLT
  2
AcDbDictionaryWithDefault
  3
ObjectDBX Classes
 90
        0
 91
        1
280
     0
281
     0
  0
CLASS
  1
DICTIONARYVAR
  2
AcDbDictionaryVar
  3
ObjectDBX Classes
 90
        0
 91
        2
280
     0
281
     0
  0
ENDSEC
  0
SECTION
  2
TABLES
  0
TABLE
  2
VPORT
  5
8
330
0
100
AcDbSymbolTable
 70
     2
  0
VPORT
  5
89A
330
8
100
AcDbSymbolTableRecord
100
AcDbViewportTableRecord
  2
*Active
 70
     0
 10
0.0
 20
0.0
 11
1.0
 21
1.0
 12
210.0000029338453
 22
297.0000041492956
 13
0.0
 23
0.0
 14
1.0
 24
1.0
 15
10.0
 25
10.0
 16
0.0
 26
0.0
 36
1.0
 17
0.0
 27
0.0
 37
0.0
 40
598.8150392175905
 41
1.336927223719676
 42
50.0
 43
0.0
 44
0.0
 50
0.0
 51
0.0
 71
     0
 72
  1500
 73
     1
 74
     0
 75
     0
 76
     0
 77
     0
 78
     0
281
     0
 65
     1
110
0.0
120
0.0
130
0.0
111
1.0
121
0.0
131
0.0
112
0.0
122
1.0
132
0.0
 79
     0
146
0.0
  0
ENDTAB
  0
TABLE
  2
LTYPE
  5
5
330
0
100
AcDbSymbolTable
 70
     2
  0
LTYPE
  5
13
330
5
100
AcDbSymbolTableRecord
100
AcDbLinetypeTableRecord
  2
ByBlock
 70
     0
  3

 72
    65
 73
     0
 40
0.0
  0
LTYPE
  5
14
330
5
100
AcDbSymbolTableRecord
100
AcDbLinetypeTableRecord
  2
ByLayer
 70
     0
  3

 72
    65
 73
     0
 40
0.0
  0
LTYPE
  5
15
330
5
100
AcDbSymbolTableRecord
100
AcDbLinetypeTableRecord
  2
Continuous
 70
     0
  3
Solid line
 72
    65
 73
     0
 40
0.0
  0
LTYPE
  5
25
330
5
100
AcDbSymbolTableRecord
100
AcDbLinetypeTableRecord
  2
STRICHPUNKT
 70
     0
  3
__ . __ . __ . __ . __ . __ . __ . __ . __ . __
 72
    65
 73
     4
 40
1.0
 49
0.5
 74
     0
 49
-0.25
 74
     0
 49
0.0
 74
     0
 49
-0.25
 74
     0
  0
ENDTAB
  0
TABLE
  2
LAYER
  5
2
330
0
100
AcDbSymbolTable
 70
     9
  0
LAYER
  5
10
330
2
100
AcDbSymbolTableRecord
100
AcDbLayerTableRecord
  2
0
 70
     0
 62
     7
  6
Continuous
370
    -3
390
F
  0
LAYER
  5
2A
330
2
100
AcDbSymbolTableRecord
100
AcDbLayerTableRecord
  2
VOLL
 70
     0
 62
     1
  6
Continuous
370
    -3
390
F
  0
LAYER
  5
2B
330
2
100
AcDbSymbolTableRecord
100
AcDbLayerTableRecord
  2
HILF
 70
     0
 62
     2
  6
Continuous
370
    -3
390
F
  0
LAYER
  5
2C
330
2
100
AcDbSymbolTableRecord
100
AcDbLayerTableRecord
  2
MITTEL
 70
     0
 62
     2
  6
STRICHPUNKT
370
    -3
390
F
  0
LAYER
  5
2F
330
2
100
AcDbSymbolTableRecord
100
AcDbLayerTableRecord
  2
BEM
 70
     0
 62
     7
  6
Continuous
370
    -3
390
F
  0
LAYER
  5
30
330
2
100
AcDbSymbolTableRecord
100
AcDbLayerTableRecord
  2
STEMPEL
 70
     0
 62
     3
  6
Continuous
370
    -3
390
F
  0
LAYER
  5
31
330
2
100
AcDbSymbolTableRecord
100
AcDbLayerTableRecord
  2
TEXT
 70
     0
 62
     7
  6
Continuous
370
    -3
390
F
  0
LAYER
  5
199
330
2
100
AcDbSymbolTableRecord
100
AcDbLayerTableRecord
  2
DEFPOINTS
 70
     0
 62
     7
  6
Continuous
290
     0
370
    -3
390
F
  0
LAYER
  5
19A
330
2
100
AcDbSymbolTableRecord
100
AcDbLayerTableRecord
  2
SCHRAFF
 70
     0
 62
     7
  6
Continuous
370
    -3
390
F
  0
ENDTAB
  0
TABLE
  2
STYLE
  5
3
330
0
100
AcDbSymbolTable
 70
     2
  0
STYLE
  5
11
330
3
100
AcDbSymbolTableRecord
100
AcDbTextStyleTableRecord
  2
STANDARD
 70
     0
 40
0.0
 41
0.8
 50
0.0
 71
     0
 42
3.5
  3
simplex.shx
  4

  0
STYLE
  5
24
330
3
100
AcDbSymbolTableRecord
100
AcDbTextStyleTableRecord
  2
GREEKS
 70
     0
 40
0.0
 41
0.8
 50
0.0
 71
     0
 42
2.5
  3
SIMPLEX.shx
  4

  0
ENDTAB
  0
TABLE
  2
VIEW
  5
6
330
0
100
AcDbSymbolTable
 70
     0
  0
ENDTAB
  0
TABLE
  2
UCS
  5
7
330
0
100
AcDbSymbolTable
 70
     0
  0
ENDTAB
  0
TABLE
  2
APPID
  5
9
330
0
100
AcDbSymbolTable
 70
     1
  0
APPID
  5
12
330
9
100
AcDbSymbolTableRecord
100
AcDbRegAppTableRecord
  2
ACAD
 70
     0
  0
ENDTAB
  0
TABLE
  2
DIMSTYLE
  5
A
330
0
100
AcDbSymbolTable
 70
     1
100
AcDbDimStyleTable
 71
     1
340
9D
  0
DIMSTYLE
105
9D
102
{ACAD_REACTORS
330
556
330
557
330
581
330
871
102
}
330
A
100
AcDbSymbolTableRecord
100
AcDbDimStyleTableRecord
  2
Standard
 70
     0
340
11
  0
ENDTAB
  0
TABLE
  2
BLOCK_RECORD
  5
1
330
0
100
AcDbSymbolTable
 70
     5
  0
BLOCK_RECORD
  5
1E
102
{ACAD_XDICTIONARY
360
A0
102
}
330
1
100
AcDbSymbolTableRecord
100
AcDbBlockTableRecord
  2
*Model_Space
340
21
  0
BLOCK_RECORD
  5
1A
102
{ACAD_XDICTIONARY
360
A2
102
}
330
1
100
AcDbSymbolTableRecord
100
AcDbBlockTableRecord
  2
*Paper_Space
340
1D
  0
BLOCK_RECORD
  5
22
330
1
100
AcDbSymbolTableRecord
100
AcDbBlockTableRecord
  2
LOGO
340
0
102
{BLKREFS
331
9B
102
}
  0
BLOCK_RECORD
  5
5A6
330
1
100
AcDbSymbolTableRecord
100
AcDbBlockTableRecord
  2
*D1
340
0
  0
BLOCK_RECORD
  5
5B2
330
1
100
AcDbSymbolTableRecord
100
AcDbBlockTableRecord
  2
*D2
340
0
  0
BLOCK_RECORD
  5
5E4
330
1
100
AcDbSymbolTableRecord
100
AcDbBlockTableRecord
  2
*D3
340
0
  0
BLOCK_RECORD
  5
872
330
1
100
AcDbSymbolTableRecord
100
AcDbBlockTableRecord
  2
*D4
340
0
  0
ENDTAB
  0
ENDSEC
  0
SECTION
  2
BLOCKS
  0
BLOCK
  5
35
330
1E
100
AcDbEntity
  8
0
100
AcDbBlockBegin
  2
*Model_Space
 70
     0
 10
0.0
 20
0.0
 30
0.0
  3
*Model_Space
  1

  0
ENDBLK
  5
36
330
1E
100
AcDbEntity
  8
0
100
AcDbBlockEnd
  0
BLOCK
  5
33
330
1A
100
AcDbEntity
 67
     1
  8
0
100
AcDbBlockBegin
  2
*Paper_Space
 70
     0
 10
0.0
 20
0.0
 30
0.0
  3
*Paper_Space
  1

  0
ENDBLK
  5
34
330
1A
100
AcDbEntity
 67
     1
  8
0
100
AcDbBlockEnd
  0
BLOCK
  5
37
330
22
100
AcDbEntity
  8
0
100
AcDbBlockBegin
  2
LOGO
 70
     0
 10
0.0
 20
0.0
 30
0.0
  3
LOGO
  1

  0
ARC
  5
38
330
22
100
AcDbEntity
  8
0
100
AcDbCircle
 10
11.59973089678112
 20
-9.271599258481501
 30
0.0
 40
4.5
100
AcDbArc
 50
270.0
 51
231.0575587310159
  0
LINE
  5
39
330
22
100
AcDbEntity
  8
0
100
AcDbLine
 10
3.599730896781125
 20
-4.771599258481529
 30
0.0
 11
3.599730896781153
 21
-11.77159925848133
 31
0.0
  0
LINE
  5
3A
330
22
100
AcDbEntity
  8
0
100
AcDbLine
 10
2.599730896781125
 20
-4.771599258481529
 30
0.0
 11
2.599730896781153
 21
-11.77159925848133
 31
0.0
  0
CIRCLE
  5
3B
330
22
100
AcDbEntity
  8
0
100
AcDbCircle
 10
11.59973089678112
 20
-9.271599258481501
 30
0.0
 40
3.5
  0
ARC
  5
3C
330
22
100
AcDbEntity
  8
0
100
AcDbCircle
 10
31.59973089678115
 20
-9.271599258481472
 30
0.0
 40
4.5
100
AcDbArc
 50
270.0
 51
231.0575587310182
  0
LINE
  5
3D
330
22
100
AcDbEntity
  8
0
100
AcDbLine
 10
17.59973089678112
 20
-4.771599258481472
 30
0.0
 11
17.59973089678115
 21
-13.77159925848147
 31
0.0
  0
ARC
  5
3E
330
22
100
AcDbEntity
  8
0
100
AcDbCircle
 10
22.59973089678116
 20
-7.271599258481472
 30
0.0
 40
2.5
100
AcDbArc
 50
293.1161887722295
 51
90.0
  0
CIRCLE
  5
3F
330
22
100
AcDbEntity
  8
0
100
AcDbCircle
 10
31.59973089678115
 20
-9.271599258481472
 30
0.0
 40
3.5
  0
ARC
  5
40
330
22
100
AcDbEntity
  8
0
100
AcDbCircle
 10
4.599730896781153
 20
-11.77159925848133
 30
0.0
 40
1.0
100
AcDbArc
 50
180.0
 51
270.0
  0
ARC
  5
41
330
22
100
AcDbEntity
  8
0
100
AcDbCircle
 10
4.599730896781153
 20
-11.77159925848133
 30
0.0
 40
2.0
100
AcDbArc
 50
179.9999999999992
 51
270.0
  0
LINE
  5
42
330
22
100
AcDbEntity
  8
0
100
AcDbLine
 10
11.59973089678115
 20
-13.77159925848144
 30
0.0
 11
4.599730896781153
 21
-13.77159925848147
 31
0.0
  0
LINE
  5
43
330
22
100
AcDbEntity
  8
0
100
AcDbLine
 10
8.771303772034769
 20
-12.77159925848136
 30
0.0
 11
4.599730896781153
 21
-12.77159925848133
 31
0.0
  0
LINE
  5
44
330
22
100
AcDbEntity
  8
0
100
AcDbLine
 10
31.59973089678115
 20
-13.77159925848147
 30
0.0
 11
23.6715276665056
 21
-13.77159925848144
 31
0.0
  0
LINE
  5
45
330
22
100
AcDbEntity
  8
0
100
AcDbLine
 10
23.56565672307022
 20
-9.51278021337896
 30
0.0
 11
24.4388546544846
 21
-12.77159925848144
 31
0.0
  0
LINE
  5
46
330
22
100
AcDbEntity
  8
0
100
AcDbLine
 10
22.59973089678116
 20
-9.771599258481472
 30
0.0
 11
18.59973089678112
 21
-9.771599258481472
 31
0.0
  0
LINE
  5
47
330
22
100
AcDbEntity
  8
0
100
AcDbLine
 10
18.59973089678115
 20
-13.77159925848144
 30
0.0
 11
17.59973089678115
 21
-13.77159925848144
 31
0.0
  0
LINE
  5
48
330
22
100
AcDbEntity
  8
0
100
AcDbLine
 10
18.59973089678115
 20
-9.771599258481472
 30
0.0
 11
18.59973089678115
 21
-13.77159925848144
 31
0.0
  0
LINE
  5
49
330
22
100
AcDbEntity
  8
0
100
AcDbLine
 10
22.59973089678116
 20
-9.771599258481472
 30
0.0
 11
23.67152766650562
 21
-13.77159925848147
 31
0.0
  0
ARC
  5
4A
330
22
100
AcDbEntity
  8
0
100
AcDbCircle
 10
22.59973089678116
 20
-7.271599258481472
 30
0.0
 40
2.5
100
AcDbArc
 50
270.0
 51
270.0000000000007
  0
LINE
  5
4B
330
22
100
AcDbEntity
  8
0
100
AcDbLine
 10
28.77130377203494
 20
-12.77159925848147
 30
0.0
 11
24.43885465448463
 21
-12.77159925848144
 31
0.0
  0
LINE
  5
4C
330
22
100
AcDbEntity
  8
0
100
AcDbLine
 10
3.599730896781125
 20
-4.771599258481472
 30
0.0
 11
2.599730896781125
 21
-4.771599258481472
 31
0.0
  0
LINE
  5
4D
330
22
100
AcDbEntity
  8
0
100
AcDbLine
 10
22.59973089678116
 20
-8.771599258481472
 30
0.0
 11
18.59973089678115
 21
-8.771599258481472
 31
0.0
  0
LINE
  5
4E
330
22
100
AcDbEntity
  8
0
100
AcDbLine
 10
22.59973089678116
 20
-5.771599258481472
 30
0.0
 11
18.59973089678115
 21
-5.771599258481472
 31
0.0
  0
LINE
  5
4F
330
22
100
AcDbEntity
  8
0
100
AcDbLine
 10
22.59973089678116
 20
-4.771599258481472
 30
0.0
 11
17.59973089678115
 21
-4.771599258481472
 31
0.0
  0
LINE
  5
50
330
22
100
AcDbEntity
  8
0
100
AcDbLine
 10
18.59973089678115
 20
-5.771599258481472
 30
0.0
 11
18.59973089678115
 21
-8.771599258481472
 31
0.0
  0
ARC
  5
51
330
22
100
AcDbEntity
  8
0
100
AcDbCircle
 10
22.59973089678116
 20
-7.271599258481472
 30
0.0
 40
1.5
100
AcDbArc
 50
270.0
 51
90.0
  0
ENDBLK
  5
52
330
22
100
AcDbEntity
  8
0
100
AcDbBlockEnd
  0
BLOCK
  5
5B0
330
5A6
100
AcDbEntity
  8
0
100
AcDbBlockBegin
  2
*D1
 70
     1
 10
0.0
 20
0.0
 30
0.0
  3
*D1
  1

  0
LINE
  5
705
330
5A6
100
AcDbEntity
  8
BEM
 62
     0
370
    -2
100
AcDbLine
 10
173.9999999999998
 20
207.3971159989351
 30
0.0
 11
173.9999999999998
 21
179.3409419822097
 31
0.0
  0
LINE
  5
706
330
5A6
100
AcDbEntity
  8
BEM
 62
     0
370
    -2
100
AcDbLine
 10
275.9999999999997
 20
207.3971159989351
 30
0.0
 11
275.9999999999997
 21
179.3409419822097
 31
0.0
  0
LINE
  5
707
330
5A6
100
AcDbEntity
  8
BEM
 62
     0
370
    -2
100
AcDbLine
 10
180.9999999999998
 20
181.3409419822097
 30
0.0
 11
268.9999999999997
 21
181.3409419822097
 31
0.0
  0
SOLID
  5
708
330
5A6
100
AcDbEntity
  8
BEM
 62
     0
100
AcDbTrace
 10
180.9999999999998
 20
182.5076086488764
 30
0.0
 11
180.9999999999998
 21
180.1742753155431
 31
0.0
 12
173.9999999999998
 22
181.3409419822097
 32
0.0
 13
173.9999999999998
 23
181.3409419822097
 33
0.0
  0
SOLID
  5
709
330
5A6
100
AcDbEntity
  8
BEM
 62
     0
100
AcDbTrace
 10
268.9999999999997
 20
182.5076086488764
 30
0.0
 11
268.9999999999997
 21
180.1742753155431
 31
0.0
 12
275.9999999999997
 22
181.3409419822097
 32
0.0
 13
275.9999999999997
 23
181.3409419822097
 33
0.0
  0
MTEXT
  5
70A
330
5A6
100
AcDbEntity
  8
BEM
 62
     1
100
AcDbMText
 10
224.9999999999998
 20
187.8409419822097
 30
0.0
 40
7.0
 41
0.0
 71
     5
 72
     1
  1
\A1;%%c102
  7
GREEKS
 73
     1
 44
1.0
  0
POINT
  5
70B
330
5A6
100
AcDbEntity
  8
DEFPOINTS
 62
     0
100
AcDbPoint
 10
173.9999999999998
 20
209.3971159989351
 30
0.0
  0
POINT
  5
70C
330
5A6
100
AcDbEntity
  8
DEFPOINTS
 62
     0
100
AcDbPoint
 10
275.9999999999997
 20
209.3971159989351
 30
0.0
  0
POINT
  5
70D
330
5A6
100
AcDbEntity
  8
DEFPOINTS
 62
     0
100
AcDbPoint
 10
275.9999999999997
 20
181.3409419822097
 30
0.0
  0
ENDBLK
  5
5B1
330
5A6
100
AcDbEntity
  8
0
100
AcDbBlockEnd
  0
BLOCK
  5
5BC
330
5B2
100
AcDbEntity
  8
0
100
AcDbBlockBegin
  2
*D2
 70
     1
 10
0.0
 20
0.0
 30
0.0
  3
*D2
  1

  0
LINE
  5
856
330
5B2
100
AcDbEntity
  8
BEM
 62
     0
370
    -2
100
AcDbLine
 10
158.4999999999998
 20
523.4844378847546
 30
0.0
 11
158.4999999999998
 21
537.1908867685053
 31
0.0
  0
LINE
  5
857
330
5B2
100
AcDbEntity
  8
BEM
 62
     0
370
    -2
100
AcDbLine
 10
291.5
 20
523.4844378847546
 30
0.0
 11
291.5
 21
537.1908867685053
 31
0.0
  0
LINE
  5
858
330
5B2
100
AcDbEntity
  8
BEM
 62
     0
370
    -2
100
AcDbLine
 10
165.4999999999998
 20
535.1908867685052
 30
0.0
 11
284.4999999999999
 21
535.1908867685052
 31
0.0
  0
SOLID
  5
859
330
5B2
100
AcDbEntity
  8
BEM
 62
     0
100
AcDbTrace
 10
165.4999999999998
 20
536.3575534351719
 30
0.0
 11
165.4999999999998
 21
534.0242201018386
 31
0.0
 12
158.4999999999998
 22
535.1908867685052
 32
0.0
 13
158.4999999999998
 23
535.1908867685052
 33
0.0
  0
SOLID
  5
85A
330
5B2
100
AcDbEntity
  8
BEM
 62
     0
100
AcDbTrace
 10
284.4999999999999
 20
536.3575534351719
 30
0.0
 11
284.4999999999999
 21
534.0242201018386
 31
0.0
 12
291.5
 22
535.1908867685052
 32
0.0
 13
291.5
 23
535.1908867685052
 33
0.0
  0
MTEXT
  5
85B
330
5B2
100
AcDbEntity
  8
BEM
 62
     1
100
AcDbMText
 10
224.9999999999999
 20
541.6908867685052
 30
0.0
 40
7.0
 41
0.0
 71
     5
 72
     1
  1
\A1;%%c133
  7
GREEKS
 73
     1
 44
1.0
  0
POINT
  5
85C
330
5B2
100
AcDbEntity
  8
DEFPOINTS
 62
     0
100
AcDbPoint
 10
158.4999999999998
 20
521.4844378847545
 30
0.0
  0
POINT
  5
85D
330
5B2
100
AcDbEntity
  8
DEFPOINTS
 62
     0
100
AcDbPoint
 10
291.5
 20
521.4844378847545
 30
0.0
  0
POINT
  5
85E
330
5B2
100
AcDbEntity
  8
DEFPOINTS
 62
     0
100
AcDbPoint
 10
291.5
 20
535.1908867685052
 30
0.0
  0
ENDBLK
  5
5BD
330
5B2
100
AcDbEntity
  8
0
100
AcDbBlockEnd
  0
BLOCK
  5
5EE
330
5E4
100
AcDbEntity
  8
0
100
AcDbBlockBegin
  2
*D3
 70
     1
 10
0.0
 20
0.0
 30
0.0
  3
*D3
  1

  0
LINE
  5
887
330
5E4
100
AcDbEntity
  8
BEM
 62
     0
370
    -2
100
AcDbLine
 10
156.4999999999999
 20
521.4844378847547
 30
0.0
 11
127.0185938377348
 21
521.4844378847547
 31
0.0
  0
LINE
  5
888
330
5E4
100
AcDbEntity
  8
BEM
 62
     0
370
    -2
100
AcDbLine
 10
172.6922696331203
 20
201.4844378847546
 30
0.0
 11
127.0185938377347
 21
201.4844378847546
 31
0.0
  0
LINE
  5
889
330
5E4
100
AcDbEntity
  8
BEM
 62
     0
370
    -2
100
AcDbLine
 10
129.0185938377348
 20
514.4844378847547
 30
0.0
 11
129.0185938377347
 21
208.4844378847546
 31
0.0
  0
SOLID
  5
88A
330
5E4
100
AcDbEntity
  8
BEM
 62
     0
100
AcDbTrace
 10
127.8519271710681
 20
514.4844378847547
 30
0.0
 11
130.1852605044014
 21
514.4844378847547
 31
0.0
 12
129.0185938377348
 22
521.4844378847547
 32
0.0
 13
129.0185938377348
 23
521.4844378847547
 33
0.0
  0
SOLID
  5
88B
330
5E4
100
AcDbEntity
  8
BEM
 62
     0
100
AcDbTrace
 10
127.851927171068
 20
208.4844378847546
 30
0.0
 11
130.1852605044014
 21
208.4844378847546
 31
0.0
 12
129.0185938377347
 22
201.4844378847546
 32
0.0
 13
129.0185938377347
 23
201.4844378847546
 33
0.0
  0
MTEXT
  5
88C
330
5E4
100
AcDbEntity
  8
BEM
 62
     1
100
AcDbMText
 10
122.5185938377347
 20
361.4844378847546
 30
0.0
 40
7.0
 41
0.0
 71
     5
 72
     1
  1
\A1;1570
  7
GREEKS
 11
0.0000000000000001
 21
1.0
 31
0.0
 73
     1
 44
1.0
  0
POINT
  5
88D
330
5E4
100
AcDbEntity
  8
DEFPOINTS
 62
     0
100
AcDbPoint
 10
158.4999999999999
 20
521.4844378847547
 30
0.0
  0
POINT
  5
88E
330
5E4
100
AcDbEntity
  8
DEFPOINTS
 62
     0
100
AcDbPoint
 10
174.6922696331203
 20
201.4844378847546
 30
0.0
  0
POINT
  5
88F
330
5E4
100
AcDbEntity
  8
DEFPOINTS
 62
     0
100
AcDbPoint
 10
129.0185938377347
 20
201.4844378847546
 30
0.0
  0
ENDBLK
  5
5EF
330
5E4
100
AcDbEntity
  8
0
100
AcDbBlockEnd
  0
BLOCK
  5
87C
330
872
100
AcDbEntity
  8
0
100
AcDbBlockBegin
  2
*D4
 70
     1
 10
0.0
 20
0.0
 30
0.0
  3
*D4
  1

  0
LINE
  5
87E
330
872
100
AcDbEntity
  8
BEM
 62
     0
370
    -2
100
AcDbLine
 10
172.6922696331203
 20
201.4844378847545
 30
0.0
 11
144.1961579882588
 21
201.4844378847545
 31
0.0
  0
LINE
  5
87F
330
872
100
AcDbEntity
  8
BEM
 62
     0
370
    -2
100
AcDbLine
 10
156.4999999999997
 20
261.4844378847545
 30
0.0
 11
144.1961579882588
 21
261.4844378847545
 31
0.0
  0
LINE
  5
880
330
872
100
AcDbEntity
  8
BEM
 62
     0
370
    -2
100
AcDbLine
 10
146.1961579882588
 20
208.4844378847545
 30
0.0
 11
146.1961579882588
 21
254.4844378847546
 31
0.0
  0
SOLID
  5
881
330
872
100
AcDbEntity
  8
BEM
 62
     0
100
AcDbTrace
 10
145.0294913215922
 20
208.4844378847545
 30
0.0
 11
147.3628246549255
 21
208.4844378847545
 31
0.0
 12
146.1961579882588
 22
201.4844378847545
 32
0.0
 13
146.1961579882588
 23
201.4844378847545
 33
0.0
  0
SOLID
  5
882
330
872
100
AcDbEntity
  8
BEM
 62
     0
100
AcDbTrace
 10
145.0294913215922
 20
254.4844378847546
 30
0.0
 11
147.3628246549255
 21
254.4844378847546
 31
0.0
 12
146.1961579882588
 22
261.4844378847545
 32
0.0
 13
146.1961579882588
 23
261.4844378847545
 33
0.0
  0
MTEXT
  5
883
330
872
100
AcDbEntity
  8
BEM
 62
     1
100
AcDbMText
 10
139.6961579882588
 20
231.4844378847546
 30
0.0
 40
7.0
 41
0.0
 71
     5
 72
     1
  1
\A1;60
 11
0.0000000000000001
 21
1.0
 31
0.0
 73
     1
 44
1.0
  0
POINT
  5
884
330
872
100
AcDbEntity
  8
DEFPOINTS
 62
     0
100
AcDbPoint
 10
174.6922696331203
 20
201.4844378847545
 30
0.0
  0
POINT
  5
885
330
872
100
AcDbEntity
  8
DEFPOINTS
 62
     0
100
AcDbPoint
 10
158.4999999999997
 20
261.4844378847545
 30
0.0
  0
POINT
  5
886
330
872
100
AcDbEntity
  8
DEFPOINTS
 62
     0
100
AcDbPoint
 10
146.1961579882588
 20
261.4844378847545
 30
0.0
  0
ENDBLK
  5
87D
330
872
100
AcDbEntity
  8
0
100
AcDbBlockEnd
  0
ENDSEC
  0
SECTION
  2
ENTITIES
  0
LINE
  5
57
330
1E
100
AcDbEntity
  8
STEMPEL
100
AcDbLine
 10
410.0
 20
110.0
 30
0.0
 11
39.99999999999997
 21
110.0
 31
0.0
  0
LINE
  5
58
330
1E
100
AcDbEntity
  8
STEMPEL
100
AcDbLine
 10
136.0000000000001
 20
109.9999999999999
 30
0.0
 11
136.0
 21
9.999999999999971
 31
0.0
  0
LINE
  5
59
330
1E
100
AcDbEntity
  8
STEMPEL
100
AcDbLine
 10
220.0
 20
110.0
 30
0.0
 11
220.0
 21
9.999999999999971
 31
0.0
  0
LINE
  5
5A
330
1E
100
AcDbEntity
  8
STEMPEL
100
AcDbLine
 10
332.0
 20
109.9999999999997
 30
0.0
 11
332.0
 21
40.0
 31
0.0
  0
LINE
  5
5B
330
1E
100
AcDbEntity
  8
STEMPEL
100
AcDbLine
 10
135.9999999999999
 20
29.99999999999997
 30
0.0
 11
39.99999999999997
 21
29.99999999999997
 31
0.0
  0
LINE
  5
5C
330
1E
100
AcDbEntity
  8
STEMPEL
100
AcDbLine
 10
410.0
 20
40.0
 30
0.0
 11
136.0000000000001
 21
39.99999999999997
 31
0.0
  0
LINE
  5
5D
330
1E
100
AcDbEntity
  8
STEMPEL
100
AcDbLine
 10
410.0
 20
80.0
 30
0.0
 11
136.0000000000001
 21
79.99999999999994
 31
0.0
  0
LINE
  5
5E
330
1E
100
AcDbEntity
  8
VOLL
100
AcDbLine
 10
54.00000000000009
 20
110.0
 30
0.0
 11
53.99999999999997
 21
9.999999999999971
 31
0.0
  0
LINE
  5
5F
330
1E
100
AcDbEntity
  8
VOLL
100
AcDbLine
 10
94.00000000000011
 20
109.9999999999999
 30
0.0
 11
94.0
 21
9.999999999999971
 31
0.0
  0
LINE
  5
60
330
1E
100
AcDbEntity
  8
VOLL
100
AcDbLine
 10
114.0000000000001
 20
109.9999999999999
 30
0.0
 11
114.0
 21
9.999999999999971
 31
0.0
  0
LINE
  5
61
330
1E
100
AcDbEntity
  8
VOLL
100
AcDbLine
 10
154.0000000000001
 20
79.99999999999994
 30
0.0
 11
154.0000000000001
 21
39.99999999999997
 31
0.0
  0
LINE
  5
62
330
1E
100
AcDbEntity
  8
VOLL
100
AcDbLine
 10
180.0000000000001
 20
109.9999999999998
 30
0.0
 11
180.0
 21
39.99999999999997
 31
0.0
  0
LINE
  5
63
330
1E
100
AcDbEntity
  8
HILF
100
AcDbLine
 10
40.00000000000008
 20
100.0
 30
0.0
 11
136.0000000000001
 21
100.0
 31
0.0
  0
LINE
  5
64
330
1E
100
AcDbEntity
  8
HILF
100
AcDbLine
 10
40.00000000000008
 20
90.00000000000005
 30
0.0
 11
136.0000000000001
 21
90.00000000000005
 31
0.0
  0
LINE
  5
65
330
1E
100
AcDbEntity
  8
HILF
100
AcDbLine
 10
40.00000000000008
 20
79.99999999999994
 30
0.0
 11
136.0000000000001
 21
79.99999999999994
 31
0.0
  0
LINE
  5
66
330
1E
100
AcDbEntity
  8
HILF
100
AcDbLine
 10
40.00000000000008
 20
69.99999999999994
 30
0.0
 11
136.0000000000001
 21
69.99999999999994
 31
0.0
  0
LINE
  5
67
330
1E
100
AcDbEntity
  8
HILF
100
AcDbLine
 10
40.00000000000008
 20
59.99999999999997
 30
0.0
 11
136.0000000000001
 21
59.99999999999997
 31
0.0
  0
LINE
  5
68
330
1E
100
AcDbEntity
  8
HILF
100
AcDbLine
 10
40.00000000000008
 20
49.99999999999997
 30
0.0
 11
136.0000000000001
 21
49.99999999999997
 31
0.0
  0
LINE
  5
69
330
1E
100
AcDbEntity
  8
HILF
100
AcDbLine
 10
40.00000000000008
 20
39.99999999999997
 30
0.0
 11
136.0000000000001
 21
39.99999999999997
 31
0.0
  0
LINE
  5
6A
330
1E
100
AcDbEntity
  8
HILF
100
AcDbLine
 10
136.0000000000001
 20
69.99999999999994
 30
0.0
 11
220.0
 21
69.99999999999994
 31
0.0
  0
LINE
  5
6B
330
1E
100
AcDbEntity
  8
HILF
100
AcDbLine
 10
136.0000000000001
 20
59.99999999999997
 30
0.0
 11
220.0
 21
59.99999999999997
 31
0.0
  0
LINE
  5
6C
330
1E
100
AcDbEntity
  8
HILF
100
AcDbLine
 10
136.0000000000001
 20
49.99999999999997
 30
0.0
 11
220.0
 21
49.99999999999997
 31
0.0
  0
LINE
  5
6D
330
1E
100
AcDbEntity
  8
HILF
100
AcDbLine
 10
224.7736801096948
 20
84.03758247564139
 30
0.0
 11
324.8353916556311
 21
84.03758247564139
 31
0.0
  0
LINE
  5
6E
330
1E
100
AcDbEntity
  8
HILF
100
AcDbLine
 10
224.7736801096948
 20
69.99999999999994
 30
0.0
 11
324.835391655631
 21
69.99999999999994
 31
0.0
  0
LINE
  5
6F
330
1E
100
AcDbEntity
  8
HILF
100
AcDbLine
 10
224.7736801096948
 20
59.99999999999997
 30
0.0
 11
324.835391655631
 21
59.99999999999997
 31
0.0
  0
LINE
  5
70
330
1E
100
AcDbEntity
  8
HILF
100
AcDbLine
 10
224.7736801096948
 20
49.99999999999997
 30
0.0
 11
324.835391655631
 21
49.99999999999997
 31
0.0
  0
LINE
  5
71
330
1E
100
AcDbEntity
  8
VOLL
100
AcDbLine
 10
332.0
 20
60.0
 30
0.0
 11
410.0
 21
60.0
 31
0.0
  0
LINE
  5
72
330
1E
100
AcDbEntity
  8
HILF
100
AcDbLine
 10
336.7238616296993
 20
83.77983636955827
 30
0.0
 11
404.8588839326728
 21
83.77983636955827
 31
0.0
  0
LINE
  5
73
330
1E
100
AcDbEntity
  8
HILF
100
AcDbLine
 10
223.4909699289885
 20
14.89398258028314
 30
0.0
 11
404.8588839326728
 21
14.89398258028314
 31
0.0
  0
TEXT
  5
74
330
1E
100
AcDbEntity
  8
TEXT
100
AcDbText
 10
63.86165979631819
 20
18.67381894984132
 30
0.0
 40
4.0
  1
Änderung
 41
0.8
  7
GREEKS
 72
     1
 11
74.60451693917534
 21
18.67381894984132
 31
0.0
100
AcDbText
  0
TEXT
  5
75
330
1E
100
AcDbEntity
  8
TEXT
100
AcDbText
 10
143.5163572150377
 20
102.4620895087088
 30
0.0
 40
5.0
  1
Maßstab
 41
0.8
  7
GREEKS
100
AcDbText
  0
TEXT
  5
76
330
1E
100
AcDbEntity
  8
TEXT
100
AcDbText
 10
184.2858954734051
 20
102.4184168434819
 30
0.0
 40
5.0
  1
Zul. Abw.
 41
0.8
  7
GREEKS
100
AcDbText
  0
TEXT
  5
77
330
1E
100
AcDbEntity
  8
TEXT
100
AcDbText
 10
224.877940380901
 20
102.5489328011779
 30
0.0
 40
5.0
  1
Benennung
 41
0.8
  7
GREEKS
100
AcDbText
  0
TEXT
  5
78
330
1E
100
AcDbEntity
  8
TEXT
100
AcDbText
 10
336.178754957634
 20
102.3132034537136
 30
0.0
 40
5.0
  1
Zeichnungs Nr.
 41
0.8
  7
GREEKS
100
AcDbText
  0
TEXT
  5
79
330
1E
100
AcDbEntity
  8
TEXT
100
AcDbText
 10
224.742238391136
 20
30.84560570193057
 30
0.0
 40
5.0
  1
Bauvorhaben
 41
0.8
  7
GREEKS
100
AcDbText
  0
TEXT
  5
7A
330
1E
100
AcDbEntity
  8
TEXT
100
AcDbText
 10
336.7238616296993
 20
73.1811823709997
 30
0.0
 40
5.0
  1
Ersatz für:
 41
0.8
  7
GREEKS
100
AcDbText
  0
TEXT
  5
7B
330
1E
100
AcDbEntity
  8
TEXT
100
AcDbText
 10
48.26641107045756
 20
13.65465846027192
 30
0.0
 40
4.0
  1
Index
 50
90.0
 41
0.8
  7
GREEKS
100
AcDbText
  0
TEXT
  5
7C
330
1E
100
AcDbEntity
  8
TEXT
100
AcDbText
 10
100.0934676075481
 20
18.6715626933981
 30
0.0
 40
4.0
  1
Tag
 41
0.8
  7
GREEKS
 72
     1
 11
103.8268009408814
 21
18.6715626933981
 31
0.0
100
AcDbText
  0
TEXT
  5
7D
330
1E
100
AcDbEntity
  8
TEXT
100
AcDbText
 10
119.0122744386592
 20
18.59324216966408
 30
0.0
 40
4.0
  1
Name
 41
0.8
  7
GREEKS
 72
     1
 11
125.3360839624688
 21
18.59324216966408
 31
0.0
100
AcDbText
  0
TEXT
  5
7E
330
1E
100
AcDbEntity
  8
TEXT
100
AcDbText
 10
162.3311673153651
 20
73.31880501229926
 30
0.0
 40
4.0
  1
Tag
 41
0.8
  7
GREEKS
100
AcDbText
  0
TEXT
  5
7F
330
1E
100
AcDbEntity
  8
TEXT
100
AcDbText
 10
192.4626584226295
 20
73.30961091915225
 30
0.0
 40
4.0
  1
Name
 41
0.8
  7
GREEKS
100
AcDbText
  0
TEXT
  5
80
330
1E
100
AcDbEntity
  8
TEXT
100
AcDbText
 10
137.5836127167615
 20
63.62990369617964
 30
0.0
 40
4.0
  1
Gez.
 41
0.8
  7
GREEKS
100
AcDbText
  0
TEXT
  5
81
330
1E
100
AcDbEntity
  8
TEXT
100
AcDbText
 10
137.5515086571672
 20
53.68926291428377
 30
0.0
 40
4.0
  1
Gepr.
 41
0.8
  7
GREEKS
100
AcDbText
  0
TEXT
  5
82
330
1E
100
AcDbEntity
  8
TEXT
100
AcDbText
 10
137.6006777387304
 20
43.52946389649807
 30
0.0
 40
4.0
  1
Norm.
 41
0.8
  7
GREEKS
100
AcDbText
  0
LINE
  5
83
330
1E
100
AcDbEntity
  8
STEMPEL
100
AcDbLine
 10
49.99999999999989
 20
10.0
 30
0.0
 11
410.0
 21
10.0
 31
0.0
  0
TEXT
  5
84
330
1E
100
AcDbEntity
  8
TEXT
100
AcDbText
 10
337.2400861497006
 20
52.07416177878602
 30
0.0
 40
5.0
  1
ersetzt durch:
 41
0.8
  7
GREEKS
100
AcDbText
  0
LINE
  5
85
330
1E
100
AcDbEntity
  8
STEMPEL
100
AcDbLine
 10
410.0
 20
10.0
 30
0.0
 11
39.99999999999989
 21
10.0
 31
0.0
  0
LINE
  5
86
330
1E
100
AcDbEntity
  8
STEMPEL
100
AcDbLine
 10
410.0
 20
10.0
 30
0.0
 11
410.0
 21
584.0
 31
0.0
  0
LINE
  5
87
330
1E
100
AcDbEntity
  8
STEMPEL
100
AcDbLine
 10
40.0
 20
10.0
 30
0.0
 11
39.99999999999989
 21
584.0
 31
0.0
  0
LINE
  5
88
330
1E
100
AcDbEntity
  8
STEMPEL
100
AcDbLine
 10
410.0
 20
584.0
 30
0.0
 11
39.99999999999989
 21
584.0
 31
0.0
  0
LINE
  5
89
330
1E
100
AcDbEntity
  8
HILF
100
AcDbLine
 10
0.0
 20
0.0
 30
0.0
 11
-0.0000000000001137
 21
594.0
 31
0.0
  0
LINE
  5
8A
330
1E
100
AcDbEntity
  8
HILF
100
AcDbLine
 10
419.9999999999999
 20
594.0000000000002
 30
0.0
 11
0.0
 21
594.0
 31
0.0
  0
LINE
  5
8B
330
1E
100
AcDbEntity
  8
HILF
100
AcDbLine
 10
420.0
 20
0.0
 30
0.0
 11
0.0
 21
0.0
 31
0.0
  0
LINE
  5
8C
330
1E
100
AcDbEntity
  8
HILF
100
AcDbLine
 10
31.08767135713856
 20
297.0
 30
0.0
 11
0.0000000000001137
 21
297.0
 31
0.0
  0
LINE
  5
8E
330
1E
100
AcDbEntity
  8
HILF
100
AcDbLine
 10
420.0
 20
-0.0000000000001137
 30
0.0
 11
419.9999999999999
 21
594.0
 31
0.0
  0
TEXT
  5
8F
330
1E
100
AcDbEntity
  8
VOLL
100
AcDbText
 10
78.07675471698113
 20
31.02594776470585
 30
0.0
 40
1.8
  1

  7
GREEKS
100
AcDbText
  0
TEXT
  5
90
330
1E
100
AcDbEntity
  8
TEXT
100
AcDbText
 10
41.85509950977674
 20
111.6719999999999
 30
0.0
 40
5.0
  1
Erstellt mit AUTOCAD 2004
 41
0.8
  7
GREEKS
100
AcDbText
  0
TEXT
  5
91
330
1E
100
AcDbEntity
  8
TEXT
100
AcDbText
 10
194.4216048581257
 20
63.0896391972351
 30
0.0
 40
4.0
  1
Koeh
 41
0.8
  7
GREEKS
 72
     1
 11
199.6787477152685
 21
63.0896391972351
 31
0.0
100
AcDbText
  0
TEXT
  5
92
330
1E
100
AcDbEntity
  8
TEXT
 62
     1
100
AcDbText
 10
347.2064127456858
 20
88.14901428913959
 30
0.0
 40
7.0
  1
58015100W
 41
0.8
  7
GREEKS
 72
     1
 11
370.1397460790191
 21
88.14901428913959
 31
0.0
100
AcDbText
  0
TEXT
  5
93
330
1E
100
AcDbEntity
  8
TEXT
 62
     1
100
AcDbText
 10
150.5006306481887
 20
88.14901428913959
 30
0.0
 40
7.0
  1
1:2
 41
0.8
  7
GREEKS
100
AcDbText
  0
TEXT
  5
95
330
1E
100
AcDbEntity
  8
TEXT
 62
     1
100
AcDbText
 10
226.8935731057402
 20
87.41748789253779
 30
0.0
 40
7.0
  1
Verbundrohr DN100
 41
0.8
  7
GREEKS
100
AcDbText
  0
TEXT
  5
96
330
1E
100
AcDbEntity
  8
TEXT
100
AcDbText
 10
225.1296391125315
 20
71.50334417585288
 30
0.0
 40
5.0
  1
1500mm lang
 41
0.8
  7
GREEKS
100
AcDbText
  0
TEXT
  5
98
330
1E
100
AcDbEntity
  8
TEXT
100
AcDbText
 10
225.1296391125315
 20
51.64011943042158
 30
0.0
 40
5.0
  1
EDV-Art.Nr. 58015.100X
 41
0.8
  7
GREEKS
100
AcDbText
  0
TEXT
  5
99
330
1E
100
AcDbEntity
  8
TEXT
100
AcDbText
 10
224.9837501577827
 20
42.62974153022632
 30
0.0
 40
4.0
  1
58015100W.DWG
 41
0.8
  7
GREEKS
100
AcDbText
  0
TEXT
  5
9A
330
1E
100
AcDbEntity
  8
TEXT
100
AcDbText
 10
182.626132208084
 20
90.76363841023022
 30
0.0
 40
4.0
  1
DIN EN1123-2
 41
0.8
  7
GREEKS
 72
     1
 11
199.6166083985602
 21
90.76363841023022
 31
0.0
100
AcDbText
  0
INSERT
  5
9B
330
1E
100
AcDbEntity
  8
STEMPEL
100
AcDbBlockReference
  2
LOGO
 10
140.9955485457794
 20
45.02105276448322
 30
0.0
 41
2.0
 42
2.0
 43
2.0
  0
TEXT
  5
118
330
1E
100
AcDbEntity
  8
TEXT
100
AcDbText
 10
417.3022923857165
 20
10.16790107998849
 30
0.0
 40
4.0
  1
Diese Zeichnung ist urheberrechtlich geschützt und bleibt unser Eigentum. Sie darf weder ganz noch teilweise verfielfältigt und nicht an Dritte weitergegeben werden.
 50
90.0
 41
0.8
  7
GREEKS
100
AcDbText
  0
TEXT
  5
3D8
330
1E
100
AcDbEntity
  8
TEXT
 62
     1
100
AcDbText
 10
193.6033828683802
 20
152.364339848487
 30
0.0
 40
7.0
  1
Außenrohr: E195 EN10305 feuerverzinkt
 41
0.8
  7
GREEKS
100
AcDbText
  0
TEXT
  5
3D9
330
1E
100
AcDbEntity
  8
TEXT
 62
     1
100
AcDbText
 10
197.3756002392442
 20
141.011271812132
 30
0.0
 40
7.0
  1
Innenrohr: E195 EN10305 feuerverzinkt
 41
0.8
  7
GREEKS
100
AcDbText
  0
TEXT
  5
3DA
330
1E
100
AcDbEntity
  8
TEXT
 62
     1
100
AcDbText
 10
189.8811895945471
 20
117.1473825875242
 30
0.0
 40
7.0
  1
Dämmung: 2 K-PU-Schaum
 41
0.8
  7
GREEKS
100
AcDbText
  0
TEXT
  5
3DB
330
1E
100
AcDbEntity
  8
TEXT
 62
     1
100
AcDbText
 10
245.030129115258
 20
129.7422179729062
 30
0.0
 40
7.0
  1
und innenbeschichtet
 41
0.8
  7
GREEKS
100
AcDbText
  0
TEXT
  5
478
330
1E
100
AcDbEntity
  8
TEXT
 62
     1
100
AcDbText
 10
215.8910492387708
 20
487.539798058111
 30
0.0
 40
7.0
  1
DN100
 50
90.0
 41
0.8
  7
GREEKS
100
AcDbText
  0
LINE
  5
54F
330
1E
100
AcDbEntity
  8
HILF
100
AcDbLine
 10
177.6320397104758
 20
448.3992844879843
 30
0.0
 11
272.367960289524
 21
448.3992844879843
 31
0.0
  0
LINE
  5
550
330
1E
100
AcDbEntity
  8
HILF
100
AcDbLine
 10
275.3103999838067
 20
454.5784359016748
 30
0.0
 11
174.6896000161929
 21
454.5784359016748
 31
0.0
  0
LINE
  5
551
330
1E
100
AcDbEntity
  8
HILF
100
AcDbLine
 10
173.6614013950781
 20
477.2586563170283
 30
0.0
 11
276.3385986049217
 21
477.2586563170283
 31
0.0
  0
LINE
  5
553
102
{ACAD_REACTORS
330
55A
330
78E
330
7A6
102
}
330
1E
100
AcDbEntity
  8
STEMPEL
100
AcDbLine
 10
158.4999999999998
 20
521.4844378847545
 30
0.0
 11
291.5
 21
521.4844378847545
 31
0.0
  0
LINE
  5
554
330
1E
100
AcDbEntity
  8
HILF
100
AcDbLine
 10
178.0076396750864
 20
209.4844378847545
 30
0.0
 11
271.992360324913
 21
209.4844378847545
 31
0.0
  0
LINE
  5
555
102
{ACAD_REACTORS
330
78E
102
}
330
1E
100
AcDbEntity
  8
STEMPEL
100
AcDbLine
 10
174.6922696331203
 20
201.4844378847545
 30
0.0
 11
275.3077303668791
 21
201.4844378847545
 31
0.0
  0
DIMENSION
  5
556
330
1E
100
AcDbEntity
  8
BEM
100
AcDbDimension
  2
*D1
 10
275.9999999999997
 20
181.3409419822097
 30
0.0
 11
224.9999999999998
 21
187.8409419822097
 31
0.0
 70
    32
  1
%%c<>
 71
     5
 42
101.9999999999999
  3
Standard
100
AcDbAlignedDimension
 13
173.9999999999998
 23
209.3971159989351
 33
0.0
 14
275.9999999999997
 24
209.3971159989351
 34
0.0
100
AcDbRotatedDimension
1001
ACAD
1000
DSTYLE
1002
{
1070
    40
1040
2.0
1070
    41
1040
3.5
1070
    42
1040
1.0
1070
    43
1040
7.0
1070
    44
1040
1.0
1070
    73
1070
     0
1070
    74
1070
     0
1070
    77
1070
     1
1070
    78
1070
     8
1070
    79
1070
     2
1070
   140
1040
3.5
1070
   141
1040
1.5
1070
   146
1040
0.5142857142857144
1070
   147
1040
1.5
1070
   172
1070
     1
1070
   178
1070
     1
1070
   179
1070
     2
1070
   271
1070
     2
1070
   272
1070
     2
1070
   284
1070
     8
1070
   285
1070
     8
1070
   286
1070
     8
1070
   289
1070
     0
1070
   340
1005
24
1002
}
  0
DIMENSION
  5
557
330
1E
100
AcDbEntity
  8
BEM
100
AcDbDimension
  2
*D2
 10
291.5
 20
535.1908867685052
 30
0.0
 11
224.9999999999999
 21
541.6908867685052
 31
0.0
 70
    32
  1
%%c<>
 71
     5
 42
133.0000000000001
  3
Standard
100
AcDbAlignedDimension
 13
158.4999999999998
 23
521.4844378847545
 33
0.0
 14
291.5
 24
521.4844378847545
 34
0.0
100
AcDbRotatedDimension
1001
ACAD
1000
DSTYLE
1002
{
1070
    40
1040
2.0
1070
    41
1040
3.5
1070
    42
1040
1.0
1070
    43
1040
7.0
1070
    44
1040
1.0
1070
    73
1070
     0
1070
    74
1070
     0
1070
    77
1070
     1
1070
    78
1070
     8
1070
    79
1070
     2
1070
   140
1040
3.5
1070
   141
1040
1.5
1070
   146
1040
0.5142857142857144
1070
   147
1040
1.5
1070
   172
1070
     1
1070
   178
1070
     1
1070
   179
1070
     2
1070
   271
1070
     2
1070
   272
1070
     2
1070
   284
1070
     8
1070
   285
1070
     8
1070
   286
1070
     8
1070
   289
1070
     0
1070
   340
1005
24
1002
}
  0
HATCH
  5
55A
330
1E
100
AcDbEntity
  8
SCHRAFF
100
AcDbHatch
 10
0.0
 20
0.0
 30
0.0
210
0.0
220
0.0
230
1.0
  2
NET
 70
     0
 71
     1
 91
        2
 92
        7
 72
     1
 73
     1
 93
        6
 10
289.0
 20
521.4844378847545
 42
0.0
 10
280.7067558379248
 20
521.4844378847547
 42
0.0
 10
281.6576946759162
 20
519.4451429657006
 42
-0.1095178116832426
 10
283.9999999999999
 20
508.8796864221832
 42
0.0
 10
283.9999999999999
 20
507.4844378847545
 42
0.0
 10
289.0
 20
507.4844378847545
 42
0.0
 97
        6
330
553
330
598
330
595
330
594
330
599
330
57C
 92
        7
 72
     1
 73
     1
 93
        6
 10
160.9999999999998
 20
507.4844378847544
 42
0.0
 10
165.9999999999999
 20
507.4844378847545
 42
0.0
 10
165.9999999999999
 20
508.8796864221833
 42
-0.1095178116832406
 10
168.3423053240835
 20
519.4451429657008
 42
0.0
 10
169.2932441620748
 20
521.4844378847544
 42
0.0
 10
160.9999999999998
 20
521.4844378847544
 42
0.0
 97
        6
330
576
330
553
330
55E
330
579
330
575
330
578
 75
     0
 76
     1
 52
45.0
 41
20.0
 77
     0
 78
     2
 53
45.0
 43
-317.9283604658433
 44
56.67153439629089
 45
-1.767766952966368
 46
1.767766952966368
 79
     0
 53
135.0
 43
-317.9283604658433
 44
56.67153439629089
 45
-1.767766952966368
 46
-1.767766952966368
 79
     0
 47
0.2497795766399111
 98
        2
 10
286.1640036847991
 20
517.4864749303321
 10
162.9415189091135
 20
514.2393402805145
  0
LINE
  5
55D
102
{ACAD_REACTORS
330
7A6
102
}
330
1E
100
AcDbEntity
  8
STEMPEL
100
AcDbLine
 10
158.4999999999998
 20
521.4844378847545
 30
0.0
 11
158.4999999999997
 21
391.4844378847543
 31
0.0
  0
LINE
  5
55E
102
{ACAD_REACTORS
330
55A
330
7A6
330
7D0
102
}
330
1E
100
AcDbEntity
  8
STEMPEL
100
AcDbLine
 10
160.9999999999998
 20
521.4844378847545
 30
0.0
 11
160.9999999999997
 21
391.8124740416285
 31
0.0
  0
LINE
  5
55F
102
{ACAD_REACTORS
330
78E
102
}
330
1E
100
AcDbEntity
  8
STEMPEL
100
AcDbLine
 10
175.9999999999999
 20
445.4504453648864
 30
0.0
 11
175.9999999999998
 21
393.5373169476152
 31
0.0
  0
LINE
  5
560
102
{ACAD_REACTORS
330
78E
330
7D0
102
}
330
1E
100
AcDbEntity
  8
STEMPEL
100
AcDbLine
 10
173.9999999999999
 20
445.4504453648864
 30
0.0
 11
173.9999999999999
 21
393.3591285298625
 31
0.0
  0
LINE
  5
561
102
{ACAD_REACTORS
330
78E
102
}
330
1E
100
AcDbEntity
  8
STEMPEL
100
AcDbLine
 10
175.9999999999997
 20
209.4844378847545
 30
0.0
 11
176.6999093082072
 21
201.4844378847545
 31
0.0
  0
LINE
  5
562
102
{ACAD_REACTORS
330
78E
102
}
330
1E
100
AcDbEntity
  8
STEMPEL
100
AcDbLine
 10
173.9999999999998
 20
209.3971159989351
 30
0.0
 11
174.6922696331203
 21
201.4844378847545
 31
0.0
  0
LINE
  5
564
102
{ACAD_REACTORS
330
7A6
102
}
330
1E
100
AcDbEntity
  8
STEMPEL
100
AcDbLine
 10
158.4999999999998
 20
261.4844378847545
 30
0.0
 11
160.9999999999997
 21
261.4844378847545
 31
0.0
  0
LINE
  5
566
330
1E
100
AcDbEntity
  8
STEMPEL
100
AcDbLine
 10
173.9999999999997
 20
267.4844378847545
 30
0.0
 11
168.9999999999997
 21
267.4844378847545
 31
0.0
  0
LINE
  5
567
102
{ACAD_REACTORS
330
7D0
102
}
330
1E
100
AcDbEntity
  8
STEMPEL
100
AcDbLine
 10
173.9999999999997
 20
278.9844378847545
 30
0.0
 11
162.4999999999998
 21
278.9844378847545
 31
0.0
  0
LINE
  5
568
102
{ACAD_REACTORS
330
7D0
102
}
330
1E
100
AcDbEntity
  8
STEMPEL
100
AcDbLine
 10
160.9999999999997
 20
277.4844378847545
 30
0.0
 11
162.4999999999998
 21
278.9844378847545
 31
0.0
  0
ARC
  5
569
102
{ACAD_REACTORS
330
78E
330
7D0
102
}
330
1E
100
AcDbEntity
  8
STEMPEL
100
AcDbCircle
 10
190.9999999999998
 20
490.717638415436
 30
0.0
 40
25.0
100
AcDbArc
 50
180.0
 51
206.8880476177246
  0
ARC
  5
56A
102
{ACAD_REACTORS
330
78E
102
}
330
1E
100
AcDbEntity
  8
STEMPEL
100
AcDbCircle
 10
190.9999999999999
 20
490.7174378847545
 30
0.0
 40
23.0
100
AcDbArc
 50
180.0
 51
206.7887981052072
  0
LINE
  5
56B
102
{ACAD_REACTORS
330
78E
102
}
330
1E
100
AcDbEntity
  8
STEMPEL
100
AcDbLine
 10
171.9999999999999
 20
473.9844378847545
 30
0.0
 11
171.9999999999999
 21
458.4119267617021
 31
0.0
  0
LINE
  5
56C
102
{ACAD_REACTORS
330
78E
330
7D0
102
}
330
1E
100
AcDbEntity
  8
STEMPEL
100
AcDbLine
 10
169.9999999999999
 20
473.9844378847545
 30
0.0
 11
169.9999999999999
 21
458.411926761702
 31
0.0
  0
ARC
  5
56D
102
{ACAD_REACTORS
330
78E
102
}
330
1E
100
AcDbEntity
  8
STEMPEL
100
AcDbCircle
 10
165.9999999999999
 20
445.4504453648864
 30
0.0
 40
10.0
100
AcDbArc
 50
0.0
 51
34.3011527567924
  0
ARC
  5
56E
102
{ACAD_REACTORS
330
78E
330
7D0
102
}
330
1E
100
AcDbEntity
  8
STEMPEL
100
AcDbCircle
 10
165.9999999999999
 20
445.4504453648864
 30
0.0
 40
8.0
100
AcDbArc
 50
0.0
 51
34.3011527567924
  0
ARC
  5
56F
102
{ACAD_REACTORS
330
78E
102
}
330
1E
100
AcDbEntity
  8
STEMPEL
100
AcDbCircle
 10
184.9999999999999
 20
458.411926761702
 30
0.0
 40
13.0
100
AcDbArc
 50
180.0
 51
214.3011527567924
  0
ARC
  5
570
102
{ACAD_REACTORS
330
78E
330
7D0
102
}
330
1E
100
AcDbEntity
  8
STEMPEL
100
AcDbCircle
 10
184.9999999999999
 20
458.411926761702
 30
0.0
 40
15.0
100
AcDbArc
 50
180.0
 51
214.3011527567924
  0
ARC
  5
571
102
{ACAD_REACTORS
330
78E
330
7D0
102
}
330
1E
100
AcDbEntity
  8
STEMPEL
100
AcDbCircle
 10
157.9999999999999
 20
473.9844378847545
 30
0.0
 40
12.0
100
AcDbArc
 50
0.0
 51
26.88804761772463
  0
ARC
  5
572
102
{ACAD_REACTORS
330
78E
102
}
330
1E
100
AcDbEntity
  8
STEMPEL
100
AcDbCircle
 10
157.9999999999999
 20
473.9844378847545
 30
0.0
 40
14.0
100
AcDbArc
 50
0.0
 51
27.05036856337947
  0
LINE
  5
574
102
{ACAD_REACTORS
330
78E
102
}
330
1E
100
AcDbEntity
  8
STEMPEL
100
AcDbLine
 10
167.9999999999999
 20
508.8796864221833
 30
0.0
 11
167.9999999999999
 21
490.7174378847545
 31
0.0
  0
LINE
  5
575
102
{ACAD_REACTORS
330
55A
330
78E
330
7D0
102
}
330
1E
100
AcDbEntity
  8
STEMPEL
100
AcDbLine
 10
165.9999999999999
 20
508.8796864221833
 30
0.0
 11
165.9999999999999
 21
490.7176384154361
 31
0.0
  0
LINE
  5
576
102
{ACAD_REACTORS
330
55A
330
78E
102
}
330
1E
100
AcDbEntity
  8
STEMPEL
100
AcDbLine
 10
169.2932441620748
 20
521.4844378847545
 30
0.0
 11
168.3423053240835
 21
519.4451429657008
 31
0.0
  0
ARC
  5
577
102
{ACAD_REACTORS
330
78E
102
}
330
1E
100
AcDbEntity
  8
STEMPEL
100
AcDbCircle
 10
190.9999999999998
 20
508.8796864221833
 30
0.0
 40
23.0
100
AcDbArc
 50
155.0000000000079
 51
180.0
  0
ARC
  5
578
102
{ACAD_REACTORS
330
55A
330
78E
102
}
330
1E
100
AcDbEntity
  8
STEMPEL
100
AcDbCircle
 10
190.9999999999998
 20
508.8796864221833
 30
0.0
 40
25.0
100
AcDbArc
 50
155.0000000000079
 51
180.0
  0
LINE
  5
579
102
{ACAD_REACTORS
330
55A
330
7D0
102
}
330
1E
100
AcDbEntity
  8
STEMPEL
100
AcDbLine
 10
160.9999999999998
 20
507.4844378847545
 30
0.0
 11
165.9999999999999
 21
507.4844378847545
 31
0.0
  0
LINE
  5
57A
102
{ACAD_REACTORS
330
78E
102
}
330
1E
100
AcDbEntity
  8
STEMPEL
100
AcDbLine
 10
171.4999999999999
 20
521.4844378847545
 30
0.0
 11
170.1549208981569
 21
518.5999064422194
 31
0.0
  0
LINE
  5
57B
102
{ACAD_REACTORS
330
7A6
102
}
330
1E
100
AcDbEntity
  8
STEMPEL
100
AcDbLine
 10
291.5
 20
521.4844378847544
 30
0.0
 11
291.4999999999999
 21
391.4844378847544
 31
0.0
  0
LINE
  5
57C
102
{ACAD_REACTORS
330
55A
330
7A6
330
7D0
102
}
330
1E
100
AcDbEntity
  8
STEMPEL
100
AcDbLine
 10
289.0
 20
521.4844378847544
 30
0.0
 11
288.9999999999999
 21
391.1564017278802
 31
0.0
  0
LINE
  5
57E
330
1E
100
AcDbEntity
  8
MITTEL
100
AcDbLine
 10
225.0
 20
526.4844378847546
 30
0.0
 11
224.9999999999997
 21
196.4844378847545
 31
0.0
  0
LINE
  5
57F
102
{ACAD_REACTORS
330
78E
102
}
330
1E
100
AcDbEntity
  8
STEMPEL
100
AcDbLine
 10
273.9999999999997
 20
445.4504453648862
 30
0.0
 11
273.9999999999997
 21
389.4315588218935
 31
0.0
  0
LINE
  5
580
102
{ACAD_REACTORS
330
78E
330
7D0
102
}
330
1E
100
AcDbEntity
  8
STEMPEL
100
AcDbLine
 10
275.9999999999997
 20
445.4504453648862
 30
0.0
 11
275.9999999999997
 21
389.6097472396464
 31
0.0
  0
DIMENSION
  5
581
330
1E
100
AcDbEntity
  8
BEM
100
AcDbDimension
  2
*D3
 10
129.0185938377347
 20
201.4844378847546
 30
0.0
 11
122.5185938377347
 21
361.4844378847546
 31
0.0
 70
    32
  1
1570
 71
     5
 42
320.0000000000001
  3
Standard
100
AcDbAlignedDimension
 13
158.4999999999999
 23
521.4844378847547
 33
0.0
 14
174.6922696331203
 24
201.4844378847546
 34
0.0
 50
90.0
100
AcDbRotatedDimension
1001
ACAD
1000
DSTYLE
1002
{
1070
    40
1040
2.0
1070
    41
1040
3.5
1070
    42
1040
1.0
1070
    43
1040
7.0
1070
    44
1040
1.0
1070
    73
1070
     0
1070
    74
1070
     0
1070
    77
1070
     1
1070
    78
1070
     8
1070
    79
1070
     2
1070
   140
1040
3.5
1070
   141
1040
1.5
1070
   146
1040
0.5142857142857144
1070
   147
1040
1.5
1070
   172
1070
     1
1070
   178
1070
     1
1070
   179
1070
     2
1070
   271
1070
     2
1070
   272
1070
     2
1070
   284
1070
     8
1070
   285
1070
     8
1070
   286
1070
     8
1070
   289
1070
     0
1070
   340
1005
24
1002
}
  0
LINE
  5
582
102
{ACAD_REACTORS
330
78E
102
}
330
1E
100
AcDbEntity
  8
STEMPEL
100
AcDbLine
 10
275.9999999999997
 20
209.3971159989351
 30
0.0
 11
275.3077303668792
 21
201.4844378847544
 31
0.0
  0
LINE
  5
583
102
{ACAD_REACTORS
330
78E
102
}
330
1E
100
AcDbEntity
  8
STEMPEL
100
AcDbLine
 10
273.9999999999997
 20
209.4844378847545
 30
0.0
 11
273.3000906917924
 21
201.4844378847544
 31
0.0
  0
LINE
  5
584
102
{ACAD_REACTORS
330
7A6
102
}
330
1E
100
AcDbEntity
  8
STEMPEL
100
AcDbLine
 10
291.4999999999997
 20
261.4844378847545
 30
0.0
 11
288.9999999999999
 21
261.4844378847545
 31
0.0
  0
LINE
  5
586
330
1E
100
AcDbEntity
  8
STEMPEL
100
AcDbLine
 10
280.9999999999997
 20
267.4844378847545
 30
0.0
 11
275.9999999999997
 21
267.4844378847545
 31
0.0
  0
LINE
  5
587
102
{ACAD_REACTORS
330
7D0
102
}
330
1E
100
AcDbEntity
  8
STEMPEL
100
AcDbLine
 10
287.4999999999996
 20
278.9844378847545
 30
0.0
 11
275.9999999999997
 21
278.9844378847545
 31
0.0
  0
LINE
  5
588
102
{ACAD_REACTORS
330
7D0
102
}
330
1E
100
AcDbEntity
  8
STEMPEL
100
AcDbLine
 10
288.9999999999997
 20
277.4844378847545
 30
0.0
 11
287.4999999999996
 21
278.9844378847545
 31
0.0
  0
ARC
  5
589
102
{ACAD_REACTORS
330
78E
102
}
330
1E
100
AcDbEntity
  8
STEMPEL
100
AcDbCircle
 10
258.9999999999999
 20
490.7174378847545
 30
0.0
 40
23.0
100
AcDbArc
 50
333.2112018947928
 51
0.0
  0
ARC
  5
58A
102
{ACAD_REACTORS
330
78E
330
7D0
102
}
330
1E
100
AcDbEntity
  8
STEMPEL
100
AcDbCircle
 10
258.9999999999999
 20
490.717638415436
 30
0.0
 40
25.0
100
AcDbArc
 50
333.1119523822754
 51
0.0
  0
ARC
  5
58B
102
{ACAD_REACTORS
330
78E
102
}
330
1E
100
AcDbEntity
  8
STEMPEL
100
AcDbCircle
 10
283.9999999999997
 20
445.4504453648862
 30
0.0
 40
10.0
100
AcDbArc
 50
145.6988472432076
 51
180.0
  0
LINE
  5
58C
102
{ACAD_REACTORS
330
78E
102
}
330
1E
100
AcDbEntity
  8
STEMPEL
100
AcDbLine
 10
277.9999999999999
 20
473.9844378847543
 30
0.0
 11
277.9999999999999
 21
458.411926761702
 31
0.0
  0
LINE
  5
58D
102
{ACAD_REACTORS
330
78E
330
7D0
102
}
330
1E
100
AcDbEntity
  8
STEMPEL
100
AcDbLine
 10
279.9999999999999
 20
473.9844378847545
 30
0.0
 11
279.9999999999997
 21
458.4119267617019
 31
0.0
  0
ARC
  5
58E
102
{ACAD_REACTORS
330
78E
330
7D0
102
}
330
1E
100
AcDbEntity
  8
STEMPEL
100
AcDbCircle
 10
283.9999999999997
 20
445.4504453648862
 30
0.0
 40
8.0
100
AcDbArc
 50
145.6988472432076
 51
180.0
  0
ARC
  5
58F
102
{ACAD_REACTORS
330
78E
330
7D0
102
}
330
1E
100
AcDbEntity
  8
STEMPEL
100
AcDbCircle
 10
264.9999999999999
 20
458.411926761702
 30
0.0
 40
15.0
100
AcDbArc
 50
325.6988472432076
 51
0.0
  0
ARC
  5
590
102
{ACAD_REACTORS
330
78E
102
}
330
1E
100
AcDbEntity
  8
STEMPEL
100
AcDbCircle
 10
264.9999999999999
 20
458.411926761702
 30
0.0
 40
13.0
100
AcDbArc
 50
325.6988472432076
 51
0.0
  0
ARC
  5
591
102
{ACAD_REACTORS
330
78E
330
7D0
102
}
330
1E
100
AcDbEntity
  8
STEMPEL
100
AcDbCircle
 10
291.9999999999999
 20
473.9844378847543
 30
0.0
 40
12.0
100
AcDbArc
 50
153.1119523822753
 51
180.0
  0
ARC
  5
592
102
{ACAD_REACTORS
330
78E
102
}
330
1E
100
AcDbEntity
  8
STEMPEL
100
AcDbCircle
 10
291.9999999999999
 20
473.9844378847543
 30
0.0
 40
14.0
100
AcDbArc
 50
152.9496314366205
 51
180.0
  0
LINE
  5
593
102
{ACAD_REACTORS
330
78E
102
}
330
1E
100
AcDbEntity
  8
STEMPEL
100
AcDbLine
 10
281.9999999999999
 20
508.8796864221833
 30
0.0
 11
281.9999999999999
 21
490.7174378847543
 31
0.0
  0
LINE
  5
594
102
{ACAD_REACTORS
330
55A
330
78E
330
7D0
102
}
330
1E
100
AcDbEntity
  8
STEMPEL
100
AcDbLine
 10
283.9999999999999
 20
508.8796864221833
 30
0.0
 11
283.9999999999999
 21
490.717638415436
 31
0.0
  0
ARC
  5
595
102
{ACAD_REACTORS
330
55A
330
78E
102
}
330
1E
100
AcDbEntity
  8
STEMPEL
100
AcDbCircle
 10
258.9999999999999
 20
508.8796864221833
 30
0.0
 40
25.0
100
AcDbArc
 50
0.0
 51
24.99999999999207
  0
ARC
  5
596
102
{ACAD_REACTORS
330
78E
102
}
330
1E
100
AcDbEntity
  8
STEMPEL
100
AcDbCircle
 10
258.9999999999999
 20
508.8796864221833
 30
0.0
 40
23.0
100
AcDbArc
 50
0.0
 51
24.99999999999207
  0
LINE
  5
597
102
{ACAD_REACTORS
330
78E
102
}
330
1E
100
AcDbEntity
  8
STEMPEL
100
AcDbLine
 10
278.5
 20
521.4844378847544
 30
0.0
 11
279.8450791018428
 21
518.5999064422193
 31
0.0
  0
LINE
  5
598
102
{ACAD_REACTORS
330
55A
330
78E
102
}
330
1E
100
AcDbEntity
  8
STEMPEL
100
AcDbLine
 10
280.7067558379248
 20
521.4844378847544
 30
0.0
 11
281.6576946759162
 21
519.4451429657006
 31
0.0
  0
LINE
  5
599
102
{ACAD_REACTORS
330
55A
330
7D0
102
}
330
1E
100
AcDbEntity
  8
STEMPEL
100
AcDbLine
 10
284.0000000000001
 20
507.4844378847545
 30
0.0
 11
289.0
 21
507.4844378847545
 31
0.0
  0
POLYLINE
  5
71B
102
{ACAD_REACTORS
330
78E
330
7A6
330
7D0
102
}
330
1E
100
AcDbEntity
  8
HILF
100
AcDb2dPolyline
 66
     1
 10
0.0
 20
0.0
 30
0.0
 70
     4
 75
     6
  0
VERTEX
  5
71C
330
71B
100
AcDbEntity
  8
HILF
100
AcDbVertex
100
AcDb2dVertex
 10
158.4999999999998
 20
391.4844378847544
 30
0.0
 70
    16
  0
VERTEX
  5
722
330
71B
100
AcDbEntity
  8
HILF
100
AcDbVertex
100
AcDb2dVertex
 10
158.4999999999998
 20
391.4844378847544
 30
0.0
 70
     8
  0
VERTEX
  5
723
330
71B
100
AcDbEntity
  8
HILF
100
AcDbVertex
100
AcDb2dVertex
 10
170.2219238281248
 20
393.0225238222544
 30
0.0
 70
     8
  0
VERTEX
  5
724
330
71B
100
AcDbEntity
  8
HILF
100
AcDbVertex
100
AcDb2dVertex
 10
180.5800781249998
 20
393.9453753847544
 30
0.0
 70
     8
  0
VERTEX
  5
725
330
71B
100
AcDbEntity
  8
HILF
100
AcDbVertex
100
AcDb2dVertex
 10
189.7692871093748
 20
394.3408831972544
 30
0.0
 70
     8
  0
VERTEX
  5
726
330
71B
100
AcDbEntity
  8
HILF
100
AcDbVertex
100
AcDb2dVertex
 10
197.9843749999998
 20
394.2969378847544
 30
0.0
 70
     8
  0
VERTEX
  5
727
330
71B
100
AcDbEntity
  8
HILF
100
AcDbVertex
100
AcDb2dVertex
 10
205.4201660156249
 20
393.9014300722544
 30
0.0
 70
     8
  0
VERTEX
  5
728
330
71B
100
AcDbEntity
  8
HILF
100
AcDbVertex
100
AcDb2dVertex
 10
212.2714843749999
 20
393.2422503847544
 30
0.0
 70
     8
  0
VERTEX
  5
729
330
71B
100
AcDbEntity
  8
HILF
100
AcDbVertex
100
AcDb2dVertex
 10
218.7331542968749
 20
392.4072894472544
 30
0.0
 70
     8
  0
VERTEX
  5
72A
330
71B
100
AcDbEntity
  8
HILF
100
AcDbVertex
100
AcDb2dVertex
 10
224.9999999999998
 20
391.4844378847545
 30
0.0
 70
     8
  0
VERTEX
  5
72B
330
71B
100
AcDbEntity
  8
HILF
100
AcDbVertex
100
AcDb2dVertex
 10
231.2668457031248
 20
390.5615863222545
 30
0.0
 70
     8
  0
VERTEX
  5
72C
330
71B
100
AcDbEntity
  8
HILF
100
AcDbVertex
100
AcDb2dVertex
 10
237.7285156249998
 20
389.7266253847545
 30
0.0
 70
     8
  0
VERTEX
  5
72D
330
71B
100
AcDbEntity
  8
HILF
100
AcDbVertex
100
AcDb2dVertex
 10
244.5798339843748
 20
389.0674456972545
 30
0.0
 70
     8
  0
VERTEX
  5
72E
330
71B
100
AcDbEntity
  8
HILF
100
AcDbVertex
100
AcDb2dVertex
 10
252.0156249999998
 20
388.6719378847545
 30
0.0
 70
     8
  0
VERTEX
  5
72F
330
71B
100
AcDbEntity
  8
HILF
100
AcDbVertex
100
AcDb2dVertex
 10
260.2307128906248
 20
388.6279925722545
 30
0.0
 70
     8
  0
VERTEX
  5
730
330
71B
100
AcDbEntity
  8
HILF
100
AcDbVertex
100
AcDb2dVertex
 10
269.4199218749998
 20
389.0235003847545
 30
0.0
 70
     8
  0
VERTEX
  5
731
330
71B
100
AcDbEntity
  8
HILF
100
AcDbVertex
100
AcDb2dVertex
 10
279.7780761718749
 20
389.9463519472545
 30
0.0
 70
     8
  0
VERTEX
  5
732
330
71B
100
AcDbEntity
  8
HILF
100
AcDbVertex
100
AcDb2dVertex
 10
291.4999999999999
 20
391.4844378847545
 30
0.0
 70
     8
  0
VERTEX
  5
71D
330
71B
100
AcDbEntity
  8
HILF
100
AcDbVertex
100
AcDb2dVertex
 10
191.7499999999998
 20
396.4844378847544
 30
0.0
 70
    16
  0
VERTEX
  5
71E
330
71B
100
AcDbEntity
  8
HILF
100
AcDbVertex
100
AcDb2dVertex
 10
224.9999999999998
 20
391.4844378847545
 30
0.0
 70
    16
  0
VERTEX
  5
71F
330
71B
100
AcDbEntity
  8
HILF
100
AcDbVertex
100
AcDb2dVertex
 10
258.2499999999999
 20
386.4844378847545
 30
0.0
 70
    16
  0
VERTEX
  5
720
330
71B
100
AcDbEntity
  8
HILF
100
AcDbVertex
100
AcDb2dVertex
 10
291.4999999999999
 20
391.4844378847545
 30
0.0
 70
    16
  0
SEQEND
  5
721
330
71B
100
AcDbEntity
  8
HILF
  0
POLYLINE
  5
733
102
{ACAD_REACTORS
330
78E
330
7A6
330
7D0
102
}
330
1E
100
AcDbEntity
  8
HILF
100
AcDb2dPolyline
 66
     1
 10
0.0
 20
0.0
 30
0.0
 70
     4
 75
     6
  0
VERTEX
  5
734
330
733
100
AcDbEntity
  8
HILF
100
AcDbVertex
100
AcDb2dVertex
 10
158.4999999999998
 20
386.4844378847544
 30
0.0
 70
    16
  0
VERTEX
  5
735
330
733
100
AcDbEntity
  8
HILF
100
AcDbVertex
100
AcDb2dVertex
 10
158.4999999999998
 20
386.4844378847544
 30
0.0
 70
     8
  0
VERTEX
  5
736
330
733
100
AcDbEntity
  8
HILF
100
AcDbVertex
100
AcDb2dVertex
 10
170.2219238281248
 20
388.0225238222544
 30
0.0
 70
     8
  0
VERTEX
  5
737
330
733
100
AcDbEntity
  8
HILF
100
AcDbVertex
100
AcDb2dVertex
 10
180.5800781249998
 20
388.9453753847544
 30
0.0
 70
     8
  0
VERTEX
  5
738
330
733
100
AcDbEntity
  8
HILF
100
AcDbVertex
100
AcDb2dVertex
 10
189.7692871093748
 20
389.3408831972544
 30
0.0
 70
     8
  0
VERTEX
  5
739
330
733
100
AcDbEntity
  8
HILF
100
AcDbVertex
100
AcDb2dVertex
 10
197.9843749999998
 20
389.2969378847544
 30
0.0
 70
     8
  0
VERTEX
  5
73A
330
733
100
AcDbEntity
  8
HILF
100
AcDbVertex
100
AcDb2dVertex
 10
205.4201660156249
 20
388.9014300722544
 30
0.0
 70
     8
  0
VERTEX
  5
73B
330
733
100
AcDbEntity
  8
HILF
100
AcDbVertex
100
AcDb2dVertex
 10
212.2714843749999
 20
388.2422503847544
 30
0.0
 70
     8
  0
VERTEX
  5
73C
330
733
100
AcDbEntity
  8
HILF
100
AcDbVertex
100
AcDb2dVertex
 10
218.7331542968749
 20
387.4072894472544
 30
0.0
 70
     8
  0
VERTEX
  5
73D
330
733
100
AcDbEntity
  8
HILF
100
AcDbVertex
100
AcDb2dVertex
 10
224.9999999999998
 20
386.4844378847545
 30
0.0
 70
     8
  0
VERTEX
  5
73E
330
733
100
AcDbEntity
  8
HILF
100
AcDbVertex
100
AcDb2dVertex
 10
231.2668457031248
 20
385.5615863222545
 30
0.0
 70
     8
  0
VERTEX
  5
73F
330
733
100
AcDbEntity
  8
HILF
100
AcDbVertex
100
AcDb2dVertex
 10
237.7285156249998
 20
384.7266253847545
 30
0.0
 70
     8
  0
VERTEX
  5
740
330
733
100
AcDbEntity
  8
HILF
100
AcDbVertex
100
AcDb2dVertex
 10
244.5798339843748
 20
384.0674456972545
 30
0.0
 70
     8
  0
VERTEX
  5
741
330
733
100
AcDbEntity
  8
HILF
100
AcDbVertex
100
AcDb2dVertex
 10
252.0156249999998
 20
383.6719378847545
 30
0.0
 70
     8
  0
VERTEX
  5
742
330
733
100
AcDbEntity
  8
HILF
100
AcDbVertex
100
AcDb2dVertex
 10
260.2307128906248
 20
383.6279925722545
 30
0.0
 70
     8
  0
VERTEX
  5
743
330
733
100
AcDbEntity
  8
HILF
100
AcDbVertex
100
AcDb2dVertex
 10
269.4199218749998
 20
384.0235003847545
 30
0.0
 70
     8
  0
VERTEX
  5
744
330
733
100
AcDbEntity
  8
HILF
100
AcDbVertex
100
AcDb2dVertex
 10
279.7780761718749
 20
384.9463519472545
 30
0.0
 70
     8
  0
VERTEX
  5
745
330
733
100
AcDbEntity
  8
HILF
100
AcDbVertex
100
AcDb2dVertex
 10
291.4999999999999
 20
386.4844378847545
 30
0.0
 70
     8
  0
VERTEX
  5
746
330
733
100
AcDbEntity
  8
HILF
100
AcDbVertex
100
AcDb2dVertex
 10
191.7499999999998
 20
391.4844378847544
 30
0.0
 70
    16
  0
VERTEX
  5
747
330
733
100
AcDbEntity
  8
HILF
100
AcDbVertex
100
AcDb2dVertex
 10
224.9999999999998
 20
386.4844378847545
 30
0.0
 70
    16
  0
VERTEX
  5
748
330
733
100
AcDbEntity
  8
HILF
100
AcDbVertex
100
AcDb2dVertex
 10
258.2499999999999
 20
381.4844378847545
 30
0.0
 70
    16
  0
VERTEX
  5
749
330
733
100
AcDbEntity
  8
HILF
100
AcDbVertex
100
AcDb2dVertex
 10
291.4999999999999
 20
386.4844378847545
 30
0.0
 70
    16
  0
SEQEND
  5
74A
330
733
100
AcDbEntity
  8
HILF
  0
LINE
  5
74B
102
{ACAD_REACTORS
330
7A6
102
}
330
1E
100
AcDbEntity
  8
STEMPEL
100
AcDbLine
 10
291.4999999999999
 20
386.4844378847544
 30
0.0
 11
291.4999999999999
 21
259.4844378847541
 31
0.0
  0
LINE
  5
74C
102
{ACAD_REACTORS
330
7A6
330
7D0
102
}
330
1E
100
AcDbEntity
  8
STEMPEL
100
AcDbLine
 10
288.9999999999999
 20
386.1564017278802
 30
0.0
 11
288.9999999999998
 21
261.4844378847545
 31
0.0
  0
LINE
  5
74D
102
{ACAD_REACTORS
330
78E
330
7D0
102
}
330
1E
100
AcDbEntity
  8
STEMPEL
100
AcDbLine
 10
275.9999999999997
 20
384.6097472396465
 30
0.0
 11
275.9999999999997
 21
209.3971159989351
 31
0.0
  0
LINE
  5
74E
102
{ACAD_REACTORS
330
78E
102
}
330
1E
100
AcDbEntity
  8
STEMPEL
100
AcDbLine
 10
273.9999999999997
 20
384.4315588218935
 30
0.0
 11
273.9999999999997
 21
209.4844378847545
 31
0.0
  0
LINE
  5
74F
102
{ACAD_REACTORS
330
78E
102
}
330
1E
100
AcDbEntity
  8
STEMPEL
100
AcDbLine
 10
175.9999999999998
 20
388.5373169476153
 30
0.0
 11
175.9999999999997
 21
209.4844378847545
 31
0.0
  0
LINE
  5
750
102
{ACAD_REACTORS
330
78E
330
7D0
102
}
330
1E
100
AcDbEntity
  8
STEMPEL
100
AcDbLine
 10
173.9999999999999
 20
388.3591285298624
 30
0.0
 11
173.9999999999998
 21
209.3971159989351
 31
0.0
  0
LINE
  5
751
102
{ACAD_REACTORS
330
7A6
330
7D0
102
}
330
1E
100
AcDbEntity
  8
STEMPEL
100
AcDbLine
 10
160.9999999999997
 20
386.8124740416284
 30
0.0
 11
160.9999999999997
 21
261.4844378847545
 31
0.0
  0
LINE
  5
752
102
{ACAD_REACTORS
330
7A6
102
}
330
1E
100
AcDbEntity
  8
STEMPEL
100
AcDbLine
 10
158.4999999999997
 20
386.4844378847542
 30
0.0
 11
158.4999999999997
 21
259.4844378847545
 31
0.0
  0
HATCH
  5
78E
330
1E
100
AcDbEntity
  8
SCHRAFF
100
AcDbHatch
 10
0.0
 20
0.0
 30
0.0
210
0.0
220
0.0
230
1.0
  2
_USER
 70
     0
 71
     1
 91
        4
 92
        7
 72
     1
 73
     1
 93
       20
 10
275.9999999999997
 20
445.4504453648862
 42
-0.1507946423587077
 10
277.3913043478259
 20
449.9587867203005
 42
0.1507946423587007
 10
279.9999999999997
 20
458.4119267617019
 42
0.0
 10
279.9999999999999
 20
473.9844378847545
 42
-0.1178625008509358
 10
281.2972972972973
 20
479.4114218406511
 42
0.1178625008509355
 10
283.9999999999999
 20
490.717638415436
 42
0.0
 10
283.9999999999999
 20
508.8796864221833
 42
0.1095178116832408
 10
281.6576946759162
 20
519.4451429657006
 42
0.0
 10
280.7067558379247
 20
521.4844378847544
 42
0.0
 10
278.5000000000001
 20
521.4844378847544
 42
0.0
 10
279.8450791018428
 20
518.5999064422193
 42
-0.1095178116832425
 10
281.9999999999999
 20
508.8796864221831
 42
0.0
 10
281.9999999999999
 20
490.7174378847543
 42
-0.1182991460892218
 10
279.4955654706322
 20
480.2803982642958
 42
0.1171420130222728
 10
277.9999999999999
 20
473.9844378847543
 42
0.0
 10
277.9999999999999
 20
458.411926761702
 42
-0.1507946423587077
 10
275.7391304347824
 20
451.0858720591539
 42
0.1507946423587096
 10
273.9999999999997
 20
445.4504453648859
 42
0.0
 10
273.9999999999997
 20
389.4315588218936
 42
0.0
 10
275.9999999999997
 20
389.6097472396465
 42
0.0
 97
       20
330
58E
330
58F
330
58D
330
591
330
58A
330
594
330
595
330
598
330
553
330
597
330
596
330
593
330
589
330
592
330
58C
330
590
330
58B
330
57F
330
71B
330
580
 92
        7
 72
     1
 73
     1
 93
       20
 10
175.9999999999999
 20
445.4504453648864
 42
0.1507946423587027
 10
174.2608695652173
 20
451.085872059154
 42
-0.1507946423587049
 10
171.9999999999999
 20
458.4119267617021
 42
0.0
 10
171.9999999999999
 20
473.9844378847545
 42
0.1171420130219823
 10
170.5044345293748
 20
480.2803982642816
 42
-0.1182991460893996
 10
167.9999999999999
 20
490.7174378847545
 42
0.0
 10
167.9999999999999
 20
508.8796864221833
 42
-0.1095178116832409
 10
170.1549208981569
 20
518.5999064422194
 42
0.0
 10
171.4999999999998
 20
521.4844378847545
 42
0.0
 10
169.2932441620749
 20
521.4844378847545
 42
0.0
 10
168.3423053240835
 20
519.4451429657008
 42
0.1095178116832406
 10
165.9999999999999
 20
508.8796864221833
 42
0.0
 10
165.9999999999999
 20
490.7176384154361
 42
0.1178625008509373
 10
168.7027027027026
 20
479.4114218406511
 42
-0.1178625008509343
 10
169.9999999999999
 20
473.9844378847545
 42
0.0
 10
169.9999999999999
 20
458.411926761702
 42
0.150794642358704
 10
172.6086956521738
 20
449.9587867203004
 42
-0.1507946423587032
 10
173.9999999999999
 20
445.4504453648863
 42
0.0
 10
173.9999999999999
 20
393.3591285298625
 42
0.0
 10
175.9999999999998
 20
393.5373169476154
 42
0.0
 97
       20
330
56D
330
56F
330
56B
330
572
330
56A
330
574
330
577
330
57A
330
553
330
576
330
578
330
575
330
569
330
571
330
56C
330
570
330
56E
330
560
330
71B
330
55F
 92
        7
 72
     0
 73
     1
 93
        6
 10
175.9999999999998
 20
388.5373169476153
 10
173.9999999999998
 20
388.3591285298624
 10
173.9999999999998
 20
209.3971159989348
 10
174.6922696331204
 20
201.4844378847545
 10
176.6999093082072
 20
201.4844378847545
 10
175.9999999999997
 20
209.4844378847547
 97
        6
330
733
330
750
330
562
330
555
330
561
330
74F
 92
        7
 72
     0
 73
     1
 93
        6
 10
275.9999999999997
 20
384.6097472396463
 10
273.9999999999997
 20
384.4315588218935
 10
273.9999999999998
 20
209.4844378847547
 10
273.3000906917923
 20
201.4844378847545
 10
275.3077303668792
 20
201.4844378847545
 10
275.9999999999997
 20
209.397115998935
 97
        6
330
733
330
74E
330
583
330
555
330
582
330
74D
 75
     0
 76
     0
 52
45.0
 41
2.0
 77
     0
 78
     1
 53
45.0
 43
0.0
 44
0.0
 45
-1.414213562373094
 46
1.414213562373095
 79
     0
 47
0.686707505444097
 98
        4
 10
275.1705074777287
 20
415.8955229203124
 10
175.5278789364379
 20
421.3891827741683
 10
174.8406898781022
 20
375.3797795740074
 10
275.1705074777287
 20
365.7658751795998
  0
HATCH
  5
7A6
330
1E
100
AcDbEntity
  8
SCHRAFF
100
AcDbHatch
 10
0.0
 20
0.0
 30
0.0
210
0.0
220
0.0
230
1.0
  2
_USER
 70
     0
 71
     1
 91
        4
 92
        7
 72
     0
 73
     1
 93
        4
 10
291.5
 20
521.4844378847544
 10
288.9999999999999
 20
521.4844378847544
 10
288.9999999999998
 20
391.1564017278803
 10
291.4999999999998
 20
391.4844378847545
 97
        4
330
553
330
57C
330
71B
330
57B
 92
        7
 72
     0
 73
     1
 93
        4
 10
160.9999999999998
 20
521.4844378847545
 10
158.4999999999998
 20
521.4844378847545
 10
158.4999999999997
 20
391.4844378847544
 10
160.9999999999997
 20
391.8124740416286
 97
        4
330
553
330
55D
330
71B
330
55E
 92
        7
 72
     0
 73
     1
 93
        4
 10
291.4999999999998
 20
386.4844378847544
 10
288.9999999999999
 20
386.1564017278802
 10
288.9999999999999
 20
261.4844378847545
 10
291.4999999999998
 20
261.4844378847545
 97
        4
330
733
330
74C
330
584
330
74B
 92
        7
 72
     0
 73
     1
 93
        4
 10
160.9999999999997
 20
386.8124740416285
 10
158.4999999999997
 20
386.4844378847544
 10
158.4999999999998
 20
261.4844378847546
 10
160.9999999999997
 20
261.4844378847546
 97
        4
330
733
330
752
330
564
330
751
 75
     0
 76
     0
 52
135.0
 41
2.0
 77
     0
 78
     1
 53
135.0
 43
0.0
 44
0.0
 45
-1.414213562373095
 46
-1.414213562373094
 79
     0
 47
0.686707505444097
 98
        4
 10
290.2886990235061
 20
461.9049261204734
 10
159.7224983323249
 20
457.7846801805621
 10
290.9758907703749
 20
335.5507438843542
 10
159.7224983323249
 20
325.9368394899466
  0
HATCH
  5
7D0
330
1E
100
AcDbEntity
  8
SCHRAFF
100
AcDbHatch
 10
0.0
 20
0.0
 30
0.0
210
0.0
220
0.0
230
1.0
  2
HONEY
 70
     0
 71
     1
 91
        4
 92
        7
 72
     1
 73
     1
 93
       11
 10
289.0
 20
507.4844378847545
 42
0.0
 10
283.9999999999999
 20
507.4844378847546
 42
0.0
 10
283.9999999999999
 20
490.717638415436
 42
-0.1178625008509382
 10
281.2972972972971
 20
479.411421840651
 42
0.1178625008509265
 10
279.9999999999999
 20
473.9844378847546
 42
0.0
 10
279.9999999999997
 20
458.4119267617019
 42
-0.1507946423587046
 10
277.3913043478259
 20
449.9587867203002
 42
0.1507946423587095
 10
275.9999999999997
 20
445.4504453648859
 42
0.0
 10
275.9999999999997
 20
389.6097472396464
 42
0.0
 10
279.7780761718748
 20
389.9463519472546
 42
0.0
 10
288.9999999999999
 20
391.1564017278804
 42
0.0
 97
       10
330
599
330
594
330
58A
330
591
330
58D
330
58F
330
58E
330
580
330
71B
330
57C
 92
        7
 72
     1
 73
     1
 93
       11
 10
160.9999999999997
 20
391.8124740416286
 42
0.0
 10
170.2219238281255
 20
393.0225238222543
 42
0.0
 10
173.9999999999998
 20
393.3591285298624
 42
0.0
 10
173.9999999999999
 20
445.4504453648864
 42
0.1507946423587035
 10
172.6086956521738
 20
449.9587867203005
 42
-0.1507946423587028
 10
169.9999999999999
 20
458.411926761702
 42
0.0
 10
169.9999999999999
 20
473.9844378847545
 42
0.1178625008509357
 10
168.7027027027026
 20
479.4114218406511
 42
-0.1178625008509366
 10
165.9999999999999
 20
490.7176384154361
 42
0.0
 10
165.9999999999999
 20
507.4844378847545
 42
0.0
 10
160.9999999999998
 20
507.4844378847546
 42
0.0
 97
       10
330
56E
330
570
330
56C
330
571
330
569
330
575
330
579
330
55E
330
71B
330
560
 92
        7
 72
     0
 73
     1
 93
        6
 10
160.9999999999997
 20
277.4844378847546
 10
162.4999999999998
 20
278.9844378847545
 10
173.9999999999998
 20
278.9844378847545
 10
173.9999999999998
 20
388.3591285298624
 10
170.2219238281256
 20
388.0225238222545
 10
160.9999999999997
 20
386.8124740416286
 97
        5
330
733
330
751
330
568
330
567
330
750
 92
        7
 72
     0
 73
     1
 93
        6
 10
275.9999999999997
 20
278.9844378847545
 10
287.4999999999996
 20
278.9844378847545
 10
288.9999999999999
 20
277.4844378847543
 10
288.9999999999999
 20
386.1564017278803
 10
279.7780761718737
 20
384.9463519472541
 10
275.9999999999998
 20
384.6097472396462
 97
        5
330
733
330
74D
330
587
330
588
330
74C
 75
     0
 76
     1
 52
0.0
 41
25.0
 77
     0
 78
     3
 53
0.0
 43
0.0
 44
0.0
 45
4.6875
 46
2.706329374999999
 79
     2
 49
3.125
 49
-6.25
 53
120.0
 43
0.0
 44
0.0
 45
-4.687499989758061
 46
2.706329392739557
 79
     2
 49
3.125
 49
-6.25
 53
60.0
 43
0.0
 44
0.0
 45
0.0000000102419385
 46
5.412658767739556
 79
     2
 49
-6.25
 49
3.125
 47
0.686707505444097
 98
        4
 10
288.2271291599668
 20
441.9904082756468
 10
165.2200215531411
 20
431.003087168576
 10
167.2815941052135
 20
359.5855076690923
 10
282.0424141922817
 20
351.3450171886288
  0
LINE
  5
83E
330
1E
100
AcDbEntity
  8
STEMPEL
100
AcDbLine
 10
275.9999999999997
 20
259.4844378847542
 30
0.0
 11
291.4999999999999
 21
259.4844378847541
 31
0.0
  0
HATCH
  5
83F
330
1E
100
AcDbEntity
  8
SCHRAFF
100
AcDbHatch
 10
0.0
 20
0.0
 30
0.0
210
0.0
220
0.0
230
1.0
  2
NET
 70
     0
 71
     0
 91
        2
 92
        7
 72
     0
 73
     1
 93
        9
 10
288.9999999999998
 20
277.4844378847543
 10
287.4999999999996
 20
278.9844378847546
 10
275.9999999999998
 20
278.9844378847546
 10
275.9999999999998
 20
267.4844378847545
 10
280.9999999999997
 20
267.4844378847545
 10
285.6188021535169
 20
259.4844378847541
 10
291.4999999999999
 20
259.4844378847541
 10
291.4999999999999
 20
261.4844378847545
 10
288.9999999999999
 20
261.4844378847545
 97
        0
 92
        7
 72
     0
 73
     1
 93
        9
 10
173.9999999999998
 20
278.9844378847545
 10
162.4999999999998
 20
278.9844378847546
 10
160.9999999999997
 20
277.4844378847546
 10
160.9999999999997
 20
261.4844378847544
 10
158.4999999999997
 20
261.4844378847545
 10
158.4999999999997
 20
259.4844378847545
 10
164.3811978464826
 20
259.4844378847545
 10
168.9999999999997
 20
267.4844378847545
 10
173.9999999999998
 20
267.4844378847545
 97
        0
 75
     0
 76
     1
 52
45.0
 41
20.0
 77
     0
 78
     2
 53
45.0
 43
0.0
 44
-50.39055617443114
 45
-1.767766952966368
 46
1.767766952966368
 79
     0
 53
135.0
 43
0.0
 44
-50.39055617443114
 45
-1.767766952966368
 46
-1.767766952966368
 79
     0
 47
0.1961114262777251
 98
        2
 10
284.7813654002298
 20
272.6823482743086
 10
172.3417287551679
 20
273.8590168129974
  0
LINE
  5
840
330
1E
100
AcDbEntity
  8
STEMPEL
100
AcDbLine
 10
280.9999999999997
 20
267.4844378847545
 30
0.0
 11
285.6188021535169
 21
259.4844378847541
 31
0.0
  0
LINE
  5
841
330
1E
100
AcDbEntity
  8
STEMPEL
100
AcDbLine
 10
158.4999999999997
 20
259.4844378847545
 30
0.0
 11
173.9999999999998
 21
259.4844378847544
 31
0.0
  0
LINE
  5
842
330
1E
100
AcDbEntity
  8
STEMPEL
100
AcDbLine
 10
168.9999999999997
 20
267.4844378847545
 30
0.0
 11
164.3811978464826
 21
259.4844378847545
 31
0.0
  0
TEXT
  5
84A
330
1E
100
AcDbEntity
  8
TEXT
100
AcDbText
 10
138.622109822104
 20
73.14025471151666
 30
0.0
 40
4.0
  1
2007
 41
0.8
  7
GREEKS
100
AcDbText
  0
TEXT
  5
84B
330
1E
100
AcDbEntity
  8
TEXT
100
AcDbText
 10
160.398997108236
 20
63.10765040825732
 30
0.0
 40
4.0
  1
27.09.
 41
0.8
  7
GREEKS
 72
     1
 11
167.4085209177598
 21
63.10765040825732
 31
0.0
100
AcDbText
  0
DIMENSION
  5
871
330
1E
100
AcDbEntity
  8
BEM
100
AcDbDimension
  2
*D4
 10
146.1961579882588
 20
261.4844378847545
 30
0.0
 11
139.6961579882588
 21
231.4844378847546
 31
0.0
 70
    32
 71
     5
 42
60.00000000000003
  3
Standard
100
AcDbAlignedDimension
 13
174.6922696331203
 23
201.4844378847545
 33
0.0
 14
158.4999999999997
 24
261.4844378847545
 34
0.0
 50
90.0
100
AcDbRotatedDimension
1001
ACAD
1000
DSTYLE
1002
{
1070
    40
1040
2.0
1070
    41
1040
3.5
1070
    42
1040
1.0
1070
    43
1040
7.0
1070
    44
1040
1.0
1070
    73
1070
     0
1070
    74
1070
     0
1070
    77
1070
     1
1070
    78
1070
     8
1070
    79
1070
     2
1070
   140
1040
3.5
1070
   141
1040
1.5
1070
   146
1040
0.5142857142857144
1070
   147
1040
1.5
1070
   172
1070
     1
1070
   178
1070
     1
1070
   179
1070
     2
1070
   271
1070
     2
1070
   272
1070
     2
1070
   284
1070
     8
1070
   285
1070
     8
1070
   286
1070
     8
1002
}
  0
ENDSEC
  0
SECTION
  2
OBJECTS
  0
DICTIONARY
  5
C
330
0
100
AcDbDictionary
281
     1
  3
ACAD_COLOR
350
DF
  3
ACAD_GROUP
350
D
  3
ACAD_LAYOUT
350
19
  3
ACAD_MATERIAL
350
DE
  3
ACAD_MLINESTYLE
350
16
  3
ACAD_PLOTSETTINGS
350
18
  3
ACAD_PLOTSTYLENAME
350
E
  3
AcDbVariableDictionary
350
EA
  0
DICTIONARY
  5
A0
330
1E
100
AcDbDictionary
280
     1
281
     1
  3
ACAD_LAYOUTSELFREF
360
D4
  0
DICTIONARY
  5
A2
330
1A
100
AcDbDictionary
280
     1
281
     1
  3
ACAD_LAYOUTSELFREF
360
D3
  0
DICTIONARY
  5
DF
102
{ACAD_REACTORS
330
C
102
}
330
C
100
AcDbDictionary
281
     1
  0
DICTIONARY
  5
D
102
{ACAD_REACTORS
330
C
102
}
330
C
100
AcDbDictionary
281
     1
  0
DICTIONARY
  5
19
102
{ACAD_REACTORS
330
C
102
}
330
C
100
AcDbDictionary
281
     1
  3
Layout1
350
1D
  3
Model
350
21
  0
DICTIONARY
  5
DE
102
{ACAD_REACTORS
330
C
102
}
330
C
100
AcDbDictionary
281
     1
  0
DICTIONARY
  5
16
102
{ACAD_REACTORS
330
C
102
}
330
C
100
AcDbDictionary
281
     1
  3
Standard
350
17
  0
DICTIONARY
  5
18
102
{ACAD_REACTORS
330
C
102
}
330
C
100
AcDbDictionary
281
     1
  0
ACDBDICTIONARYWDFLT
  5
E
102
{ACAD_REACTORS
330
C
102
}
330
C
100
AcDbDictionary
281
     1
  3
Normal
350
F
100
AcDbDictionaryWithDefault
340
F
  0
DICTIONARY
  5
EA
102
{ACAD_REACTORS
330
C
102
}
330
C
100
AcDbDictionary
281
     1
  3
DIMASSOC
350
EB
  3
PROJECTNAME
350
EC
  0
XRECORD
  5
D4
102
{ACAD_REACTORS
330
A0
102
}
330
A0
100
AcDbXrecord
280
     1
340
1E
  0
XRECORD
  5
D3
102
{ACAD_REACTORS
330
A2
102
}
330
A2
100
AcDbXrecord
280
     1
340
1A
  0
LAYOUT
  5
1D
102
{ACAD_REACTORS
330
19
102
}
330
19
100
AcDbPlotSettings
  1

  2
\\NT_WORK01\HP LaserJet 5000 PCL 6
  4

  6

 40
0.0
 41
0.0
 42
0.0
 43
0.0
 44
0.0
 45
0.0
 46
0.0
 47
0.0
 48
0.0
 49
0.0
140
0.0
141
0.0
142
1.0
143
1.0
 70
   688
 72
     0
 73
     0
 74
     5
  7

 75
    16
147
1.0
 76
     0
 77
     2
 78
   300
148
0.0
149
0.0
100
AcDbLayout
  1
Layout1
 70
     0
 71
     1
 10
0.0
 20
0.0
 11
12.0
 21
9.0
 12
0.0
 22
0.0
 32
0.0
 14
1.000000000000000E+20
 24
1.000000000000000E+20
 34
1.000000000000000E+20
 15
-1.000000000000000E+20
 25
-1.000000000000000E+20
 35
-1.000000000000000E+20
146
0.0
 13
0.0
 23
0.0
 33
0.0
 16
1.0
 26
0.0
 36
0.0
 17
0.0
 27
1.0
 37
0.0
 76
     0
330
1A
  0
LAYOUT
  5
21
102
{ACAD_REACTORS
330
19
102
}
330
19
100
AcDbPlotSettings
  1

  2
none_device
  4
Letter_(8.50_x_11.00_Inches)
  6

 40
6.349999904632568
 41
6.349999904632568
 42
6.350006103515625
 43
6.350006103515625
 44
215.8999938964844
 45
279.3999938964844
 46
0.0
 47
0.0
 48
0.0
 49
0.0
140
0.0
141
0.0
142
1.0
143
1.0
 70
 11952
 72
     0
 73
     1
 74
     0
  7

 75
     0
147
1.0
 76
     0
 77
     2
 78
   300
148
2286.722511197659
149
76.92250090747274
100
AcDbLayout
  1
Model
 70
     1
 71
     0
 10
0.0
 20
0.0
 11
12.0
 21
9.0
 12
0.0
 22
0.0
 32
0.0
 14
0.0
 24
0.0
 34
0.0
 15
0.0
 25
0.0
 35
0.0
146
0.0
 13
0.0
 23
0.0
 33
0.0
 16
1.0
 26
0.0
 36
0.0
 17
0.0
 27
1.0
 37
0.0
 76
     0
330
1E
  0
MLINESTYLE
  5
17
102
{ACAD_REACTORS
330
16
102
}
330
16
100
AcDbMlineStyle
  2
STANDARD
 70
     0
  3

 62
   256
 51
90.0
 52
90.0
 71
     2
 49
0.5
 62
   256
  6
BYLAYER
 49
-0.5
 62
   256
  6
BYLAYER
  0
ACDBPLACEHOLDER
  5
F
102
{ACAD_REACTORS
330
E
102
}
330
E
  0
DICTIONARYVAR
  5
EB
102
{ACAD_REACTORS
330
EA
102
}
330
EA
100
DictionaryVariables
280
     0
  1
1
  0
DICTIONARYVAR
  5
EC
102
{ACAD_REACTORS
330
EA
102
}
330
EA
100
DictionaryVariables
280
     0
  1

  0
ENDSEC
  0
EOF
