  0
SECTION
  2
HEADER
  9
$ACADVER
  1
AC1018
  9
$ACADMAINTVER
 70
     2
  9
$DWGCODEPAGE
  3
ANSI_1252
  9
$INSBASE
 10
0.0
 20
0.0
 30
0.0
  9
$EXTMIN
 10
-0.0064041928749248
 20
-0.0090573584946014
 30
-0.0000000000112498
  9
$EXTMAX
 10
420.0064100605654
 20
594.0090656570857
 30
0.0000000000002956
  9
$LIMMIN
 10
0.0
 20
0.0
  9
$LIMMAX
 10
419.9999999999999
 20
594.0
  9
$ORTHOMODE
 70
     1
  9
$REGENMODE
 70
     1
  9
$FILLMODE
 70
     1
  9
$QTEXTMODE
 70
     0
  9
$MIRRTEXT
 70
     1
  9
$LTSCALE
 40
20.0
  9
$ATTMODE
 70
     1
  9
$TEXTSIZE
 40
3.5
  9
$TRACEWID
 40
0.5
  9
$TEXTSTYLE
  7
STANDARD
  9
$CLAYER
  8
BEM
  9
$CELTYPE
  6
ByLayer
  9
$CECOLOR
 62
   256
  9
$CELTSCALE
 40
1.0
  9
$DISPSILH
 70
     0
  9
$DIMSCALE
 40
2.0
  9
$DIMASZ
 40
3.5
  9
$DIMEXO
 40
1.0
  9
$DIMDLI
 40
7.0
  9
$DIMRND
 40
0.0
  9
$DIMDLE
 40
0.0
  9
$DIMEXE
 40
1.0
  9
$DIMTP
 40
0.0
  9
$DIMTM
 40
0.0
  9
$DIMTXT
 40
3.5
  9
$DIMCEN
 40
1.5
  9
$DIMTSZ
 40
0.0
  9
$DIMTOL
 70
     0
  9
$DIMLIM
 70
     0
  9
$DIMTIH
 70
     0
  9
$DIMTOH
 70
     0
  9
$DIMSE1
 70
     0
  9
$DIMSE2
 70
     0
  9
$DIMTAD
 70
     1
  9
$DIMZIN
 70
     8
  9
$DIMBLK
  1

  9
$DIMASO
 70
     1
  9
$DIMSHO
 70
     0
  9
$DIMPOST
  1

  9
$DIMAPOST
  1

  9
$DIMALT
 70
     0
  9
$DIMALTD
 70
     2
  9
$DIMALTF
 40
25.4
  9
$DIMLFAC
 40
1.0
  9
$DIMTOFL
 70
     1
  9
$DIMTVP
 40
0.0
  9
$DIMTIX
 70
     0
  9
$DIMSOXD
 70
     0
  9
$DIMSAH
 70
     0
  9
$DIMBLK1
  1

  9
$DIMBLK2
  1

  9
$DIMSTYLE
  2
Standard
  9
$DIMCLRD
 70
     0
  9
$DIMCLRE
 70
     0
  9
$DIMCLRT
 70
     1
  9
$DIMTFAC
 40
0.5142857142857144
  9
$DIMGAP
 40
1.5
  9
$DIMJUST
 70
     0
  9
$DIMSD1
 70
     0
  9
$DIMSD2
 70
     0
  9
$DIMTOLJ
 70
     1
  9
$DIMTZIN
 70
     8
  9
$DIMALTZ
 70
     8
  9
$DIMALTTZ
 70
     8
  9
$DIMUPT
 70
     0
  9
$DIMDEC
 70
     2
  9
$DIMTDEC
 70
     2
  9
$DIMALTU
 70
     2
  9
$DIMALTTD
 70
     2
  9
$DIMTXSTY
  7
STANDARD
  9
$DIMAUNIT
 70
     0
  9
$DIMADEC
 70
     2
  9
$DIMALTRND
 40
0.0
  9
$DIMAZIN
 70
     2
  9
$DIMDSEP
 70
    46
  9
$DIMATFIT
 70
     3
  9
$DIMFRAC
 70
     0
  9
$DIMLDRBLK
  1

  9
$DIMLUNIT
 70
     2
  9
$DIMLWD
 70
    -2
  9
$DIMLWE
 70
    -2
  9
$DIMTMOVE
 70
     0
  9
$LUNITS
 70
     2
  9
$LUPREC
 70
     2
  9
$SKETCHINC
 40
1.0
  9
$FILLETRAD
 40
0.0
  9
$AUNITS
 70
     0
  9
$AUPREC
 70
     0
  9
$MENU
  1
ACAD
  9
$ELEVATION
 40
0.0
  9
$PELEVATION
 40
0.0
  9
$THICKNESS
 40
0.0
  9
$LIMCHECK
 70
     0
  9
$CHAMFERA
 40
0.0
  9
$CHAMFERB
 40
0.0
  9
$CHAMFERC
 40
0.0
  9
$CHAMFERD
 40
0.0
  9
$SKPOLY
 70
     0
  9
$TDCREATE
 40
2455397.823042361
  9
$TDUCREATE
 40
2455397.781375695
  9
$TDUPDATE
 40
2455532.457934606
  9
$TDUUPDATE
 40
2455532.416267940
  9
$TDINDWG
 40
0.0490831366
  9
$TDUSRTIMER
 40
0.0490831366
  9
$USRTIMER
 70
     1
  9
$ANGBASE
 50
0.0
  9
$ANGDIR
 70
     0
  9
$PDMODE
 70
     0
  9
$PDSIZE
 40
0.0
  9
$PLINEWID
 40
0.0
  9
$SPLFRAME
 70
     0
  9
$SPLINETYPE
 70
     6
  9
$SPLINESEGS
 70
     8
  9
$HANDSEED
  5
89A
  9
$SURFTAB1
 70
     6
  9
$SURFTAB2
 70
     6
  9
$SURFTYPE
 70
     6
  9
$SURFU
 70
     6
  9
$SURFV
 70
     6
  9
$UCSBASE
  2

  9
$UCSNAME
  2

  9
$UCSORG
 10
0.0
 20
0.0
 30
0.0
  9
$UCSXDIR
 10
1.0
 20
0.0
 30
0.0
  9
$UCSYDIR
 10
0.0
 20
1.0
 30
0.0
  9
$UCSORTHOREF
  2

  9
$UCSORTHOVIEW
 70
     0
  9
$UCSORGTOP
 10
0.0
 20
0.0
 30
0.0
  9
$UCSORGBOTTOM
 10
0.0
 20
0.0
 30
0.0
  9
$UCSORGLEFT
 10
0.0
 20
0.0
 30
0.0
  9
$UCSORGRIGHT
 10
0.0
 20
0.0
 30
0.0
  9
$UCSORGFRONT
 10
0.0
 20
0.0
 30
0.0
  9
$UCSORGBACK
 10
0.0
 20
0.0
 30
0.0
  9
$PUCSBASE
  2

  9
$PUCSNAME
  2

  9
$PUCSORG
 10
0.0
 20
0.0
 30
0.0
  9
$PUCSXDIR
 10
1.0
 20
0.0
 30
0.0
  9
$PUCSYDIR
 10
0.0
 20
1.0
 30
0.0
  9
$PUCSORTHOREF
  2

  9
$PUCSORTHOVIEW
 70
     0
  9
$PUCSORGTOP
 10
0.0
 20
0.0
 30
0.0
  9
$PUCSORGBOTTOM
 10
0.0
 20
0.0
 30
0.0
  9
$PUCSORGLEFT
 10
0.0
 20
0.0
 30
0.0
  9
$PUCSORGRIGHT
 10
0.0
 20
0.0
 30
0.0
  9
$PUCSORGFRONT
 10
0.0
 20
0.0
 30
0.0
  9
$PUCSORGBACK
 10
0.0
 20
0.0
 30
0.0
  9
$USERI1
 70
     0
  9
$USERI2
 70
     0
  9
$USERI3
 70
     0
  9
$USERI4
 70
     0
  9
$USERI5
 70
     0
  9
$USERR1
 40
0.0
  9
$USERR2
 40
0.0
  9
$USERR3
 40
0.0
  9
$USERR4
 40
0.0
  9
$USERR5
 40
0.0
  9
$WORLDVIEW
 70
     1
  9
$SHADEDGE
 70
     3
  9
$SHADEDIF
 70
    70
  9
$TILEMODE
 70
     1
  9
$MAXACTVP
 70
    16
  9
$PINSBASE
 10
0.0
 20
0.0
 30
0.0
  9
$PLIMCHECK
 70
     0
  9
$PEXTMIN
 10
1.000000000000000E+20
 20
1.000000000000000E+20
 30
1.000000000000000E+20
  9
$PEXTMAX
 10
-1.000000000000000E+20
 20
-1.000000000000000E+20
 30
-1.000000000000000E+20
  9
$PLIMMIN
 10
0.0
 20
0.0
  9
$PLIMMAX
 10
12.0
 20
9.0
  9
$UNITMODE
 70
     0
  9
$VISRETAIN
 70
     0
  9
$PLINEGEN
 70
     0
  9
$PSLTSCALE
 70
     0
  9
$TREEDEPTH
 70
  3020
  9
$CMLSTYLE
  2
Standard
  9
$CMLJUST
 70
     0
  9
$CMLSCALE
 40
1.0
  9
$PROXYGRAPHICS
 70
     1
  9
$MEASUREMENT
 70
     0
  9
$CELWEIGHT
370
    -1
  9
$ENDCAPS
280
     0
  9
$JOINSTYLE
280
     0
  9
$LWDISPLAY
290
     0
  9
$INSUNITS
 70
     0
  9
$HYPERLINKBASE
  1

  9
$STYLESHEET
  1
monochrome 1.ctb
  9
$XEDIT
290
     1
  9
$CEPSNTYPE
380
     0
  9
$PSTYLEMODE
290
     1
  9
$FINGERPRINTGUID
  2
{D68B0D02-A558-11D7-B632-000102183313}
  9
$VERSIONGUID
  2
{E3A5129C-7A54-4028-888B-C572FD5647F7}
  9
$EXTNAMES
290
     1
  9
$PSVPSCALE
 40
0.0
  9
$OLESTARTUP
290
     0
  9
$SORTENTS
280
   127
  9
$INDEXCTL
280
     0
  9
$HIDETEXT
280
     0
  9
$XCLIPFRAME
290
     0
  9
$HALOGAP
280
     0
  9
$OBSCOLOR
 70
   257
  9
$OBSLTYPE
280
     0
  9
$INTERSECTIONDISPLAY
280
     0
  9
$INTERSECTIONCOLOR
 70
   257
  9
$DIMASSOC
280
     1
  9
$PROJECTNAME
  1

  0
ENDSEC
  0
SECTION
  2
CLASSES
  0
CLASS
  1
ACDBDICTIONARYWDFLT
  2
AcDbDictionaryWithDefault
  3
ObjectDBX Classes
 90
        0
 91
        1
280
     0
281
     0
  0
CLASS
  1
DICTIONARYVAR
  2
AcDbDictionaryVar
  3
ObjectDBX Classes
 90
        0
 91
        2
280
     0
281
     0
  0
ENDSEC
  0
SECTION
  2
TABLES
  0
TABLE
  2
VPORT
  5
8
330
0
100
AcDbSymbolTable
 70
     2
  0
VPORT
  5
899
330
8
100
AcDbSymbolTableRecord
100
AcDbViewportTableRecord
  2
*Active
 70
     0
 10
0.0
 20
0.0
 11
1.0
 21
1.0
 12
210.0000029338453
 22
297.0000041492956
 13
0.0
 23
0.0
 14
1.0
 24
1.0
 15
10.0
 25
10.0
 16
0.0
 26
0.0
 36
1.0
 17
0.0
 27
0.0
 37
0.0
 40
598.8150392175905
 41
1.336927223719676
 42
50.0
 43
0.0
 44
0.0
 50
0.0
 51
0.0
 71
     0
 72
  1500
 73
     1
 74
     0
 75
     0
 76
     0
 77
     0
 78
     0
281
     0
 65
     1
110
0.0
120
0.0
130
0.0
111
1.0
121
0.0
131
0.0
112
0.0
122
1.0
132
0.0
 79
     0
146
0.0
  0
ENDTAB
  0
TABLE
  2
LTYPE
  5
5
330
0
100
AcDbSymbolTable
 70
     2
  0
LTYPE
  5
13
330
5
100
AcDbSymbolTableRecord
100
AcDbLinetypeTableRecord
  2
ByBlock
 70
     0
  3

 72
    65
 73
     0
 40
0.0
  0
LTYPE
  5
14
330
5
100
AcDbSymbolTableRecord
100
AcDbLinetypeTableRecord
  2
ByLayer
 70
     0
  3

 72
    65
 73
     0
 40
0.0
  0
LTYPE
  5
15
330
5
100
AcDbSymbolTableRecord
100
AcDbLinetypeTableRecord
  2
Continuous
 70
     0
  3
Solid line
 72
    65
 73
     0
 40
0.0
  0
LTYPE
  5
25
330
5
100
AcDbSymbolTableRecord
100
AcDbLinetypeTableRecord
  2
STRICHPUNKT
 70
     0
  3
__ . __ . __ . __ . __ . __ . __ . __ . __ . __
 72
    65
 73
     4
 40
1.0
 49
0.5
 74
     0
 49
-0.25
 74
     0
 49
0.0
 74
     0
 49
-0.25
 74
     0
  0
ENDTAB
  0
TABLE
  2
LAYER
  5
2
330
0
100
AcDbSymbolTable
 70
     9
  0
LAYER
  5
10
330
2
100
AcDbSymbolTableRecord
100
AcDbLayerTableRecord
  2
0
 70
     0
 62
     7
  6
Continuous
370
    -3
390
F
  0
LAYER
  5
2A
330
2
100
AcDbSymbolTableRecord
100
AcDbLayerTableRecord
  2
VOLL
 70
     0
 62
     1
  6
Continuous
370
    -3
390
F
  0
LAYER
  5
2B
330
2
100
AcDbSymbolTableRecord
100
AcDbLayerTableRecord
  2
HILF
 70
     0
 62
     2
  6
Continuous
370
    -3
390
F
  0
LAYER
  5
2C
330
2
100
AcDbSymbolTableRecord
100
AcDbLayerTableRecord
  2
MITTEL
 70
     0
 62
     2
  6
STRICHPUNKT
370
    -3
390
F
  0
LAYER
  5
2F
330
2
100
AcDbSymbolTableRecord
100
AcDbLayerTableRecord
  2
BEM
 70
     0
 62
     7
  6
Continuous
370
    -3
390
F
  0
LAYER
  5
30
330
2
100
AcDbSymbolTableRecord
100
AcDbLayerTableRecord
  2
STEMPEL
 70
     0
 62
     3
  6
Continuous
370
    -3
390
F
  0
LAYER
  5
31
330
2
100
AcDbSymbolTableRecord
100
AcDbLayerTableRecord
  2
TEXT
 70
     0
 62
     7
  6
Continuous
370
    -3
390
F
  0
LAYER
  5
199
330
2
100
AcDbSymbolTableRecord
100
AcDbLayerTableRecord
  2
DEFPOINTS
 70
     0
 62
     7
  6
Continuous
290
     0
370
    -3
390
F
  0
LAYER
  5
19A
330
2
100
AcDbSymbolTableRecord
100
AcDbLayerTableRecord
  2
SCHRAFF
 70
     0
 62
     7
  6
Continuous
370
    -3
390
F
  0
ENDTAB
  0
TABLE
  2
STYLE
  5
3
330
0
100
AcDbSymbolTable
 70
     2
  0
STYLE
  5
11
330
3
100
AcDbSymbolTableRecord
100
AcDbTextStyleTableRecord
  2
STANDARD
 70
     0
 40
0.0
 41
0.8
 50
0.0
 71
     0
 42
3.5
  3
simplex.shx
  4

  0
STYLE
  5
24
330
3
100
AcDbSymbolTableRecord
100
AcDbTextStyleTableRecord
  2
GREEKS
 70
     0
 40
0.0
 41
0.8
 50
0.0
 71
     0
 42
2.5
  3
SIMPLEX.shx
  4

  0
ENDTAB
  0
TABLE
  2
VIEW
  5
6
330
0
100
AcDbSymbolTable
 70
     0
  0
ENDTAB
  0
TABLE
  2
UCS
  5
7
330
0
100
AcDbSymbolTable
 70
     0
  0
ENDTAB
  0
TABLE
  2
APPID
  5
9
330
0
100
AcDbSymbolTable
 70
     1
  0
APPID
  5
12
330
9
100
AcDbSymbolTableRecord
100
AcDbRegAppTableRecord
  2
ACAD
 70
     0
  0
ENDTAB
  0
TABLE
  2
DIMSTYLE
  5
A
330
0
100
AcDbSymbolTable
 70
     1
100
AcDbDimStyleTable
 71
     1
340
9D
  0
DIMSTYLE
105
9D
102
{ACAD_REACTORS
330
1F0
330
1F2
330
21D
330
38A
330
38C
330
870
102
}
330
A
100
AcDbSymbolTableRecord
100
AcDbDimStyleTableRecord
  2
Standard
 70
     0
340
11
  0
ENDTAB
  0
TABLE
  2
BLOCK_RECORD
  5
1
330
0
100
AcDbSymbolTable
 70
     7
  0
BLOCK_RECORD
  5
1E
102
{ACAD_XDICTIONARY
360
A0
102
}
330
1
100
AcDbSymbolTableRecord
100
AcDbBlockTableRecord
  2
*Model_Space
340
21
  0
BLOCK_RECORD
  5
1A
102
{ACAD_XDICTIONARY
360
A2
102
}
330
1
100
AcDbSymbolTableRecord
100
AcDbBlockTableRecord
  2
*Paper_Space
340
1D
  0
BLOCK_RECORD
  5
22
330
1
100
AcDbSymbolTableRecord
100
AcDbBlockTableRecord
  2
LOGO
340
0
102
{BLKREFS
331
9B
102
}
  0
BLOCK_RECORD
  5
23E
330
1
100
AcDbSymbolTableRecord
100
AcDbBlockTableRecord
  2
*D1
340
0
  0
BLOCK_RECORD
  5
258
330
1
100
AcDbSymbolTableRecord
100
AcDbBlockTableRecord
  2
*D2
340
0
  0
BLOCK_RECORD
  5
27E
330
1
100
AcDbSymbolTableRecord
100
AcDbBlockTableRecord
  2
*D3
340
0
  0
BLOCK_RECORD
  5
3DC
330
1
100
AcDbSymbolTableRecord
100
AcDbBlockTableRecord
  2
*D4
340
0
  0
BLOCK_RECORD
  5
3F6
330
1
100
AcDbSymbolTableRecord
100
AcDbBlockTableRecord
  2
*D5
340
0
  0
BLOCK_RECORD
  5
871
330
1
100
AcDbSymbolTableRecord
100
AcDbBlockTableRecord
  2
*D6
340
0
  0
ENDTAB
  0
ENDSEC
  0
SECTION
  2
BLOCKS
  0
BLOCK
  5
35
330
1E
100
AcDbEntity
  8
0
100
AcDbBlockBegin
  2
*Model_Space
 70
     0
 10
0.0
 20
0.0
 30
0.0
  3
*Model_Space
  1

  0
ENDBLK
  5
36
330
1E
100
AcDbEntity
  8
0
100
AcDbBlockEnd
  0
BLOCK
  5
33
330
1A
100
AcDbEntity
 67
     1
  8
0
100
AcDbBlockBegin
  2
*Paper_Space
 70
     0
 10
0.0
 20
0.0
 30
0.0
  3
*Paper_Space
  1

  0
ENDBLK
  5
34
330
1A
100
AcDbEntity
 67
     1
  8
0
100
AcDbBlockEnd
  0
BLOCK
  5
37
330
22
100
AcDbEntity
  8
0
100
AcDbBlockBegin
  2
LOGO
 70
     0
 10
0.0
 20
0.0
 30
0.0
  3
LOGO
  1

  0
ARC
  5
38
330
22
100
AcDbEntity
  8
0
100
AcDbCircle
 10
11.59973089678112
 20
-9.271599258481501
 30
0.0
 40
4.5
100
AcDbArc
 50
270.0
 51
231.0575587310159
  0
LINE
  5
39
330
22
100
AcDbEntity
  8
0
100
AcDbLine
 10
3.599730896781125
 20
-4.771599258481529
 30
0.0
 11
3.599730896781153
 21
-11.77159925848133
 31
0.0
  0
LINE
  5
3A
330
22
100
AcDbEntity
  8
0
100
AcDbLine
 10
2.599730896781125
 20
-4.771599258481529
 30
0.0
 11
2.599730896781153
 21
-11.77159925848133
 31
0.0
  0
CIRCLE
  5
3B
330
22
100
AcDbEntity
  8
0
100
AcDbCircle
 10
11.59973089678112
 20
-9.271599258481501
 30
0.0
 40
3.5
  0
ARC
  5
3C
330
22
100
AcDbEntity
  8
0
100
AcDbCircle
 10
31.59973089678115
 20
-9.271599258481472
 30
0.0
 40
4.5
100
AcDbArc
 50
270.0
 51
231.0575587310182
  0
LINE
  5
3D
330
22
100
AcDbEntity
  8
0
100
AcDbLine
 10
17.59973089678112
 20
-4.771599258481472
 30
0.0
 11
17.59973089678115
 21
-13.77159925848147
 31
0.0
  0
ARC
  5
3E
330
22
100
AcDbEntity
  8
0
100
AcDbCircle
 10
22.59973089678116
 20
-7.271599258481472
 30
0.0
 40
2.5
100
AcDbArc
 50
293.1161887722295
 51
90.0
  0
CIRCLE
  5
3F
330
22
100
AcDbEntity
  8
0
100
AcDbCircle
 10
31.59973089678115
 20
-9.271599258481472
 30
0.0
 40
3.5
  0
ARC
  5
40
330
22
100
AcDbEntity
  8
0
100
AcDbCircle
 10
4.599730896781153
 20
-11.77159925848133
 30
0.0
 40
1.0
100
AcDbArc
 50
180.0
 51
270.0
  0
ARC
  5
41
330
22
100
AcDbEntity
  8
0
100
AcDbCircle
 10
4.599730896781153
 20
-11.77159925848133
 30
0.0
 40
2.0
100
AcDbArc
 50
179.9999999999992
 51
270.0
  0
LINE
  5
42
330
22
100
AcDbEntity
  8
0
100
AcDbLine
 10
11.59973089678115
 20
-13.77159925848144
 30
0.0
 11
4.599730896781153
 21
-13.77159925848147
 31
0.0
  0
LINE
  5
43
330
22
100
AcDbEntity
  8
0
100
AcDbLine
 10
8.771303772034769
 20
-12.77159925848136
 30
0.0
 11
4.599730896781153
 21
-12.77159925848133
 31
0.0
  0
LINE
  5
44
330
22
100
AcDbEntity
  8
0
100
AcDbLine
 10
31.59973089678115
 20
-13.77159925848147
 30
0.0
 11
23.6715276665056
 21
-13.77159925848144
 31
0.0
  0
LINE
  5
45
330
22
100
AcDbEntity
  8
0
100
AcDbLine
 10
23.56565672307022
 20
-9.51278021337896
 30
0.0
 11
24.4388546544846
 21
-12.77159925848144
 31
0.0
  0
LINE
  5
46
330
22
100
AcDbEntity
  8
0
100
AcDbLine
 10
22.59973089678116
 20
-9.771599258481472
 30
0.0
 11
18.59973089678112
 21
-9.771599258481472
 31
0.0
  0
LINE
  5
47
330
22
100
AcDbEntity
  8
0
100
AcDbLine
 10
18.59973089678115
 20
-13.77159925848144
 30
0.0
 11
17.59973089678115
 21
-13.77159925848144
 31
0.0
  0
LINE
  5
48
330
22
100
AcDbEntity
  8
0
100
AcDbLine
 10
18.59973089678115
 20
-9.771599258481472
 30
0.0
 11
18.59973089678115
 21
-13.77159925848144
 31
0.0
  0
LINE
  5
49
330
22
100
AcDbEntity
  8
0
100
AcDbLine
 10
22.59973089678116
 20
-9.771599258481472
 30
0.0
 11
23.67152766650562
 21
-13.77159925848147
 31
0.0
  0
ARC
  5
4A
330
22
100
AcDbEntity
  8
0
100
AcDbCircle
 10
22.59973089678116
 20
-7.271599258481472
 30
0.0
 40
2.5
100
AcDbArc
 50
270.0
 51
270.0000000000007
  0
LINE
  5
4B
330
22
100
AcDbEntity
  8
0
100
AcDbLine
 10
28.77130377203494
 20
-12.77159925848147
 30
0.0
 11
24.43885465448463
 21
-12.77159925848144
 31
0.0
  0
LINE
  5
4C
330
22
100
AcDbEntity
  8
0
100
AcDbLine
 10
3.599730896781125
 20
-4.771599258481472
 30
0.0
 11
2.599730896781125
 21
-4.771599258481472
 31
0.0
  0
LINE
  5
4D
330
22
100
AcDbEntity
  8
0
100
AcDbLine
 10
22.59973089678116
 20
-8.771599258481472
 30
0.0
 11
18.59973089678115
 21
-8.771599258481472
 31
0.0
  0
LINE
  5
4E
330
22
100
AcDbEntity
  8
0
100
AcDbLine
 10
22.59973089678116
 20
-5.771599258481472
 30
0.0
 11
18.59973089678115
 21
-5.771599258481472
 31
0.0
  0
LINE
  5
4F
330
22
100
AcDbEntity
  8
0
100
AcDbLine
 10
22.59973089678116
 20
-4.771599258481472
 30
0.0
 11
17.59973089678115
 21
-4.771599258481472
 31
0.0
  0
LINE
  5
50
330
22
100
AcDbEntity
  8
0
100
AcDbLine
 10
18.59973089678115
 20
-5.771599258481472
 30
0.0
 11
18.59973089678115
 21
-8.771599258481472
 31
0.0
  0
ARC
  5
51
330
22
100
AcDbEntity
  8
0
100
AcDbCircle
 10
22.59973089678116
 20
-7.271599258481472
 30
0.0
 40
1.5
100
AcDbArc
 50
270.0
 51
90.0
  0
ENDBLK
  5
52
330
22
100
AcDbEntity
  8
0
100
AcDbBlockEnd
  0
BLOCK
  5
248
330
23E
100
AcDbEntity
  8
0
100
AcDbBlockBegin
  2
*D1
 70
     1
 10
0.0
 20
0.0
 30
0.0
  3
*D1
  1

  0
LINE
  5
754
330
23E
100
AcDbEntity
  8
BEM
 62
     0
370
    -2
100
AcDbLine
 10
198.500000000008
 20
209.2465007751989
 30
0.0
 11
198.500000000008
 21
184.0253980824491
 31
0.0
  0
LINE
  5
755
330
23E
100
AcDbEntity
  8
BEM
 62
     0
370
    -2
100
AcDbLine
 10
251.5
 20
209.2465007752863
 30
0.0
 11
251.5
 21
184.0253980824491
 31
0.0
  0
LINE
  5
756
330
23E
100
AcDbEntity
  8
BEM
 62
     0
370
    -2
100
AcDbLine
 10
205.500000000008
 20
186.0253980824491
 30
0.0
 11
244.4999999999999
 21
186.0253980824491
 31
0.0
  0
SOLID
  5
757
330
23E
100
AcDbEntity
  8
BEM
 62
     0
100
AcDbTrace
 10
205.500000000008
 20
187.1920647491157
 30
0.0
 11
205.500000000008
 21
184.8587314157824
 31
0.0
 12
198.500000000008
 22
186.0253980824491
 32
0.0
 13
198.500000000008
 23
186.0253980824491
 33
0.0
  0
SOLID
  5
758
330
23E
100
AcDbEntity
  8
BEM
 62
     0
100
AcDbTrace
 10
244.4999999999999
 20
187.1920647491157
 30
0.0
 11
244.4999999999999
 21
184.8587314157824
 31
0.0
 12
251.5
 22
186.0253980824491
 32
0.0
 13
251.5
 23
186.0253980824491
 33
0.0
  0
MTEXT
  5
759
330
23E
100
AcDbEntity
  8
BEM
 62
     1
100
AcDbMText
 10
225.000000000004
 20
192.5253980824491
 30
0.0
 40
7.0
 41
0.0
 71
     5
 72
     1
  1
\A1;%%c53
  7
GREEKS
 73
     1
 44
1.0
  0
POINT
  5
75A
330
23E
100
AcDbEntity
  8
DEFPOINTS
 62
     0
100
AcDbPoint
 10
198.500000000008
 20
211.2465007751989
 30
0.0
  0
POINT
  5
75B
330
23E
100
AcDbEntity
  8
DEFPOINTS
 62
     0
100
AcDbPoint
 10
251.5
 20
211.2465007752863
 30
0.0
  0
POINT
  5
75C
330
23E
100
AcDbEntity
  8
DEFPOINTS
 62
     0
100
AcDbPoint
 10
251.5
 20
186.0253980824491
 30
0.0
  0
ENDBLK
  5
249
330
23E
100
AcDbEntity
  8
0
100
AcDbBlockEnd
  0
BLOCK
  5
262
330
258
100
AcDbEntity
  8
0
100
AcDbBlockBegin
  2
*D2
 70
     1
 10
0.0
 20
0.0
 30
0.0
  3
*D2
  1

  0
LINE
  5
855
330
258
100
AcDbEntity
  8
BEM
 62
     0
370
    -2
100
AcDbLine
 10
180.4999999999999
 20
496.3119921896548
 30
0.0
 11
180.4999999999999
 21
508.191104805634
 31
0.0
  0
LINE
  5
856
330
258
100
AcDbEntity
  8
BEM
 62
     0
370
    -2
100
AcDbLine
 10
269.4999999999998
 20
496.3119921896545
 30
0.0
 11
269.4999999999998
 21
508.191104805634
 31
0.0
  0
LINE
  5
857
330
258
100
AcDbEntity
  8
BEM
 62
     0
370
    -2
100
AcDbLine
 10
187.4999999999999
 20
506.191104805634
 30
0.0
 11
262.4999999999998
 21
506.191104805634
 31
0.0
  0
SOLID
  5
858
330
258
100
AcDbEntity
  8
BEM
 62
     0
100
AcDbTrace
 10
187.4999999999999
 20
507.3577714723007
 30
0.0
 11
187.4999999999999
 21
505.0244381389673
 31
0.0
 12
180.4999999999999
 22
506.191104805634
 32
0.0
 13
180.4999999999999
 23
506.191104805634
 33
0.0
  0
SOLID
  5
859
330
258
100
AcDbEntity
  8
BEM
 62
     0
100
AcDbTrace
 10
262.4999999999998
 20
507.3577714723007
 30
0.0
 11
262.4999999999998
 21
505.0244381389673
 31
0.0
 12
269.4999999999998
 22
506.191104805634
 32
0.0
 13
269.4999999999998
 23
506.191104805634
 33
0.0
  0
MTEXT
  5
85A
330
258
100
AcDbEntity
  8
BEM
 62
     1
100
AcDbMText
 10
224.9999999999999
 20
512.691104805634
 30
0.0
 40
7.0
 41
0.0
 71
     5
 72
     1
  1
\A1;%%c89
  7
GREEKS
 73
     1
 44
1.0
  0
POINT
  5
85B
330
258
100
AcDbEntity
  8
DEFPOINTS
 62
     0
100
AcDbPoint
 10
180.4999999999999
 20
494.3119921896548
 30
0.0
  0
POINT
  5
85C
330
258
100
AcDbEntity
  8
DEFPOINTS
 62
     0
100
AcDbPoint
 10
269.4999999999998
 20
494.3119921896546
 30
0.0
  0
POINT
  5
85D
330
258
100
AcDbEntity
  8
DEFPOINTS
 62
     0
100
AcDbPoint
 10
269.4999999999998
 20
506.191104805634
 30
0.0
  0
ENDBLK
  5
263
330
258
100
AcDbEntity
  8
0
100
AcDbBlockEnd
  0
BLOCK
  5
288
330
27E
100
AcDbEntity
  8
0
100
AcDbBlockBegin
  2
*D3
 70
     1
 10
0.0
 20
0.0
 30
0.0
  3
*D3
  1

  0
LINE
  5
886
330
27E
100
AcDbEntity
  8
BEM
 62
     0
370
    -2
100
AcDbLine
 10
178.5
 20
494.3119921896545
 30
0.0
 11
144.5621602712833
 21
494.3119921896545
 31
0.0
  0
LINE
  5
887
330
27E
100
AcDbEntity
  8
BEM
 62
     0
370
    -2
100
AcDbLine
 10
196.9317135613146
 20
206.3119921896547
 30
0.0
 11
144.5621602712832
 21
206.3119921896548
 31
0.0
  0
LINE
  5
888
330
27E
100
AcDbEntity
  8
BEM
 62
     0
370
    -2
100
AcDbLine
 10
146.5621602712833
 20
487.3119921896544
 30
0.0
 11
146.5621602712832
 21
213.3119921896548
 31
0.0
  0
SOLID
  5
889
330
27E
100
AcDbEntity
  8
BEM
 62
     0
100
AcDbTrace
 10
145.3954936046166
 20
487.3119921896544
 30
0.0
 11
147.7288269379499
 21
487.3119921896544
 31
0.0
 12
146.5621602712833
 22
494.3119921896545
 32
0.0
 13
146.5621602712833
 23
494.3119921896545
 33
0.0
  0
SOLID
  5
88A
330
27E
100
AcDbEntity
  8
BEM
 62
     0
100
AcDbTrace
 10
145.3954936046166
 20
213.3119921896548
 30
0.0
 11
147.7288269379499
 21
213.3119921896548
 31
0.0
 12
146.5621602712832
 22
206.3119921896548
 32
0.0
 13
146.5621602712832
 23
206.3119921896548
 33
0.0
  0
MTEXT
  5
88B
330
27E
100
AcDbEntity
  8
BEM
 62
     1
100
AcDbMText
 10
140.0621602712832
 20
350.3119921896547
 30
0.0
 40
7.0
 41
0.0
 71
     5
 72
     1
  1
\A1;1538
  7
GREEKS
 11
0.0000000000000001
 21
1.0
 31
0.0
 73
     1
 44
1.0
  0
POINT
  5
88C
330
27E
100
AcDbEntity
  8
DEFPOINTS
 62
     0
100
AcDbPoint
 10
180.5
 20
494.3119921896545
 30
0.0
  0
POINT
  5
88D
330
27E
100
AcDbEntity
  8
DEFPOINTS
 62
     0
100
AcDbPoint
 10
198.9317135613146
 20
206.3119921896547
 30
0.0
  0
POINT
  5
88E
330
27E
100
AcDbEntity
  8
DEFPOINTS
 62
     0
100
AcDbPoint
 10
146.5621602712832
 20
206.3119921896548
 30
0.0
  0
ENDBLK
  5
289
330
27E
100
AcDbEntity
  8
0
100
AcDbBlockEnd
  0
BLOCK
  5
3E6
330
3DC
100
AcDbEntity
  8
0
100
AcDbBlockBegin
  2
*D4
 70
     1
 10
0.0
 20
0.0
 30
0.0
  3
*D4
  1

  0
LINE
  5
72E
330
3DC
100
AcDbEntity
  8
BEM
 62
     0
370
    -2
100
AcDbLine
 10
198.500000000008
 20
209.2465007751989
 30
0.0
 11
198.500000000008
 21
184.0253980824491
 31
0.0
  0
LINE
  5
72F
330
3DC
100
AcDbEntity
  8
BEM
 62
     0
370
    -2
100
AcDbLine
 10
251.5
 20
209.2465007752863
 30
0.0
 11
251.5
 21
184.0253980824491
 31
0.0
  0
LINE
  5
730
330
3DC
100
AcDbEntity
  8
BEM
 62
     0
370
    -2
100
AcDbLine
 10
205.500000000008
 20
186.0253980824491
 30
0.0
 11
244.4999999999999
 21
186.0253980824491
 31
0.0
  0
SOLID
  5
731
330
3DC
100
AcDbEntity
  8
BEM
 62
     0
100
AcDbTrace
 10
205.500000000008
 20
187.1920647491157
 30
0.0
 11
205.500000000008
 21
184.8587314157824
 31
0.0
 12
198.500000000008
 22
186.0253980824491
 32
0.0
 13
198.500000000008
 23
186.0253980824491
 33
0.0
  0
SOLID
  5
732
330
3DC
100
AcDbEntity
  8
BEM
 62
     0
100
AcDbTrace
 10
244.4999999999999
 20
187.1920647491157
 30
0.0
 11
244.4999999999999
 21
184.8587314157824
 31
0.0
 12
251.5
 22
186.0253980824491
 32
0.0
 13
251.5
 23
186.0253980824491
 33
0.0
  0
MTEXT
  5
733
330
3DC
100
AcDbEntity
  8
BEM
 62
     1
100
AcDbMText
 10
225.000000000004
 20
192.5253980824491
 30
0.0
 40
7.0
 41
0.0
 71
     5
 72
     1
  1
\A1;%%c53
  7
GREEKS
 73
     1
 44
1.0
  0
POINT
  5
734
330
3DC
100
AcDbEntity
  8
DEFPOINTS
 62
     0
100
AcDbPoint
 10
198.500000000008
 20
211.2465007751989
 30
0.0
  0
POINT
  5
735
330
3DC
100
AcDbEntity
  8
DEFPOINTS
 62
     0
100
AcDbPoint
 10
251.5
 20
211.2465007752863
 30
0.0
  0
POINT
  5
736
330
3DC
100
AcDbEntity
  8
DEFPOINTS
 62
     0
100
AcDbPoint
 10
251.5
 20
186.0253980824491
 30
0.0
  0
ENDBLK
  5
3E7
330
3DC
100
AcDbEntity
  8
0
100
AcDbBlockEnd
  0
BLOCK
  5
400
330
3F6
100
AcDbEntity
  8
0
100
AcDbBlockBegin
  2
*D5
 70
     1
 10
0.0
 20
0.0
 30
0.0
  3
*D5
  1

  0
LINE
  5
84C
330
3F6
100
AcDbEntity
  8
BEM
 62
     0
370
    -2
100
AcDbLine
 10
180.4999999999999
 20
496.3119921896548
 30
0.0
 11
180.4999999999999
 21
508.191104805634
 31
0.0
  0
LINE
  5
84D
330
3F6
100
AcDbEntity
  8
BEM
 62
     0
370
    -2
100
AcDbLine
 10
269.4999999999998
 20
496.3119921896545
 30
0.0
 11
269.4999999999998
 21
508.191104805634
 31
0.0
  0
LINE
  5
84E
330
3F6
100
AcDbEntity
  8
BEM
 62
     0
370
    -2
100
AcDbLine
 10
187.4999999999999
 20
506.191104805634
 30
0.0
 11
262.4999999999998
 21
506.191104805634
 31
0.0
  0
SOLID
  5
84F
330
3F6
100
AcDbEntity
  8
BEM
 62
     0
100
AcDbTrace
 10
187.4999999999999
 20
507.3577714723007
 30
0.0
 11
187.4999999999999
 21
505.0244381389673
 31
0.0
 12
180.4999999999999
 22
506.191104805634
 32
0.0
 13
180.4999999999999
 23
506.191104805634
 33
0.0
  0
SOLID
  5
850
330
3F6
100
AcDbEntity
  8
BEM
 62
     0
100
AcDbTrace
 10
262.4999999999998
 20
507.3577714723007
 30
0.0
 11
262.4999999999998
 21
505.0244381389673
 31
0.0
 12
269.4999999999998
 22
506.191104805634
 32
0.0
 13
269.4999999999998
 23
506.191104805634
 33
0.0
  0
MTEXT
  5
851
330
3F6
100
AcDbEntity
  8
BEM
 62
     1
100
AcDbMText
 10
224.9999999999999
 20
512.691104805634
 30
0.0
 40
7.0
 41
0.0
 71
     5
 72
     1
  1
\A1;%%c89
  7
GREEKS
 73
     1
 44
1.0
  0
POINT
  5
852
330
3F6
100
AcDbEntity
  8
DEFPOINTS
 62
     0
100
AcDbPoint
 10
180.4999999999999
 20
494.3119921896548
 30
0.0
  0
POINT
  5
853
330
3F6
100
AcDbEntity
  8
DEFPOINTS
 62
     0
100
AcDbPoint
 10
269.4999999999998
 20
494.3119921896546
 30
0.0
  0
POINT
  5
854
330
3F6
100
AcDbEntity
  8
DEFPOINTS
 62
     0
100
AcDbPoint
 10
269.4999999999998
 20
506.191104805634
 30
0.0
  0
ENDBLK
  5
401
330
3F6
100
AcDbEntity
  8
0
100
AcDbBlockEnd
  0
BLOCK
  5
87B
330
871
100
AcDbEntity
  8
0
100
AcDbBlockBegin
  2
*D6
 70
     1
 10
0.0
 20
0.0
 30
0.0
  3
*D6
  1

  0
LINE
  5
87D
330
871
100
AcDbEntity
  8
BEM
 62
     0
370
    -2
100
AcDbLine
 10
196.9317135613146
 20
206.3119921896547
 30
0.0
 11
162.4441114457881
 21
206.3119921896548
 31
0.0
  0
LINE
  5
87E
330
871
100
AcDbEntity
  8
BEM
 62
     0
370
    -2
100
AcDbLine
 10
178.5000000000002
 20
236.3119921896549
 30
0.0
 11
162.4441114457881
 21
236.3119921896549
 31
0.0
  0
LINE
  5
87F
330
871
100
AcDbEntity
  8
BEM
 62
     0
370
    -2
100
AcDbLine
 10
164.4441114457881
 20
213.3119921896548
 30
0.0
 11
164.4441114457881
 21
229.3119921896549
 31
0.0
  0
SOLID
  5
880
330
871
100
AcDbEntity
  8
BEM
 62
     0
100
AcDbTrace
 10
163.2774447791215
 20
213.3119921896548
 30
0.0
 11
165.6107781124548
 21
213.3119921896548
 31
0.0
 12
164.4441114457881
 22
206.3119921896548
 32
0.0
 13
164.4441114457881
 23
206.3119921896548
 33
0.0
  0
SOLID
  5
881
330
871
100
AcDbEntity
  8
BEM
 62
     0
100
AcDbTrace
 10
163.2774447791215
 20
229.3119921896549
 30
0.0
 11
165.6107781124548
 21
229.3119921896549
 31
0.0
 12
164.4441114457881
 22
236.3119921896549
 32
0.0
 13
164.4441114457881
 23
236.3119921896549
 33
0.0
  0
MTEXT
  5
882
330
871
100
AcDbEntity
  8
BEM
 62
     1
100
AcDbMText
 10
157.9441114457881
 20
221.3119921896549
 30
0.0
 40
7.0
 41
0.0
 71
     5
 72
     1
  1
\A1;30
 11
0.0000000000000001
 21
1.0
 31
0.0
 73
     1
 44
1.0
  0
POINT
  5
883
330
871
100
AcDbEntity
  8
DEFPOINTS
 62
     0
100
AcDbPoint
 10
198.9317135613146
 20
206.3119921896547
 30
0.0
  0
POINT
  5
884
330
871
100
AcDbEntity
  8
DEFPOINTS
 62
     0
100
AcDbPoint
 10
180.5000000000003
 20
236.3119921896549
 30
0.0
  0
POINT
  5
885
330
871
100
AcDbEntity
  8
DEFPOINTS
 62
     0
100
AcDbPoint
 10
164.4441114457881
 20
236.3119921896549
 30
0.0
  0
ENDBLK
  5
87C
330
871
100
AcDbEntity
  8
0
100
AcDbBlockEnd
  0
ENDSEC
  0
SECTION
  2
ENTITIES
  0
LINE
  5
57
330
1E
100
AcDbEntity
  8
STEMPEL
100
AcDbLine
 10
410.0
 20
110.0
 30
0.0
 11
39.99999999999997
 21
110.0
 31
0.0
  0
LINE
  5
58
330
1E
100
AcDbEntity
  8
STEMPEL
100
AcDbLine
 10
136.0000000000001
 20
109.9999999999999
 30
0.0
 11
136.0
 21
9.999999999999971
 31
0.0
  0
LINE
  5
59
330
1E
100
AcDbEntity
  8
STEMPEL
100
AcDbLine
 10
220.0
 20
110.0
 30
0.0
 11
220.0
 21
9.999999999999971
 31
0.0
  0
LINE
  5
5A
330
1E
100
AcDbEntity
  8
STEMPEL
100
AcDbLine
 10
332.0
 20
109.9999999999997
 30
0.0
 11
332.0
 21
40.0
 31
0.0
  0
LINE
  5
5B
330
1E
100
AcDbEntity
  8
STEMPEL
100
AcDbLine
 10
135.9999999999999
 20
29.99999999999997
 30
0.0
 11
39.99999999999997
 21
29.99999999999997
 31
0.0
  0
LINE
  5
5C
330
1E
100
AcDbEntity
  8
STEMPEL
100
AcDbLine
 10
410.0
 20
40.0
 30
0.0
 11
136.0000000000001
 21
39.99999999999997
 31
0.0
  0
LINE
  5
5D
330
1E
100
AcDbEntity
  8
STEMPEL
100
AcDbLine
 10
410.0
 20
80.0
 30
0.0
 11
136.0000000000001
 21
79.99999999999994
 31
0.0
  0
LINE
  5
5E
330
1E
100
AcDbEntity
  8
VOLL
100
AcDbLine
 10
54.00000000000009
 20
110.0
 30
0.0
 11
53.99999999999997
 21
9.999999999999971
 31
0.0
  0
LINE
  5
5F
330
1E
100
AcDbEntity
  8
VOLL
100
AcDbLine
 10
94.00000000000011
 20
109.9999999999999
 30
0.0
 11
94.0
 21
9.999999999999971
 31
0.0
  0
LINE
  5
60
330
1E
100
AcDbEntity
  8
VOLL
100
AcDbLine
 10
114.0000000000001
 20
109.9999999999999
 30
0.0
 11
114.0
 21
9.999999999999971
 31
0.0
  0
LINE
  5
61
330
1E
100
AcDbEntity
  8
VOLL
100
AcDbLine
 10
154.0000000000001
 20
79.99999999999994
 30
0.0
 11
154.0000000000001
 21
39.99999999999997
 31
0.0
  0
LINE
  5
62
330
1E
100
AcDbEntity
  8
VOLL
100
AcDbLine
 10
180.0000000000001
 20
109.9999999999998
 30
0.0
 11
180.0
 21
39.99999999999997
 31
0.0
  0
LINE
  5
63
330
1E
100
AcDbEntity
  8
HILF
100
AcDbLine
 10
40.00000000000008
 20
100.0
 30
0.0
 11
136.0000000000001
 21
100.0
 31
0.0
  0
LINE
  5
64
330
1E
100
AcDbEntity
  8
HILF
100
AcDbLine
 10
40.00000000000008
 20
90.00000000000005
 30
0.0
 11
136.0000000000001
 21
90.00000000000005
 31
0.0
  0
LINE
  5
65
330
1E
100
AcDbEntity
  8
HILF
100
AcDbLine
 10
40.00000000000008
 20
79.99999999999994
 30
0.0
 11
136.0000000000001
 21
79.99999999999994
 31
0.0
  0
LINE
  5
66
330
1E
100
AcDbEntity
  8
HILF
100
AcDbLine
 10
40.00000000000008
 20
69.99999999999994
 30
0.0
 11
136.0000000000001
 21
69.99999999999994
 31
0.0
  0
LINE
  5
67
330
1E
100
AcDbEntity
  8
HILF
100
AcDbLine
 10
40.00000000000008
 20
59.99999999999997
 30
0.0
 11
136.0000000000001
 21
59.99999999999997
 31
0.0
  0
LINE
  5
68
330
1E
100
AcDbEntity
  8
HILF
100
AcDbLine
 10
40.00000000000008
 20
49.99999999999997
 30
0.0
 11
136.0000000000001
 21
49.99999999999997
 31
0.0
  0
LINE
  5
69
330
1E
100
AcDbEntity
  8
HILF
100
AcDbLine
 10
40.00000000000008
 20
39.99999999999997
 30
0.0
 11
136.0000000000001
 21
39.99999999999997
 31
0.0
  0
LINE
  5
6A
330
1E
100
AcDbEntity
  8
HILF
100
AcDbLine
 10
136.0000000000001
 20
69.99999999999994
 30
0.0
 11
220.0
 21
69.99999999999994
 31
0.0
  0
LINE
  5
6B
330
1E
100
AcDbEntity
  8
HILF
100
AcDbLine
 10
136.0000000000001
 20
59.99999999999997
 30
0.0
 11
220.0
 21
59.99999999999997
 31
0.0
  0
LINE
  5
6C
330
1E
100
AcDbEntity
  8
HILF
100
AcDbLine
 10
136.0000000000001
 20
49.99999999999997
 30
0.0
 11
220.0
 21
49.99999999999997
 31
0.0
  0
LINE
  5
6D
330
1E
100
AcDbEntity
  8
HILF
100
AcDbLine
 10
224.7736801096948
 20
84.03758247564139
 30
0.0
 11
324.8353916556311
 21
84.03758247564139
 31
0.0
  0
LINE
  5
6E
330
1E
100
AcDbEntity
  8
HILF
100
AcDbLine
 10
224.7736801096948
 20
69.99999999999994
 30
0.0
 11
324.835391655631
 21
69.99999999999994
 31
0.0
  0
LINE
  5
6F
330
1E
100
AcDbEntity
  8
HILF
100
AcDbLine
 10
224.7736801096948
 20
59.99999999999997
 30
0.0
 11
324.835391655631
 21
59.99999999999997
 31
0.0
  0
LINE
  5
70
330
1E
100
AcDbEntity
  8
HILF
100
AcDbLine
 10
224.7736801096948
 20
49.99999999999997
 30
0.0
 11
324.835391655631
 21
49.99999999999997
 31
0.0
  0
LINE
  5
71
330
1E
100
AcDbEntity
  8
VOLL
100
AcDbLine
 10
332.0
 20
60.0
 30
0.0
 11
410.0
 21
60.0
 31
0.0
  0
LINE
  5
72
330
1E
100
AcDbEntity
  8
HILF
100
AcDbLine
 10
336.7238616296993
 20
83.77983636955827
 30
0.0
 11
404.8588839326728
 21
83.77983636955827
 31
0.0
  0
LINE
  5
73
330
1E
100
AcDbEntity
  8
HILF
100
AcDbLine
 10
223.4909699289885
 20
14.89398258028314
 30
0.0
 11
404.8588839326728
 21
14.89398258028314
 31
0.0
  0
TEXT
  5
74
330
1E
100
AcDbEntity
  8
TEXT
100
AcDbText
 10
63.86165979631819
 20
18.67381894984132
 30
0.0
 40
4.0
  1
Änderung
 41
0.8
  7
GREEKS
 72
     1
 11
74.60451693917534
 21
18.67381894984132
 31
0.0
100
AcDbText
  0
TEXT
  5
75
330
1E
100
AcDbEntity
  8
TEXT
100
AcDbText
 10
143.5163572150377
 20
102.4620895087088
 30
0.0
 40
5.0
  1
Maßstab
 41
0.8
  7
GREEKS
100
AcDbText
  0
TEXT
  5
76
330
1E
100
AcDbEntity
  8
TEXT
100
AcDbText
 10
184.2858954734051
 20
102.4184168434819
 30
0.0
 40
5.0
  1
Zul. Abw.
 41
0.8
  7
GREEKS
100
AcDbText
  0
TEXT
  5
77
330
1E
100
AcDbEntity
  8
TEXT
100
AcDbText
 10
224.877940380901
 20
102.5489328011779
 30
0.0
 40
5.0
  1
Benennung
 41
0.8
  7
GREEKS
100
AcDbText
  0
TEXT
  5
78
330
1E
100
AcDbEntity
  8
TEXT
100
AcDbText
 10
336.178754957634
 20
102.3132034537136
 30
0.0
 40
5.0
  1
Zeichnungs Nr.
 41
0.8
  7
GREEKS
100
AcDbText
  0
TEXT
  5
79
330
1E
100
AcDbEntity
  8
TEXT
100
AcDbText
 10
224.742238391136
 20
30.84560570193057
 30
0.0
 40
5.0
  1
Bauvorhaben
 41
0.8
  7
GREEKS
100
AcDbText
  0
TEXT
  5
7A
330
1E
100
AcDbEntity
  8
TEXT
100
AcDbText
 10
336.7238616296993
 20
73.1811823709997
 30
0.0
 40
5.0
  1
Ersatz für:
 41
0.8
  7
GREEKS
100
AcDbText
  0
TEXT
  5
7B
330
1E
100
AcDbEntity
  8
TEXT
100
AcDbText
 10
48.26641107045756
 20
13.65465846027192
 30
0.0
 40
4.0
  1
Index
 50
90.0
 41
0.8
  7
GREEKS
100
AcDbText
  0
TEXT
  5
7C
330
1E
100
AcDbEntity
  8
TEXT
100
AcDbText
 10
100.0934676075481
 20
18.6715626933981
 30
0.0
 40
4.0
  1
Tag
 41
0.8
  7
GREEKS
 72
     1
 11
103.8268009408814
 21
18.6715626933981
 31
0.0
100
AcDbText
  0
TEXT
  5
7D
330
1E
100
AcDbEntity
  8
TEXT
100
AcDbText
 10
119.0122744386592
 20
18.59324216966408
 30
0.0
 40
4.0
  1
Name
 41
0.8
  7
GREEKS
 72
     1
 11
125.3360839624688
 21
18.59324216966408
 31
0.0
100
AcDbText
  0
TEXT
  5
7E
330
1E
100
AcDbEntity
  8
TEXT
100
AcDbText
 10
162.3311673153651
 20
73.31880501229926
 30
0.0
 40
4.0
  1
Tag
 41
0.8
  7
GREEKS
100
AcDbText
  0
TEXT
  5
7F
330
1E
100
AcDbEntity
  8
TEXT
100
AcDbText
 10
192.4626584226295
 20
73.30961091915225
 30
0.0
 40
4.0
  1
Name
 41
0.8
  7
GREEKS
100
AcDbText
  0
TEXT
  5
80
330
1E
100
AcDbEntity
  8
TEXT
100
AcDbText
 10
137.5836127167615
 20
63.62990369617964
 30
0.0
 40
4.0
  1
Gez.
 41
0.8
  7
GREEKS
100
AcDbText
  0
TEXT
  5
81
330
1E
100
AcDbEntity
  8
TEXT
100
AcDbText
 10
137.5515086571672
 20
53.68926291428377
 30
0.0
 40
4.0
  1
Gepr.
 41
0.8
  7
GREEKS
100
AcDbText
  0
TEXT
  5
82
330
1E
100
AcDbEntity
  8
TEXT
100
AcDbText
 10
137.6006777387304
 20
43.52946389649807
 30
0.0
 40
4.0
  1
Norm.
 41
0.8
  7
GREEKS
100
AcDbText
  0
LINE
  5
83
330
1E
100
AcDbEntity
  8
STEMPEL
100
AcDbLine
 10
49.99999999999989
 20
10.0
 30
0.0
 11
410.0
 21
10.0
 31
0.0
  0
TEXT
  5
84
330
1E
100
AcDbEntity
  8
TEXT
100
AcDbText
 10
337.2400861497006
 20
52.07416177878602
 30
0.0
 40
5.0
  1
ersetzt durch:
 41
0.8
  7
GREEKS
100
AcDbText
  0
LINE
  5
85
330
1E
100
AcDbEntity
  8
STEMPEL
100
AcDbLine
 10
410.0
 20
10.0
 30
0.0
 11
39.99999999999989
 21
10.0
 31
0.0
  0
LINE
  5
86
330
1E
100
AcDbEntity
  8
STEMPEL
100
AcDbLine
 10
410.0
 20
10.0
 30
0.0
 11
410.0
 21
584.0
 31
0.0
  0
LINE
  5
87
330
1E
100
AcDbEntity
  8
STEMPEL
100
AcDbLine
 10
40.0
 20
10.0
 30
0.0
 11
39.99999999999989
 21
584.0
 31
0.0
  0
LINE
  5
88
330
1E
100
AcDbEntity
  8
STEMPEL
100
AcDbLine
 10
410.0
 20
584.0
 30
0.0
 11
39.99999999999989
 21
584.0
 31
0.0
  0
LINE
  5
89
330
1E
100
AcDbEntity
  8
HILF
100
AcDbLine
 10
0.0
 20
0.0
 30
0.0
 11
-0.0000000000001137
 21
594.0
 31
0.0
  0
LINE
  5
8A
330
1E
100
AcDbEntity
  8
HILF
100
AcDbLine
 10
419.9999999999999
 20
594.0000000000002
 30
0.0
 11
0.0
 21
594.0
 31
0.0
  0
LINE
  5
8B
330
1E
100
AcDbEntity
  8
HILF
100
AcDbLine
 10
420.0
 20
0.0
 30
0.0
 11
0.0
 21
0.0
 31
0.0
  0
LINE
  5
8C
330
1E
100
AcDbEntity
  8
HILF
100
AcDbLine
 10
31.08767135713856
 20
297.0
 30
0.0
 11
0.0000000000001137
 21
297.0
 31
0.0
  0
TEXT
  5
8D
330
1E
100
AcDbEntity
  8
TEXT
100
AcDbText
 10
138.622109822104
 20
73.14025471151666
 30
0.0
 40
4.0
  1
2007
 41
0.8
  7
GREEKS
100
AcDbText
  0
LINE
  5
8E
330
1E
100
AcDbEntity
  8
HILF
100
AcDbLine
 10
420.0
 20
-0.0000000000001137
 30
0.0
 11
419.9999999999999
 21
594.0
 31
0.0
  0
TEXT
  5
8F
330
1E
100
AcDbEntity
  8
VOLL
100
AcDbText
 10
78.07675471698113
 20
31.02594776470585
 30
0.0
 40
1.8
  1

  7
GREEKS
100
AcDbText
  0
TEXT
  5
90
330
1E
100
AcDbEntity
  8
TEXT
100
AcDbText
 10
41.85509950977674
 20
111.6719999999999
 30
0.0
 40
5.0
  1
Erstellt mit AUTOCAD 2004
 41
0.8
  7
GREEKS
100
AcDbText
  0
TEXT
  5
91
330
1E
100
AcDbEntity
  8
TEXT
100
AcDbText
 10
194.4216048581257
 20
63.0896391972351
 30
0.0
 40
4.0
  1
Koeh
 41
0.8
  7
GREEKS
 72
     1
 11
199.6787477152685
 21
63.0896391972351
 31
0.0
100
AcDbText
  0
TEXT
  5
92
330
1E
100
AcDbEntity
  8
TEXT
 62
     1
100
AcDbText
 10
346.6730794123524
 20
88.14901428913959
 30
0.0
 40
7.0
  1
58015050W
 41
0.8
  7
GREEKS
 72
     1
 11
370.1397460790191
 21
88.14901428913959
 31
0.0
100
AcDbText
  0
TEXT
  5
93
330
1E
100
AcDbEntity
  8
TEXT
 62
     1
100
AcDbText
 10
150.5006306481887
 20
88.14901428913959
 30
0.0
 40
7.0
  1
1:2
 41
0.8
  7
GREEKS
100
AcDbText
  0
TEXT
  5
94
330
1E
100
AcDbEntity
  8
TEXT
100
AcDbText
 10
160.398997108236
 20
63.10765040825732
 30
0.0
 40
4.0
  1
27.09.
 41
0.8
  7
GREEKS
 72
     1
 11
167.4085209177598
 21
63.10765040825732
 31
0.0
100
AcDbText
  0
TEXT
  5
95
330
1E
100
AcDbEntity
  8
TEXT
 62
     1
100
AcDbText
 10
226.8935731057402
 20
87.41748789253779
 30
0.0
 40
7.0
  1
Verbundrohr DN50
 41
0.8
  7
GREEKS
100
AcDbText
  0
TEXT
  5
96
330
1E
100
AcDbEntity
  8
TEXT
100
AcDbText
 10
225.1296391125315
 20
71.50334417585288
 30
0.0
 40
5.0
  1
1500mm lang
 41
0.8
  7
GREEKS
100
AcDbText
  0
TEXT
  5
98
330
1E
100
AcDbEntity
  8
TEXT
100
AcDbText
 10
225.1296391125315
 20
51.64011943042158
 30
0.0
 40
5.0
  1
EDV-Art.Nr. 58015.050X
 41
0.8
  7
GREEKS
100
AcDbText
  0
TEXT
  5
99
330
1E
100
AcDbEntity
  8
TEXT
100
AcDbText
 10
224.9837501577827
 20
42.62974153022632
 30
0.0
 40
4.0
  1
58015050W.DWG
 41
0.8
  7
GREEKS
100
AcDbText
  0
TEXT
  5
9A
330
1E
100
AcDbEntity
  8
TEXT
100
AcDbText
 10
182.626132208084
 20
90.76363841023022
 30
0.0
 40
4.0
  1
DIN EN1123-2
 41
0.8
  7
GREEKS
 72
     1
 11
199.6166083985602
 21
90.76363841023022
 31
0.0
100
AcDbText
  0
INSERT
  5
9B
330
1E
100
AcDbEntity
  8
STEMPEL
100
AcDbBlockReference
  2
LOGO
 10
140.9955485457794
 20
45.02105276448322
 30
0.0
 41
2.0
 42
2.0
 43
2.0
  0
TEXT
  5
118
330
1E
100
AcDbEntity
  8
TEXT
100
AcDbText
 10
417.3022923857165
 20
10.16790107998849
 30
0.0
 40
4.0
  1
Diese Zeichnung ist urheberrechtlich geschützt und bleibt unser Eigentum. Sie darf weder ganz noch teilweise verfielfältigt und nicht an Dritte weitergegeben werden.
 50
90.0
 41
0.8
  7
GREEKS
100
AcDbText
  0
DIMENSION
  5
1F0
330
1E
100
AcDbEntity
  8
BEM
100
AcDbDimension
  2
*D1
 10
251.5
 20
186.0253980824491
 30
0.0
 11
225.000000000004
 21
192.5253980824491
 31
0.0
 70
    32
  1
%%c<>
 71
     5
 42
52.99999999999187
  3
Standard
100
AcDbAlignedDimension
 13
198.500000000008
 23
211.2465007751989
 33
0.0
 14
251.5
 24
211.2465007752863
 34
0.0
100
AcDbRotatedDimension
1001
ACAD
1000
DSTYLE
1002
{
1070
    40
1040
2.0
1070
    41
1040
3.5
1070
    42
1040
1.0
1070
    43
1040
7.0
1070
    44
1040
1.0
1070
    73
1070
     0
1070
    74
1070
     0
1070
    77
1070
     1
1070
    78
1070
     8
1070
    79
1070
     2
1070
   140
1040
3.5
1070
   141
1040
1.5
1070
   146
1040
0.5142857142857144
1070
   147
1040
1.5
1070
   172
1070
     1
1070
   178
1070
     1
1070
   179
1070
     2
1070
   271
1070
     2
1070
   272
1070
     2
1070
   284
1070
     8
1070
   285
1070
     8
1070
   286
1070
     8
1070
   289
1070
     0
1070
   340
1005
24
1002
}
  0
DIMENSION
  5
1F2
330
1E
100
AcDbEntity
  8
BEM
100
AcDbDimension
  2
*D2
 10
269.4999999999998
 20
506.191104805634
 30
0.0
 11
224.9999999999999
 21
512.691104805634
 31
0.0
 70
    32
  1
%%c<>
 71
     5
 42
88.99999999999989
  3
Standard
100
AcDbAlignedDimension
 13
180.4999999999999
 23
494.3119921896548
 33
0.0
 14
269.4999999999998
 24
494.3119921896546
 34
0.0
100
AcDbRotatedDimension
1001
ACAD
1000
DSTYLE
1002
{
1070
    40
1040
2.0
1070
    41
1040
3.5
1070
    42
1040
1.0
1070
    43
1040
7.0
1070
    44
1040
1.0
1070
    73
1070
     0
1070
    74
1070
     0
1070
    77
1070
     1
1070
    78
1070
     8
1070
    79
1070
     2
1070
   140
1040
3.5
1070
   141
1040
1.5
1070
   146
1040
0.5142857142857144
1070
   147
1040
1.5
1070
   172
1070
     1
1070
   178
1070
     1
1070
   179
1070
     2
1070
   271
1070
     2
1070
   272
1070
     2
1070
   284
1070
     8
1070
   285
1070
     8
1070
   286
1070
     8
1070
   289
1070
     0
1070
   340
1005
24
1002
}
  0
HATCH
  5
1F6
330
1E
100
AcDbEntity
  8
SCHRAFF
100
AcDbHatch
 10
0.0
 20
0.0
 30
0.0
210
0.0
220
0.0
230
1.0
  2
NET
 70
     0
 71
     1
 91
        2
 92
        7
 72
     1
 73
     1
 93
        7
 10
195.3269981527833
 20
494.170546950933
 42
0.0
 10
195.3929551508087
 20
494.3119921896547
 42
0.0
 10
182.0999999999999
 20
494.3119921896548
 42
0.0
 10
182.0999999999999
 20
480.3119921896549
 42
0.0
 10
193.5269873892348
 20
480.3119921896548
 42
-0.0120251093634687
 10
193.4999999999999
 20
481.514027891663
 42
0.0
 10
193.4999999999999
 20
485.929490846994
 42
-0.1095178116831768
 97
        7
330
21B
330
1FB
330
203
330
212
330
20F
330
211
330
210
 92
        7
 72
     1
 73
     1
 93
        7
 10
267.8999999999998
 20
494.3119921896546
 42
0.0
 10
254.6070448491914
 20
494.3119921896546
 42
0.0
 10
254.6730018472157
 20
494.1705469509352
 42
-0.1095178116832004
 10
256.4999999999999
 20
485.9294908469944
 42
0.0
 10
256.5000000000001
 20
481.5140278916632
 42
-0.012025109363471
 10
256.4730126107652
 20
480.3119921896547
 42
0.0
 10
267.8999999999998
 20
480.3119921896547
 42
0.0
 97
        7
330
1FB
330
23C
330
23B
330
231
330
238
330
230
330
224
 75
     0
 76
     1
 52
45.0
 41
20.0
 77
     0
 78
     2
 53
45.0
 43
0.0
 44
22.43699813046896
 45
-1.767766952966368
 46
1.767766952966368
 79
     0
 53
135.0
 43
0.0
 44
22.43699813046896
 45
-1.767766952966368
 46
-1.767766952966368
 79
     0
 47
0.4171687699471339
 98
        2
 10
188.2158333564266
 20
486.8120259474626
 10
263.7731426452547
 20
488.0635328415494
  0
LINE
  5
1F9
330
1E
100
AcDbEntity
  8
HILF
100
AcDbLine
 10
248.4942702436855
 20
211.3119921896547
 30
0.0
 11
201.5057297563148
 21
211.3119921896547
 31
0.0
  0
LINE
  5
1FA
330
1E
100
AcDbEntity
  8
STEMPEL
100
AcDbLine
 10
251.0682864386859
 20
206.3119921896548
 30
0.0
 11
198.9317135613146
 21
206.3119921896547
 31
0.0
  0
LINE
  5
1FB
102
{ACAD_REACTORS
330
1F6
102
}
330
1E
100
AcDbEntity
  8
STEMPEL
100
AcDbLine
 10
269.4999999999998
 20
494.3119921896546
 30
0.0
 11
180.4999999999999
 21
494.3119921896548
 31
0.0
  0
LINE
  5
1FC
330
1E
100
AcDbEntity
  8
HILF
100
AcDbLine
 10
201.1879020392217
 20
453.7863474981475
 30
0.0
 11
248.8120979607783
 21
453.7863474981475
 31
0.0
  0
LINE
  5
1FD
330
1E
100
AcDbEntity
  8
HILF
100
AcDbLine
 10
198.9717381606801
 20
458.8447756759486
 30
0.0
 11
251.0282618393199
 21
458.8447756759486
 31
0.0
  0
LINE
  5
1FE
330
1E
100
AcDbEntity
  8
HILF
100
AcDbLine
 10
198.3538465630825
 20
471.7558616638561
 30
0.0
 11
251.6461534369175
 21
471.7558616638561
 31
0.0
  0
LINE
  5
1FF
330
1E
100
AcDbEntity
  8
STEMPEL
100
AcDbLine
 10
199.9999999999999
 20
451.1846653499979
 30
0.0
 11
199.9999999999999
 21
383.0802574646209
 31
0.0
  0
LINE
  5
200
330
1E
100
AcDbEntity
  8
STEMPEL
100
AcDbLine
 10
198.4999999999999
 20
451.184665349998
 30
0.0
 11
198.5000000000024
 21
383.02237045942
 31
0.0
  0
LINE
  5
201
330
1E
100
AcDbEntity
  8
STEMPEL
100
AcDbLine
 10
198.500000000008
 20
211.2465007751989
 30
0.0
 11
198.9317135613146
 21
206.3119921896547
 31
0.0
  0
LINE
  5
202
330
1E
100
AcDbEntity
  8
STEMPEL
100
AcDbLine
 10
199.9999999999999
 20
211.3119921896548
 30
0.0
 11
200.4374433176295
 21
206.3119921896547
 31
0.0
  0
LINE
  5
203
102
{ACAD_REACTORS
330
1F6
102
}
330
1E
100
AcDbEntity
  8
STEMPEL
100
AcDbLine
 10
182.0999999999999
 20
494.3119921896548
 30
0.0
 11
182.1000000000001
 21
381.609607125831
 31
0.0
  0
LINE
  5
204
330
1E
100
AcDbEntity
  8
STEMPEL
100
AcDbLine
 10
180.4999999999999
 20
494.3119921896548
 30
0.0
 11
180.5000000000001
 21
381.4213659729784
 31
0.0
  0
LINE
  5
205
330
1E
100
AcDbEntity
  8
STEMPEL
100
AcDbLine
 10
182.6587323118683
 20
252.3119921896548
 30
0.0
 11
198.5000000000002
 21
252.3119921896548
 31
0.0
  0
LINE
  5
207
330
1E
100
AcDbEntity
  8
STEMPEL
100
AcDbLine
 10
182.1000000000003
 20
236.3119921896549
 30
0.0
 11
180.4999999999995
 21
236.3119921896549
 31
0.0
  0
LINE
  5
208
330
1E
100
AcDbEntity
  8
STEMPEL
100
AcDbLine
 10
182.1000000000003
 20
236.3119921896548
 30
0.0
 11
182.6587323118683
 21
252.3119921896548
 31
0.0
  0
LINE
  5
209
330
1E
100
AcDbEntity
  8
STEMPEL
100
AcDbLine
 10
194.5000000000003
 20
242.3119921896548
 30
0.0
 11
198.5000000000002
 21
242.3119921896548
 31
0.0
  0
ARC
  5
20A
330
1E
100
AcDbEntity
  8
STEMPEL
100
AcDbCircle
 10
207.5000000000001
 20
461.7203191028507
 30
0.0
 40
10.5
100
AcDbArc
 50
180.0
 51
211.7883306170488
  0
ARC
  5
20B
330
1E
100
AcDbEntity
  8
STEMPEL
100
AcDbCircle
 10
207.5000000000001
 20
461.7203191028507
 30
0.0
 40
12.0
100
AcDbArc
 50
180.0
 51
211.7883306170488
  0
ARC
  5
20C
330
1E
100
AcDbEntity
  8
STEMPEL
100
AcDbCircle
 10
190.4999999999999
 20
451.184665349998
 30
0.0
 40
8.0
100
AcDbArc
 50
0.0
 51
31.78833061704886
  0
LINE
  5
20D
330
1E
100
AcDbEntity
  8
STEMPEL
100
AcDbLine
 10
198.4999999999999
 20
456.3119921896547
 30
0.0
 11
198.4999999999999
 21
456.3081407329777
 31
0.0
  0
ARC
  5
20E
330
1E
100
AcDbEntity
  8
STEMPEL
100
AcDbCircle
 10
190.4999999999999
 20
451.1846653499979
 30
0.0
 40
9.5
100
AcDbArc
 50
0.0
 51
31.78833061704886
  0
ARC
  5
20F
102
{ACAD_REACTORS
330
1F6
102
}
330
1E
100
AcDbEntity
  8
STEMPEL
100
AcDbCircle
 10
218.5
 20
481.4739921896547
 30
0.0
 40
25.00003205712822
100
AcDbArc
 50
179.9082450082428
 51
199.4630994446857
  0
ARC
  5
210
102
{ACAD_REACTORS
330
1F6
102
}
330
1E
100
AcDbEntity
  8
STEMPEL
100
AcDbCircle
 10
213.0000000000001
 20
485.929490846994
 30
0.0
 40
19.5
100
AcDbArc
 50
154.5405714311918
 51
180.0
  0
LINE
  5
211
102
{ACAD_REACTORS
330
1F6
102
}
330
1E
100
AcDbEntity
  8
STEMPEL
100
AcDbLine
 10
193.4999999999999
 20
485.929490846994
 30
0.0
 11
193.4999999999999
 21
481.514027891663
 31
0.0
  0
LINE
  5
212
102
{ACAD_REACTORS
330
1F6
102
}
330
1E
100
AcDbEntity
  8
STEMPEL
100
AcDbLine
 10
193.5269873892348
 20
480.3119921896548
 30
0.0
 11
182.1000000000001
 21
480.3119921896549
 31
0.0
  0
LINE
  5
213
330
1E
100
AcDbEntity
  8
STEMPEL
100
AcDbLine
 10
195.0
 20
485.929490846994
 30
0.0
 11
195.0
 21
481.5128082437197
 31
0.0
  0
ARC
  5
214
330
1E
100
AcDbEntity
  8
STEMPEL
100
AcDbCircle
 10
185.4999999999999
 20
469.8119921896547
 30
0.0
 40
10.0
100
AcDbArc
 50
0.0
 51
19.46309944468566
  0
ARC
  5
215
330
1E
100
AcDbEntity
  8
STEMPEL
100
AcDbCircle
 10
185.4999999999999
 20
469.8119921896547
 30
0.0
 40
11.5
100
AcDbArc
 50
0.0
 51
19.46309944468566
  0
LINE
  5
216
330
1E
100
AcDbEntity
  8
STEMPEL
100
AcDbLine
 10
196.9999999999999
 20
469.8119921896547
 30
0.0
 11
196.9999999999999
 21
461.7203191028507
 31
0.0
  0
LINE
  5
217
330
1E
100
AcDbEntity
  8
STEMPEL
100
AcDbLine
 10
195.5
 20
469.8119921896547
 30
0.0
 11
195.5
 21
461.7203191028507
 31
0.0
  0
LINE
  5
218
330
1E
100
AcDbEntity
  8
STEMPEL
100
AcDbLine
 10
195.0
 20
481.4739921896548
 30
0.0
 11
194.9999679428718
 21
481.4739921896548
 31
0.0
  0
ARC
  5
219
330
1E
100
AcDbEntity
  8
STEMPEL
100
AcDbCircle
 10
218.5
 20
481.4739921896547
 30
0.0
 40
23.5000320571282
100
AcDbArc
 50
179.905361955203
 51
199.4630994446857
  0
ARC
  5
21A
330
1E
100
AcDbEntity
  8
STEMPEL
100
AcDbCircle
 10
213.0000000000001
 20
485.929490846994
 30
0.0
 40
18.0
100
AcDbArc
 50
155.0000000000006
 51
180.0
  0
LINE
  5
21B
102
{ACAD_REACTORS
330
1F6
102
}
330
1E
100
AcDbEntity
  8
STEMPEL
100
AcDbLine
 10
195.3929551508087
 20
494.3119921896547
 30
0.0
 11
195.3269981527854
 21
494.1705469509376
 31
0.0
  0
LINE
  5
21C
330
1E
100
AcDbEntity
  8
STEMPEL
100
AcDbLine
 10
197.0480220292525
 20
494.3119921896547
 30
0.0
 11
196.6864598333406
 21
493.536619558327
 31
0.0
  0
DIMENSION
  5
21D
330
1E
100
AcDbEntity
  8
BEM
100
AcDbDimension
  2
*D3
 10
146.5621602712832
 20
206.3119921896548
 30
0.0
 11
140.0621602712832
 21
350.3119921896547
 31
0.0
 70
    32
  1
1538
 71
     5
 42
287.9999999999997
  3
Standard
100
AcDbAlignedDimension
 13
180.5
 23
494.3119921896545
 33
0.0
 14
198.9317135613146
 24
206.3119921896547
 34
0.0
 50
90.0
100
AcDbRotatedDimension
1001
ACAD
1000
DSTYLE
1002
{
1070
    40
1040
2.0
1070
    41
1040
3.5
1070
    42
1040
1.0
1070
    43
1040
7.0
1070
    44
1040
1.0
1070
    73
1070
     0
1070
    74
1070
     0
1070
    77
1070
     1
1070
    78
1070
     8
1070
    79
1070
     2
1070
   140
1040
3.5
1070
   141
1040
1.5
1070
   146
1040
0.5142857142857144
1070
   147
1040
1.5
1070
   172
1070
     1
1070
   178
1070
     1
1070
   179
1070
     2
1070
   271
1070
     2
1070
   272
1070
     2
1070
   284
1070
     8
1070
   285
1070
     8
1070
   286
1070
     8
1070
   289
1070
     0
1070
   340
1005
24
1002
}
  0
LINE
  5
21E
330
1E
100
AcDbEntity
  8
STEMPEL
100
AcDbLine
 10
250.0
 20
451.1846653499979
 30
0.0
 11
250.0
 21
379.762474481336
 31
0.0
  0
LINE
  5
21F
330
1E
100
AcDbEntity
  8
STEMPEL
100
AcDbLine
 10
251.5000000000001
 20
451.1846653499981
 30
0.0
 11
251.5
 21
379.8203614865371
 31
0.0
  0
LINE
  5
220
330
1E
100
AcDbEntity
  8
MITTEL
100
AcDbLine
 10
225.0
 20
499.3119921896548
 30
0.0
 11
225.0000000000003
 21
201.3119921896547
 31
0.0
  0
LINE
  5
221
330
1E
100
AcDbEntity
  8
STEMPEL
100
AcDbLine
 10
250.0
 20
211.3119921896486
 30
0.0
 11
249.5625566823711
 21
206.3119921896548
 31
0.0
  0
LINE
  5
222
330
1E
100
AcDbEntity
  8
STEMPEL
100
AcDbLine
 10
251.5
 20
211.2465007752863
 30
0.0
 11
251.0682864386859
 21
206.3119921896548
 31
0.0
  0
LINE
  5
224
102
{ACAD_REACTORS
330
1F6
102
}
330
1E
100
AcDbEntity
  8
STEMPEL
100
AcDbLine
 10
267.8999999999998
 20
494.3119921896546
 30
0.0
 11
267.9
 21
381.2331248201259
 31
0.0
  0
LINE
  5
225
330
1E
100
AcDbEntity
  8
STEMPEL
100
AcDbLine
 10
269.4999999999998
 20
494.3119921896546
 30
0.0
 11
269.5
 21
381.4213659729784
 31
0.0
  0
LINE
  5
226
330
1E
100
AcDbEntity
  8
STEMPEL
100
AcDbLine
 10
267.3412676881323
 20
252.3119921896548
 30
0.0
 11
251.5000000000004
 21
252.3119921896548
 31
0.0
  0
LINE
  5
227
330
1E
100
AcDbEntity
  8
STEMPEL
100
AcDbLine
 10
269.4999999999994
 20
236.3119921896546
 30
0.0
 11
267.9000000000002
 21
236.3119921896546
 31
0.0
  0
LINE
  5
228
330
1E
100
AcDbEntity
  8
STEMPEL
100
AcDbLine
 10
255.5000000000003
 20
242.3119921896548
 30
0.0
 11
251.5000000000004
 21
242.3119921896548
 31
0.0
  0
LINE
  5
22A
330
1E
100
AcDbEntity
  8
STEMPEL
100
AcDbLine
 10
267.9000000000002
 20
236.3119921896548
 30
0.0
 11
267.3412676881323
 21
252.3119921896548
 31
0.0
  0
ARC
  5
22B
330
1E
100
AcDbEntity
  8
STEMPEL
100
AcDbCircle
 10
242.4999999999999
 20
461.7203191028507
 30
0.0
 40
12.0
100
AcDbArc
 50
328.2116693829511
 51
0.0
  0
ARC
  5
22C
330
1E
100
AcDbEntity
  8
STEMPEL
100
AcDbCircle
 10
242.4999999999999
 20
461.7203191028507
 30
0.0
 40
10.5
100
AcDbArc
 50
328.2116693829511
 51
0.0
  0
ARC
  5
22D
330
1E
100
AcDbEntity
  8
STEMPEL
100
AcDbCircle
 10
259.5000000000001
 20
451.1846653499979
 30
0.0
 40
9.5
100
AcDbArc
 50
148.2116693829511
 51
180.0
  0
LINE
  5
22E
330
1E
100
AcDbEntity
  8
STEMPEL
100
AcDbLine
 10
251.5000000000001
 20
456.3119921896548
 30
0.0
 11
251.5000000000001
 21
456.3081407329778
 31
0.0
  0
ARC
  5
22F
330
1E
100
AcDbEntity
  8
STEMPEL
100
AcDbCircle
 10
259.5000000000001
 20
451.1846653499981
 30
0.0
 40
8.0
100
AcDbArc
 50
148.2116693829511
 51
180.0
  0
LINE
  5
230
102
{ACAD_REACTORS
330
1F6
102
}
330
1E
100
AcDbEntity
  8
STEMPEL
100
AcDbLine
 10
267.8999999999998
 20
480.3119921896546
 30
0.0
 11
256.4730126107651
 21
480.3119921896547
 31
0.0
  0
LINE
  5
231
102
{ACAD_REACTORS
330
1F6
102
}
330
1E
100
AcDbEntity
  8
STEMPEL
100
AcDbLine
 10
256.4999999999999
 20
485.929490846994
 30
0.0
 11
256.5000000000001
 21
481.5140278916632
 31
0.0
  0
LINE
  5
232
330
1E
100
AcDbEntity
  8
STEMPEL
100
AcDbLine
 10
254.9999999999999
 20
485.929490846994
 30
0.0
 11
254.9999999999999
 21
481.5128082437197
 31
0.0
  0
ARC
  5
233
330
1E
100
AcDbEntity
  8
STEMPEL
100
AcDbCircle
 10
264.5
 20
469.8119921896549
 30
0.0
 40
11.5
100
AcDbArc
 50
160.5369005553143
 51
180.0
  0
ARC
  5
234
330
1E
100
AcDbEntity
  8
STEMPEL
100
AcDbCircle
 10
264.5
 20
469.8119921896549
 30
0.0
 40
10.0
100
AcDbArc
 50
160.5369005553143
 51
180.0
  0
LINE
  5
235
330
1E
100
AcDbEntity
  8
STEMPEL
100
AcDbLine
 10
253.0000000000001
 20
469.8119921896548
 30
0.0
 11
253.0000000000001
 21
461.7203191028507
 31
0.0
  0
LINE
  5
236
330
1E
100
AcDbEntity
  8
STEMPEL
100
AcDbLine
 10
254.4999999999999
 20
469.8119921896548
 30
0.0
 11
254.4999999999999
 21
461.7203191028507
 31
0.0
  0
ARC
  5
237
330
1E
100
AcDbEntity
  8
STEMPEL
100
AcDbCircle
 10
231.4999999999999
 20
481.4739921896548
 30
0.0
 40
23.5000320571282
100
AcDbArc
 50
340.5369005553144
 51
0.0946380447970367
  0
ARC
  5
238
102
{ACAD_REACTORS
330
1F6
102
}
330
1E
100
AcDbEntity
  8
STEMPEL
100
AcDbCircle
 10
231.4999999999999
 20
481.4739921896548
 30
0.0
 40
25.00003205712822
100
AcDbArc
 50
340.5369005553144
 51
0.0917549917637361
  0
LINE
  5
239
330
1E
100
AcDbEntity
  8
STEMPEL
100
AcDbLine
 10
254.9999999999999
 20
481.4739921896548
 30
0.0
 11
255.0000320571282
 21
481.4739921896548
 31
0.0
  0
ARC
  5
23A
330
1E
100
AcDbEntity
  8
STEMPEL
100
AcDbCircle
 10
237.0
 20
485.929490846994
 30
0.0
 40
18.0
100
AcDbArc
 50
0.0
 51
24.99999999999207
  0
ARC
  5
23B
102
{ACAD_REACTORS
330
1F6
102
}
330
1E
100
AcDbEntity
  8
STEMPEL
100
AcDbCircle
 10
237.0
 20
485.929490846994
 30
0.0
 40
19.5
100
AcDbArc
 50
0.0
 51
25.45942856880091
  0
LINE
  5
23C
102
{ACAD_REACTORS
330
1F6
102
}
330
1E
100
AcDbEntity
  8
STEMPEL
100
AcDbLine
 10
254.6070448491911
 20
494.3119921896548
 30
0.0
 11
254.6730018472146
 21
494.1705469509376
 31
0.0
  0
LINE
  5
23D
330
1E
100
AcDbEntity
  8
STEMPEL
100
AcDbLine
 10
252.9519779707475
 20
494.3119921896548
 30
0.0
 11
253.3135401666594
 21
493.5366195583271
 31
0.0
  0
DIMENSION
  5
38A
330
1E
100
AcDbEntity
  8
BEM
100
AcDbDimension
  2
*D4
 10
251.5
 20
186.0253980824491
 30
0.0
 11
225.000000000004
 21
192.5253980824491
 31
0.0
 70
    32
  1
%%c<>
 71
     5
 42
52.99999999999187
  3
Standard
100
AcDbAlignedDimension
 13
198.500000000008
 23
211.2465007751989
 33
0.0
 14
251.5
 24
211.2465007752863
 34
0.0
100
AcDbRotatedDimension
1001
ACAD
1000
DSTYLE
1002
{
1070
    40
1040
2.0
1070
    41
1040
3.5
1070
    42
1040
1.0
1070
    43
1040
7.0
1070
    44
1040
1.0
1070
    73
1070
     0
1070
    74
1070
     0
1070
    77
1070
     1
1070
    78
1070
     8
1070
    79
1070
     2
1070
   140
1040
3.5
1070
   141
1040
1.5
1070
   146
1040
0.5142857142857144
1070
   147
1040
1.5
1070
   172
1070
     1
1070
   178
1070
     1
1070
   179
1070
     2
1070
   271
1070
     2
1070
   272
1070
     2
1070
   284
1070
     8
1070
   285
1070
     8
1070
   286
1070
     8
1070
   289
1070
     0
1070
   340
1005
24
1002
}
  0
DIMENSION
  5
38C
330
1E
100
AcDbEntity
  8
BEM
100
AcDbDimension
  2
*D5
 10
269.4999999999998
 20
506.191104805634
 30
0.0
 11
224.9999999999999
 21
512.691104805634
 31
0.0
 70
    32
  1
%%c<>
 71
     5
 42
88.99999999999989
  3
Standard
100
AcDbAlignedDimension
 13
180.4999999999999
 23
494.3119921896548
 33
0.0
 14
269.4999999999998
 24
494.3119921896546
 34
0.0
100
AcDbRotatedDimension
1001
ACAD
1000
DSTYLE
1002
{
1070
    40
1040
2.0
1070
    41
1040
3.5
1070
    42
1040
1.0
1070
    43
1040
7.0
1070
    44
1040
1.0
1070
    73
1070
     0
1070
    74
1070
     0
1070
    77
1070
     1
1070
    78
1070
     8
1070
    79
1070
     2
1070
   140
1040
3.5
1070
   141
1040
1.5
1070
   146
1040
0.5142857142857144
1070
   147
1040
1.5
1070
   172
1070
     1
1070
   178
1070
     1
1070
   179
1070
     2
1070
   271
1070
     2
1070
   272
1070
     2
1070
   284
1070
     8
1070
   285
1070
     8
1070
   286
1070
     8
1070
   289
1070
     0
1070
   340
1005
24
1002
}
  0
HATCH
  5
390
330
1E
100
AcDbEntity
  8
SCHRAFF
100
AcDbHatch
 10
0.0
 20
0.0
 30
0.0
210
0.0
220
0.0
230
1.0
  2
NET
 70
     0
 71
     1
 91
        2
 92
        7
 72
     1
 73
     1
 93
        7
 10
195.3269981527833
 20
494.170546950933
 42
0.0
 10
195.3929551508087
 20
494.3119921896547
 42
0.0
 10
182.0999999999999
 20
494.3119921896548
 42
0.0
 10
182.0999999999999
 20
480.3119921896549
 42
0.0
 10
193.5269873892348
 20
480.3119921896548
 42
-0.0120251093634687
 10
193.4999999999999
 20
481.514027891663
 42
0.0
 10
193.4999999999999
 20
485.929490846994
 42
-0.1095178116831768
 97
        7
330
3B5
330
395
330
39D
330
3AC
330
3A9
330
3AB
330
3AA
 92
        7
 72
     1
 73
     1
 93
        7
 10
267.8999999999998
 20
494.3119921896546
 42
0.0
 10
254.6070448491914
 20
494.3119921896546
 42
0.0
 10
254.6730018472157
 20
494.1705469509352
 42
-0.1095178116832004
 10
256.4999999999999
 20
485.9294908469944
 42
0.0
 10
256.5000000000001
 20
481.5140278916632
 42
-0.012025109363471
 10
256.4730126107652
 20
480.3119921896547
 42
0.0
 10
267.8999999999998
 20
480.3119921896547
 42
0.0
 97
        7
330
395
330
3D6
330
3D5
330
3CB
330
3D2
330
3CA
330
3BE
 75
     0
 76
     1
 52
45.0
 41
20.0
 77
     0
 78
     2
 53
45.0
 43
0.0
 44
22.43699813046896
 45
-1.767766952966368
 46
1.767766952966368
 79
     0
 53
135.0
 43
0.0
 44
22.43699813046896
 45
-1.767766952966368
 46
-1.767766952966368
 79
     0
 47
0.4171687699471339
 98
        2
 10
188.2158333564266
 20
486.8120259474626
 10
263.7731426452547
 20
488.0635328415494
  0
LINE
  5
393
330
1E
100
AcDbEntity
  8
HILF
100
AcDbLine
 10
248.4942702436855
 20
211.3119921896547
 30
0.0
 11
201.5057297563148
 21
211.3119921896547
 31
0.0
  0
LINE
  5
394
330
1E
100
AcDbEntity
  8
STEMPEL
100
AcDbLine
 10
251.0682864386859
 20
206.3119921896548
 30
0.0
 11
198.9317135613146
 21
206.3119921896547
 31
0.0
  0
LINE
  5
395
102
{ACAD_REACTORS
330
390
102
}
330
1E
100
AcDbEntity
  8
STEMPEL
100
AcDbLine
 10
269.4999999999998
 20
494.3119921896546
 30
0.0
 11
180.4999999999999
 21
494.3119921896548
 31
0.0
  0
LINE
  5
396
330
1E
100
AcDbEntity
  8
HILF
100
AcDbLine
 10
201.1879020392217
 20
453.7863474981475
 30
0.0
 11
248.8120979607783
 21
453.7863474981475
 31
0.0
  0
LINE
  5
397
330
1E
100
AcDbEntity
  8
HILF
100
AcDbLine
 10
198.9717381606801
 20
458.8447756759486
 30
0.0
 11
251.0282618393199
 21
458.8447756759486
 31
0.0
  0
LINE
  5
398
330
1E
100
AcDbEntity
  8
HILF
100
AcDbLine
 10
198.3538465630825
 20
471.7558616638561
 30
0.0
 11
251.6461534369175
 21
471.7558616638561
 31
0.0
  0
LINE
  5
399
330
1E
100
AcDbEntity
  8
STEMPEL
100
AcDbLine
 10
199.9999999999999
 20
451.1846653499979
 30
0.0
 11
199.9999999999999
 21
383.0802574646209
 31
0.0
  0
LINE
  5
39A
102
{ACAD_REACTORS
330
707
102
}
330
1E
100
AcDbEntity
  8
STEMPEL
100
AcDbLine
 10
198.4999999999999
 20
451.184665349998
 30
0.0
 11
198.5000000000024
 21
383.02237045942
 31
0.0
  0
LINE
  5
39B
330
1E
100
AcDbEntity
  8
STEMPEL
100
AcDbLine
 10
198.500000000008
 20
211.2465007751989
 30
0.0
 11
198.9317135613146
 21
206.3119921896547
 31
0.0
  0
LINE
  5
39C
330
1E
100
AcDbEntity
  8
STEMPEL
100
AcDbLine
 10
199.9999999999999
 20
211.3119921896548
 30
0.0
 11
200.4374433176295
 21
206.3119921896547
 31
0.0
  0
LINE
  5
39D
102
{ACAD_REACTORS
330
390
330
707
102
}
330
1E
100
AcDbEntity
  8
STEMPEL
100
AcDbLine
 10
182.0999999999999
 20
494.3119921896548
 30
0.0
 11
182.1000000000001
 21
381.609607125831
 31
0.0
  0
LINE
  5
39E
330
1E
100
AcDbEntity
  8
STEMPEL
100
AcDbLine
 10
180.4999999999999
 20
494.3119921896548
 30
0.0
 11
180.5000000000001
 21
381.4213659729784
 31
0.0
  0
LINE
  5
39F
102
{ACAD_REACTORS
330
707
102
}
330
1E
100
AcDbEntity
  8
STEMPEL
100
AcDbLine
 10
182.6587323118683
 20
252.3119921896548
 30
0.0
 11
198.5000000000002
 21
252.3119921896548
 31
0.0
  0
LINE
  5
3A2
102
{ACAD_REACTORS
330
707
102
}
330
1E
100
AcDbEntity
  8
STEMPEL
100
AcDbLine
 10
182.1000000000003
 20
236.3119921896548
 30
0.0
 11
182.6587323118683
 21
252.3119921896548
 31
0.0
  0
LINE
  5
3A3
330
1E
100
AcDbEntity
  8
STEMPEL
100
AcDbLine
 10
194.5000000000003
 20
242.3119921896548
 30
0.0
 11
198.5000000000002
 21
242.3119921896548
 31
0.0
  0
ARC
  5
3A4
330
1E
100
AcDbEntity
  8
STEMPEL
100
AcDbCircle
 10
207.5000000000001
 20
461.7203191028507
 30
0.0
 40
10.5
100
AcDbArc
 50
180.0
 51
211.7883306170488
  0
ARC
  5
3A5
102
{ACAD_REACTORS
330
707
102
}
330
1E
100
AcDbEntity
  8
STEMPEL
100
AcDbCircle
 10
207.5000000000001
 20
461.7203191028507
 30
0.0
 40
12.0
100
AcDbArc
 50
180.0
 51
211.7883306170488
  0
ARC
  5
3A6
102
{ACAD_REACTORS
330
707
102
}
330
1E
100
AcDbEntity
  8
STEMPEL
100
AcDbCircle
 10
190.4999999999999
 20
451.184665349998
 30
0.0
 40
8.0
100
AcDbArc
 50
0.0
 51
31.78833061704886
  0
LINE
  5
3A7
330
1E
100
AcDbEntity
  8
STEMPEL
100
AcDbLine
 10
198.4999999999999
 20
456.3119921896547
 30
0.0
 11
198.4999999999999
 21
456.3081407329777
 31
0.0
  0
ARC
  5
3A8
330
1E
100
AcDbEntity
  8
STEMPEL
100
AcDbCircle
 10
190.4999999999999
 20
451.1846653499979
 30
0.0
 40
9.5
100
AcDbArc
 50
0.0
 51
31.78833061704886
  0
ARC
  5
3A9
102
{ACAD_REACTORS
330
390
330
707
102
}
330
1E
100
AcDbEntity
  8
STEMPEL
100
AcDbCircle
 10
218.5
 20
481.4739921896547
 30
0.0
 40
25.00003205712822
100
AcDbArc
 50
179.9082450082428
 51
199.4630994446857
  0
ARC
  5
3AA
102
{ACAD_REACTORS
330
390
102
}
330
1E
100
AcDbEntity
  8
STEMPEL
100
AcDbCircle
 10
213.0000000000001
 20
485.929490846994
 30
0.0
 40
19.5
100
AcDbArc
 50
154.5405714311918
 51
180.0
  0
LINE
  5
3AB
102
{ACAD_REACTORS
330
390
102
}
330
1E
100
AcDbEntity
  8
STEMPEL
100
AcDbLine
 10
193.4999999999999
 20
485.929490846994
 30
0.0
 11
193.4999999999999
 21
481.514027891663
 31
0.0
  0
LINE
  5
3AC
102
{ACAD_REACTORS
330
390
330
707
102
}
330
1E
100
AcDbEntity
  8
STEMPEL
100
AcDbLine
 10
193.5269873892348
 20
480.3119921896548
 30
0.0
 11
182.1000000000001
 21
480.3119921896549
 31
0.0
  0
LINE
  5
3AD
330
1E
100
AcDbEntity
  8
STEMPEL
100
AcDbLine
 10
195.0
 20
485.929490846994
 30
0.0
 11
195.0
 21
481.5128082437197
 31
0.0
  0
ARC
  5
3AE
102
{ACAD_REACTORS
330
707
102
}
330
1E
100
AcDbEntity
  8
STEMPEL
100
AcDbCircle
 10
185.4999999999999
 20
469.8119921896547
 30
0.0
 40
10.0
100
AcDbArc
 50
0.0
 51
19.46309944468566
  0
ARC
  5
3AF
330
1E
100
AcDbEntity
  8
STEMPEL
100
AcDbCircle
 10
185.4999999999999
 20
469.8119921896547
 30
0.0
 40
11.5
100
AcDbArc
 50
0.0
 51
19.46309944468566
  0
LINE
  5
3B0
330
1E
100
AcDbEntity
  8
STEMPEL
100
AcDbLine
 10
196.9999999999999
 20
469.8119921896547
 30
0.0
 11
196.9999999999999
 21
461.7203191028507
 31
0.0
  0
LINE
  5
3B1
102
{ACAD_REACTORS
330
707
102
}
330
1E
100
AcDbEntity
  8
STEMPEL
100
AcDbLine
 10
195.5
 20
469.8119921896547
 30
0.0
 11
195.5
 21
461.7203191028507
 31
0.0
  0
LINE
  5
3B2
330
1E
100
AcDbEntity
  8
STEMPEL
100
AcDbLine
 10
195.0
 20
481.4739921896548
 30
0.0
 11
194.9999679428718
 21
481.4739921896548
 31
0.0
  0
ARC
  5
3B3
330
1E
100
AcDbEntity
  8
STEMPEL
100
AcDbCircle
 10
218.5
 20
481.4739921896547
 30
0.0
 40
23.5000320571282
100
AcDbArc
 50
179.905361955203
 51
199.4630994446857
  0
ARC
  5
3B4
330
1E
100
AcDbEntity
  8
STEMPEL
100
AcDbCircle
 10
213.0000000000001
 20
485.929490846994
 30
0.0
 40
18.0
100
AcDbArc
 50
155.0000000000006
 51
180.0
  0
LINE
  5
3B5
102
{ACAD_REACTORS
330
390
102
}
330
1E
100
AcDbEntity
  8
STEMPEL
100
AcDbLine
 10
195.3929551508087
 20
494.3119921896547
 30
0.0
 11
195.3269981527854
 21
494.1705469509376
 31
0.0
  0
LINE
  5
3B6
330
1E
100
AcDbEntity
  8
STEMPEL
100
AcDbLine
 10
197.0480220292525
 20
494.3119921896547
 30
0.0
 11
196.6864598333406
 21
493.536619558327
 31
0.0
  0
LINE
  5
3B8
330
1E
100
AcDbEntity
  8
STEMPEL
100
AcDbLine
 10
250.0
 20
451.1846653499979
 30
0.0
 11
250.0
 21
379.762474481336
 31
0.0
  0
LINE
  5
3B9
102
{ACAD_REACTORS
330
707
102
}
330
1E
100
AcDbEntity
  8
STEMPEL
100
AcDbLine
 10
251.5000000000001
 20
451.1846653499981
 30
0.0
 11
251.5
 21
379.8203614865371
 31
0.0
  0
LINE
  5
3BA
330
1E
100
AcDbEntity
  8
MITTEL
100
AcDbLine
 10
225.0
 20
499.3119921896548
 30
0.0
 11
225.0000000000003
 21
201.3119921896547
 31
0.0
  0
LINE
  5
3BB
330
1E
100
AcDbEntity
  8
STEMPEL
100
AcDbLine
 10
250.0
 20
211.3119921896486
 30
0.0
 11
249.5625566823711
 21
206.3119921896548
 31
0.0
  0
LINE
  5
3BC
330
1E
100
AcDbEntity
  8
STEMPEL
100
AcDbLine
 10
251.5
 20
211.2465007752863
 30
0.0
 11
251.0682864386859
 21
206.3119921896548
 31
0.0
  0
LINE
  5
3BE
102
{ACAD_REACTORS
330
390
330
707
102
}
330
1E
100
AcDbEntity
  8
STEMPEL
100
AcDbLine
 10
267.8999999999998
 20
494.3119921896546
 30
0.0
 11
267.9
 21
381.2331248201259
 31
0.0
  0
LINE
  5
3BF
330
1E
100
AcDbEntity
  8
STEMPEL
100
AcDbLine
 10
269.4999999999998
 20
494.3119921896546
 30
0.0
 11
269.5
 21
381.4213659729784
 31
0.0
  0
LINE
  5
3C0
102
{ACAD_REACTORS
330
707
102
}
330
1E
100
AcDbEntity
  8
STEMPEL
100
AcDbLine
 10
267.3412676881323
 20
252.3119921896548
 30
0.0
 11
251.5000000000004
 21
252.3119921896548
 31
0.0
  0
LINE
  5
3C2
330
1E
100
AcDbEntity
  8
STEMPEL
100
AcDbLine
 10
255.5000000000003
 20
242.3119921896548
 30
0.0
 11
251.5000000000004
 21
242.3119921896548
 31
0.0
  0
LINE
  5
3C4
102
{ACAD_REACTORS
330
707
102
}
330
1E
100
AcDbEntity
  8
STEMPEL
100
AcDbLine
 10
267.9000000000002
 20
236.3119921896548
 30
0.0
 11
267.3412676881323
 21
252.3119921896548
 31
0.0
  0
ARC
  5
3C5
102
{ACAD_REACTORS
330
707
102
}
330
1E
100
AcDbEntity
  8
STEMPEL
100
AcDbCircle
 10
242.4999999999999
 20
461.7203191028507
 30
0.0
 40
12.0
100
AcDbArc
 50
328.2116693829511
 51
0.0
  0
ARC
  5
3C6
330
1E
100
AcDbEntity
  8
STEMPEL
100
AcDbCircle
 10
242.4999999999999
 20
461.7203191028507
 30
0.0
 40
10.5
100
AcDbArc
 50
328.2116693829511
 51
0.0
  0
ARC
  5
3C7
330
1E
100
AcDbEntity
  8
STEMPEL
100
AcDbCircle
 10
259.5000000000001
 20
451.1846653499979
 30
0.0
 40
9.5
100
AcDbArc
 50
148.2116693829511
 51
180.0
  0
LINE
  5
3C8
330
1E
100
AcDbEntity
  8
STEMPEL
100
AcDbLine
 10
251.5000000000001
 20
456.3119921896548
 30
0.0
 11
251.5000000000001
 21
456.3081407329778
 31
0.0
  0
ARC
  5
3C9
102
{ACAD_REACTORS
330
707
102
}
330
1E
100
AcDbEntity
  8
STEMPEL
100
AcDbCircle
 10
259.5000000000001
 20
451.1846653499981
 30
0.0
 40
8.0
100
AcDbArc
 50
148.2116693829511
 51
180.0
  0
LINE
  5
3CA
102
{ACAD_REACTORS
330
390
330
707
102
}
330
1E
100
AcDbEntity
  8
STEMPEL
100
AcDbLine
 10
267.8999999999998
 20
480.3119921896546
 30
0.0
 11
256.4730126107651
 21
480.3119921896547
 31
0.0
  0
LINE
  5
3CB
102
{ACAD_REACTORS
330
390
102
}
330
1E
100
AcDbEntity
  8
STEMPEL
100
AcDbLine
 10
256.4999999999999
 20
485.929490846994
 30
0.0
 11
256.5000000000001
 21
481.5140278916632
 31
0.0
  0
LINE
  5
3CC
330
1E
100
AcDbEntity
  8
STEMPEL
100
AcDbLine
 10
254.9999999999999
 20
485.929490846994
 30
0.0
 11
254.9999999999999
 21
481.5128082437197
 31
0.0
  0
ARC
  5
3CD
330
1E
100
AcDbEntity
  8
STEMPEL
100
AcDbCircle
 10
264.5
 20
469.8119921896549
 30
0.0
 40
11.5
100
AcDbArc
 50
160.5369005553143
 51
180.0
  0
ARC
  5
3CE
102
{ACAD_REACTORS
330
707
102
}
330
1E
100
AcDbEntity
  8
STEMPEL
100
AcDbCircle
 10
264.5
 20
469.8119921896549
 30
0.0
 40
10.0
100
AcDbArc
 50
160.5369005553143
 51
180.0
  0
LINE
  5
3CF
330
1E
100
AcDbEntity
  8
STEMPEL
100
AcDbLine
 10
253.0000000000001
 20
469.8119921896548
 30
0.0
 11
253.0000000000001
 21
461.7203191028507
 31
0.0
  0
LINE
  5
3D0
102
{ACAD_REACTORS
330
707
102
}
330
1E
100
AcDbEntity
  8
STEMPEL
100
AcDbLine
 10
254.4999999999999
 20
469.8119921896548
 30
0.0
 11
254.4999999999999
 21
461.7203191028507
 31
0.0
  0
ARC
  5
3D1
330
1E
100
AcDbEntity
  8
STEMPEL
100
AcDbCircle
 10
231.4999999999999
 20
481.4739921896548
 30
0.0
 40
23.5000320571282
100
AcDbArc
 50
340.5369005553144
 51
0.0946380447970367
  0
ARC
  5
3D2
102
{ACAD_REACTORS
330
390
330
707
102
}
330
1E
100
AcDbEntity
  8
STEMPEL
100
AcDbCircle
 10
231.4999999999999
 20
481.4739921896548
 30
0.0
 40
25.00003205712822
100
AcDbArc
 50
340.5369005553144
 51
0.0917549917637361
  0
LINE
  5
3D3
330
1E
100
AcDbEntity
  8
STEMPEL
100
AcDbLine
 10
254.9999999999999
 20
481.4739921896548
 30
0.0
 11
255.0000320571282
 21
481.4739921896548
 31
0.0
  0
ARC
  5
3D4
330
1E
100
AcDbEntity
  8
STEMPEL
100
AcDbCircle
 10
237.0
 20
485.929490846994
 30
0.0
 40
18.0
100
AcDbArc
 50
0.0
 51
24.99999999999207
  0
ARC
  5
3D5
102
{ACAD_REACTORS
330
390
102
}
330
1E
100
AcDbEntity
  8
STEMPEL
100
AcDbCircle
 10
237.0
 20
485.929490846994
 30
0.0
 40
19.5
100
AcDbArc
 50
0.0
 51
25.45942856880091
  0
LINE
  5
3D6
102
{ACAD_REACTORS
330
390
102
}
330
1E
100
AcDbEntity
  8
STEMPEL
100
AcDbLine
 10
254.6070448491911
 20
494.3119921896548
 30
0.0
 11
254.6730018472146
 21
494.1705469509376
 31
0.0
  0
LINE
  5
3D7
330
1E
100
AcDbEntity
  8
STEMPEL
100
AcDbLine
 10
252.9519779707475
 20
494.3119921896548
 30
0.0
 11
253.3135401666594
 21
493.5366195583271
 31
0.0
  0
TEXT
  5
3D8
330
1E
100
AcDbEntity
  8
TEXT
 62
     1
100
AcDbText
 10
193.6033828683802
 20
152.364339848487
 30
0.0
 40
7.0
  1
Außenrohr: E195 EN10305 feuerverzinkt
 41
0.8
  7
GREEKS
100
AcDbText
  0
TEXT
  5
3D9
330
1E
100
AcDbEntity
  8
TEXT
 62
     1
100
AcDbText
 10
197.3756002392442
 20
141.011271812132
 30
0.0
 40
7.0
  1
Innenrohr: E195 EN10305 feuerverzinkt
 41
0.8
  7
GREEKS
100
AcDbText
  0
TEXT
  5
3DA
330
1E
100
AcDbEntity
  8
TEXT
 62
     1
100
AcDbText
 10
189.8811895945471
 20
117.1473825875242
 30
0.0
 40
7.0
  1
Dämmung: 2 K-PU-Schaum
 41
0.8
  7
GREEKS
100
AcDbText
  0
TEXT
  5
3DB
330
1E
100
AcDbEntity
  8
TEXT
 62
     1
100
AcDbText
 10
245.030129115258
 20
129.7422179729062
 30
0.0
 40
7.0
  1
und innenbeschichtet
 41
0.8
  7
GREEKS
100
AcDbText
  0
TEXT
  5
478
330
1E
100
AcDbEntity
  8
TEXT
 62
     1
100
AcDbText
 10
215.8910492387708
 20
424.2839903926838
 30
0.0
 40
7.0
  1
DN50
 50
90.0
 41
0.8
  7
GREEKS
100
AcDbText
  0
POLYLINE
  5
631
102
{ACAD_REACTORS
330
707
102
}
330
1E
100
AcDbEntity
  8
HILF
100
AcDb2dPolyline
 66
     1
 10
0.0
 20
0.0
 30
0.0
 70
     4
 75
     6
  0
VERTEX
  5
632
330
631
100
AcDbEntity
  8
HILF
100
AcDbVertex
100
AcDb2dVertex
 10
180.5000000000001
 20
381.4213659729785
 30
0.0
 70
    16
  0
VERTEX
  5
63A
330
631
100
AcDbEntity
  8
HILF
100
AcDbVertex
100
AcDb2dVertex
 10
180.5000000000001
 20
381.4213659729785
 30
0.0
 70
     8
  0
VERTEX
  5
638
330
631
100
AcDbEntity
  8
HILF
100
AcDbVertex
100
AcDb2dVertex
 10
188.3439941406251
 20
382.3442175354785
 30
0.0
 70
     8
  0
VERTEX
  5
63C
330
631
100
AcDbEntity
  8
HILF
100
AcDbVertex
100
AcDb2dVertex
 10
195.2753906250001
 20
382.8979284729785
 30
0.0
 70
     8
  0
VERTEX
  5
63D
330
631
100
AcDbEntity
  8
HILF
100
AcDbVertex
100
AcDb2dVertex
 10
201.4245605468751
 20
383.1352331604785
 30
0.0
 70
     8
  0
VERTEX
  5
63E
330
631
100
AcDbEntity
  8
HILF
100
AcDbVertex
100
AcDb2dVertex
 10
206.9218750000001
 20
383.1088659729785
 30
0.0
 70
     8
  0
VERTEX
  5
63F
330
631
100
AcDbEntity
  8
HILF
100
AcDbVertex
100
AcDb2dVertex
 10
211.8977050781251
 20
382.8715612854785
 30
0.0
 70
     8
  0
VERTEX
  5
640
330
631
100
AcDbEntity
  8
HILF
100
AcDbVertex
100
AcDb2dVertex
 10
216.4824218750001
 20
382.4760534729785
 30
0.0
 70
     8
  0
VERTEX
  5
641
330
631
100
AcDbEntity
  8
HILF
100
AcDbVertex
100
AcDb2dVertex
 10
220.8063964843752
 20
381.9750769104785
 30
0.0
 70
     8
  0
VERTEX
  5
642
330
631
100
AcDbEntity
  8
HILF
100
AcDbVertex
100
AcDb2dVertex
 10
225.0
 20
381.4213659729785
 30
0.0
 70
     8
  0
VERTEX
  5
643
330
631
100
AcDbEntity
  8
HILF
100
AcDbVertex
100
AcDb2dVertex
 10
229.193603515625
 20
380.8676550354785
 30
0.0
 70
     8
  0
VERTEX
  5
644
330
631
100
AcDbEntity
  8
HILF
100
AcDbVertex
100
AcDb2dVertex
 10
233.5175781250001
 20
380.3666784729785
 30
0.0
 70
     8
  0
VERTEX
  5
645
330
631
100
AcDbEntity
  8
HILF
100
AcDbVertex
100
AcDb2dVertex
 10
238.102294921875
 20
379.9711706604785
 30
0.0
 70
     8
  0
VERTEX
  5
646
330
631
100
AcDbEntity
  8
HILF
100
AcDbVertex
100
AcDb2dVertex
 10
243.0781250000001
 20
379.7338659729785
 30
0.0
 70
     8
  0
VERTEX
  5
647
330
631
100
AcDbEntity
  8
HILF
100
AcDbVertex
100
AcDb2dVertex
 10
248.5754394531251
 20
379.7074987854785
 30
0.0
 70
     8
  0
VERTEX
  5
648
330
631
100
AcDbEntity
  8
HILF
100
AcDbVertex
100
AcDb2dVertex
 10
254.724609375
 20
379.9448034729785
 30
0.0
 70
     8
  0
VERTEX
  5
649
330
631
100
AcDbEntity
  8
HILF
100
AcDbVertex
100
AcDb2dVertex
 10
261.656005859375
 20
380.4985144104785
 30
0.0
 70
     8
  0
VERTEX
  5
64A
330
631
100
AcDbEntity
  8
HILF
100
AcDbVertex
100
AcDb2dVertex
 10
269.5
 20
381.4213659729785
 30
0.0
 70
     8
  0
VERTEX
  5
633
330
631
100
AcDbEntity
  8
HILF
100
AcDbVertex
100
AcDb2dVertex
 10
202.7500000000001
 20
384.4213659729785
 30
0.0
 70
    16
  0
VERTEX
  5
634
330
631
100
AcDbEntity
  8
HILF
100
AcDbVertex
100
AcDb2dVertex
 10
225.0
 20
381.4213659729785
 30
0.0
 70
    16
  0
VERTEX
  5
635
330
631
100
AcDbEntity
  8
HILF
100
AcDbVertex
100
AcDb2dVertex
 10
247.2500000000001
 20
378.4213659729784
 30
0.0
 70
    16
  0
VERTEX
  5
636
330
631
100
AcDbEntity
  8
HILF
100
AcDbVertex
100
AcDb2dVertex
 10
269.5
 20
381.4213659729784
 30
0.0
 70
    16
  0
SEQEND
  5
637
330
631
100
AcDbEntity
  8
HILF
  0
POLYLINE
  5
64B
102
{ACAD_REACTORS
330
707
102
}
330
1E
100
AcDbEntity
  8
HILF
100
AcDb2dPolyline
 66
     1
 10
0.0
 20
0.0
 30
0.0
 70
     4
 75
     6
  0
VERTEX
  5
64C
330
64B
100
AcDbEntity
  8
HILF
100
AcDbVertex
100
AcDb2dVertex
 10
180.5000000000001
 20
376.4213659729785
 30
0.0
 70
    16
  0
VERTEX
  5
64D
330
64B
100
AcDbEntity
  8
HILF
100
AcDbVertex
100
AcDb2dVertex
 10
180.5000000000001
 20
376.4213659729785
 30
0.0
 70
     8
  0
VERTEX
  5
64E
330
64B
100
AcDbEntity
  8
HILF
100
AcDbVertex
100
AcDb2dVertex
 10
188.3439941406251
 20
377.3442175354785
 30
0.0
 70
     8
  0
VERTEX
  5
64F
330
64B
100
AcDbEntity
  8
HILF
100
AcDbVertex
100
AcDb2dVertex
 10
195.2753906250001
 20
377.8979284729785
 30
0.0
 70
     8
  0
VERTEX
  5
650
330
64B
100
AcDbEntity
  8
HILF
100
AcDbVertex
100
AcDb2dVertex
 10
201.4245605468751
 20
378.1352331604785
 30
0.0
 70
     8
  0
VERTEX
  5
651
330
64B
100
AcDbEntity
  8
HILF
100
AcDbVertex
100
AcDb2dVertex
 10
206.9218750000001
 20
378.1088659729785
 30
0.0
 70
     8
  0
VERTEX
  5
652
330
64B
100
AcDbEntity
  8
HILF
100
AcDbVertex
100
AcDb2dVertex
 10
211.8977050781251
 20
377.8715612854785
 30
0.0
 70
     8
  0
VERTEX
  5
653
330
64B
100
AcDbEntity
  8
HILF
100
AcDbVertex
100
AcDb2dVertex
 10
216.4824218750001
 20
377.4760534729785
 30
0.0
 70
     8
  0
VERTEX
  5
654
330
64B
100
AcDbEntity
  8
HILF
100
AcDbVertex
100
AcDb2dVertex
 10
220.8063964843752
 20
376.9750769104785
 30
0.0
 70
     8
  0
VERTEX
  5
655
330
64B
100
AcDbEntity
  8
HILF
100
AcDbVertex
100
AcDb2dVertex
 10
225.0
 20
376.4213659729785
 30
0.0
 70
     8
  0
VERTEX
  5
656
330
64B
100
AcDbEntity
  8
HILF
100
AcDbVertex
100
AcDb2dVertex
 10
229.193603515625
 20
375.8676550354785
 30
0.0
 70
     8
  0
VERTEX
  5
657
330
64B
100
AcDbEntity
  8
HILF
100
AcDbVertex
100
AcDb2dVertex
 10
233.5175781250001
 20
375.3666784729785
 30
0.0
 70
     8
  0
VERTEX
  5
658
330
64B
100
AcDbEntity
  8
HILF
100
AcDbVertex
100
AcDb2dVertex
 10
238.102294921875
 20
374.9711706604785
 30
0.0
 70
     8
  0
VERTEX
  5
659
330
64B
100
AcDbEntity
  8
HILF
100
AcDbVertex
100
AcDb2dVertex
 10
243.0781250000001
 20
374.7338659729785
 30
0.0
 70
     8
  0
VERTEX
  5
65A
330
64B
100
AcDbEntity
  8
HILF
100
AcDbVertex
100
AcDb2dVertex
 10
248.5754394531251
 20
374.7074987854785
 30
0.0
 70
     8
  0
VERTEX
  5
65B
330
64B
100
AcDbEntity
  8
HILF
100
AcDbVertex
100
AcDb2dVertex
 10
254.724609375
 20
374.9448034729785
 30
0.0
 70
     8
  0
VERTEX
  5
65C
330
64B
100
AcDbEntity
  8
HILF
100
AcDbVertex
100
AcDb2dVertex
 10
261.656005859375
 20
375.4985144104785
 30
0.0
 70
     8
  0
VERTEX
  5
65D
330
64B
100
AcDbEntity
  8
HILF
100
AcDbVertex
100
AcDb2dVertex
 10
269.5
 20
376.4213659729785
 30
0.0
 70
     8
  0
VERTEX
  5
65E
330
64B
100
AcDbEntity
  8
HILF
100
AcDbVertex
100
AcDb2dVertex
 10
202.7500000000001
 20
379.4213659729785
 30
0.0
 70
    16
  0
VERTEX
  5
65F
330
64B
100
AcDbEntity
  8
HILF
100
AcDbVertex
100
AcDb2dVertex
 10
225.0
 20
376.4213659729785
 30
0.0
 70
    16
  0
VERTEX
  5
660
330
64B
100
AcDbEntity
  8
HILF
100
AcDbVertex
100
AcDb2dVertex
 10
247.2500000000001
 20
373.4213659729785
 30
0.0
 70
    16
  0
VERTEX
  5
661
330
64B
100
AcDbEntity
  8
HILF
100
AcDbVertex
100
AcDb2dVertex
 10
269.5
 20
376.4213659729784
 30
0.0
 70
    16
  0
SEQEND
  5
662
330
64B
100
AcDbEntity
  8
HILF
  0
LINE
  5
663
330
1E
100
AcDbEntity
  8
STEMPEL
100
AcDbLine
 10
267.9
 20
376.2331248201259
 30
0.0
 11
267.9000000000002
 21
236.3119921896546
 31
0.0
  0
LINE
  5
664
330
1E
100
AcDbEntity
  8
STEMPEL
100
AcDbLine
 10
269.5
 20
376.4213659729784
 30
0.0
 11
269.5000000000002
 21
236.3119921896546
 31
0.0
  0
LINE
  5
665
330
1E
100
AcDbEntity
  8
STEMPEL
100
AcDbLine
 10
269.5
 20
376.4213659729784
 30
0.0
 11
269.5000000000002
 21
234.3119921896544
 31
0.0
  0
LINE
  5
666
102
{ACAD_REACTORS
330
707
102
}
330
1E
100
AcDbEntity
  8
STEMPEL
100
AcDbLine
 10
267.9
 20
376.2331248201259
 30
0.0
 11
267.9000000000002
 21
236.3119921896546
 31
0.0
  0
LINE
  5
667
330
1E
100
AcDbEntity
  8
STEMPEL
100
AcDbLine
 10
250.0
 20
374.762474481336
 30
0.0
 11
250.0
 21
211.3119921896486
 31
0.0
  0
LINE
  5
668
330
1E
100
AcDbEntity
  8
STEMPEL
100
AcDbLine
 10
251.5
 20
374.820361486537
 30
0.0
 11
251.5
 21
211.2465007752863
 31
0.0
  0
LINE
  5
669
102
{ACAD_REACTORS
330
707
102
}
330
1E
100
AcDbEntity
  8
STEMPEL
100
AcDbLine
 10
251.5
 20
374.820361486537
 30
0.0
 11
251.5
 21
211.2465007752863
 31
0.0
  0
LINE
  5
66A
330
1E
100
AcDbEntity
  8
STEMPEL
100
AcDbLine
 10
250.0
 20
374.762474481336
 30
0.0
 11
250.0
 21
211.3119921896486
 31
0.0
  0
LINE
  5
66B
330
1E
100
AcDbEntity
  8
STEMPEL
100
AcDbLine
 10
199.9999999999999
 20
378.080257464621
 30
0.0
 11
199.9999999999999
 21
211.3119921896547
 31
0.0
  0
LINE
  5
66C
330
1E
100
AcDbEntity
  8
STEMPEL
100
AcDbLine
 10
198.5000000000025
 20
378.02237045942
 30
0.0
 11
198.500000000008
 21
211.2465007751989
 31
0.0
  0
LINE
  5
66D
102
{ACAD_REACTORS
330
707
102
}
330
1E
100
AcDbEntity
  8
STEMPEL
100
AcDbLine
 10
198.5000000000025
 20
378.02237045942
 30
0.0
 11
198.500000000008
 21
211.2465007751989
 31
0.0
  0
LINE
  5
66E
330
1E
100
AcDbEntity
  8
STEMPEL
100
AcDbLine
 10
199.9999999999999
 20
378.080257464621
 30
0.0
 11
199.9999999999999
 21
211.3119921896547
 31
0.0
  0
LINE
  5
66F
330
1E
100
AcDbEntity
  8
STEMPEL
100
AcDbLine
 10
182.1000000000001
 20
376.609607125831
 30
0.0
 11
182.1000000000003
 21
236.3119921896549
 31
0.0
  0
LINE
  5
670
330
1E
100
AcDbEntity
  8
STEMPEL
100
AcDbLine
 10
180.5000000000001
 20
376.4213659729784
 30
0.0
 11
180.5000000000003
 21
236.3119921896549
 31
0.0
  0
LINE
  5
671
330
1E
100
AcDbEntity
  8
STEMPEL
100
AcDbLine
 10
180.5000000000001
 20
376.4213659729784
 30
0.0
 11
180.5000000000003
 21
234.3119921896549
 31
0.0
  0
LINE
  5
672
102
{ACAD_REACTORS
330
707
102
}
330
1E
100
AcDbEntity
  8
STEMPEL
100
AcDbLine
 10
182.1000000000001
 20
376.609607125831
 30
0.0
 11
182.1000000000003
 21
236.3119921896549
 31
0.0
  0
HATCH
  5
6D4
330
1E
100
AcDbEntity
  8
SCHRAFF
100
AcDbHatch
 10
0.0
 20
0.0
 30
0.0
210
0.0
220
0.0
230
1.0
  2
_USER
 70
     0
 71
     0
 91
        4
 92
        7
 72
     0
 73
     1
 93
        4
 10
269.4999999999998
 20
494.3119921896546
 10
267.8999999999998
 20
494.3119921896546
 10
267.9
 20
381.2331248201259
 10
269.5
 20
381.4213659729785
 97
        0
 92
        7
 72
     0
 73
     1
 93
        4
 10
269.4999999999999
 20
376.4213659729784
 10
267.9
 20
376.2331248201259
 10
267.9000000000002
 20
236.3119921896546
 10
269.5000000000002
 20
236.3119921896546
 97
        0
 92
        7
 72
     0
 73
     1
 93
        4
 10
180.5000000000003
 20
236.311992189655
 10
182.1000000000003
 20
236.311992189655
 10
182.1000000000001
 20
376.6096071258311
 10
180.5000000000001
 20
376.4213659729786
 97
        0
 92
        7
 72
     0
 73
     1
 93
        4
 10
180.5000000000001
 20
381.4213659729785
 10
182.1000000000001
 20
381.6096071258311
 10
182.0999999999999
 20
494.3119921896549
 10
180.4999999999999
 20
494.3119921896549
 97
        0
 75
     0
 76
     0
 52
135.0
 41
2.0
 77
     0
 78
     1
 53
135.0
 43
0.0
 44
0.0
 45
-1.414213562373095
 46
-1.414213562373094
 79
     0
 47
0.5720897576311982
 98
        4
 10
269.148208979107
 20
437.1299809284464
 10
269.148208979107
 20
359.3257734864294
 10
180.9844169953398
 20
362.186222505542
 10
180.9844169953398
 20
387.9302608785811
  0
HATCH
  5
707
330
1E
100
AcDbEntity
  8
SCHRAFF
100
AcDbHatch
 10
0.0
 20
0.0
 30
0.0
210
0.0
220
0.0
230
1.0
  2
HONEY
 70
     0
 71
     1
 91
        4
 92
        7
 72
     1
 73
     1
 93
       11
 10
267.8999999999998
 20
480.3119921896547
 42
0.0
 10
256.4730126107652
 20
480.3119921896547
 42
-0.0734311771838392
 10
255.0714372072189
 20
473.1439891378203
 42
0.0851285408962776
 10
254.4999999999999
 20
469.8119921896551
 42
0.0
 10
254.4999999999999
 20
461.7203191028507
 42
-0.1395991324168488
 10
252.7000000000002
 20
455.3989268511396
 42
0.1395991324168723
 10
251.5000000000001
 20
451.1846653499983
 42
0.0
 10
251.5
 20
379.8203614865371
 42
0.0
 10
254.7246093750016
 20
379.9448034729786
 42
0.0
 10
261.6560058593773
 20
380.4985144104788
 42
0.0
 10
267.8999999999999
 20
381.233124820126
 42
0.0
 97
        9
330
3CA
330
3D2
330
3CE
330
3D0
330
3C5
330
3C9
330
3B9
330
631
330
3BE
 92
        7
 72
     1
 73
     1
 93
       11
 10
198.4999999999999
 20
451.184665349998
 42
0.1395991324168611
 10
197.3
 20
455.3989268511391
 42
-0.1395991324168599
 10
195.5
 20
461.7203191028507
 42
0.0
 10
195.5
 20
469.8119921896547
 42
0.0851285408962439
 10
194.9285627927816
 20
473.1439891378188
 42
-0.0734311771838566
 10
193.5269873892348
 20
480.3119921896548
 42
0.0
 10
182.0999999999999
 20
480.3119921896549
 42
0.0
 10
182.1000000000001
 20
381.609607125831
 42
0.0
 10
188.3439941406243
 20
382.3442175354784
 42
0.0
 10
195.275390625
 20
382.8979284729785
 42
0.0
 10
198.5000000000023
 20
383.02237045942
 42
0.0
 97
        9
330
3A6
330
3A5
330
3B1
330
3AE
330
3A9
330
3AC
330
39D
330
631
330
39A
 92
        7
 72
     0
 73
     1
 93
        7
 10
251.5
 20
252.3119921896548
 10
267.3412676881323
 20
252.3119921896548
 10
267.9000000000002
 20
236.3119921896571
 10
267.9
 20
376.2331248201259
 10
261.6560058593753
 20
375.4985144104785
 10
254.7246093749996
 20
374.9448034729785
 10
251.5
 20
374.8203614865371
 97
        5
330
64B
330
669
330
3C0
330
3C4
330
666
 92
        7
 72
     0
 73
     1
 93
        7
 10
198.5000000000026
 20
378.02237045942
 10
195.2753906249979
 20
377.8979284729784
 10
188.3439941406252
 20
377.3442175354784
 10
182.1000000000001
 20
376.609607125831
 10
182.1000000000003
 20
236.3119921896546
 10
182.6587323118683
 20
252.3119921896548
 10
198.5000000000067
 20
252.3119921896548
 97
        5
330
64B
330
672
330
3A2
330
39F
330
66D
 75
     0
 76
     1
 52
0.0
 41
25.0
 77
     0
 78
     3
 53
0.0
 43
0.0
 44
0.0
 45
4.6875
 46
2.706329374999999
 79
     2
 49
3.125
 49
-6.25
 53
120.0
 43
0.0
 44
0.0
 45
-4.687499989758061
 46
2.706329392739557
 79
     2
 49
3.125
 49
-6.25
 53
60.0
 43
0.0
 44
0.0
 45
0.0000000102419385
 46
5.412658767739556
 79
     2
 49
-6.25
 49
3.125
 47
0.5720897576311982
 98
        4
 10
262.2783026912111
 20
419.3951986893328
 10
190.7167842365247
 20
417.1068391941453
 10
259.4158417379217
 20
349.0281578573163
 10
190.7167842365247
 20
362.186222505542
  0
HATCH
  5
7D6
330
1E
100
AcDbEntity
  8
SCHRAFF
100
AcDbHatch
 10
0.0
 20
0.0
 30
0.0
210
0.0
220
0.0
230
1.0
  2
_USER
 70
     0
 71
     0
 91
        4
 92
        7
 72
     1
 73
     1
 93
       20
 10
251.5000000000001
 20
451.1846653499981
 42
-0.1395991324168488
 10
252.6999999999998
 20
455.3989268511388
 42
0.1395991324168681
 10
254.4999999999999
 20
461.7203191028507
 42
0.0
 10
254.4999999999999
 20
469.8119921896548
 42
-0.085128540896238
 10
255.0714372072183
 20
473.1439891378186
 42
0.0847252966084358
 10
256.5000000000001
 20
481.4339564876927
 42
0.0
 10
256.4999999999999
 20
485.929490846994
 42
0.1115469390821217
 10
254.6063531499369
 20
494.3119921896546
 42
0.0
 10
252.9519779707476
 20
494.3119921896547
 42
0.0
 10
253.3135401666594
 20
493.5366195583271
 42
-0.1095178116832497
 10
254.9999999999999
 20
485.929490846994
 42
0.0
 10
254.9999999999999
 20
481.5128082437197
 42
-0.0855444844068017
 10
253.6571527883016
 20
473.6437886800448
 42
0.0851285408962731
 10
253.0000000000001
 20
469.811992189655
 42
0.0
 10
253.0000000000001
 20
461.7203191028507
 42
-0.1361061113099485
 10
251.5000000000001
 20
456.3119921896549
 42
0.0
 10
251.5000000000001
 20
456.3081407329778
 42
0.1433758286905711
 10
250.0
 20
451.184665349998
 42
0.0
 10
250.0
 20
379.762474481336
 42
0.0
 10
251.5
 20
379.8203614865371
 42
0.0
 97
        0
 92
        7
 72
     1
 73
     1
 93
       20
 10
199.9999999999999
 20
451.1846653499979
 42
0.1433758286905727
 10
198.4999999999999
 20
456.3081407329778
 42
0.0
 10
198.4999999999999
 20
456.3119921896549
 42
-0.1361061113099484
 10
196.9999999999999
 20
461.7203191028507
 42
0.0
 10
196.9999999999999
 20
469.8119921896547
 42
0.0851285408962504
 10
196.3428472116987
 20
473.6437886800437
 42
-0.0855444844068151
 10
195.0
 20
481.5128082437197
 42
0.0
 10
195.0
 20
485.929490846994
 42
-0.1095178116832493
 10
196.6864598333406
 20
493.536619558327
 42
0.0
 10
197.0480220292526
 20
494.3119921896547
 42
0.0
 10
195.3936468500632
 20
494.3119921896547
 42
0.1115469390821248
 10
193.4999999999999
 20
485.929490846994
 42
0.0
 10
193.4999999999999
 20
481.4339564876992
 42
0.0847252966084973
 10
194.9285627927815
 20
473.1439891378189
 42
-0.0851285408962502
 10
195.5
 20
469.8119921896547
 42
0.0
 10
195.5
 20
461.7203191028507
 42
0.1395991324168599
 10
197.3
 20
455.3989268511391
 42
-0.1395991324168484
 10
198.4999999999999
 20
451.1846653499985
 42
0.0
 10
198.5000000000024
 20
383.02237045942
 42
0.0
 10
199.9999999999999
 20
383.080257464621
 42
0.0
 97
        0
 92
        7
 72
     0
 73
     1
 93
        6
 10
199.9999999999999
 20
378.080257464621
 10
198.5000000000025
 20
378.02237045942
 10
198.500000000008
 20
211.2465007751989
 10
198.9317135613146
 20
206.3119921896547
 10
200.4374433176295
 20
206.3119921896548
 10
199.9999999999999
 20
211.3119921896549
 97
        0
 92
        7
 72
     0
 73
     1
 93
        6
 10
251.5
 20
374.8203614865371
 10
250.0000000000001
 20
374.762474481336
 10
250.0000000000001
 20
211.311992189649
 10
249.562556682371
 20
206.3119921896548
 10
251.0682864386859
 20
206.3119921896548
 10
251.5
 20
211.2465007752866
 97
        0
 75
     0
 76
     0
 52
45.0
 41
2.0
 77
     0
 78
     1
 53
45.0
 43
0.0
 44
0.0
 45
-1.414213562373094
 46
1.414213562373095
 79
     0
 47
0.610111662657399
 98
        4
 10
250.6195380409904
 20
399.1217935913665
 10
199.3341093422023
 20
391.8004541701282
 10
199.3341093422023
 20
357.0240880706556
 10
250.6195380409904
 20
349.0926364478607
  0
HATCH
  5
834
330
1E
100
AcDbEntity
  8
SCHRAFF
100
AcDbHatch
 10
0.0
 20
0.0
 30
0.0
210
0.0
220
0.0
230
1.0
  2
NET
 70
     0
 71
     0
 91
        2
 92
        7
 72
     0
 73
     1
 93
       10
 10
267.3412676881323
 20
252.3119921896547
 10
251.5
 20
252.3119921896548
 10
251.5
 20
242.3119921896547
 10
255.5000000000003
 20
242.3119921896548
 10
258.9641016151382
 20
236.3119921896546
 10
263.4999999999993
 20
236.3119921896546
 10
263.4999999999993
 20
234.3119921896545
 10
269.5000000000001
 20
234.3119921896544
 10
269.5000000000001
 20
236.3119921896546
 10
267.9000000000003
 20
236.3119921896546
 97
        0
 92
        7
 72
     0
 73
     1
 93
       10
 10
198.5000000000056
 20
252.3119921896549
 10
182.6587323118683
 20
252.3119921896549
 10
182.1000000000003
 20
236.3119921896549
 10
180.5000000000003
 20
236.311992189655
 10
180.5000000000003
 20
234.3119921896549
 10
186.4999999999993
 20
234.3119921896549
 10
186.4999999999993
 20
236.3119921896549
 10
191.0358983848625
 20
236.3119921896549
 10
194.5000000000003
 20
242.3119921896548
 10
198.5000000000061
 20
242.3119921896548
 97
        0
 75
     0
 76
     1
 52
45.0
 41
20.0
 77
     0
 78
     2
 53
45.0
 43
0.0
 44
-85.56300186953103
 45
-1.767766952966368
 46
1.767766952966368
 79
     0
 53
135.0
 43
0.0
 44
-85.56300186953103
 45
-1.767766952966368
 46
-1.767766952966368
 79
     0
 47
0.1255994509103582
 98
        2
 10
259.0783806046493
 20
247.595318210798
 10
193.2245626811809
 20
248.6001141230304
  0
LINE
  5
835
330
1E
100
AcDbEntity
  8
STEMPEL
100
AcDbLine
 10
198.5000000000067
 20
234.3119921896549
 30
0.0
 11
180.5000000000003
 21
234.3119921896549
 31
0.0
  0
LINE
  5
836
330
1E
100
AcDbEntity
  8
STEMPEL
100
AcDbLine
 10
198.5000000000065
 20
236.3119921896548
 30
0.0
 11
186.4999999999992
 21
236.3119921896549
 31
0.0
  0
LINE
  5
837
330
1E
100
AcDbEntity
  8
STEMPEL
100
AcDbLine
 10
198.5000000000065
 20
236.3119921896548
 30
0.0
 11
186.4999999999992
 21
236.3119921896549
 31
0.0
  0
LINE
  5
838
330
1E
100
AcDbEntity
  8
STEMPEL
100
AcDbLine
 10
186.4999999999992
 20
236.3119921896547
 30
0.0
 11
186.4999999999992
 21
234.3119921896547
 31
0.0
  0
POINT
  5
839
330
1E
100
AcDbEntity
  8
STEMPEL
100
AcDbPoint
 10
186.4999999999992
 20
234.3119921896547
 30
0.0
  0
LINE
  5
83A
330
1E
100
AcDbEntity
  8
STEMPEL
100
AcDbLine
 10
194.5000000000003
 20
242.3119921896548
 30
0.0
 11
191.0358983848625
 21
236.3119921896548
 31
0.0
  0
LINE
  5
83B
330
1E
100
AcDbEntity
  8
STEMPEL
100
AcDbLine
 10
194.5000000000003
 20
242.3119921896548
 30
0.0
 11
191.0358983848625
 21
236.3119921896548
 31
0.0
  0
LINE
  5
83C
330
1E
100
AcDbEntity
  8
STEMPEL
100
AcDbLine
 10
269.5000000000002
 20
234.3119921896544
 30
0.0
 11
251.4999999999999
 21
234.3119921896545
 31
0.0
  0
LINE
  5
83D
330
1E
100
AcDbEntity
  8
STEMPEL
100
AcDbLine
 10
263.4999999999993
 20
236.3119921896547
 30
0.0
 11
263.4999999999993
 21
234.3119921896547
 31
0.0
  0
POINT
  5
83E
330
1E
100
AcDbEntity
  8
STEMPEL
100
AcDbPoint
 10
263.4999999999993
 20
234.3119921896547
 30
0.0
  0
LINE
  5
83F
330
1E
100
AcDbEntity
  8
STEMPEL
100
AcDbLine
 10
263.4999999999993
 20
236.3119921896546
 30
0.0
 11
251.5
 21
236.3119921896546
 31
0.0
  0
LINE
  5
840
330
1E
100
AcDbEntity
  8
STEMPEL
100
AcDbLine
 10
255.5000000000003
 20
242.3119921896548
 30
0.0
 11
258.9641016151381
 21
236.3119921896548
 31
0.0
  0
LINE
  5
841
330
1E
100
AcDbEntity
  8
STEMPEL
100
AcDbLine
 10
255.5000000000003
 20
242.3119921896548
 30
0.0
 11
258.9641016151381
 21
236.3119921896548
 31
0.0
  0
DIMENSION
  5
870
330
1E
100
AcDbEntity
  8
BEM
100
AcDbDimension
  2
*D6
 10
164.4441114457881
 20
236.3119921896549
 30
0.0
 11
157.9441114457881
 21
221.3119921896549
 31
0.0
 70
    32
 71
     5
 42
30.00000000000014
  3
Standard
100
AcDbAlignedDimension
 13
198.9317135613146
 23
206.3119921896547
 33
0.0
 14
180.5000000000003
 24
236.3119921896549
 34
0.0
 50
90.0
100
AcDbRotatedDimension
1001
ACAD
1000
DSTYLE
1002
{
1070
    40
1040
2.0
1070
    41
1040
3.5
1070
    42
1040
1.0
1070
    43
1040
7.0
1070
    44
1040
1.0
1070
    73
1070
     0
1070
    74
1070
     0
1070
    77
1070
     1
1070
    78
1070
     8
1070
    79
1070
     2
1070
   140
1040
3.5
1070
   141
1040
1.5
1070
   146
1040
0.5142857142857144
1070
   147
1040
1.5
1070
   172
1070
     1
1070
   178
1070
     1
1070
   179
1070
     2
1070
   271
1070
     2
1070
   272
1070
     2
1070
   284
1070
     8
1070
   285
1070
     8
1070
   286
1070
     8
1002
}
  0
ENDSEC
  0
SECTION
  2
OBJECTS
  0
DICTIONARY
  5
C
330
0
100
AcDbDictionary
281
     1
  3
ACAD_COLOR
350
DF
  3
ACAD_GROUP
350
D
  3
ACAD_LAYOUT
350
19
  3
ACAD_MATERIAL
350
DE
  3
ACAD_MLINESTYLE
350
16
  3
ACAD_PLOTSETTINGS
350
18
  3
ACAD_PLOTSTYLENAME
350
E
  3
AcDbVariableDictionary
350
EA
  0
DICTIONARY
  5
A0
330
1E
100
AcDbDictionary
280
     1
281
     1
  3
ACAD_LAYOUTSELFREF
360
D4
  0
DICTIONARY
  5
A2
330
1A
100
AcDbDictionary
280
     1
281
     1
  3
ACAD_LAYOUTSELFREF
360
D3
  0
DICTIONARY
  5
DF
102
{ACAD_REACTORS
330
C
102
}
330
C
100
AcDbDictionary
281
     1
  0
DICTIONARY
  5
D
102
{ACAD_REACTORS
330
C
102
}
330
C
100
AcDbDictionary
281
     1
  0
DICTIONARY
  5
19
102
{ACAD_REACTORS
330
C
102
}
330
C
100
AcDbDictionary
281
     1
  3
Layout1
350
1D
  3
Model
350
21
  0
DICTIONARY
  5
DE
102
{ACAD_REACTORS
330
C
102
}
330
C
100
AcDbDictionary
281
     1
  0
DICTIONARY
  5
16
102
{ACAD_REACTORS
330
C
102
}
330
C
100
AcDbDictionary
281
     1
  3
Standard
350
17
  0
DICTIONARY
  5
18
102
{ACAD_REACTORS
330
C
102
}
330
C
100
AcDbDictionary
281
     1
  0
ACDBDICTIONARYWDFLT
  5
E
102
{ACAD_REACTORS
330
C
102
}
330
C
100
AcDbDictionary
281
     1
  3
Normal
350
F
100
AcDbDictionaryWithDefault
340
F
  0
DICTIONARY
  5
EA
102
{ACAD_REACTORS
330
C
102
}
330
C
100
AcDbDictionary
281
     1
  3
DIMASSOC
350
EB
  3
PROJECTNAME
350
EC
  0
XRECORD
  5
D4
102
{ACAD_REACTORS
330
A0
102
}
330
A0
100
AcDbXrecord
280
     1
340
1E
  0
XRECORD
  5
D3
102
{ACAD_REACTORS
330
A2
102
}
330
A2
100
AcDbXrecord
280
     1
340
1A
  0
LAYOUT
  5
1D
102
{ACAD_REACTORS
330
19
102
}
330
19
100
AcDbPlotSettings
  1

  2
\\NT_WORK01\HP LaserJet 5000 PCL 6
  4

  6

 40
0.0
 41
0.0
 42
0.0
 43
0.0
 44
0.0
 45
0.0
 46
0.0
 47
0.0
 48
0.0
 49
0.0
140
0.0
141
0.0
142
1.0
143
1.0
 70
   688
 72
     0
 73
     0
 74
     5
  7

 75
    16
147
1.0
 76
     0
 77
     2
 78
   300
148
0.0
149
0.0
100
AcDbLayout
  1
Layout1
 70
     0
 71
     1
 10
0.0
 20
0.0
 11
12.0
 21
9.0
 12
0.0
 22
0.0
 32
0.0
 14
1.000000000000000E+20
 24
1.000000000000000E+20
 34
1.000000000000000E+20
 15
-1.000000000000000E+20
 25
-1.000000000000000E+20
 35
-1.000000000000000E+20
146
0.0
 13
0.0
 23
0.0
 33
0.0
 16
1.0
 26
0.0
 36
0.0
 17
0.0
 27
1.0
 37
0.0
 76
     0
330
1A
  0
LAYOUT
  5
21
102
{ACAD_REACTORS
330
19
102
}
330
19
100
AcDbPlotSettings
  1

  2
none_device
  4
Letter_(8.50_x_11.00_Inches)
  6

 40
6.349999904632568
 41
6.349999904632568
 42
6.350006103515625
 43
6.350006103515625
 44
215.8999938964844
 45
279.3999938964844
 46
0.0
 47
0.0
 48
0.0
 49
0.0
140
0.0
141
0.0
142
1.0
143
1.0
 70
 11952
 72
     0
 73
     1
 74
     0
  7

 75
     0
147
1.0
 76
     0
 77
     2
 78
   300
148
2286.722511197659
149
76.92250090747274
100
AcDbLayout
  1
Model
 70
     1
 71
     0
 10
0.0
 20
0.0
 11
12.0
 21
9.0
 12
0.0
 22
0.0
 32
0.0
 14
0.0
 24
0.0
 34
0.0
 15
0.0
 25
0.0
 35
0.0
146
0.0
 13
0.0
 23
0.0
 33
0.0
 16
1.0
 26
0.0
 36
0.0
 17
0.0
 27
1.0
 37
0.0
 76
     0
330
1E
  0
MLINESTYLE
  5
17
102
{ACAD_REACTORS
330
16
102
}
330
16
100
AcDbMlineStyle
  2
STANDARD
 70
     0
  3

 62
   256
 51
90.0
 52
90.0
 71
     2
 49
0.5
 62
   256
  6
BYLAYER
 49
-0.5
 62
   256
  6
BYLAYER
  0
ACDBPLACEHOLDER
  5
F
102
{ACAD_REACTORS
330
E
102
}
330
E
  0
DICTIONARYVAR
  5
EB
102
{ACAD_REACTORS
330
EA
102
}
330
EA
100
DictionaryVariables
280
     0
  1
1
  0
DICTIONARYVAR
  5
EC
102
{ACAD_REACTORS
330
EA
102
}
330
EA
100
DictionaryVariables
280
     0
  1

  0
ENDSEC
  0
EOF
