  0
SECTION
  2
HEADER
  9
$ACADVER
  1
AC1018
  9
$ACADMAINTVER
 70
     2
  9
$DWGCODEPAGE
  3
ANSI_1252
  9
$INSBASE
 10
0.0
 20
0.0
 30
0.0
  9
$EXTMIN
 10
-0.0064082024694017
 20
-0.0090630292066862
 30
-0.0015258207003583
  9
$EXTMAX
 10
210.006409180358
 20
297.0090644122208
 30
0.0000000349246037
  9
$LIMMIN
 10
0.0
 20
0.0
  9
$LIMMAX
 10
210.0
 20
297.0
  9
$ORTHOMODE
 70
     1
  9
$REGENMODE
 70
     1
  9
$FILLMODE
 70
     1
  9
$QTEXTMODE
 70
     0
  9
$MIRRTEXT
 70
     1
  9
$LTSCALE
 40
10.0
  9
$ATTMODE
 70
     1
  9
$TEXTSIZE
 40
3.5
  9
$TRACEWID
 40
0.5
  9
$TEXTSTYLE
  7
STANDARD
  9
$CLAYER
  8
SCHRAFF
  9
$CELTYPE
  6
ByLayer
  9
$CECOLOR
 62
   256
  9
$CELTSCALE
 40
1.0
  9
$DISPSILH
 70
     0
  9
$DIMSCALE
 40
1.0
  9
$DIMASZ
 40
3.5
  9
$DIMEXO
 40
1.0
  9
$DIMDLI
 40
7.0
  9
$DIMRND
 40
0.0
  9
$DIMDLE
 40
0.0
  9
$DIMEXE
 40
1.0
  9
$DIMTP
 40
0.0
  9
$DIMTM
 40
0.0
  9
$DIMTXT
 40
3.5
  9
$DIMCEN
 40
1.5
  9
$DIMTSZ
 40
0.0
  9
$DIMTOL
 70
     0
  9
$DIMLIM
 70
     0
  9
$DIMTIH
 70
     0
  9
$DIMTOH
 70
     0
  9
$DIMSE1
 70
     0
  9
$DIMSE2
 70
     0
  9
$DIMTAD
 70
     1
  9
$DIMZIN
 70
     8
  9
$DIMBLK
  1

  9
$DIMASO
 70
     1
  9
$DIMSHO
 70
     0
  9
$DIMPOST
  1

  9
$DIMAPOST
  1

  9
$DIMALT
 70
     0
  9
$DIMALTD
 70
     2
  9
$DIMALTF
 40
25.4
  9
$DIMLFAC
 40
1.0
  9
$DIMTOFL
 70
     1
  9
$DIMTVP
 40
0.0
  9
$DIMTIX
 70
     0
  9
$DIMSOXD
 70
     0
  9
$DIMSAH
 70
     0
  9
$DIMBLK1
  1

  9
$DIMBLK2
  1

  9
$DIMSTYLE
  2
Standard
  9
$DIMCLRD
 70
     0
  9
$DIMCLRE
 70
     0
  9
$DIMCLRT
 70
     1
  9
$DIMTFAC
 40
0.5142857142857144
  9
$DIMGAP
 40
1.5
  9
$DIMJUST
 70
     0
  9
$DIMSD1
 70
     0
  9
$DIMSD2
 70
     0
  9
$DIMTOLJ
 70
     1
  9
$DIMTZIN
 70
     8
  9
$DIMALTZ
 70
     8
  9
$DIMALTTZ
 70
     8
  9
$DIMUPT
 70
     0
  9
$DIMDEC
 70
     2
  9
$DIMTDEC
 70
     2
  9
$DIMALTU
 70
     2
  9
$DIMALTTD
 70
     2
  9
$DIMTXSTY
  7
STANDARD
  9
$DIMAUNIT
 70
     0
  9
$DIMADEC
 70
     2
  9
$DIMALTRND
 40
0.0
  9
$DIMAZIN
 70
     2
  9
$DIMDSEP
 70
    46
  9
$DIMATFIT
 70
     3
  9
$DIMFRAC
 70
     0
  9
$DIMLDRBLK
  1

  9
$DIMLUNIT
 70
     2
  9
$DIMLWD
 70
    -2
  9
$DIMLWE
 70
    -2
  9
$DIMTMOVE
 70
     0
  9
$LUNITS
 70
     2
  9
$LUPREC
 70
     2
  9
$SKETCHINC
 40
1.0
  9
$FILLETRAD
 40
0.0
  9
$AUNITS
 70
     0
  9
$AUPREC
 70
     0
  9
$MENU
  1
ACAD
  9
$ELEVATION
 40
0.0
  9
$PELEVATION
 40
0.0
  9
$THICKNESS
 40
0.0
  9
$LIMCHECK
 70
     0
  9
$CHAMFERA
 40
0.0
  9
$CHAMFERB
 40
0.0
  9
$CHAMFERC
 40
0.0
  9
$CHAMFERD
 40
0.0
  9
$SKPOLY
 70
     0
  9
$TDCREATE
 40
2455397.864709028
  9
$TDUCREATE
 40
2455397.781375695
  9
$TDUPDATE
 40
2456220.421585706
  9
$TDUUPDATE
 40
2456220.338252373
  9
$TDINDWG
 40
0.1062439120
  9
$TDUSRTIMER
 40
0.1062439120
  9
$USRTIMER
 70
     1
  9
$ANGBASE
 50
0.0
  9
$ANGDIR
 70
     0
  9
$PDMODE
 70
     0
  9
$PDSIZE
 40
0.0
  9
$PLINEWID
 40
0.0
  9
$SPLFRAME
 70
     0
  9
$SPLINETYPE
 70
     6
  9
$SPLINESEGS
 70
     8
  9
$HANDSEED
  5
65A
  9
$SURFTAB1
 70
     6
  9
$SURFTAB2
 70
     6
  9
$SURFTYPE
 70
     6
  9
$SURFU
 70
     6
  9
$SURFV
 70
     6
  9
$UCSBASE
  2

  9
$UCSNAME
  2

  9
$UCSORG
 10
0.0
 20
0.0
 30
0.0
  9
$UCSXDIR
 10
1.0
 20
0.0
 30
0.0
  9
$UCSYDIR
 10
0.0
 20
1.0
 30
0.0
  9
$UCSORTHOREF
  2

  9
$UCSORTHOVIEW
 70
     0
  9
$UCSORGTOP
 10
0.0
 20
0.0
 30
0.0
  9
$UCSORGBOTTOM
 10
0.0
 20
0.0
 30
0.0
  9
$UCSORGLEFT
 10
0.0
 20
0.0
 30
0.0
  9
$UCSORGRIGHT
 10
0.0
 20
0.0
 30
0.0
  9
$UCSORGFRONT
 10
0.0
 20
0.0
 30
0.0
  9
$UCSORGBACK
 10
0.0
 20
0.0
 30
0.0
  9
$PUCSBASE
  2

  9
$PUCSNAME
  2

  9
$PUCSORG
 10
0.0
 20
0.0
 30
0.0
  9
$PUCSXDIR
 10
1.0
 20
0.0
 30
0.0
  9
$PUCSYDIR
 10
0.0
 20
1.0
 30
0.0
  9
$PUCSORTHOREF
  2

  9
$PUCSORTHOVIEW
 70
     0
  9
$PUCSORGTOP
 10
0.0
 20
0.0
 30
0.0
  9
$PUCSORGBOTTOM
 10
0.0
 20
0.0
 30
0.0
  9
$PUCSORGLEFT
 10
0.0
 20
0.0
 30
0.0
  9
$PUCSORGRIGHT
 10
0.0
 20
0.0
 30
0.0
  9
$PUCSORGFRONT
 10
0.0
 20
0.0
 30
0.0
  9
$PUCSORGBACK
 10
0.0
 20
0.0
 30
0.0
  9
$USERI1
 70
     0
  9
$USERI2
 70
     0
  9
$USERI3
 70
     0
  9
$USERI4
 70
     0
  9
$USERI5
 70
     0
  9
$USERR1
 40
0.0
  9
$USERR2
 40
0.0
  9
$USERR3
 40
0.0
  9
$USERR4
 40
0.0
  9
$USERR5
 40
0.0
  9
$WORLDVIEW
 70
     1
  9
$SHADEDGE
 70
     3
  9
$SHADEDIF
 70
    70
  9
$TILEMODE
 70
     1
  9
$MAXACTVP
 70
    16
  9
$PINSBASE
 10
0.0
 20
0.0
 30
0.0
  9
$PLIMCHECK
 70
     0
  9
$PEXTMIN
 10
1.000000000000000E+20
 20
1.000000000000000E+20
 30
1.000000000000000E+20
  9
$PEXTMAX
 10
-1.000000000000000E+20
 20
-1.000000000000000E+20
 30
-1.000000000000000E+20
  9
$PLIMMIN
 10
0.0
 20
0.0
  9
$PLIMMAX
 10
12.0
 20
9.0
  9
$UNITMODE
 70
     0
  9
$VISRETAIN
 70
     0
  9
$PLINEGEN
 70
     0
  9
$PSLTSCALE
 70
     0
  9
$TREEDEPTH
 70
  3020
  9
$CMLSTYLE
  2
Standard
  9
$CMLJUST
 70
     0
  9
$CMLSCALE
 40
1.0
  9
$PROXYGRAPHICS
 70
     1
  9
$MEASUREMENT
 70
     0
  9
$CELWEIGHT
370
    -1
  9
$ENDCAPS
280
     0
  9
$JOINSTYLE
280
     0
  9
$LWDISPLAY
290
     0
  9
$INSUNITS
 70
     0
  9
$HYPERLINKBASE
  1

  9
$STYLESHEET
  1
monochrome 1.ctb
  9
$XEDIT
290
     1
  9
$CEPSNTYPE
380
     0
  9
$PSTYLEMODE
290
     1
  9
$FINGERPRINTGUID
  2
{D68B0D02-A558-11D7-B632-000102183313}
  9
$VERSIONGUID
  2
{CA953DD8-B3F5-423E-B2C0-18C08818063B}
  9
$EXTNAMES
290
     1
  9
$PSVPSCALE
 40
0.0
  9
$OLESTARTUP
290
     0
  9
$SORTENTS
280
   127
  9
$INDEXCTL
280
     0
  9
$HIDETEXT
280
     0
  9
$XCLIPFRAME
290
     0
  9
$HALOGAP
280
     0
  9
$OBSCOLOR
 70
   257
  9
$OBSLTYPE
280
     0
  9
$INTERSECTIONDISPLAY
280
     0
  9
$INTERSECTIONCOLOR
 70
   257
  9
$DIMASSOC
280
     1
  9
$PROJECTNAME
  1

  0
ENDSEC
  0
SECTION
  2
CLASSES
  0
CLASS
  1
ACDBDICTIONARYWDFLT
  2
AcDbDictionaryWithDefault
  3
ObjectDBX Classes
 90
        0
 91
        1
280
     0
281
     0
  0
CLASS
  1
DICTIONARYVAR
  2
AcDbDictionaryVar
  3
ObjectDBX Classes
 90
        0
 91
        2
280
     0
281
     0
  0
ENDSEC
  0
SECTION
  2
TABLES
  0
TABLE
  2
VPORT
  5
8
330
0
100
AcDbSymbolTable
 70
     3
  0
VPORT
  5
659
330
8
100
AcDbSymbolTableRecord
100
AcDbViewportTableRecord
  2
*Active
 70
     0
 10
0.0
 20
0.0
 11
1.0
 21
1.0
 12
104.9999999999999
 22
148.5
 13
0.0
 23
0.0
 14
1.0
 24
1.0
 15
10.0
 25
10.0
 16
0.0
 26
0.0
 36
1.0
 17
0.0
 27
0.0
 37
0.0
 40
297.1684657180864
 41
1.404858299595141
 42
50.0
 43
0.0
 44
0.0
 50
0.0
 51
0.0
 71
     0
 72
  1500
 73
     1
 74
     0
 75
     0
 76
     0
 77
     0
 78
     0
281
     0
 65
     1
110
0.0
120
0.0
130
0.0
111
1.0
121
0.0
131
0.0
112
0.0
122
1.0
132
0.0
 79
     0
146
0.0
  0
ENDTAB
  0
TABLE
  2
LTYPE
  5
5
330
0
100
AcDbSymbolTable
 70
     2
  0
LTYPE
  5
13
330
5
100
AcDbSymbolTableRecord
100
AcDbLinetypeTableRecord
  2
ByBlock
 70
     0
  3

 72
    65
 73
     0
 40
0.0
  0
LTYPE
  5
14
330
5
100
AcDbSymbolTableRecord
100
AcDbLinetypeTableRecord
  2
ByLayer
 70
     0
  3

 72
    65
 73
     0
 40
0.0
  0
LTYPE
  5
15
330
5
100
AcDbSymbolTableRecord
100
AcDbLinetypeTableRecord
  2
Continuous
 70
     0
  3
Solid line
 72
    65
 73
     0
 40
0.0
  0
LTYPE
  5
25
330
5
100
AcDbSymbolTableRecord
100
AcDbLinetypeTableRecord
  2
STRICHPUNKT
 70
     0
  3
__ . __ . __ . __ . __ . __ . __ . __ . __ . __
 72
    65
 73
     4
 40
1.0
 49
0.5
 74
     0
 49
-0.25
 74
     0
 49
0.0
 74
     0
 49
-0.25
 74
     0
  0
ENDTAB
  0
TABLE
  2
LAYER
  5
2
330
0
100
AcDbSymbolTable
 70
     9
  0
LAYER
  5
10
330
2
100
AcDbSymbolTableRecord
100
AcDbLayerTableRecord
  2
0
 70
     0
 62
     7
  6
Continuous
370
    -3
390
F
  0
LAYER
  5
2A
330
2
100
AcDbSymbolTableRecord
100
AcDbLayerTableRecord
  2
VOLL
 70
     0
 62
     1
  6
Continuous
370
    -3
390
F
  0
LAYER
  5
2B
330
2
100
AcDbSymbolTableRecord
100
AcDbLayerTableRecord
  2
HILF
 70
     0
 62
     2
  6
Continuous
370
    -3
390
F
  0
LAYER
  5
2C
330
2
100
AcDbSymbolTableRecord
100
AcDbLayerTableRecord
  2
MITTEL
 70
     0
 62
     2
  6
STRICHPUNKT
370
    -3
390
F
  0
LAYER
  5
2F
330
2
100
AcDbSymbolTableRecord
100
AcDbLayerTableRecord
  2
BEM
 70
     0
 62
     7
  6
Continuous
370
    -3
390
F
  0
LAYER
  5
30
330
2
100
AcDbSymbolTableRecord
100
AcDbLayerTableRecord
  2
STEMPEL
 70
     0
 62
     3
  6
Continuous
370
    -3
390
F
  0
LAYER
  5
31
330
2
100
AcDbSymbolTableRecord
100
AcDbLayerTableRecord
  2
TEXT
 70
     0
 62
     7
  6
Continuous
370
    -3
390
F
  0
LAYER
  5
14D
330
2
100
AcDbSymbolTableRecord
100
AcDbLayerTableRecord
  2
Defpoints
 70
     0
 62
     7
  6
Continuous
290
     0
370
    -3
390
F
  0
LAYER
  5
1FE
330
2
100
AcDbSymbolTableRecord
100
AcDbLayerTableRecord
  2
SCHRAFF
 70
     0
 62
     7
  6
Continuous
370
    -3
390
F
  0
ENDTAB
  0
TABLE
  2
STYLE
  5
3
330
0
100
AcDbSymbolTable
 70
     2
  0
STYLE
  5
11
330
3
100
AcDbSymbolTableRecord
100
AcDbTextStyleTableRecord
  2
STANDARD
 70
     0
 40
0.0
 41
0.8
 50
0.0
 71
     0
 42
3.5
  3
simplex.shx
  4

  0
STYLE
  5
24
330
3
100
AcDbSymbolTableRecord
100
AcDbTextStyleTableRecord
  2
GREEKS
 70
     0
 40
0.0
 41
0.8
 50
0.0
 71
     0
 42
2.5
  3
SIMPLEX.shx
  4

  0
ENDTAB
  0
TABLE
  2
VIEW
  5
6
330
0
100
AcDbSymbolTable
 70
     0
  0
ENDTAB
  0
TABLE
  2
UCS
  5
7
330
0
100
AcDbSymbolTable
 70
     0
  0
ENDTAB
  0
TABLE
  2
APPID
  5
9
330
0
100
AcDbSymbolTable
 70
     1
  0
APPID
  5
12
330
9
100
AcDbSymbolTableRecord
100
AcDbRegAppTableRecord
  2
ACAD
 70
     0
  0
ENDTAB
  0
TABLE
  2
DIMSTYLE
  5
A
330
0
100
AcDbSymbolTable
 70
     1
100
AcDbDimStyleTable
 71
     1
340
9D
  0
DIMSTYLE
105
9D
102
{ACAD_REACTORS
330
18C
330
27F
330
4BB
330
4E1
102
}
330
A
100
AcDbSymbolTableRecord
100
AcDbDimStyleTableRecord
  2
Standard
 70
     0
340
11
  0
ENDTAB
  0
TABLE
  2
BLOCK_RECORD
  5
1
330
0
100
AcDbSymbolTable
 70
     5
  0
BLOCK_RECORD
  5
1E
102
{ACAD_XDICTIONARY
360
A0
102
}
330
1
100
AcDbSymbolTableRecord
100
AcDbBlockTableRecord
  2
*Model_Space
340
21
  0
BLOCK_RECORD
  5
1A
102
{ACAD_XDICTIONARY
360
A2
102
}
330
1
100
AcDbSymbolTableRecord
100
AcDbBlockTableRecord
  2
*Paper_Space
340
1D
  0
BLOCK_RECORD
  5
22
330
1
100
AcDbSymbolTableRecord
100
AcDbBlockTableRecord
  2
LOGO
340
0
102
{BLKREFS
331
9B
102
}
  0
BLOCK_RECORD
  5
18D
330
1
100
AcDbSymbolTableRecord
100
AcDbBlockTableRecord
  2
*D1
340
0
  0
BLOCK_RECORD
  5
280
330
1
100
AcDbSymbolTableRecord
100
AcDbBlockTableRecord
  2
*D2
340
0
  0
BLOCK_RECORD
  5
4BC
330
1
100
AcDbSymbolTableRecord
100
AcDbBlockTableRecord
  2
*D3
340
0
  0
BLOCK_RECORD
  5
4E2
330
1
100
AcDbSymbolTableRecord
100
AcDbBlockTableRecord
  2
*D4
340
0
  0
ENDTAB
  0
ENDSEC
  0
SECTION
  2
BLOCKS
  0
BLOCK
  5
35
330
1E
100
AcDbEntity
  8
0
100
AcDbBlockBegin
  2
*Model_Space
 70
     0
 10
0.0
 20
0.0
 30
0.0
  3
*Model_Space
  1

  0
ENDBLK
  5
36
330
1E
100
AcDbEntity
  8
0
100
AcDbBlockEnd
  0
BLOCK
  5
33
330
1A
100
AcDbEntity
 67
     1
  8
0
100
AcDbBlockBegin
  2
*Paper_Space
 70
     0
 10
0.0
 20
0.0
 30
0.0
  3
*Paper_Space
  1

  0
ENDBLK
  5
34
330
1A
100
AcDbEntity
 67
     1
  8
0
100
AcDbBlockEnd
  0
BLOCK
  5
37
330
22
100
AcDbEntity
  8
0
100
AcDbBlockBegin
  2
LOGO
 70
     0
 10
0.0
 20
0.0
 30
0.0
  3
LOGO
  1

  0
ARC
  5
38
330
22
100
AcDbEntity
  8
0
100
AcDbCircle
 10
11.59973089678112
 20
-9.271599258481501
 30
0.0
 40
4.5
100
AcDbArc
 50
270.0
 51
231.0575587310159
  0
LINE
  5
39
330
22
100
AcDbEntity
  8
0
100
AcDbLine
 10
3.599730896781125
 20
-4.771599258481529
 30
0.0
 11
3.599730896781153
 21
-11.77159925848133
 31
0.0
  0
LINE
  5
3A
330
22
100
AcDbEntity
  8
0
100
AcDbLine
 10
2.599730896781125
 20
-4.771599258481529
 30
0.0
 11
2.599730896781153
 21
-11.77159925848133
 31
0.0
  0
CIRCLE
  5
3B
330
22
100
AcDbEntity
  8
0
100
AcDbCircle
 10
11.59973089678112
 20
-9.271599258481501
 30
0.0
 40
3.5
  0
ARC
  5
3C
330
22
100
AcDbEntity
  8
0
100
AcDbCircle
 10
31.59973089678115
 20
-9.271599258481472
 30
0.0
 40
4.5
100
AcDbArc
 50
270.0
 51
231.0575587310182
  0
LINE
  5
3D
330
22
100
AcDbEntity
  8
0
100
AcDbLine
 10
17.59973089678112
 20
-4.771599258481472
 30
0.0
 11
17.59973089678115
 21
-13.77159925848147
 31
0.0
  0
ARC
  5
3E
330
22
100
AcDbEntity
  8
0
100
AcDbCircle
 10
22.59973089678116
 20
-7.271599258481472
 30
0.0
 40
2.5
100
AcDbArc
 50
293.1161887722295
 51
90.0
  0
CIRCLE
  5
3F
330
22
100
AcDbEntity
  8
0
100
AcDbCircle
 10
31.59973089678115
 20
-9.271599258481472
 30
0.0
 40
3.5
  0
ARC
  5
40
330
22
100
AcDbEntity
  8
0
100
AcDbCircle
 10
4.599730896781153
 20
-11.77159925848133
 30
0.0
 40
1.0
100
AcDbArc
 50
180.0
 51
270.0
  0
ARC
  5
41
330
22
100
AcDbEntity
  8
0
100
AcDbCircle
 10
4.599730896781153
 20
-11.77159925848133
 30
0.0
 40
2.0
100
AcDbArc
 50
179.9999999999992
 51
270.0
  0
LINE
  5
42
330
22
100
AcDbEntity
  8
0
100
AcDbLine
 10
11.59973089678115
 20
-13.77159925848144
 30
0.0
 11
4.599730896781153
 21
-13.77159925848147
 31
0.0
  0
LINE
  5
43
330
22
100
AcDbEntity
  8
0
100
AcDbLine
 10
8.771303772034769
 20
-12.77159925848136
 30
0.0
 11
4.599730896781153
 21
-12.77159925848133
 31
0.0
  0
LINE
  5
44
330
22
100
AcDbEntity
  8
0
100
AcDbLine
 10
31.59973089678115
 20
-13.77159925848147
 30
0.0
 11
23.6715276665056
 21
-13.77159925848144
 31
0.0
  0
LINE
  5
45
330
22
100
AcDbEntity
  8
0
100
AcDbLine
 10
23.56565672307022
 20
-9.51278021337896
 30
0.0
 11
24.4388546544846
 21
-12.77159925848144
 31
0.0
  0
LINE
  5
46
330
22
100
AcDbEntity
  8
0
100
AcDbLine
 10
22.59973089678116
 20
-9.771599258481472
 30
0.0
 11
18.59973089678112
 21
-9.771599258481472
 31
0.0
  0
LINE
  5
47
330
22
100
AcDbEntity
  8
0
100
AcDbLine
 10
18.59973089678115
 20
-13.77159925848144
 30
0.0
 11
17.59973089678115
 21
-13.77159925848144
 31
0.0
  0
LINE
  5
48
330
22
100
AcDbEntity
  8
0
100
AcDbLine
 10
18.59973089678115
 20
-9.771599258481472
 30
0.0
 11
18.59973089678115
 21
-13.77159925848144
 31
0.0
  0
LINE
  5
49
330
22
100
AcDbEntity
  8
0
100
AcDbLine
 10
22.59973089678116
 20
-9.771599258481472
 30
0.0
 11
23.67152766650562
 21
-13.77159925848147
 31
0.0
  0
ARC
  5
4A
330
22
100
AcDbEntity
  8
0
100
AcDbCircle
 10
22.59973089678116
 20
-7.271599258481472
 30
0.0
 40
2.5
100
AcDbArc
 50
270.0
 51
270.0000000000007
  0
LINE
  5
4B
330
22
100
AcDbEntity
  8
0
100
AcDbLine
 10
28.77130377203494
 20
-12.77159925848147
 30
0.0
 11
24.43885465448463
 21
-12.77159925848144
 31
0.0
  0
LINE
  5
4C
330
22
100
AcDbEntity
  8
0
100
AcDbLine
 10
3.599730896781125
 20
-4.771599258481472
 30
0.0
 11
2.599730896781125
 21
-4.771599258481472
 31
0.0
  0
LINE
  5
4D
330
22
100
AcDbEntity
  8
0
100
AcDbLine
 10
22.59973089678116
 20
-8.771599258481472
 30
0.0
 11
18.59973089678115
 21
-8.771599258481472
 31
0.0
  0
LINE
  5
4E
330
22
100
AcDbEntity
  8
0
100
AcDbLine
 10
22.59973089678116
 20
-5.771599258481472
 30
0.0
 11
18.59973089678115
 21
-5.771599258481472
 31
0.0
  0
LINE
  5
4F
330
22
100
AcDbEntity
  8
0
100
AcDbLine
 10
22.59973089678116
 20
-4.771599258481472
 30
0.0
 11
17.59973089678115
 21
-4.771599258481472
 31
0.0
  0
LINE
  5
50
330
22
100
AcDbEntity
  8
0
100
AcDbLine
 10
18.59973089678115
 20
-5.771599258481472
 30
0.0
 11
18.59973089678115
 21
-8.771599258481472
 31
0.0
  0
ARC
  5
51
330
22
100
AcDbEntity
  8
0
100
AcDbCircle
 10
22.59973089678116
 20
-7.271599258481472
 30
0.0
 40
1.5
100
AcDbArc
 50
270.0
 51
90.0
  0
ENDBLK
  5
52
330
22
100
AcDbEntity
  8
0
100
AcDbBlockEnd
  0
BLOCK
  5
197
330
18D
100
AcDbEntity
  8
0
100
AcDbBlockBegin
  2
*D1
 70
     1
 10
0.0
 20
0.0
 30
0.0
  3
*D1
  1

  0
LINE
  5
353
330
18D
100
AcDbEntity
  8
BEM
 62
     0
370
    -2
100
AcDbLine
 10
96.49999999999996
 20
104.0091435518676
 30
0.0
 11
96.49999999999996
 21
86.02589303537206
 31
0.0
  0
LINE
  5
354
330
18D
100
AcDbEntity
  8
BEM
 62
     0
370
    -2
100
AcDbLine
 10
128.5
 20
104.0091435518677
 30
0.0
 11
128.5
 21
86.02589303537206
 31
0.0
  0
LINE
  5
355
330
18D
100
AcDbEntity
  8
BEM
 62
     0
370
    -2
100
AcDbLine
 10
99.99999999999996
 20
87.02589303537207
 30
0.0
 11
125.0
 21
87.02589303537207
 31
0.0
  0
SOLID
  5
356
330
18D
100
AcDbEntity
  8
BEM
 62
     0
100
AcDbTrace
 10
99.99999999999996
 20
87.60922636870539
 30
0.0
 11
99.99999999999996
 21
86.44255970203873
 31
0.0
 12
96.49999999999996
 22
87.02589303537207
 32
0.0
 13
96.49999999999996
 23
87.02589303537207
 33
0.0
  0
SOLID
  5
357
330
18D
100
AcDbEntity
  8
BEM
 62
     0
100
AcDbTrace
 10
125.0
 20
87.60922636870539
 30
0.0
 11
125.0
 21
86.44255970203873
 31
0.0
 12
128.5
 22
87.02589303537207
 32
0.0
 13
128.5
 23
87.02589303537207
 33
0.0
  0
MTEXT
  5
358
330
18D
100
AcDbEntity
  8
BEM
 62
     1
100
AcDbMText
 10
112.5
 20
90.27589303537206
 30
0.0
 40
3.5
 41
0.0
 71
     5
 72
     1
  1
\A1;%%C32
 73
     1
 44
1.0
  0
POINT
  5
359
330
18D
100
AcDbEntity
  8
Defpoints
 62
     0
100
AcDbPoint
 10
96.49999999999996
 20
105.0091435518676
 30
0.0
  0
POINT
  5
35A
330
18D
100
AcDbEntity
  8
Defpoints
 62
     0
100
AcDbPoint
 10
128.5
 20
105.0091435518677
 30
0.0
  0
POINT
  5
35B
330
18D
100
AcDbEntity
  8
Defpoints
 62
     0
100
AcDbPoint
 10
128.5
 20
87.02589303537207
 30
0.0
  0
ENDBLK
  5
198
330
18D
100
AcDbEntity
  8
0
100
AcDbBlockEnd
  0
BLOCK
  5
28A
330
280
100
AcDbEntity
  8
0
100
AcDbBlockBegin
  2
*D2
 70
     1
 10
0.0
 20
0.0
 30
0.0
  3
*D2
  1

  0
LINE
  5
63E
330
280
100
AcDbEntity
  8
BEM
 62
     0
370
    -2
100
AcDbLine
 10
66.99999999999997
 20
268.7432921877408
 30
0.0
 11
51.47122360566258
 21
268.7432921877408
 31
0.0
  0
LINE
  5
63F
330
280
100
AcDbEntity
  8
BEM
 62
     0
370
    -2
100
AcDbLine
 10
95.93171356131454
 20
100.0746349662306
 30
0.0
 11
51.47122360566254
 21
100.0746349662306
 31
0.0
  0
LINE
  5
640
330
280
100
AcDbEntity
  8
BEM
 62
     0
370
    -2
100
AcDbLine
 10
52.47122360566258
 20
265.2432921877407
 30
0.0
 11
52.47122360566255
 21
103.5746349662306
 31
0.0
  0
SOLID
  5
641
330
280
100
AcDbEntity
  8
BEM
 62
     0
100
AcDbTrace
 10
51.88789027232925
 20
265.2432921877407
 30
0.0
 11
53.05455693899592
 21
265.2432921877407
 31
0.0
 12
52.47122360566258
 22
268.7432921877408
 32
0.0
 13
52.47122360566258
 23
268.7432921877408
 33
0.0
  0
SOLID
  5
642
330
280
100
AcDbEntity
  8
BEM
 62
     0
100
AcDbTrace
 10
51.88789027232921
 20
103.5746349662306
 30
0.0
 11
53.05455693899588
 21
103.5746349662306
 31
0.0
 12
52.47122360566255
 22
100.0746349662306
 32
0.0
 13
52.47122360566255
 23
100.0746349662306
 33
0.0
  0
MTEXT
  5
643
330
280
100
AcDbEntity
  8
BEM
 62
     1
100
AcDbMText
 10
49.22122360566254
 20
184.4089635769857
 30
0.0
 40
3.5
 41
0.0
 71
     5
 72
     1
  1
\A1;525
 11
0.0000000000000001
 21
1.0
 31
0.0
 73
     1
 44
1.0
  0
POINT
  5
644
330
280
100
AcDbEntity
  8
Defpoints
 62
     0
100
AcDbPoint
 10
67.99999999999997
 20
268.7432921877408
 30
0.0
  0
POINT
  5
645
330
280
100
AcDbEntity
  8
Defpoints
 62
     0
100
AcDbPoint
 10
96.93171356131456
 20
100.0746349662306
 30
0.0
  0
POINT
  5
646
330
280
100
AcDbEntity
  8
Defpoints
 62
     0
100
AcDbPoint
 10
52.47122360566255
 20
100.0746349662306
 30
0.0
  0
ENDBLK
  5
28B
330
280
100
AcDbEntity
  8
0
100
AcDbBlockEnd
  0
BLOCK
  5
4C6
330
4BC
100
AcDbEntity
  8
0
100
AcDbBlockBegin
  2
*D3
 70
     1
 10
0.0
 20
0.0
 30
0.0
  3
*D3
  1

  0
LINE
  5
50B
330
4BC
100
AcDbEntity
  8
BEM
 62
     0
370
    -2
100
AcDbLine
 10
67.99999999999997
 20
269.7432921877407
 30
0.0
 11
67.99999999999997
 21
283.7451572625612
 31
0.0
  0
LINE
  5
50C
330
4BC
100
AcDbEntity
  8
BEM
 62
     0
370
    -2
100
AcDbLine
 10
157.0
 20
269.7432921877407
 30
0.0
 11
157.0
 21
283.7451572625612
 31
0.0
  0
LINE
  5
50D
330
4BC
100
AcDbEntity
  8
BEM
 62
     0
370
    -2
100
AcDbLine
 10
71.49999999999997
 20
282.7451572625612
 30
0.0
 11
153.5
 21
282.7451572625612
 31
0.0
  0
SOLID
  5
50E
330
4BC
100
AcDbEntity
  8
BEM
 62
     0
100
AcDbTrace
 10
71.49999999999997
 20
283.3284905958945
 30
0.0
 11
71.49999999999997
 21
282.1618239292279
 31
0.0
 12
67.99999999999997
 22
282.7451572625612
 32
0.0
 13
67.99999999999997
 23
282.7451572625612
 33
0.0
  0
SOLID
  5
50F
330
4BC
100
AcDbEntity
  8
BEM
 62
     0
100
AcDbTrace
 10
153.5
 20
283.3284905958945
 30
0.0
 11
153.5
 21
282.1618239292279
 31
0.0
 12
157.0
 22
282.7451572625612
 32
0.0
 13
157.0
 23
282.7451572625612
 33
0.0
  0
MTEXT
  5
510
330
4BC
100
AcDbEntity
  8
BEM
 62
     1
100
AcDbMText
 10
112.5
 20
285.9951572625612
 30
0.0
 40
3.5
 41
0.0
 71
     5
 72
     1
  1
\A1;%%c89
 73
     1
 44
1.0
  0
POINT
  5
511
330
4BC
100
AcDbEntity
  8
Defpoints
 62
     0
100
AcDbPoint
 10
67.99999999999997
 20
268.7432921877408
 30
0.0
  0
POINT
  5
512
330
4BC
100
AcDbEntity
  8
Defpoints
 62
     0
100
AcDbPoint
 10
157.0
 20
268.7432921877408
 30
0.0
  0
POINT
  5
513
330
4BC
100
AcDbEntity
  8
Defpoints
 62
     0
100
AcDbPoint
 10
157.0
 20
282.7451572625612
 30
0.0
  0
ENDBLK
  5
4C7
330
4BC
100
AcDbEntity
  8
0
100
AcDbBlockEnd
  0
BLOCK
  5
4EC
330
4E2
100
AcDbEntity
  8
0
100
AcDbBlockBegin
  2
*D4
 70
     1
 10
0.0
 20
0.0
 30
0.0
  3
*D4
  1

  0
LINE
  5
647
330
4E2
100
AcDbEntity
  8
BEM
 62
     0
370
    -2
100
AcDbLine
 10
66.99999999999997
 20
268.7432921877408
 30
0.0
 11
59.04719814705962
 21
268.7432921877408
 31
0.0
  0
LINE
  5
648
330
4E2
100
AcDbEntity
  8
BEM
 62
     0
370
    -2
100
AcDbLine
 10
66.99999999999997
 20
120.0746349662306
 30
0.0
 11
59.04719814705959
 21
120.0746349662306
 31
0.0
  0
LINE
  5
649
330
4E2
100
AcDbEntity
  8
BEM
 62
     0
370
    -2
100
AcDbLine
 10
60.04719814705961
 20
265.2432921877407
 30
0.0
 11
60.04719814705959
 21
123.5746349662306
 31
0.0
  0
SOLID
  5
64A
330
4E2
100
AcDbEntity
  8
BEM
 62
     0
100
AcDbTrace
 10
59.46386481372628
 20
265.2432921877407
 30
0.0
 11
60.63053148039295
 21
265.2432921877407
 31
0.0
 12
60.04719814705961
 22
268.7432921877408
 32
0.0
 13
60.04719814705961
 23
268.7432921877408
 33
0.0
  0
SOLID
  5
64B
330
4E2
100
AcDbEntity
  8
BEM
 62
     0
100
AcDbTrace
 10
59.46386481372625
 20
123.5746349662306
 30
0.0
 11
60.63053148039292
 21
123.5746349662306
 31
0.0
 12
60.04719814705959
 22
120.0746349662306
 32
0.0
 13
60.04719814705959
 23
120.0746349662306
 33
0.0
  0
MTEXT
  5
64C
330
4E2
100
AcDbEntity
  8
BEM
 62
     1
100
AcDbMText
 10
56.79719814705958
 20
194.4089635769857
 30
0.0
 40
3.5
 41
0.0
 71
     5
 72
     1
  1
\A1;505
 11
0.0000000000000001
 21
1.0
 31
0.0
 73
     1
 44
1.0
  0
POINT
  5
64D
330
4E2
100
AcDbEntity
  8
Defpoints
 62
     0
100
AcDbPoint
 10
67.99999999999997
 20
268.7432921877408
 30
0.0
  0
POINT
  5
64E
330
4E2
100
AcDbEntity
  8
Defpoints
 62
     0
100
AcDbPoint
 10
67.99999999999997
 20
120.0746349662306
 30
0.0
  0
POINT
  5
64F
330
4E2
100
AcDbEntity
  8
Defpoints
 62
     0
100
AcDbPoint
 10
60.04719814705959
 20
120.0746349662306
 30
0.0
  0
ENDBLK
  5
4ED
330
4E2
100
AcDbEntity
  8
0
100
AcDbBlockEnd
  0
ENDSEC
  0
SECTION
  2
ENTITIES
  0
LINE
  5
57
330
1E
100
AcDbEntity
  8
STEMPEL
100
AcDbLine
 10
205.0
 20
55.00000000000003
 30
0.0
 11
19.99999999999998
 21
55.0
 31
0.0
  0
LINE
  5
58
330
1E
100
AcDbEntity
  8
STEMPEL
100
AcDbLine
 10
73.00000000000006
 20
54.99999999999997
 30
0.0
 11
73.0
 21
4.999999999999985
 31
0.0
  0
LINE
  5
59
330
1E
100
AcDbEntity
  8
STEMPEL
100
AcDbLine
 10
115.0
 20
55.00000000000003
 30
0.0
 11
115.0
 21
4.999999999999985
 31
0.0
  0
LINE
  5
5A
330
1E
100
AcDbEntity
  8
STEMPEL
100
AcDbLine
 10
166.0
 20
54.99999999999989
 30
0.0
 11
166.0
 21
20.0
 31
0.0
  0
LINE
  5
5B
330
1E
100
AcDbEntity
  8
STEMPEL
100
AcDbLine
 10
72.99999999999994
 20
14.99999999999998
 30
0.0
 11
19.99999999999998
 21
14.99999999999998
 31
0.0
  0
LINE
  5
5C
330
1E
100
AcDbEntity
  8
STEMPEL
100
AcDbLine
 10
205.0
 20
20.0
 30
0.0
 11
73.00000000000006
 21
19.99999999999998
 31
0.0
  0
LINE
  5
5D
330
1E
100
AcDbEntity
  8
STEMPEL
100
AcDbLine
 10
205.0
 20
40.0
 30
0.0
 11
73.00000000000006
 21
39.99999999999997
 31
0.0
  0
LINE
  5
5E
330
1E
100
AcDbEntity
  8
VOLL
100
AcDbLine
 10
27.00000000000005
 20
55.00000000000003
 30
0.0
 11
26.99999999999999
 21
4.999999999999985
 31
0.0
  0
LINE
  5
5F
330
1E
100
AcDbEntity
  8
VOLL
100
AcDbLine
 10
52.00000000000006
 20
54.99999999999997
 30
0.0
 11
52.0
 21
4.999999999999985
 31
0.0
  0
LINE
  5
60
330
1E
100
AcDbEntity
  8
VOLL
100
AcDbLine
 10
62.00000000000006
 20
54.99999999999997
 30
0.0
 11
62.0
 21
4.999999999999985
 31
0.0
  0
LINE
  5
61
330
1E
100
AcDbEntity
  8
VOLL
100
AcDbLine
 10
82.00000000000006
 20
39.99999999999997
 30
0.0
 11
82.00000000000006
 21
19.99999999999998
 31
0.0
  0
LINE
  5
62
330
1E
100
AcDbEntity
  8
VOLL
100
AcDbLine
 10
95.00000000000005
 20
54.99999999999992
 30
0.0
 11
95.0
 21
19.99999999999998
 31
0.0
  0
LINE
  5
63
330
1E
100
AcDbEntity
  8
HILF
100
AcDbLine
 10
20.00000000000004
 20
50.00000000000003
 30
0.0
 11
73.00000000000006
 21
50.00000000000003
 31
0.0
  0
LINE
  5
64
330
1E
100
AcDbEntity
  8
HILF
100
AcDbLine
 10
20.00000000000004
 20
45.00000000000002
 30
0.0
 11
73.00000000000006
 21
45.00000000000002
 31
0.0
  0
LINE
  5
65
330
1E
100
AcDbEntity
  8
HILF
100
AcDbLine
 10
20.00000000000004
 20
39.99999999999997
 30
0.0
 11
73.00000000000006
 21
39.99999999999997
 31
0.0
  0
LINE
  5
66
330
1E
100
AcDbEntity
  8
HILF
100
AcDbLine
 10
20.00000000000004
 20
34.99999999999997
 30
0.0
 11
73.00000000000006
 21
34.99999999999997
 31
0.0
  0
LINE
  5
67
330
1E
100
AcDbEntity
  8
HILF
100
AcDbLine
 10
20.00000000000004
 20
29.99999999999999
 30
0.0
 11
73.00000000000006
 21
29.99999999999999
 31
0.0
  0
LINE
  5
68
330
1E
100
AcDbEntity
  8
HILF
100
AcDbLine
 10
20.00000000000004
 20
24.99999999999999
 30
0.0
 11
73.00000000000006
 21
24.99999999999999
 31
0.0
  0
LINE
  5
69
330
1E
100
AcDbEntity
  8
HILF
100
AcDbLine
 10
20.00000000000004
 20
19.99999999999998
 30
0.0
 11
73.00000000000006
 21
19.99999999999998
 31
0.0
  0
LINE
  5
6A
330
1E
100
AcDbEntity
  8
HILF
100
AcDbLine
 10
73.00000000000006
 20
34.99999999999997
 30
0.0
 11
115.0
 21
34.99999999999997
 31
0.0
  0
LINE
  5
6B
330
1E
100
AcDbEntity
  8
HILF
100
AcDbLine
 10
73.00000000000006
 20
29.99999999999999
 30
0.0
 11
115.0
 21
29.99999999999999
 31
0.0
  0
LINE
  5
6C
330
1E
100
AcDbEntity
  8
HILF
100
AcDbLine
 10
73.00000000000006
 20
24.99999999999999
 30
0.0
 11
115.0
 21
24.99999999999999
 31
0.0
  0
LINE
  5
6D
330
1E
100
AcDbEntity
  8
HILF
100
AcDbLine
 10
117.3868400548473
 20
42.01879123782069
 30
0.0
 11
162.4176958278155
 21
42.01879123782069
 31
0.0
  0
LINE
  5
6E
330
1E
100
AcDbEntity
  8
HILF
100
AcDbLine
 10
117.3868400548473
 20
34.99999999999997
 30
0.0
 11
162.4176958278155
 21
34.99999999999997
 31
0.0
  0
LINE
  5
6F
330
1E
100
AcDbEntity
  8
HILF
100
AcDbLine
 10
117.3868400548473
 20
29.99999999999999
 30
0.0
 11
162.4176958278155
 21
29.99999999999999
 31
0.0
  0
LINE
  5
70
330
1E
100
AcDbEntity
  8
HILF
100
AcDbLine
 10
117.3868400548473
 20
24.99999999999999
 30
0.0
 11
162.4176958278155
 21
24.99999999999999
 31
0.0
  0
LINE
  5
71
330
1E
100
AcDbEntity
  8
VOLL
100
AcDbLine
 10
166.0
 20
30.0
 30
0.0
 11
205.0
 21
30.0
 31
0.0
  0
LINE
  5
72
330
1E
100
AcDbEntity
  8
HILF
100
AcDbLine
 10
168.3619308148496
 20
41.88991818477913
 30
0.0
 11
202.4294419663364
 21
41.88991818477913
 31
0.0
  0
LINE
  5
73
330
1E
100
AcDbEntity
  8
HILF
100
AcDbLine
 10
116.7454849644942
 20
7.446991290141568
 30
0.0
 11
202.4294419663364
 21
7.446991290141568
 31
0.0
  0
TEXT
  5
74
330
1E
100
AcDbEntity
  8
TEXT
100
AcDbText
 10
33.89754948745051
 20
9.336909474920659
 30
0.0
 40
2.0
  1
Änderung
 41
0.8
  7
GREEKS
 72
     1
 11
39.26897805887909
 21
9.336909474920659
 31
0.0
100
AcDbText
  0
TEXT
  5
75
330
1E
100
AcDbEntity
  8
TEXT
100
AcDbText
 10
76.75817860751886
 20
51.23104475435443
 30
0.0
 40
2.5
  1
Maßstab
 41
0.8
  7
GREEKS
100
AcDbText
  0
TEXT
  5
76
330
1E
100
AcDbEntity
  8
TEXT
100
AcDbText
 10
97.14294773670257
 20
51.20920842174095
 30
0.0
 40
2.5
  1
Zul. Abw.
 41
0.8
  7
GREEKS
100
AcDbText
  0
TEXT
  5
77
330
1E
100
AcDbEntity
  8
TEXT
100
AcDbText
 10
117.4389701904505
 20
51.27446640058898
 30
0.0
 40
2.5
  1
Benennung
 41
0.8
  7
GREEKS
100
AcDbText
  0
TEXT
  5
78
330
1E
100
AcDbEntity
  8
TEXT
100
AcDbText
 10
168.089377478817
 20
51.15660172685682
 30
0.0
 40
2.5
  1
Zeichnungs Nr.
 41
0.8
  7
GREEKS
100
AcDbText
  0
TEXT
  5
79
330
1E
100
AcDbEntity
  8
TEXT
100
AcDbText
 10
117.371119195568
 20
15.42280285096528
 30
0.0
 40
2.5
  1
Bauvorhaben
 41
0.8
  7
GREEKS
100
AcDbText
  0
TEXT
  5
7A
330
1E
100
AcDbEntity
  8
TEXT
100
AcDbText
 10
168.3619308148496
 20
36.59059118549985
 30
0.0
 40
2.5
  1
Ersatz für:
 41
0.8
  7
GREEKS
100
AcDbText
  0
TEXT
  5
7B
330
1E
100
AcDbEntity
  8
TEXT
100
AcDbText
 10
24.13320553522878
 20
6.827329230135958
 30
0.0
 40
2.0
  1
Index
 50
90.0
 41
0.8
  7
GREEKS
100
AcDbText
  0
TEXT
  5
7C
330
1E
100
AcDbEntity
  8
TEXT
100
AcDbText
 10
55.34930596176948
 20
9.33578134669905
 30
0.0
 40
2.0
  1
Tag
 41
0.8
  7
GREEKS
 72
     1
 11
57.21597262843615
 21
9.33578134669905
 31
0.0
100
AcDbText
  0
TEXT
  5
7D
330
1E
100
AcDbEntity
  8
TEXT
100
AcDbText
 10
64.50613721932963
 20
9.29662108483204
 30
0.0
 40
2.0
  1
Name
 41
0.8
  7
GREEKS
 72
     1
 11
67.66804198123439
 21
9.29662108483204
 31
0.0
100
AcDbText
  0
TEXT
  5
7E
330
1E
100
AcDbEntity
  8
TEXT
100
AcDbText
 10
86.16558365768254
 20
36.65940250614963
 30
0.0
 40
2.0
  1
Tag
 41
0.8
  7
GREEKS
100
AcDbText
  0
TEXT
  5
7F
330
1E
100
AcDbEntity
  8
TEXT
100
AcDbText
 10
101.2313292113147
 20
36.65480545957612
 30
0.0
 40
2.0
  1
Name
 41
0.8
  7
GREEKS
100
AcDbText
  0
TEXT
  5
80
330
1E
100
AcDbEntity
  8
TEXT
100
AcDbText
 10
73.79180635838077
 20
31.81495184808982
 30
0.0
 40
2.0
  1
Gez.
 41
0.8
  7
GREEKS
100
AcDbText
  0
TEXT
  5
81
330
1E
100
AcDbEntity
  8
TEXT
100
AcDbText
 10
73.77575432858361
 20
26.84463145714189
 30
0.0
 40
2.0
  1
Gepr.
 41
0.8
  7
GREEKS
100
AcDbText
  0
TEXT
  5
82
330
1E
100
AcDbEntity
  8
TEXT
100
AcDbText
 10
73.80033886936519
 20
21.76473194824904
 30
0.0
 40
2.0
  1
Norm.
 41
0.8
  7
GREEKS
100
AcDbText
  0
LINE
  5
83
330
1E
100
AcDbEntity
  8
STEMPEL
100
AcDbLine
 10
24.99999999999995
 20
5.0
 30
0.0
 11
205.0
 21
5.0
 31
0.0
  0
TEXT
  5
84
330
1E
100
AcDbEntity
  8
TEXT
100
AcDbText
 10
168.6200430748503
 20
26.03708088939301
 30
0.0
 40
2.5
  1
ersetzt durch:
 41
0.8
  7
GREEKS
100
AcDbText
  0
LINE
  5
85
330
1E
100
AcDbEntity
  8
STEMPEL
100
AcDbLine
 10
205.0
 20
5.0
 30
0.0
 11
19.99999999999994
 21
5.0
 31
0.0
  0
LINE
  5
86
330
1E
100
AcDbEntity
  8
STEMPEL
100
AcDbLine
 10
205.0
 20
5.0
 30
0.0
 11
205.0
 21
292.0
 31
0.0
  0
LINE
  5
87
330
1E
100
AcDbEntity
  8
STEMPEL
100
AcDbLine
 10
20.0
 20
5.0
 30
0.0
 11
19.99999999999994
 21
292.0
 31
0.0
  0
LINE
  5
88
330
1E
100
AcDbEntity
  8
STEMPEL
100
AcDbLine
 10
205.0
 20
292.0
 30
0.0
 11
19.99999999999994
 21
292.0
 31
0.0
  0
LINE
  5
89
330
1E
100
AcDbEntity
  8
HILF
100
AcDbLine
 10
0.0
 20
0.0
 30
0.0
 11
-0.0000000000000568
 21
297.0
 31
0.0
  0
LINE
  5
8A
330
1E
100
AcDbEntity
  8
HILF
100
AcDbLine
 10
210.0
 20
297.0000000000001
 30
0.0
 11
0.0
 21
297.0
 31
0.0
  0
LINE
  5
8B
330
1E
100
AcDbEntity
  8
HILF
100
AcDbLine
 10
210.0
 20
0.0
 30
0.0
 11
0.0
 21
0.0
 31
0.0
  0
LINE
  5
8C
330
1E
100
AcDbEntity
  8
HILF
100
AcDbLine
 10
15.54383567856928
 20
148.5
 30
0.0
 11
0.0000000000000568
 21
148.5
 31
0.0
  0
TEXT
  5
8D
330
1E
100
AcDbEntity
  8
TEXT
100
AcDbText
 10
74.31105491105199
 20
36.57012735575833
 30
0.0
 40
2.0
  1
2012
 41
0.8
  7
GREEKS
100
AcDbText
  0
LINE
  5
8E
330
1E
100
AcDbEntity
  8
HILF
100
AcDbLine
 10
210.0
 20
-0.0000000000000568
 30
0.0
 11
210.0
 21
297.0
 31
0.0
  0
TEXT
  5
8F
330
1E
100
AcDbEntity
  8
VOLL
100
AcDbText
 10
78.07675471698113
 20
31.02594776470585
 30
0.0
 40
1.8
  1

  7
GREEKS
100
AcDbText
  0
TEXT
  5
90
330
1E
100
AcDbEntity
  8
TEXT
100
AcDbText
 10
20.92754975488837
 20
55.83599999999997
 30
0.0
 40
2.5
  1
Erstellt mit AUTOCAD 2004
 41
0.8
  7
GREEKS
100
AcDbText
  0
TEXT
  5
91
330
1E
100
AcDbEntity
  8
TEXT
100
AcDbText
 10
102.2108024290628
 20
31.54481959861755
 30
0.0
 40
2.0
  1
Koeh
 41
0.8
  7
GREEKS
 72
     1
 11
104.8393738576343
 21
31.54481959861755
 31
0.0
100
AcDbText
  0
TEXT
  5
92
330
1E
100
AcDbEntity
  8
TEXT
 62
     1
100
AcDbText
 10
173.6813862032909
 20
44.07450714456979
 30
0.0
 40
3.5
  1
58013032W
 41
0.8
  7
GREEKS
 72
     1
 11
185.4147195366243
 21
44.07450714456979
 31
0.0
100
AcDbText
  0
TEXT
  5
93
330
1E
100
AcDbEntity
  8
TEXT
 62
     1
100
AcDbText
 10
80.25031532409434
 20
44.07450714456979
 30
0.0
 40
3.5
  1
1:1
 41
0.8
  7
GREEKS
100
AcDbText
  0
TEXT
  5
94
330
1E
100
AcDbEntity
  8
TEXT
100
AcDbText
 10
85.50426045887993
 20
31.55382520412866
 30
0.0
 40
2.0
  1
16.10.
 41
0.8
  7
GREEKS
 72
     1
 11
88.70426045887993
 21
31.55382520412866
 31
0.0
100
AcDbText
  0
TEXT
  5
95
330
1E
100
AcDbEntity
  8
TEXT
 62
     1
100
AcDbText
 10
117.4366498324599
 20
43.70874394626889
 30
0.0
 40
3.5
  1
Verbundrohr DN32
 41
0.8
  7
GREEKS
100
AcDbText
  0
TEXT
  5
96
330
1E
100
AcDbEntity
  8
TEXT
100
AcDbText
 10
117.5648195562657
 20
35.75167208792644
 30
0.0
 40
2.5
  1
500mm lang
 41
0.8
  7
GREEKS
100
AcDbText
  0
TEXT
  5
98
330
1E
100
AcDbEntity
  8
TEXT
100
AcDbText
 10
117.5648195562657
 20
25.82005971521079
 30
0.0
 40
2.5
  1
EDV-Art.Nr. 58013.032X
 41
0.8
  7
GREEKS
100
AcDbText
  0
TEXT
  5
99
330
1E
100
AcDbEntity
  8
TEXT
100
AcDbText
 10
117.4918750788913
 20
21.31487076511316
 30
0.0
 40
2.0
  1
58013032W.DWG
 41
0.8
  7
GREEKS
100
AcDbText
  0
TEXT
  5
9A
330
1E
100
AcDbEntity
  8
TEXT
100
AcDbText
 10
96.31306610404202
 20
45.38181920511511
 30
0.0
 40
2.0
  1
DIN EN1123-2
 41
0.8
  7
GREEKS
 72
     1
 11
104.8083041992801
 21
45.38181920511511
 31
0.0
100
AcDbText
  0
INSERT
  5
9B
330
1E
100
AcDbEntity
  8
STEMPEL
100
AcDbBlockReference
  2
LOGO
 10
75.4977742728897
 20
22.51052638224161
 30
0.0
  0
LINE
  5
116
330
1E
100
AcDbEntity
  8
MITTEL
100
AcDbLine
 10
112.5
 20
273.7432921877407
 30
0.0
 11
112.4999999999999
 21
95.07463496623062
 31
0.0
  0
TEXT
  5
11A
330
1E
100
AcDbEntity
  8
TEXT
 62
     1
100
AcDbText
 10
110.7777829197987
 20
225.4835635744612
 30
0.0
 40
3.5
  1
DN32
 50
90.0
 41
0.8
  7
GREEKS
100
AcDbText
  0
LINE
  5
11E
102
{ACAD_REACTORS
330
5FF
330
62C
102
}
330
1E
100
AcDbEntity
  8
STEMPEL
  6
Continuous
100
AcDbLine
 10
157.0
 20
268.7432921877408
 30
0.0
 11
67.99999999999997
 21
268.7432921877408
 31
0.0
  0
LINE
  5
142
330
1E
100
AcDbEntity
  8
STEMPEL
100
AcDbLine
 10
128.0682864386853
 20
100.0746349662306
 30
0.0
 11
96.93171356131456
 21
100.0746349662306
 31
0.0
  0
LINE
  5
143
330
1E
100
AcDbEntity
  8
HILF
100
AcDbLine
 10
126.4980900812283
 20
105.0746349662306
 30
0.0
 11
98.50190991877161
 21
105.0746349662306
 31
0.0
  0
LINE
  5
147
330
1E
100
AcDbEntity
  8
STEMPEL
100
AcDbLine
 10
96.49999999999996
 20
105.0091435518676
 30
0.0
 11
96.93171356131456
 21
100.0746349662306
 31
0.0
  0
LINE
  5
148
330
1E
100
AcDbEntity
  8
STEMPEL
100
AcDbLine
 10
128.5
 20
105.0091435518677
 30
0.0
 11
128.0682864386853
 21
100.0746349662306
 31
0.0
  0
DIMENSION
  5
18C
330
1E
100
AcDbEntity
  8
BEM
100
AcDbDimension
  2
*D1
 10
128.5
 20
87.02589303537207
 30
0.0
 11
112.5
 21
90.27589303537206
 31
0.0
 70
    32
  1
%%C<>
 71
     5
 42
32.00000000000005
  3
Standard
100
AcDbAlignedDimension
 13
96.49999999999996
 23
105.0091435518676
 33
0.0
 14
128.5
 24
105.0091435518677
 34
0.0
100
AcDbRotatedDimension
1001
ACAD
1000
DSTYLE
1002
{
1070
    41
1040
3.5
1070
    42
1040
1.0
1070
    43
1040
7.0
1070
    44
1040
1.0
1070
    73
1070
     0
1070
    74
1070
     0
1070
    77
1070
     1
1070
    78
1070
     8
1070
    79
1070
     2
1070
   140
1040
3.5
1070
   141
1040
1.5
1070
   146
1040
0.5142857142857144
1070
   147
1040
1.5
1070
   172
1070
     1
1070
   178
1070
     1
1070
   179
1070
     2
1070
   271
1070
     2
1070
   272
1070
     2
1070
   284
1070
     8
1070
   285
1070
     8
1070
   286
1070
     8
1002
}
  0
TEXT
  5
1D3
330
1E
100
AcDbEntity
  8
TEXT
 62
     1
100
AcDbText
 10
26.24937049607922
 20
77.06615042961982
 30
0.0
 40
3.5
  1
Rohrende leicht eingezogen
 41
0.8
  7
GREEKS
100
AcDbText
  0
TEXT
  5
276
330
1E
100
AcDbEntity
  8
BEM
100
AcDbText
 10
208.2905770718719
 20
6.074024076691515
 30
0.0
 40
2.0
  1
Diese Zeichnung ist urheberrechtlich geschützt und bleibt unser Eigentum. Sie darf weder ganz noch teilweise vervielfältigt und nicht an Dritte weitergegeben werden.
 50
90.0
 41
0.8
  7
GREEKS
100
AcDbText
  0
DIMENSION
  5
27F
330
1E
100
AcDbEntity
  8
BEM
100
AcDbDimension
  2
*D2
 10
52.47122360566255
 20
100.0746349662306
 30
0.0
 11
49.22122360566254
 21
184.4089635769857
 31
0.0
 70
    32
  1
525
 71
     5
 42
168.66865722151
  3
Standard
100
AcDbAlignedDimension
 13
67.99999999999997
 23
268.7432921877408
 33
0.0
 14
96.93171356131456
 24
100.0746349662306
 34
0.0
 50
90.0
100
AcDbRotatedDimension
1001
ACAD
1000
DSTYLE
1002
{
1070
    41
1040
3.5
1070
    42
1040
1.0
1070
    43
1040
7.0
1070
    44
1040
1.0
1070
    73
1070
     0
1070
    74
1070
     0
1070
    77
1070
     1
1070
    78
1070
     8
1070
    79
1070
     2
1070
   140
1040
3.5
1070
   141
1040
1.5
1070
   146
1040
0.5142857142857144
1070
   147
1040
1.5
1070
   172
1070
     1
1070
   178
1070
     1
1070
   179
1070
     2
1070
   271
1070
     2
1070
   272
1070
     2
1070
   284
1070
     8
1070
   285
1070
     8
1070
   286
1070
     8
1002
}
  0
LINE
  5
30D
102
{ACAD_REACTORS
330
62C
102
}
330
1E
100
AcDbEntity
  8
STEMPEL
100
AcDbLine
 10
128.5000000000001
 20
240.4206402329292
 30
0.0
 11
128.5000000000001
 21
183.7126234748954
 31
0.0
  0
LINE
  5
30F
102
{ACAD_REACTORS
330
62C
102
}
330
1E
100
AcDbEntity
  8
STEMPEL
100
AcDbLine
 10
96.50000000000009
 20
240.4206402329292
 30
0.0
 11
96.50000000000011
 21
192.6398812692098
 31
0.0
  0
LINE
  5
314
330
1E
100
AcDbEntity
  8
HILF
  6
Continuous
100
AcDbLine
 10
96.4029057798324
 20
252.4051406265475
 30
0.0
 11
128.5970942201676
 21
252.4051406265475
 31
0.0
  0
LINE
  5
315
330
1E
100
AcDbEntity
  8
HILF
  6
Continuous
100
AcDbLine
 10
96.82278508150625
 20
245.4073927764164
 30
0.0
 11
128.1772149184937
 21
245.4073927764164
 31
0.0
  0
ARC
  5
317
102
{ACAD_REACTORS
330
62C
102
}
330
1E
100
AcDbEntity
  8
STEMPEL
100
AcDbCircle
 10
108.0
 20
258.8422921877407
 30
0.0
 40
14.99987002457764
100
AcDbArc
 50
180.0
 51
202.3307385238617
  0
ARC
  5
31A
102
{ACAD_REACTORS
330
62C
102
}
330
1E
100
AcDbEntity
  8
STEMPEL
100
AcDbCircle
 10
91.50000000000009
 20
240.4206402329292
 30
0.0
 40
5.0
100
AcDbArc
 50
0.0
 51
32.20422750397208
  0
LINE
  5
31C
102
{ACAD_REACTORS
330
62C
102
}
330
1E
100
AcDbEntity
  8
STEMPEL
100
AcDbLine
 10
94.50000000000011
 20
251.2432921877407
 30
0.0
 11
94.50000000000008
 21
247.3488434632047
 31
0.0
  0
ARC
  5
31E
102
{ACAD_REACTORS
330
62C
102
}
330
1E
100
AcDbEntity
  8
STEMPEL
100
AcDbCircle
 10
102.5000000000001
 20
247.3488434632047
 30
0.0
 40
8.0
100
AcDbArc
 50
180.0
 51
212.2042275039721
  0
ARC
  5
320
102
{ACAD_REACTORS
330
62C
102
}
330
1E
100
AcDbEntity
  8
STEMPEL
100
AcDbCircle
 10
89.50000000000008
 20
251.2432921877407
 30
0.0
 40
5.0
100
AcDbArc
 50
0.0
 51
22.33073852386177
  0
ARC
  5
321
102
{ACAD_REACTORS
330
62C
102
}
330
1E
100
AcDbEntity
  8
STEMPEL
100
AcDbCircle
 10
109.0
 20
262.2011118673323
 30
0.0
 40
16.0
100
AcDbArc
 50
155.8651087923764
 51
180.0
  0
LINE
  5
324
102
{ACAD_REACTORS
330
62C
102
}
330
1E
100
AcDbEntity
  8
STEMPEL
100
AcDbLine
 10
93.00000000000006
 20
262.2011118673323
 30
0.0
 11
93.00000000000006
 21
258.8422921877407
 31
0.0
  0
LINE
  5
325
102
{ACAD_REACTORS
330
62C
102
}
330
1E
100
AcDbEntity
  8
STEMPEL
100
AcDbLine
 10
93.00012997542239
 20
258.8422921877407
 30
0.0
 11
93.00000000000009
 21
258.8422921877407
 31
0.0
  0
LINE
  5
32B
330
1E
100
AcDbEntity
  8
HILF
  6
Continuous
100
AcDbLine
 10
98.29932123309161
 20
242.0847408216049
 30
0.0
 11
126.7006787669083
 21
242.0847408216049
 31
0.0
  0
LINE
  5
39B
102
{ACAD_REACTORS
330
62C
102
}
330
1E
100
AcDbEntity
  8
STEMPEL
100
AcDbLine
 10
96.50000000000011
 20
187.6398812692098
 30
0.0
 11
96.50000000000012
 21
105.0091435518661
 31
0.0
  0
LINE
  5
39C
102
{ACAD_REACTORS
330
62C
102
}
330
1E
100
AcDbEntity
  8
STEMPEL
100
AcDbLine
 10
128.5000000000001
 20
178.7126234748954
 30
0.0
 11
128.5000000000001
 21
105.009143551869
 31
0.0
  0
TEXT
  5
41D
330
1E
100
AcDbEntity
  8
TEXT
 62
     1
100
AcDbText
 10
138.3393243102212
 20
65.35034040620804
 30
0.0
 40
3.5
  1
und innenbeschichtet
 41
0.8
  7
GREEKS
100
AcDbText
  0
TEXT
  5
41E
330
1E
100
AcDbEntity
  8
TEXT
 62
     1
100
AcDbText
 10
112.711786251944
 20
59.6758346714835
 30
0.0
 40
3.5
  1
Dämmung: 2 K-PU-Schaum
 41
0.8
  7
GREEKS
100
AcDbText
  0
TEXT
  5
41F
330
1E
100
AcDbEntity
  8
TEXT
 62
     1
100
AcDbText
 10
113.9557936716204
 20
70.67341169609335
 30
0.0
 40
3.5
  1
Innenrohr: E195 EN10305 feuerverzinkt
 41
0.8
  7
GREEKS
100
AcDbText
  0
TEXT
  5
420
330
1E
100
AcDbEntity
  8
TEXT
 62
     1
100
AcDbText
 10
112.0696849861884
 20
76.34994571427085
 30
0.0
 40
3.5
  1
Außenrohr: E195 EN10305 feuerverzinkt
 41
0.8
  7
GREEKS
100
AcDbText
  0
LINE
  5
422
330
1E
100
AcDbEntity
  8
STEMPEL
100
AcDbLine
 10
97.5000000000001
 20
187.4664410186456
 30
0.0
 11
97.50000000000012
 21
105.0528044947742
 31
0.0
  0
LINE
  5
423
330
1E
100
AcDbEntity
  8
STEMPEL
100
AcDbLine
 10
97.50000000000012
 20
105.0528044947742
 30
0.0
 11
97.93553339885789
 21
100.0746349662306
 31
0.0
  0
LINE
  5
425
330
1E
100
AcDbEntity
  8
STEMPEL
100
AcDbLine
 10
127.4999999999998
 20
178.8860637254597
 30
0.0
 11
127.4999999999998
 21
105.0528044947742
 31
0.0
  0
LINE
  5
426
330
1E
100
AcDbEntity
  8
STEMPEL
100
AcDbLine
 10
127.4999999999998
 20
105.0528044947742
 30
0.0
 11
127.064466601142
 21
100.0746349662306
 31
0.0
  0
LINE
  5
428
330
1E
100
AcDbEntity
  8
STEMPEL
100
AcDbLine
 10
127.5000000000001
 20
240.4206402329292
 30
0.0
 11
127.5000000000001
 21
183.8860637254596
 31
0.0
  0
LINE
  5
429
330
1E
100
AcDbEntity
  8
STEMPEL
100
AcDbLine
 10
97.50000000000008
 20
240.4206402329292
 30
0.0
 11
97.50000000000012
 21
192.4664410186456
 31
0.0
  0
ARC
  5
42A
330
1E
100
AcDbEntity
  8
STEMPEL
100
AcDbCircle
 10
91.50000000000009
 20
240.4206402329292
 30
0.0
 40
6.0
100
AcDbArc
 50
0.0
 51
32.20422750397208
  0
ARC
  5
42C
330
1E
100
AcDbEntity
  8
STEMPEL
100
AcDbCircle
 10
102.5000000000001
 20
247.3488434632047
 30
0.0
 40
7.0
100
AcDbArc
 50
180.0
 51
212.2042275039721
  0
LINE
  5
42E
330
1E
100
AcDbEntity
  8
STEMPEL
100
AcDbLine
 10
95.50000000000011
 20
251.2432921877407
 30
0.0
 11
95.50000000000009
 21
247.3488434632047
 31
0.0
  0
ARC
  5
42F
330
1E
100
AcDbEntity
  8
STEMPEL
100
AcDbCircle
 10
89.50000000000008
 20
251.2432921877407
 30
0.0
 40
6.0
100
AcDbArc
 50
0.0
 51
22.33073852386177
  0
ARC
  5
431
330
1E
100
AcDbEntity
  8
STEMPEL
100
AcDbCircle
 10
108.0
 20
258.8422921877407
 30
0.0
 40
13.99987002457764
100
AcDbArc
 50
180.0
 51
202.3307385238617
  0
LINE
  5
432
330
1E
100
AcDbEntity
  8
STEMPEL
100
AcDbLine
 10
94.00000000000005
 20
262.2011118673323
 30
0.0
 11
94.00000000000005
 21
258.8422921877407
 31
0.0
  0
ARC
  5
433
330
1E
100
AcDbEntity
  8
STEMPEL
100
AcDbCircle
 10
109.0
 20
262.2011118673323
 30
0.0
 40
15.0
100
AcDbArc
 50
154.1418030082577
 51
180.0
  0
ARC
  5
434
330
1E
100
AcDbEntity
  8
STEMPEL
100
AcDbCircle
 10
115.9999999999999
 20
262.2011118673323
 30
0.0
 40
15.0
100
AcDbArc
 50
0.000000000000007
 51
25.85819699174227
  0
LINE
  5
435
330
1E
100
AcDbEntity
  8
STEMPEL
100
AcDbLine
 10
130.9999999999999
 20
262.2011118673323
 30
0.0
 11
130.9999999999999
 21
258.8422921877407
 31
0.0
  0
ARC
  5
436
330
1E
100
AcDbEntity
  8
STEMPEL
100
AcDbCircle
 10
116.9999999999999
 20
258.8422921877407
 30
0.0
 40
13.99987002457764
100
AcDbArc
 50
337.6692614761383
 51
0.000000000000007
  0
ARC
  5
438
330
1E
100
AcDbEntity
  8
STEMPEL
100
AcDbCircle
 10
135.4999999999999
 20
251.2432921877407
 30
0.0
 40
6.0
100
AcDbArc
 50
157.6692614761382
 51
180.0
  0
LINE
  5
439
330
1E
100
AcDbEntity
  8
STEMPEL
100
AcDbLine
 10
129.4999999999998
 20
251.2432921877407
 30
0.0
 11
129.4999999999999
 21
247.3488434632047
 31
0.0
  0
ARC
  5
43B
330
1E
100
AcDbEntity
  8
STEMPEL
100
AcDbCircle
 10
122.4999999999998
 20
247.3488434632047
 30
0.0
 40
7.0
100
AcDbArc
 50
327.795772496028
 51
0.000000000000007
  0
ARC
  5
43D
330
1E
100
AcDbEntity
  8
STEMPEL
100
AcDbCircle
 10
133.4999999999999
 20
240.4206402329292
 30
0.0
 40
6.0
100
AcDbArc
 50
147.7957724960279
 51
180.0
  0
LINE
  5
43E
102
{ACAD_REACTORS
330
62C
102
}
330
1E
100
AcDbEntity
  8
STEMPEL
100
AcDbLine
 10
131.9998700245775
 20
258.8422921877407
 30
0.0
 11
131.9999999999999
 21
258.8422921877407
 31
0.0
  0
LINE
  5
43F
102
{ACAD_REACTORS
330
62C
102
}
330
1E
100
AcDbEntity
  8
STEMPEL
100
AcDbLine
 10
131.9999999999999
 20
262.2011118673323
 30
0.0
 11
131.9999999999999
 21
258.8422921877407
 31
0.0
  0
ARC
  5
440
102
{ACAD_REACTORS
330
62C
102
}
330
1E
100
AcDbEntity
  8
STEMPEL
100
AcDbCircle
 10
115.9999999999999
 20
262.2011118673323
 30
0.0
 40
16.0
100
AcDbArc
 50
0.000000000000007
 51
24.13489120762353
  0
ARC
  5
441
102
{ACAD_REACTORS
330
62C
102
}
330
1E
100
AcDbEntity
  8
STEMPEL
100
AcDbCircle
 10
135.4999999999999
 20
251.2432921877407
 30
0.0
 40
5.0
100
AcDbArc
 50
157.6692614761382
 51
180.0
  0
ARC
  5
442
102
{ACAD_REACTORS
330
62C
102
}
330
1E
100
AcDbEntity
  8
STEMPEL
100
AcDbCircle
 10
122.4999999999998
 20
247.3488434632047
 30
0.0
 40
8.0
100
AcDbArc
 50
327.795772496028
 51
0.000000000000007
  0
LINE
  5
443
102
{ACAD_REACTORS
330
62C
102
}
330
1E
100
AcDbEntity
  8
STEMPEL
100
AcDbLine
 10
130.4999999999998
 20
251.2432921877407
 30
0.0
 11
130.4999999999999
 21
247.3488434632047
 31
0.0
  0
ARC
  5
444
102
{ACAD_REACTORS
330
62C
102
}
330
1E
100
AcDbEntity
  8
STEMPEL
100
AcDbCircle
 10
133.4999999999999
 20
240.4206402329292
 30
0.0
 40
5.0
100
AcDbArc
 50
147.7957724960279
 51
180.0
  0
ARC
  5
445
102
{ACAD_REACTORS
330
62C
102
}
330
1E
100
AcDbEntity
  8
STEMPEL
100
AcDbCircle
 10
116.9999999999999
 20
258.8422921877407
 30
0.0
 40
14.99987002457764
100
AcDbArc
 50
337.6692614761383
 51
0.000000000000007
  0
LINE
  5
46E
102
{ACAD_REACTORS
330
5FF
102
}
330
1E
100
AcDbEntity
  8
STEMPEL
100
AcDbLine
 10
67.99999999999998
 20
268.7432921877408
 30
0.0
 11
67.99999999999997
 21
188.1762523720526
 31
0.0
  0
LINE
  5
46F
102
{ACAD_REACTORS
330
5FF
102
}
330
1E
100
AcDbEntity
  8
STEMPEL
100
AcDbLine
 10
157.0
 20
268.7432921877408
 30
0.0
 11
157.0
 21
188.1762523720526
 31
0.0
  0
LINE
  5
486
102
{ACAD_REACTORS
330
5FF
330
62C
102
}
330
1E
100
AcDbEntity
  8
STEMPEL
100
AcDbLine
 10
155.4
 20
268.7432921877408
 30
0.0
 11
155.4
 21
187.6378561588859
 31
0.0
  0
LINE
  5
487
102
{ACAD_REACTORS
330
5FF
330
62C
102
}
330
1E
100
AcDbEntity
  8
STEMPEL
100
AcDbLine
 10
69.59999999999998
 20
268.7432921877408
 30
0.0
 11
69.59999999999997
 21
188.7146485852195
 31
0.0
  0
LINE
  5
488
102
{ACAD_REACTORS
330
5FF
330
62C
102
}
330
1E
100
AcDbEntity
  8
STEMPEL
100
AcDbLine
 10
157.0
 20
120.0746349662306
 30
0.0
 11
128.5000000000001
 21
120.0746349662306
 31
0.0
  0
LINE
  5
489
102
{ACAD_REACTORS
330
5FF
330
62C
102
}
330
1E
100
AcDbEntity
  8
STEMPEL
100
AcDbLine
 10
96.50000000000012
 20
120.0746349662306
 30
0.0
 11
67.99999999999997
 21
120.0746349662306
 31
0.0
  0
DIMENSION
  5
4BB
330
1E
100
AcDbEntity
  8
BEM
100
AcDbDimension
  2
*D3
 10
157.0
 20
282.7451572625612
 30
0.0
 11
112.5
 21
285.9951572625612
 31
0.0
 70
    32
  1
%%c<>
 71
     5
 42
89.00000000000003
  3
Standard
100
AcDbAlignedDimension
 13
67.99999999999997
 23
268.7432921877408
 33
0.0
 14
157.0
 24
268.7432921877408
 34
0.0
100
AcDbRotatedDimension
1001
ACAD
1000
DSTYLE
1002
{
1070
    41
1040
3.5
1070
    42
1040
1.0
1070
    43
1040
7.0
1070
    44
1040
1.0
1070
    73
1070
     0
1070
    74
1070
     0
1070
    77
1070
     1
1070
    78
1070
     8
1070
    79
1070
     2
1070
   140
1040
3.5
1070
   141
1040
1.5
1070
   146
1040
0.5142857142857144
1070
   147
1040
1.5
1070
   172
1070
     1
1070
   178
1070
     1
1070
   179
1070
     2
1070
   271
1070
     2
1070
   272
1070
     2
1070
   284
1070
     8
1070
   285
1070
     8
1070
   286
1070
     8
1002
}
  0
DIMENSION
  5
4E1
330
1E
100
AcDbEntity
  8
BEM
100
AcDbDimension
  2
*D4
 10
60.04719814705959
 20
120.0746349662306
 30
0.0
 11
56.79719814705958
 21
194.4089635769857
 31
0.0
 70
    32
  1
505
 71
     5
 42
148.66865722151
  3
Standard
100
AcDbAlignedDimension
 13
67.99999999999997
 23
268.7432921877408
 33
0.0
 14
67.99999999999997
 24
120.0746349662306
 34
0.0
 50
90.0
100
AcDbRotatedDimension
1001
ACAD
1000
DSTYLE
1002
{
1070
    41
1040
3.5
1070
    42
1040
1.0
1070
    43
1040
7.0
1070
    44
1040
1.0
1070
    73
1070
     0
1070
    74
1070
     0
1070
    77
1070
     1
1070
    78
1070
     8
1070
    79
1070
     2
1070
   140
1040
3.5
1070
   141
1040
1.5
1070
   146
1040
0.5142857142857144
1070
   147
1040
1.5
1070
   172
1070
     1
1070
   178
1070
     1
1070
   179
1070
     2
1070
   271
1070
     2
1070
   272
1070
     2
1070
   284
1070
     8
1070
   285
1070
     8
1070
   286
1070
     8
1002
}
  0
SPLINE
  5
53A
102
{ACAD_REACTORS
330
5FF
330
62C
102
}
330
1E
100
AcDbEntity
  8
HILF
100
AcDbSpline
210
0.0
220
0.0
230
1.0
 70
     8
 71
     3
 72
    11
 73
     7
 74
     5
 42
0.0000000001
 43
0.0000000001
 44
0.0000000001
 40
0.0
 40
0.0
 40
0.0
 40
0.0
 40
22.80487886396242
 40
45.60975772792486
 40
68.41463659188727
 40
91.21951545584972
 40
91.21951545584972
 40
91.21951545584972
 40
91.21951545584972
 10
67.99999999999997
 20
188.1762523720526
 30
0.0
 10
75.41666666666666
 20
190.6762523720526
 30
0.0
 10
90.24999999999996
 20
195.6762523720526
 30
0.0
 10
112.5
 20
188.1762523720527
 30
0.0
 10
134.7499999999999
 20
180.6762523720527
 30
0.0
 10
149.5833333333333
 20
185.6762523720526
 30
0.0
 10
157.0
 20
188.1762523720526
 30
0.0
 11
67.99999999999997
 21
188.1762523720526
 31
0.0
 11
90.24999999999996
 21
193.1762523720527
 31
0.0
 11
112.5
 21
188.1762523720526
 31
0.0
 11
134.7499999999999
 21
183.1762523720526
 31
0.0
 11
157.0
 21
188.1762523720526
 31
0.0
  0
SPLINE
  5
53B
102
{ACAD_REACTORS
330
5FF
330
62C
102
}
330
1E
100
AcDbEntity
  8
HILF
100
AcDbSpline
210
0.0
220
0.0
230
1.0
 70
     8
 71
     3
 72
    11
 73
     7
 74
     5
 42
0.0000000001
 43
0.0000000001
 44
0.0000000001
 40
0.0
 40
0.0
 40
0.0
 40
0.0
 40
22.80487886396242
 40
45.60975772792486
 40
68.41463659188727
 40
91.21951545584972
 40
91.21951545584972
 40
91.21951545584972
 40
91.21951545584972
 10
67.99999999999997
 20
183.1762523720526
 30
0.0
 10
75.41666666666666
 20
185.6762523720527
 30
0.0
 10
90.24999999999996
 20
190.6762523720526
 30
0.0
 10
112.5
 20
183.1762523720526
 30
0.0
 10
134.7499999999999
 20
175.6762523720526
 30
0.0
 10
149.5833333333333
 20
180.6762523720527
 30
0.0
 10
157.0
 20
183.1762523720526
 30
0.0
 11
67.99999999999997
 21
183.1762523720526
 31
0.0
 11
90.24999999999996
 21
188.1762523720526
 31
0.0
 11
112.5
 21
183.1762523720526
 31
0.0
 11
134.7499999999999
 21
178.1762523720526
 31
0.0
 11
157.0
 21
183.1762523720526
 31
0.0
  0
LINE
  5
53C
102
{ACAD_REACTORS
330
5FF
330
62C
102
}
330
1E
100
AcDbEntity
  8
STEMPEL
100
AcDbLine
 10
155.4
 20
182.6378561588858
 30
0.0
 11
155.3999999999999
 21
120.0746349662306
 31
0.0
  0
LINE
  5
53D
102
{ACAD_REACTORS
330
5FF
102
}
330
1E
100
AcDbEntity
  8
STEMPEL
100
AcDbLine
 10
157.0
 20
183.1762523720526
 30
0.0
 11
157.0
 21
120.0746349662306
 31
0.0
  0
LINE
  5
53E
102
{ACAD_REACTORS
330
5FF
330
62C
102
}
330
1E
100
AcDbEntity
  8
STEMPEL
100
AcDbLine
 10
69.59999999999997
 20
183.7146485852194
 30
0.0
 11
69.59999999999997
 21
120.0746349662306
 31
0.0
  0
LINE
  5
53F
102
{ACAD_REACTORS
330
5FF
102
}
330
1E
100
AcDbEntity
  8
STEMPEL
100
AcDbLine
 10
67.99999999999997
 20
183.1762523720526
 30
0.0
 11
67.99999999999997
 21
120.0746349662306
 31
0.0
  0
HATCH
  5
5C3
330
1E
100
AcDbEntity
  8
SCHRAFF
100
AcDbHatch
 10
0.0
 20
0.0
 30
0.0
210
0.0
220
0.0
230
1.0
  2
_USER
 70
     0
 71
     0
 91
        9
 92
       17
 93
        2
 72
     4
 94
        3
 73
     0
 74
     0
 95
        8
 96
        4
 40
60.98383336655139
 40
60.98383336655139
 40
60.98383336655139
 40
60.98383336655139
 40
62.0087717424599
 40
62.0087717424599
 40
62.0087717424599
 40
62.0087717424599
 10
127.5000000000001
 20
183.8860637254597
 10
127.8333333333334
 20
183.8247702501437
 10
128.1666666666668
 20
183.7668811798442
 10
128.5000000000002
 20
183.7126234748954
 72
     4
 94
        3
 73
     0
 74
     0
 95
        8
 96
        4
 40
60.98383336655139
 40
60.98383336655139
 40
60.98383336655139
 40
60.98383336655139
 40
62.00877174245991
 40
62.00877174245991
 40
62.00877174245991
 40
62.00877174245991
 10
128.5000000000002
 20
183.7126234748954
 10
128.1666666666668
 20
183.7668811798442
 10
127.8333333333334
 20
183.8247702501437
 10
127.5000000000001
 20
183.8860637254597
 97
        0
 92
       17
 93
        2
 72
     4
 94
        3
 73
     0
 74
     0
 95
        8
 96
        4
 40
29.2107437133902
 40
29.2107437133902
 40
29.2107437133902
 40
29.2107437133902
 40
30.2356820892986
 40
30.2356820892986
 40
30.2356820892986
 40
30.2356820892986
 10
96.50000000000009
 20
192.6398812692098
 10
96.8333333333334
 20
192.5856235642611
 10
97.16666666666672
 20
192.5277344939615
 10
97.50000000000003
 20
192.4664410186456
 72
     4
 94
        3
 73
     0
 74
     0
 95
        8
 96
        4
 40
29.21074371339019
 40
29.21074371339019
 40
29.21074371339019
 40
29.21074371339019
 40
30.2356820892986
 40
30.2356820892986
 40
30.2356820892986
 40
30.2356820892986
 10
97.50000000000003
 20
192.4664410186456
 10
97.16666666666672
 20
192.5277344939615
 10
96.8333333333334
 20
192.5856235642611
 10
96.50000000000009
 20
192.6398812692098
 97
        0
 92
       17
 93
        6
 72
     4
 94
        3
 73
     0
 74
     0
 95
        8
 96
        4
 40
29.21074371339026
 40
29.21074371339026
 40
29.21074371339026
 40
29.21074371339026
 40
30.23568208929864
 40
30.23568208929864
 40
30.23568208929864
 40
30.23568208929864
 10
96.50000000000014
 20
187.6398812692098
 10
96.83333333333346
 20
187.5856235642611
 10
97.16666666666677
 20
187.5277344939615
 10
97.50000000000008
 20
187.4664410186456
 72
     1
 10
97.50000000000008
 20
187.4664410186456
 11
97.50000000000008
 21
105.0528044947742
 72
     1
 10
97.50000000000008
 20
105.0528044947742
 11
97.93553339885788
 21
100.0746349662306
 72
     1
 10
97.93553339885788
 20
100.0746349662306
 11
96.93171356131452
 21
100.0746349662306
 72
     1
 10
96.93171356131452
 20
100.0746349662306
 11
96.49999999999991
 21
105.0091435518676
 72
     1
 10
96.50000000000009
 20
105.0091435518661
 11
96.50000000000009
 21
187.6398812692098
 97
        0
 92
       49
 93
        2
 72
     4
 94
        3
 73
     0
 74
     0
 95
        8
 96
        4
 40
29.21074371339026
 40
29.21074371339026
 40
29.21074371339026
 40
29.21074371339026
 40
30.23568208929864
 40
30.23568208929864
 40
30.23568208929864
 40
30.23568208929864
 10
96.50000000000014
 20
187.6398812692098
 10
96.83333333333346
 20
187.5856235642611
 10
97.16666666666677
 20
187.5277344939615
 10
97.50000000000008
 20
187.4664410186456
 72
     4
 94
        3
 73
     0
 74
     0
 95
        8
 96
        4
 40
29.21074371339026
 40
29.21074371339026
 40
29.21074371339026
 40
29.21074371339026
 40
30.23568208929864
 40
30.23568208929864
 40
30.23568208929864
 40
30.23568208929864
 10
96.50000000000014
 20
187.6398812692098
 10
96.83333333333346
 20
187.5856235642611
 10
97.16666666666677
 20
187.5277344939615
 10
97.50000000000008
 20
187.4664410186456
 97
        0
 92
       49
 93
        6
 72
     1
 10
97.93553339885788
 20
100.0746349662306
 11
96.93171356131452
 21
100.0746349662306
 72
     1
 10
97.50000000000008
 20
105.0528044947742
 11
97.93553339885788
 21
100.0746349662306
 72
     1
 10
97.50000000000008
 20
187.4664410186456
 11
97.50000000000008
 21
105.0528044947742
 72
     4
 94
        3
 73
     0
 74
     0
 95
        8
 96
        4
 40
29.21074371339026
 40
29.21074371339026
 40
29.21074371339026
 40
29.21074371339026
 40
30.23568208929864
 40
30.23568208929864
 40
30.23568208929864
 40
30.23568208929864
 10
96.50000000000014
 20
187.6398812692098
 10
96.83333333333346
 20
187.5856235642611
 10
97.16666666666677
 20
187.5277344939615
 10
97.50000000000008
 20
187.4664410186456
 72
     1
 10
96.50000000000009
 20
187.6398812692098
 11
96.50000000000009
 21
105.0091435518661
 72
     1
 10
96.49999999999991
 20
105.0091435518676
 11
96.93171356131452
 21
100.0746349662306
 97
        0
 92
       17
 93
        6
 72
     4
 94
        3
 73
     0
 74
     0
 95
        8
 96
        4
 40
60.9838333665511
 40
60.9838333665511
 40
60.9838333665511
 40
60.9838333665511
 40
62.0087717424598
 40
62.0087717424598
 40
62.0087717424598
 40
62.0087717424598
 10
127.4999999999998
 20
178.8860637254597
 10
127.8333333333332
 20
178.8247702501437
 10
128.1666666666666
 20
178.7668811798441
 10
128.5
 20
178.7126234748954
 72
     1
 10
128.5000000000001
 20
178.7126234748954
 11
128.5000000000001
 21
105.009143551869
 72
     1
 10
128.4999999999999
 20
105.0091435518677
 11
128.0682864386853
 21
100.0746349662306
 72
     1
 10
128.0682864386853
 20
100.0746349662306
 11
127.064466601142
 21
100.0746349662306
 72
     1
 10
127.064466601142
 20
100.0746349662306
 11
127.4999999999997
 21
105.0528044947742
 72
     1
 10
127.4999999999997
 20
105.0528044947742
 11
127.4999999999998
 21
178.8860637254597
 97
        0
 92
       32
 93
        2
 72
     4
 94
        3
 73
     0
 74
     0
 95
        8
 96
        4
 40
60.9838333665511
 40
60.9838333665511
 40
60.9838333665511
 40
60.9838333665511
 40
62.0087717424598
 40
62.0087717424598
 40
62.0087717424598
 40
62.0087717424598
 10
127.4999999999998
 20
178.8860637254597
 10
127.8333333333332
 20
178.8247702501437
 10
128.1666666666666
 20
178.7668811798441
 10
128.5
 20
178.7126234748954
 72
     4
 94
        3
 73
     0
 74
     0
 95
        8
 96
        4
 40
60.9838333665511
 40
60.9838333665511
 40
60.9838333665511
 40
60.9838333665511
 40
62.0087717424598
 40
62.0087717424598
 40
62.0087717424598
 40
62.0087717424598
 10
127.4999999999998
 20
178.8860637254597
 10
127.8333333333332
 20
178.8247702501437
 10
128.1666666666666
 20
178.7668811798441
 10
128.5
 20
178.7126234748954
 97
        0
 92
       49
 93
        6
 72
     4
 94
        3
 73
     0
 74
     0
 95
        8
 96
        4
 40
60.9838333665511
 40
60.9838333665511
 40
60.9838333665511
 40
60.9838333665511
 40
62.0087717424598
 40
62.0087717424598
 40
62.0087717424598
 40
62.0087717424598
 10
127.4999999999998
 20
178.8860637254597
 10
127.8333333333332
 20
178.8247702501437
 10
128.1666666666666
 20
178.7668811798441
 10
128.5
 20
178.7126234748954
 72
     1
 10
127.4999999999998
 20
178.8860637254597
 11
127.4999999999997
 21
105.0528044947742
 72
     1
 10
127.4999999999997
 20
105.0528044947742
 11
127.064466601142
 21
100.0746349662306
 72
     1
 10
128.0682864386853
 20
100.0746349662306
 11
127.064466601142
 21
100.0746349662306
 72
     1
 10
128.4999999999999
 20
105.0091435518677
 11
128.0682864386853
 21
100.0746349662306
 72
     1
 10
128.5000000000001
 20
178.7126234748954
 11
128.5000000000001
 21
105.009143551869
 97
        0
 92
       33
 93
       36
 72
     1
 10
128.5000000000001
 20
240.4206402329292
 11
128.5000000000001
 21
183.7126234748954
 72
     1
 10
127.5000000000001
 20
240.4206402329292
 11
127.5000000000001
 21
183.8860637254596
 72
     1
 10
130.6013655750157
 20
268.7432921877408
 11
129.4981434521661
 21
268.7432921877408
 72
     2
 10
115.9999999999998
 20
262.2011118673323
 40
15.0
 50
0.000000000000007
 51
25.85819699174227
 73
     1
 72
     1
 10
130.9999999999998
 20
262.2011118673323
 11
130.9999999999998
 21
258.8422921877407
 72
     2
 10
116.9999999999998
 20
258.8422921877407
 40
13.99987002457764
 50
337.6692614761383
 51
360.0
 73
     1
 72
     2
 10
135.4999999999998
 20
251.2432921877407
 40
6.0
 50
157.6692614761382
 51
180.0
 73
     1
 72
     1
 10
129.4999999999998
 20
251.2432921877407
 11
129.4999999999998
 21
247.3488434632047
 72
     2
 10
122.4999999999998
 20
247.3488434632047
 40
7.0
 50
327.795772496028
 51
360.0
 73
     1
 72
     2
 10
133.4999999999998
 20
240.4206402329292
 40
6.0
 50
147.7957724960279
 51
180.0
 73
     1
 72
     1
 10
131.9998700245775
 20
258.8422921877407
 11
131.9999999999998
 21
258.8422921877407
 72
     1
 10
131.9999999999998
 20
262.2011118673323
 11
131.9999999999998
 21
258.8422921877407
 72
     2
 10
115.9999999999998
 20
262.2011118673323
 40
16.0
 50
0.000000000000007
 51
24.13489120762353
 73
     1
 72
     2
 10
135.4999999999998
 20
251.2432921877407
 40
5.0
 50
157.6692614761382
 51
180.0
 73
     1
 72
     2
 10
122.4999999999998
 20
247.3488434632047
 40
8.0
 50
327.795772496028
 51
360.0
 73
     1
 72
     1
 10
130.4999999999998
 20
251.2432921877407
 11
130.4999999999998
 21
247.3488434632047
 72
     2
 10
133.4999999999998
 20
240.4206402329292
 40
5.0
 50
147.7957724960279
 51
180.0
 73
     1
 72
     2
 10
116.9999999999998
 20
258.8422921877407
 40
14.99987002457764
 50
337.6692614761383
 51
360.0
 73
     1
 72
     1
 10
95.50185654783374
 20
268.7432921877408
 11
94.39863442498412
 21
268.7432921877408
 72
     1
 10
96.50000000000009
 20
240.4206402329292
 11
96.50000000000009
 21
192.6398812692098
 72
     1
 10
97.50000000000008
 20
240.4206402329292
 11
97.50000000000008
 21
192.4664410186456
 72
     2
 10
108.0
 20
258.8422921877407
 40
14.99987002457764
 50
180.0
 51
202.3307385238617
 73
     1
 72
     2
 10
91.50000000000005
 20
240.4206402329292
 40
5.0
 50
0.0
 51
32.20422750397208
 73
     1
 72
     1
 10
94.50000000000008
 20
251.2432921877407
 11
94.50000000000008
 21
247.3488434632047
 72
     2
 10
102.5000000000001
 20
247.3488434632047
 40
8.0
 50
180.0
 51
212.2042275039721
 73
     1
 72
     2
 10
89.50000000000006
 20
251.2432921877407
 40
5.0
 50
0.0
 51
22.33073852386177
 73
     1
 72
     2
 10
109.0
 20
262.2011118673323
 40
16.0
 50
155.8651087923764
 51
180.0
 73
     1
 72
     1
 10
93.00000000000002
 20
262.2011118673323
 11
93.00000000000002
 21
258.8422921877407
 72
     1
 10
93.00012997542237
 20
258.8422921877407
 11
93.00000000000009
 21
258.8422921877407
 72
     2
 10
91.50000000000005
 20
240.4206402329292
 40
6.0
 50
0.0
 51
32.20422750397208
 73
     1
 72
     2
 10
102.5000000000001
 20
247.3488434632047
 40
7.0
 50
180.0
 51
212.2042275039721
 73
     1
 72
     1
 10
95.50000000000009
 20
251.2432921877407
 11
95.50000000000009
 21
247.3488434632047
 72
     2
 10
89.50000000000006
 20
251.2432921877407
 40
6.0
 50
0.0
 51
22.33073852386177
 73
     1
 72
     2
 10
108.0
 20
258.8422921877407
 40
13.99987002457764
 50
180.0
 51
202.3307385238617
 73
     1
 72
     1
 10
94.00000000000003
 20
262.2011118673323
 11
94.00000000000003
 21
258.8422921877407
 72
     2
 10
109.0
 20
262.2011118673323
 40
15.0
 50
154.1418030082577
 51
180.0
 73
     1
 97
        0
 75
     0
 76
     0
 52
45.0
 41
2.0
 77
     0
 78
     1
 53
45.0
 43
-164.000000281281
 44
0.0
 45
-1.414213562373094
 46
1.414213562373095
 79
     0
 98
        1
 10
-164.000000281281
 20
0.0
  0
HATCH
  5
5E2
330
1E
100
AcDbEntity
  8
SCHRAFF
100
AcDbHatch
 10
0.0
 20
0.0
 30
0.0
210
0.0
220
0.0
230
1.0
  2
_USER
 70
     0
 71
     0
 91
        2
 92
        5
 93
        6
 72
     4
 94
        3
 73
     0
 74
     0
 95
        8
 96
        4
 40
29.21074371339026
 40
29.21074371339026
 40
29.21074371339026
 40
29.21074371339026
 40
30.23568208929864
 40
30.23568208929864
 40
30.23568208929864
 40
30.23568208929864
 10
97.50000000000008
 20
187.4664410186456
 10
97.16666666666677
 20
187.5277344939615
 10
96.83333333333346
 20
187.5856235642611
 10
96.50000000000014
 20
187.6398812692098
 72
     1
 10
96.50000000000009
 20
187.6398812692098
 11
96.50000000000009
 21
105.0091435518656
 72
     1
 10
96.50000000000009
 20
105.0091435518656
 11
96.93171356131452
 21
100.0746349662306
 72
     1
 10
96.93171356131452
 20
100.0746349662306
 11
97.93553339885788
 21
100.0746349662306
 72
     1
 10
97.93553339885788
 20
100.0746349662306
 11
97.50000000000008
 21
105.0528044947746
 72
     1
 10
97.50000000000008
 20
105.0528044947746
 11
97.50000000000008
 21
187.4664410186456
 97
        0
 92
        5
 93
        6
 72
     4
 94
        3
 73
     0
 74
     0
 95
        8
 96
        4
 40
60.9838333665511
 40
60.9838333665511
 40
60.9838333665511
 40
60.9838333665511
 40
62.0087717424598
 40
62.0087717424598
 40
62.0087717424598
 40
62.0087717424598
 10
128.5
 20
178.7126234748954
 10
128.1666666666666
 20
178.7668811798441
 10
127.8333333333332
 20
178.8247702501437
 10
127.4999999999998
 20
178.8860637254597
 72
     1
 10
127.4999999999998
 20
178.8860637254597
 11
127.4999999999997
 21
105.0528044947738
 72
     1
 10
127.4999999999997
 20
105.0528044947738
 11
127.064466601142
 21
100.0746349662306
 72
     1
 10
127.064466601142
 20
100.0746349662306
 11
128.0682864386853
 21
100.0746349662306
 72
     1
 10
128.0682864386853
 20
100.0746349662306
 11
128.5
 21
105.0091435518692
 72
     1
 10
128.5
 20
105.0091435518692
 11
128.5000000000001
 21
178.7126234748953
 97
        0
 75
     0
 76
     0
 52
45.0
 41
2.0
 77
     0
 78
     1
 53
45.0
 43
-164.000000281281
 44
0.0
 45
-1.414213562373094
 46
1.414213562373095
 79
     0
 47
0.3792707384289499
 98
        2
 10
96.96518584662246
 20
164.5261300051229
 10
128.0774705978087
 20
163.3883175618352
  0
HATCH
  5
5FF
330
1E
100
AcDbEntity
  8
SCHRAFF
100
AcDbHatch
 10
0.0
 20
0.0
 30
0.0
210
0.0
220
0.0
230
1.0
  2
_USER
 70
     0
 71
     1
 91
        4
 92
        5
 93
        4
 72
     1
 10
157.0
 20
268.7432921877407
 11
155.4
 21
268.7432921877407
 72
     1
 10
155.4
 20
268.7432921877407
 11
155.4
 21
187.6378561588858
 72
     4
 94
        3
 73
     0
 74
     0
 95
        8
 96
        4
 40
89.57961405439624
 40
89.57961405439624
 40
89.57961405439624
 40
89.57961405439624
 40
91.21951545584972
 40
91.21951545584972
 40
91.21951545584972
 40
91.21951545584972
 10
155.4
 20
187.6378561588858
 10
155.9333333333333
 20
187.8167018102549
 10
156.4666666666666
 20
187.9964770911538
 10
157.0
 20
188.1762523720526
 72
     1
 10
157.0
 20
188.1762523720526
 11
157.0
 21
268.7432921877407
 97
        4
330
11E
330
486
330
53A
330
46F
 92
        5
 93
        4
 72
     1
 10
69.59999999999998
 20
268.7432921877408
 11
67.99999999999998
 21
268.7432921877408
 72
     1
 10
67.99999999999998
 20
268.7432921877408
 11
67.99999999999997
 21
188.1762523720526
 72
     4
 94
        3
 73
     0
 74
     0
 95
        8
 96
        4
 40
0.0
 40
0.0
 40
0.0
 40
0.0
 40
1.639901401453442
 40
1.639901401453442
 40
1.639901401453442
 40
1.639901401453442
 10
67.99999999999997
 20
188.1762523720526
 10
68.5333333333333
 20
188.3560276529515
 10
69.06666666666662
 20
188.5358029338504
 10
69.59999999999993
 20
188.7146485852195
 72
     1
 10
69.59999999999997
 20
188.7146485852195
 11
69.59999999999998
 21
268.7432921877408
 97
        4
330
11E
330
46E
330
53A
330
487
 92
        5
 93
        4
 72
     4
 94
        3
 73
     0
 74
     0
 95
        8
 96
        4
 40
0.0
 40
0.0
 40
0.0
 40
0.0
 40
1.639901401453442
 40
1.639901401453442
 40
1.639901401453442
 40
1.639901401453442
 10
69.59999999999993
 20
183.7146485852194
 10
69.06666666666662
 20
183.5358029338504
 10
68.5333333333333
 20
183.3560276529515
 10
67.99999999999997
 20
183.1762523720526
 72
     1
 10
67.99999999999997
 20
183.1762523720526
 11
67.99999999999997
 21
120.0746349662306
 72
     1
 10
67.99999999999997
 20
120.0746349662306
 11
69.59999999999995
 21
120.0746349662306
 72
     1
 10
69.59999999999995
 20
120.0746349662306
 11
69.59999999999997
 21
183.7146485852194
 97
        4
330
53B
330
53F
330
489
330
53E
 92
        5
 93
        4
 72
     4
 94
        3
 73
     0
 74
     0
 95
        8
 96
        4
 40
89.57961405439627
 40
89.57961405439627
 40
89.57961405439627
 40
89.57961405439627
 40
91.21951545584972
 40
91.21951545584972
 40
91.21951545584972
 40
91.21951545584972
 10
157.0
 20
183.1762523720526
 10
156.4666666666666
 20
182.9964770911537
 10
155.9333333333333
 20
182.8167018102549
 10
155.4
 20
182.6378561588858
 72
     1
 10
155.4
 20
182.6378561588858
 11
155.4
 21
120.0746349662306
 72
     1
 10
155.4
 20
120.0746349662306
 11
157.0
 21
120.0746349662306
 72
     1
 10
157.0
 20
120.0746349662306
 11
156.9999999999999
 21
183.1762523720526
 97
        4
330
53B
330
53C
330
488
330
53D
 75
     0
 76
     0
 52
135.0
 41
2.0
 77
     0
 78
     1
 53
135.0
 43
0.0
 44
0.0
 45
-1.414213562373095
 46
-1.414213562373094
 79
     0
 47
0.2202694993853601
 98
        4
 10
156.2428975593852
 20
220.8645183604738
 10
68.54157442895985
 20
223.2874829911556
 10
68.98228388034908
 20
177.4714262981089
 10
156.2428975593852
 20
167.7795684738926
  0
HATCH
  5
62C
330
1E
100
AcDbEntity
  8
SCHRAFF
100
AcDbHatch
 10
0.0
 20
0.0
 30
0.0
210
0.0
220
0.0
230
1.0
  2
HONEY
 70
     0
 71
     1
 91
        4
 92
        5
 93
       12
 72
     1
 10
155.4
 20
268.7432921877408
 11
130.6013655750158
 21
268.7432921877408
 72
     2
 10
115.9999999999998
 20
262.2011118673323
 40
16.00000000000004
 50
335.8651087923736
 51
360.0
 73
     0
 72
     1
 10
131.9999999999999
 20
262.2011118673323
 11
131.9999999999998
 21
258.8422921877406
 72
     1
 10
131.9999999999998
 20
258.8422921877406
 11
131.9998700245775
 21
258.8422921877407
 72
     2
 10
116.9999999999999
 20
258.8422921877408
 40
14.99987002457766
 50
0.000000000000458
 51
22.33073852386194
 73
     0
 72
     2
 10
135.4999999999998
 20
251.2432921877406
 40
5.000000000000031
 50
157.669261476135
 51
179.9999999999993
 73
     1
 72
     1
 10
130.4999999999998
 20
251.2432921877407
 11
130.4999999999999
 21
247.3488434632047
 72
     2
 10
122.4999999999999
 20
247.3488434632048
 40
7.999999999999977
 50
0.0000000000006107
 51
32.20422750397281
 73
     0
 72
     2
 10
133.5000000000001
 20
240.4206402329296
 40
4.999999999999997
 50
147.7957724960333
 51
180.0000000000036
 73
     1
 72
     1
 10
128.5000000000001
 20
240.4206402329293
 11
128.5000000000001
 21
183.7126234748954
 72
     4
 94
        3
 73
     0
 74
     0
 95
        9
 96
        5
 40
62.00877174245976
 40
62.00877174245976
 40
62.00877174245976
 40
62.00877174245976
 40
68.41463659188727
 40
89.57961405439624
 40
89.57961405439624
 40
89.57961405439624
 40
89.57961405439624
 10
128.5000000000001
 20
183.7126234748954
 10
130.5833333333334
 20
183.3735128189659
 10
139.55
 20
182.5245038554512
 10
148.5166666666666
 20
185.3296294709038
 10
155.4
 20
187.6378561588858
 72
     1
 10
155.4
 20
187.6378561588859
 11
155.4
 21
268.7432921877408
 97
       12
330
11E
330
440
330
43F
330
43E
330
445
330
441
330
443
330
442
330
444
330
30D
330
53A
330
486
 92
        5
 93
       12
 72
     2
 10
91.50000000000009
 20
240.4206402329292
 40
4.999999999999996
 50
0.0
 51
32.20422750397198
 73
     1
 72
     2
 10
102.5
 20
247.3488434632047
 40
7.999999999999973
 50
147.7957724960277
 51
179.9999999999996
 73
     0
 72
     1
 10
94.50000000000008
 20
247.3488434632047
 11
94.50000000000011
 21
251.2432921877407
 72
     2
 10
89.50000000000008
 20
251.2432921877406
 40
5.000000000000029
 50
0.0000000000009771
 51
22.33073852386279
 73
     1
 72
     2
 10
108.0
 20
258.8422921877407
 40
14.99987002457763
 50
157.6692614761376
 51
180.0
 73
     0
 72
     1
 10
93.00012997542241
 20
258.8422921877407
 11
93.00000000000006
 21
258.8422921877407
 72
     1
 10
93.00000000000006
 20
258.8422921877407
 11
93.00000000000006
 21
262.2011118673323
 72
     2
 10
109.0000000000001
 20
262.2011118673323
 40
16.00000000000003
 50
180.0000000000002
 51
204.1348912076267
 73
     0
 72
     1
 10
94.39863442498412
 20
268.7432921877408
 11
69.59999999999997
 21
268.7432921877408
 72
     1
 10
69.59999999999997
 20
268.7432921877408
 11
69.59999999999998
 21
188.7146485852195
 72
     4
 94
        3
 73
     0
 74
     0
 95
        9
 96
        5
 40
1.639901401453442
 40
1.639901401453442
 40
1.639901401453442
 40
1.639901401453442
 40
22.80487886396242
 40
29.21074371339019
 40
29.21074371339019
 40
29.21074371339019
 40
29.21074371339019
 10
69.59999999999993
 20
188.7146485852195
 10
76.48333333333329
 20
191.0228752732015
 10
85.44999999999999
 20
193.828000888654
 10
94.41666666666671
 20
192.9789919251393
 10
96.50000000000009
 20
192.6398812692098
 72
     1
 10
96.50000000000007
 20
192.6398812692098
 11
96.50000000000009
 21
240.4206402329292
 97
       12
330
31A
330
31E
330
31C
330
320
330
317
330
325
330
324
330
321
330
11E
330
487
330
53A
330
30F
 92
        5
 93
        4
 72
     4
 94
        3
 73
     0
 74
     0
 95
        9
 96
        5
 40
1.639901401453442
 40
1.639901401453442
 40
1.639901401453442
 40
1.639901401453442
 40
8.045766250881225
 40
29.21074371339021
 40
29.21074371339021
 40
29.21074371339021
 40
29.21074371339021
 10
96.50000000000011
 20
187.6398812692097
 10
94.41666666666673
 20
187.9789919251393
 10
85.44999999999999
 20
188.828000888654
 10
76.48333333333329
 20
186.0228752732015
 10
69.59999999999993
 20
183.7146485852194
 72
     1
 10
69.59999999999997
 20
183.7146485852194
 11
69.59999999999997
 21
120.0746349662306
 72
     1
 10
69.59999999999997
 20
120.0746349662306
 11
96.50000000000011
 21
120.0746349662306
 72
     1
 10
96.50000000000011
 20
120.0746349662306
 11
96.50000000000009
 21
187.6398812692098
 97
        4
330
53B
330
53E
330
489
330
39B
 92
        5
 93
        4
 72
     1
 10
128.5000000000001
 20
120.0746349662306
 11
155.3999999999999
 21
120.0746349662306
 72
     1
 10
155.3999999999999
 20
120.0746349662306
 11
155.4
 21
182.6378561588859
 72
     4
 94
        3
 73
     0
 74
     0
 95
        9
 96
        5
 40
62.00877174245977
 40
62.00877174245977
 40
62.00877174245977
 40
62.00877174245977
 40
83.17374920496877
 40
89.57961405439627
 40
89.57961405439627
 40
89.57961405439627
 40
89.57961405439627
 10
155.4
 20
182.6378561588858
 10
148.5166666666666
 20
180.3296294709038
 10
139.55
 20
177.5245038554512
 10
130.5833333333334
 20
178.3735128189659
 10
128.5000000000001
 20
178.7126234748954
 72
     1
 10
128.5000000000001
 20
178.7126234748955
 11
128.5000000000001
 21
120.0746349662306
 97
        4
330
53B
330
39C
330
488
330
53C
 75
     0
 76
     1
 52
0.0
 41
30.0
 77
     0
 78
     3
 53
0.0
 43
0.0
 44
0.0
 45
5.625
 46
3.247595249999999
 79
     2
 49
3.75
 49
-7.5
 53
120.0
 43
0.0
 44
0.0
 45
-5.624999987709673
 46
3.247595271287468
 79
     2
 49
3.75
 49
-7.5
 53
60.0
 43
0.0
 44
0.0
 45
0.0000000122903263
 46
6.495190521287468
 79
     2
 49
-7.5
 49
3.75
 47
0.2202694993853601
 98
        4
 10
145.6658529380477
 20
219.5429010986897
 10
91.01779202580269
 20
219.1023620114283
 10
85.50891498943929
 20
167.9998383667789
 10
134.8684541839486
 20
166.0174128233584
  0
ENDSEC
  0
SECTION
  2
OBJECTS
  0
DICTIONARY
  5
C
330
0
100
AcDbDictionary
281
     1
  3
ACAD_COLOR
350
DF
  3
ACAD_GROUP
350
D
  3
ACAD_LAYOUT
350
19
  3
ACAD_MATERIAL
350
DE
  3
ACAD_MLINESTYLE
350
16
  3
ACAD_PLOTSETTINGS
350
18
  3
ACAD_PLOTSTYLENAME
350
E
  3
AcDbVariableDictionary
350
24C
  0
DICTIONARY
  5
A0
330
1E
100
AcDbDictionary
280
     1
281
     1
  3
ACAD_LAYOUTSELFREF
360
D4
  0
DICTIONARY
  5
A2
330
1A
100
AcDbDictionary
280
     1
281
     1
  3
ACAD_LAYOUTSELFREF
360
D3
  0
DICTIONARY
  5
DF
102
{ACAD_REACTORS
330
C
102
}
330
C
100
AcDbDictionary
281
     1
  0
DICTIONARY
  5
D
102
{ACAD_REACTORS
330
C
102
}
330
C
100
AcDbDictionary
281
     1
  0
DICTIONARY
  5
19
102
{ACAD_REACTORS
330
C
102
}
330
C
100
AcDbDictionary
281
     1
  3
Layout1
350
1D
  3
Model
350
21
  0
DICTIONARY
  5
DE
102
{ACAD_REACTORS
330
C
102
}
330
C
100
AcDbDictionary
281
     1
  0
DICTIONARY
  5
16
102
{ACAD_REACTORS
330
C
102
}
330
C
100
AcDbDictionary
281
     1
  3
Standard
350
17
  0
DICTIONARY
  5
18
102
{ACAD_REACTORS
330
C
102
}
330
C
100
AcDbDictionary
281
     1
  0
ACDBDICTIONARYWDFLT
  5
E
102
{ACAD_REACTORS
330
C
102
}
330
C
100
AcDbDictionary
281
     1
  3
Normal
350
F
100
AcDbDictionaryWithDefault
340
F
  0
DICTIONARY
  5
24C
102
{ACAD_REACTORS
330
C
102
}
330
C
100
AcDbDictionary
281
     1
  3
DIMASSOC
350
24D
  3
PROJECTNAME
350
24E
  0
XRECORD
  5
D4
102
{ACAD_REACTORS
330
A0
102
}
330
A0
100
AcDbXrecord
280
     1
340
1E
  0
XRECORD
  5
D3
102
{ACAD_REACTORS
330
A2
102
}
330
A2
100
AcDbXrecord
280
     1
340
1A
  0
LAYOUT
  5
1D
102
{ACAD_REACTORS
330
19
102
}
330
19
100
AcDbPlotSettings
  1

  2
\\NT_WORK01\HP LaserJet 5000 PCL 6
  4

  6

 40
0.0
 41
0.0
 42
0.0
 43
0.0
 44
0.0
 45
0.0
 46
0.0
 47
0.0
 48
0.0
 49
0.0
140
0.0
141
0.0
142
1.0
143
1.0
 70
   688
 72
     0
 73
     0
 74
     5
  7
monochrome1.ctb
 75
    16
147
1.0
 76
     0
 77
     2
 78
   300
148
0.0
149
0.0
100
AcDbLayout
  1
Layout1
 70
     0
 71
     1
 10
0.0
 20
0.0
 11
12.0
 21
9.0
 12
0.0
 22
0.0
 32
0.0
 14
1.000000000000000E+20
 24
1.000000000000000E+20
 34
1.000000000000000E+20
 15
-1.000000000000000E+20
 25
-1.000000000000000E+20
 35
-1.000000000000000E+20
146
0.0
 13
0.0
 23
0.0
 33
0.0
 16
1.0
 26
0.0
 36
0.0
 17
0.0
 27
1.0
 37
0.0
 76
     0
330
1A
  0
LAYOUT
  5
21
102
{ACAD_REACTORS
330
19
102
}
330
19
100
AcDbPlotSettings
  1

  2
RICOH Aficio 2027 PCL 6
  4
A4
  6

 40
5.027083396911621
 41
5.027085304260253
 42
5.027084350585937
 43
5.027069091796875
 44
209.9733276367187
 45
296.9259948730469
 46
0.0
 47
2.06
 48
0.0
 49
0.0
140
0.0
141
0.0
142
1.0
143
1.050424582197948
 70
 11956
 72
     1
 73
     0
 74
     2
  7
monochrome1.ctb
 75
     0
147
0.9519959994724818
 76
     0
 77
     2
 78
   300
148
0.0
149
0.0
100
AcDbLayout
  1
Model
 70
     1
 71
     0
 10
0.0
 20
0.0
 11
12.0
 21
9.0
 12
0.0
 22
0.0
 32
0.0
 14
0.0
 24
0.0
 34
0.0
 15
0.0
 25
0.0
 35
0.0
146
0.0
 13
0.0
 23
0.0
 33
0.0
 16
1.0
 26
0.0
 36
0.0
 17
0.0
 27
1.0
 37
0.0
 76
     0
330
1E
  0
MLINESTYLE
  5
17
102
{ACAD_REACTORS
330
16
102
}
330
16
100
AcDbMlineStyle
  2
STANDARD
 70
     0
  3

 62
   256
 51
90.0
 52
90.0
 71
     2
 49
0.5
 62
   256
  6
BYLAYER
 49
-0.5
 62
   256
  6
BYLAYER
  0
ACDBPLACEHOLDER
  5
F
102
{ACAD_REACTORS
330
E
102
}
330
E
  0
DICTIONARYVAR
  5
24D
102
{ACAD_REACTORS
330
24C
102
}
330
24C
100
DictionaryVariables
280
     0
  1
1
  0
DICTIONARYVAR
  5
24E
102
{ACAD_REACTORS
330
24C
102
}
330
24C
100
DictionaryVariables
280
     0
  1

  0
ENDSEC
  0
EOF
