  0
SECTION
  2
HEADER
  9
$ACADVER
  1
AC1018
  9
$ACADMAINTVER
 70
     2
  9
$DWGCODEPAGE
  3
ANSI_1252
  9
$INSBASE
 10
0.0
 20
0.0
 30
0.0
  9
$EXTMIN
 10
-0.0064041928749248
 20
-0.0090573584946014
 30
-0.0000000000112498
  9
$EXTMAX
 10
420.0064100605654
 20
594.0090656570857
 30
0.0000000000002956
  9
$LIMMIN
 10
0.0
 20
0.0
  9
$LIMMAX
 10
419.9999999999999
 20
594.0
  9
$ORTHOMODE
 70
     1
  9
$REGENMODE
 70
     1
  9
$FILLMODE
 70
     1
  9
$QTEXTMODE
 70
     0
  9
$MIRRTEXT
 70
     1
  9
$LTSCALE
 40
20.0
  9
$ATTMODE
 70
     1
  9
$TEXTSIZE
 40
3.5
  9
$TRACEWID
 40
0.5
  9
$TEXTSTYLE
  7
STANDARD
  9
$CLAYER
  8
BEM
  9
$CELTYPE
  6
ByLayer
  9
$CECOLOR
 62
   256
  9
$CELTSCALE
 40
1.0
  9
$DISPSILH
 70
     0
  9
$DIMSCALE
 40
2.0
  9
$DIMASZ
 40
3.5
  9
$DIMEXO
 40
1.0
  9
$DIMDLI
 40
7.0
  9
$DIMRND
 40
0.0
  9
$DIMDLE
 40
0.0
  9
$DIMEXE
 40
1.0
  9
$DIMTP
 40
0.0
  9
$DIMTM
 40
0.0
  9
$DIMTXT
 40
3.5
  9
$DIMCEN
 40
1.5
  9
$DIMTSZ
 40
0.0
  9
$DIMTOL
 70
     0
  9
$DIMLIM
 70
     0
  9
$DIMTIH
 70
     0
  9
$DIMTOH
 70
     0
  9
$DIMSE1
 70
     0
  9
$DIMSE2
 70
     0
  9
$DIMTAD
 70
     1
  9
$DIMZIN
 70
     8
  9
$DIMBLK
  1

  9
$DIMASO
 70
     1
  9
$DIMSHO
 70
     0
  9
$DIMPOST
  1

  9
$DIMAPOST
  1

  9
$DIMALT
 70
     0
  9
$DIMALTD
 70
     2
  9
$DIMALTF
 40
25.4
  9
$DIMLFAC
 40
1.0
  9
$DIMTOFL
 70
     1
  9
$DIMTVP
 40
0.0
  9
$DIMTIX
 70
     0
  9
$DIMSOXD
 70
     0
  9
$DIMSAH
 70
     0
  9
$DIMBLK1
  1

  9
$DIMBLK2
  1

  9
$DIMSTYLE
  2
Standard
  9
$DIMCLRD
 70
     0
  9
$DIMCLRE
 70
     0
  9
$DIMCLRT
 70
     1
  9
$DIMTFAC
 40
0.5142857142857144
  9
$DIMGAP
 40
1.5
  9
$DIMJUST
 70
     0
  9
$DIMSD1
 70
     0
  9
$DIMSD2
 70
     0
  9
$DIMTOLJ
 70
     1
  9
$DIMTZIN
 70
     8
  9
$DIMALTZ
 70
     8
  9
$DIMALTTZ
 70
     8
  9
$DIMUPT
 70
     0
  9
$DIMDEC
 70
     2
  9
$DIMTDEC
 70
     2
  9
$DIMALTU
 70
     2
  9
$DIMALTTD
 70
     2
  9
$DIMTXSTY
  7
STANDARD
  9
$DIMAUNIT
 70
     0
  9
$DIMADEC
 70
     2
  9
$DIMALTRND
 40
0.0
  9
$DIMAZIN
 70
     2
  9
$DIMDSEP
 70
    46
  9
$DIMATFIT
 70
     3
  9
$DIMFRAC
 70
     0
  9
$DIMLDRBLK
  1

  9
$DIMLUNIT
 70
     2
  9
$DIMLWD
 70
    -2
  9
$DIMLWE
 70
    -2
  9
$DIMTMOVE
 70
     0
  9
$LUNITS
 70
     2
  9
$LUPREC
 70
     2
  9
$SKETCHINC
 40
1.0
  9
$FILLETRAD
 40
0.0
  9
$AUNITS
 70
     0
  9
$AUPREC
 70
     0
  9
$MENU
  1
ACAD
  9
$ELEVATION
 40
0.0
  9
$PELEVATION
 40
0.0
  9
$THICKNESS
 40
0.0
  9
$LIMCHECK
 70
     0
  9
$CHAMFERA
 40
0.0
  9
$CHAMFERB
 40
0.0
  9
$CHAMFERC
 40
0.0
  9
$CHAMFERD
 40
0.0
  9
$SKPOLY
 70
     0
  9
$TDCREATE
 40
2455397.823042361
  9
$TDUCREATE
 40
2455397.781375695
  9
$TDUPDATE
 40
2455532.366263576
  9
$TDUUPDATE
 40
2455532.324596910
  9
$TDINDWG
 40
0.0487920370
  9
$TDUSRTIMER
 40
0.0487920370
  9
$USRTIMER
 70
     1
  9
$ANGBASE
 50
0.0
  9
$ANGDIR
 70
     0
  9
$PDMODE
 70
     0
  9
$PDSIZE
 40
0.0
  9
$PLINEWID
 40
0.0
  9
$SPLFRAME
 70
     0
  9
$SPLINETYPE
 70
     6
  9
$SPLINESEGS
 70
     8
  9
$HANDSEED
  5
CA2
  9
$SURFTAB1
 70
     6
  9
$SURFTAB2
 70
     6
  9
$SURFTYPE
 70
     6
  9
$SURFU
 70
     6
  9
$SURFV
 70
     6
  9
$UCSBASE
  2

  9
$UCSNAME
  2

  9
$UCSORG
 10
0.0
 20
0.0
 30
0.0
  9
$UCSXDIR
 10
1.0
 20
0.0
 30
0.0
  9
$UCSYDIR
 10
0.0
 20
1.0
 30
0.0
  9
$UCSORTHOREF
  2

  9
$UCSORTHOVIEW
 70
     0
  9
$UCSORGTOP
 10
0.0
 20
0.0
 30
0.0
  9
$UCSORGBOTTOM
 10
0.0
 20
0.0
 30
0.0
  9
$UCSORGLEFT
 10
0.0
 20
0.0
 30
0.0
  9
$UCSORGRIGHT
 10
0.0
 20
0.0
 30
0.0
  9
$UCSORGFRONT
 10
0.0
 20
0.0
 30
0.0
  9
$UCSORGBACK
 10
0.0
 20
0.0
 30
0.0
  9
$PUCSBASE
  2

  9
$PUCSNAME
  2

  9
$PUCSORG
 10
0.0
 20
0.0
 30
0.0
  9
$PUCSXDIR
 10
1.0
 20
0.0
 30
0.0
  9
$PUCSYDIR
 10
0.0
 20
1.0
 30
0.0
  9
$PUCSORTHOREF
  2

  9
$PUCSORTHOVIEW
 70
     0
  9
$PUCSORGTOP
 10
0.0
 20
0.0
 30
0.0
  9
$PUCSORGBOTTOM
 10
0.0
 20
0.0
 30
0.0
  9
$PUCSORGLEFT
 10
0.0
 20
0.0
 30
0.0
  9
$PUCSORGRIGHT
 10
0.0
 20
0.0
 30
0.0
  9
$PUCSORGFRONT
 10
0.0
 20
0.0
 30
0.0
  9
$PUCSORGBACK
 10
0.0
 20
0.0
 30
0.0
  9
$USERI1
 70
     0
  9
$USERI2
 70
     0
  9
$USERI3
 70
     0
  9
$USERI4
 70
     0
  9
$USERI5
 70
     0
  9
$USERR1
 40
0.0
  9
$USERR2
 40
0.0
  9
$USERR3
 40
0.0
  9
$USERR4
 40
0.0
  9
$USERR5
 40
0.0
  9
$WORLDVIEW
 70
     1
  9
$SHADEDGE
 70
     3
  9
$SHADEDIF
 70
    70
  9
$TILEMODE
 70
     1
  9
$MAXACTVP
 70
    16
  9
$PINSBASE
 10
0.0
 20
0.0
 30
0.0
  9
$PLIMCHECK
 70
     0
  9
$PEXTMIN
 10
1.000000000000000E+20
 20
1.000000000000000E+20
 30
1.000000000000000E+20
  9
$PEXTMAX
 10
-1.000000000000000E+20
 20
-1.000000000000000E+20
 30
-1.000000000000000E+20
  9
$PLIMMIN
 10
0.0
 20
0.0
  9
$PLIMMAX
 10
12.0
 20
9.0
  9
$UNITMODE
 70
     0
  9
$VISRETAIN
 70
     0
  9
$PLINEGEN
 70
     0
  9
$PSLTSCALE
 70
     0
  9
$TREEDEPTH
 70
  3020
  9
$CMLSTYLE
  2
Standard
  9
$CMLJUST
 70
     0
  9
$CMLSCALE
 40
1.0
  9
$PROXYGRAPHICS
 70
     1
  9
$MEASUREMENT
 70
     0
  9
$CELWEIGHT
370
    -1
  9
$ENDCAPS
280
     0
  9
$JOINSTYLE
280
     0
  9
$LWDISPLAY
290
     0
  9
$INSUNITS
 70
     0
  9
$HYPERLINKBASE
  1

  9
$STYLESHEET
  1
monochrome 1.ctb
  9
$XEDIT
290
     1
  9
$CEPSNTYPE
380
     0
  9
$PSTYLEMODE
290
     1
  9
$FINGERPRINTGUID
  2
{D68B0D02-A558-11D7-B632-000102183313}
  9
$VERSIONGUID
  2
{EC63F2D0-81DC-46A6-8BF9-78619C12C2F5}
  9
$EXTNAMES
290
     1
  9
$PSVPSCALE
 40
0.0
  9
$OLESTARTUP
290
     0
  9
$SORTENTS
280
   127
  9
$INDEXCTL
280
     0
  9
$HIDETEXT
280
     0
  9
$XCLIPFRAME
290
     0
  9
$HALOGAP
280
     0
  9
$OBSCOLOR
 70
   257
  9
$OBSLTYPE
280
     0
  9
$INTERSECTIONDISPLAY
280
     0
  9
$INTERSECTIONCOLOR
 70
   257
  9
$DIMASSOC
280
     1
  9
$PROJECTNAME
  1

  0
ENDSEC
  0
SECTION
  2
CLASSES
  0
CLASS
  1
ACDBDICTIONARYWDFLT
  2
AcDbDictionaryWithDefault
  3
ObjectDBX Classes
 90
        0
 91
        1
280
     0
281
     0
  0
CLASS
  1
DICTIONARYVAR
  2
AcDbDictionaryVar
  3
ObjectDBX Classes
 90
        0
 91
        2
280
     0
281
     0
  0
ENDSEC
  0
SECTION
  2
TABLES
  0
TABLE
  2
VPORT
  5
8
330
0
100
AcDbSymbolTable
 70
     2
  0
VPORT
  5
CA1
330
8
100
AcDbSymbolTableRecord
100
AcDbViewportTableRecord
  2
*Active
 70
     0
 10
0.0
 20
0.0
 11
1.0
 21
1.0
 12
210.0000029338453
 22
297.0000041492956
 13
0.0
 23
0.0
 14
1.0
 24
1.0
 15
10.0
 25
10.0
 16
0.0
 26
0.0
 36
1.0
 17
0.0
 27
0.0
 37
0.0
 40
598.8150392175905
 41
1.336927223719676
 42
50.0
 43
0.0
 44
0.0
 50
0.0
 51
0.0
 71
     0
 72
  1500
 73
     1
 74
     0
 75
     0
 76
     0
 77
     0
 78
     0
281
     0
 65
     1
110
0.0
120
0.0
130
0.0
111
1.0
121
0.0
131
0.0
112
0.0
122
1.0
132
0.0
 79
     0
146
0.0
  0
ENDTAB
  0
TABLE
  2
LTYPE
  5
5
330
0
100
AcDbSymbolTable
 70
     2
  0
LTYPE
  5
13
330
5
100
AcDbSymbolTableRecord
100
AcDbLinetypeTableRecord
  2
ByBlock
 70
     0
  3

 72
    65
 73
     0
 40
0.0
  0
LTYPE
  5
14
330
5
100
AcDbSymbolTableRecord
100
AcDbLinetypeTableRecord
  2
ByLayer
 70
     0
  3

 72
    65
 73
     0
 40
0.0
  0
LTYPE
  5
15
330
5
100
AcDbSymbolTableRecord
100
AcDbLinetypeTableRecord
  2
Continuous
 70
     0
  3
Solid line
 72
    65
 73
     0
 40
0.0
  0
LTYPE
  5
25
330
5
100
AcDbSymbolTableRecord
100
AcDbLinetypeTableRecord
  2
STRICHPUNKT
 70
     0
  3
__ . __ . __ . __ . __ . __ . __ . __ . __ . __
 72
    65
 73
     4
 40
1.0
 49
0.5
 74
     0
 49
-0.25
 74
     0
 49
0.0
 74
     0
 49
-0.25
 74
     0
  0
ENDTAB
  0
TABLE
  2
LAYER
  5
2
330
0
100
AcDbSymbolTable
 70
     9
  0
LAYER
  5
10
330
2
100
AcDbSymbolTableRecord
100
AcDbLayerTableRecord
  2
0
 70
     0
 62
     7
  6
Continuous
370
    -3
390
F
  0
LAYER
  5
2A
330
2
100
AcDbSymbolTableRecord
100
AcDbLayerTableRecord
  2
VOLL
 70
     0
 62
     1
  6
Continuous
370
    -3
390
F
  0
LAYER
  5
2B
330
2
100
AcDbSymbolTableRecord
100
AcDbLayerTableRecord
  2
HILF
 70
     0
 62
     2
  6
Continuous
370
    -3
390
F
  0
LAYER
  5
2C
330
2
100
AcDbSymbolTableRecord
100
AcDbLayerTableRecord
  2
MITTEL
 70
     0
 62
     2
  6
STRICHPUNKT
370
    -3
390
F
  0
LAYER
  5
2F
330
2
100
AcDbSymbolTableRecord
100
AcDbLayerTableRecord
  2
BEM
 70
     0
 62
     7
  6
Continuous
370
    -3
390
F
  0
LAYER
  5
30
330
2
100
AcDbSymbolTableRecord
100
AcDbLayerTableRecord
  2
STEMPEL
 70
     0
 62
     3
  6
Continuous
370
    -3
390
F
  0
LAYER
  5
31
330
2
100
AcDbSymbolTableRecord
100
AcDbLayerTableRecord
  2
TEXT
 70
     0
 62
     7
  6
Continuous
370
    -3
390
F
  0
LAYER
  5
199
330
2
100
AcDbSymbolTableRecord
100
AcDbLayerTableRecord
  2
DEFPOINTS
 70
     0
 62
     7
  6
Continuous
290
     0
370
    -3
390
F
  0
LAYER
  5
19A
330
2
100
AcDbSymbolTableRecord
100
AcDbLayerTableRecord
  2
SCHRAFF
 70
     0
 62
     7
  6
Continuous
370
    -3
390
F
  0
ENDTAB
  0
TABLE
  2
STYLE
  5
3
330
0
100
AcDbSymbolTable
 70
     2
  0
STYLE
  5
11
330
3
100
AcDbSymbolTableRecord
100
AcDbTextStyleTableRecord
  2
STANDARD
 70
     0
 40
0.0
 41
0.8
 50
0.0
 71
     0
 42
3.5
  3
simplex.shx
  4

  0
STYLE
  5
24
330
3
100
AcDbSymbolTableRecord
100
AcDbTextStyleTableRecord
  2
GREEKS
 70
     0
 40
0.0
 41
0.8
 50
0.0
 71
     0
 42
2.5
  3
SIMPLEX.shx
  4

  0
ENDTAB
  0
TABLE
  2
VIEW
  5
6
330
0
100
AcDbSymbolTable
 70
     0
  0
ENDTAB
  0
TABLE
  2
UCS
  5
7
330
0
100
AcDbSymbolTable
 70
     0
  0
ENDTAB
  0
TABLE
  2
APPID
  5
9
330
0
100
AcDbSymbolTable
 70
     1
  0
APPID
  5
12
330
9
100
AcDbSymbolTableRecord
100
AcDbRegAppTableRecord
  2
ACAD
 70
     0
  0
ENDTAB
  0
TABLE
  2
DIMSTYLE
  5
A
330
0
100
AcDbSymbolTable
 70
     1
100
AcDbDimStyleTable
 71
     1
340
9D
  0
DIMSTYLE
105
9D
102
{ACAD_REACTORS
330
9B9
330
9BA
330
9E5
330
C8A
102
}
330
A
100
AcDbSymbolTableRecord
100
AcDbDimStyleTableRecord
  2
Standard
 70
     0
340
11
  0
ENDTAB
  0
TABLE
  2
BLOCK_RECORD
  5
1
330
0
100
AcDbSymbolTable
 70
     5
  0
BLOCK_RECORD
  5
1E
102
{ACAD_XDICTIONARY
360
A0
102
}
330
1
100
AcDbSymbolTableRecord
100
AcDbBlockTableRecord
  2
*Model_Space
340
21
  0
BLOCK_RECORD
  5
1A
102
{ACAD_XDICTIONARY
360
A2
102
}
330
1
100
AcDbSymbolTableRecord
100
AcDbBlockTableRecord
  2
*Paper_Space
340
1D
  0
BLOCK_RECORD
  5
22
330
1
100
AcDbSymbolTableRecord
100
AcDbBlockTableRecord
  2
LOGO
340
0
102
{BLKREFS
331
9B
102
}
  0
BLOCK_RECORD
  5
A04
330
1
100
AcDbSymbolTableRecord
100
AcDbBlockTableRecord
  2
*D1
340
0
  0
BLOCK_RECORD
  5
A10
330
1
100
AcDbSymbolTableRecord
100
AcDbBlockTableRecord
  2
*D2
340
0
  0
BLOCK_RECORD
  5
A42
330
1
100
AcDbSymbolTableRecord
100
AcDbBlockTableRecord
  2
*D3
340
0
  0
BLOCK_RECORD
  5
C8B
330
1
100
AcDbSymbolTableRecord
100
AcDbBlockTableRecord
  2
*D4
340
0
  0
ENDTAB
  0
ENDSEC
  0
SECTION
  2
BLOCKS
  0
BLOCK
  5
35
330
1E
100
AcDbEntity
  8
0
100
AcDbBlockBegin
  2
*Model_Space
 70
     0
 10
0.0
 20
0.0
 30
0.0
  3
*Model_Space
  1

  0
ENDBLK
  5
36
330
1E
100
AcDbEntity
  8
0
100
AcDbBlockEnd
  0
BLOCK
  5
33
330
1A
100
AcDbEntity
 67
     1
  8
0
100
AcDbBlockBegin
  2
*Paper_Space
 70
     0
 10
0.0
 20
0.0
 30
0.0
  3
*Paper_Space
  1

  0
ENDBLK
  5
34
330
1A
100
AcDbEntity
 67
     1
  8
0
100
AcDbBlockEnd
  0
BLOCK
  5
37
330
22
100
AcDbEntity
  8
0
100
AcDbBlockBegin
  2
LOGO
 70
     0
 10
0.0
 20
0.0
 30
0.0
  3
LOGO
  1

  0
ARC
  5
38
330
22
100
AcDbEntity
  8
0
100
AcDbCircle
 10
11.59973089678112
 20
-9.271599258481501
 30
0.0
 40
4.5
100
AcDbArc
 50
270.0
 51
231.0575587310159
  0
LINE
  5
39
330
22
100
AcDbEntity
  8
0
100
AcDbLine
 10
3.599730896781125
 20
-4.771599258481529
 30
0.0
 11
3.599730896781153
 21
-11.77159925848133
 31
0.0
  0
LINE
  5
3A
330
22
100
AcDbEntity
  8
0
100
AcDbLine
 10
2.599730896781125
 20
-4.771599258481529
 30
0.0
 11
2.599730896781153
 21
-11.77159925848133
 31
0.0
  0
CIRCLE
  5
3B
330
22
100
AcDbEntity
  8
0
100
AcDbCircle
 10
11.59973089678112
 20
-9.271599258481501
 30
0.0
 40
3.5
  0
ARC
  5
3C
330
22
100
AcDbEntity
  8
0
100
AcDbCircle
 10
31.59973089678115
 20
-9.271599258481472
 30
0.0
 40
4.5
100
AcDbArc
 50
270.0
 51
231.0575587310182
  0
LINE
  5
3D
330
22
100
AcDbEntity
  8
0
100
AcDbLine
 10
17.59973089678112
 20
-4.771599258481472
 30
0.0
 11
17.59973089678115
 21
-13.77159925848147
 31
0.0
  0
ARC
  5
3E
330
22
100
AcDbEntity
  8
0
100
AcDbCircle
 10
22.59973089678116
 20
-7.271599258481472
 30
0.0
 40
2.5
100
AcDbArc
 50
293.1161887722295
 51
90.0
  0
CIRCLE
  5
3F
330
22
100
AcDbEntity
  8
0
100
AcDbCircle
 10
31.59973089678115
 20
-9.271599258481472
 30
0.0
 40
3.5
  0
ARC
  5
40
330
22
100
AcDbEntity
  8
0
100
AcDbCircle
 10
4.599730896781153
 20
-11.77159925848133
 30
0.0
 40
1.0
100
AcDbArc
 50
180.0
 51
270.0
  0
ARC
  5
41
330
22
100
AcDbEntity
  8
0
100
AcDbCircle
 10
4.599730896781153
 20
-11.77159925848133
 30
0.0
 40
2.0
100
AcDbArc
 50
179.9999999999992
 51
270.0
  0
LINE
  5
42
330
22
100
AcDbEntity
  8
0
100
AcDbLine
 10
11.59973089678115
 20
-13.77159925848144
 30
0.0
 11
4.599730896781153
 21
-13.77159925848147
 31
0.0
  0
LINE
  5
43
330
22
100
AcDbEntity
  8
0
100
AcDbLine
 10
8.771303772034769
 20
-12.77159925848136
 30
0.0
 11
4.599730896781153
 21
-12.77159925848133
 31
0.0
  0
LINE
  5
44
330
22
100
AcDbEntity
  8
0
100
AcDbLine
 10
31.59973089678115
 20
-13.77159925848147
 30
0.0
 11
23.6715276665056
 21
-13.77159925848144
 31
0.0
  0
LINE
  5
45
330
22
100
AcDbEntity
  8
0
100
AcDbLine
 10
23.56565672307022
 20
-9.51278021337896
 30
0.0
 11
24.4388546544846
 21
-12.77159925848144
 31
0.0
  0
LINE
  5
46
330
22
100
AcDbEntity
  8
0
100
AcDbLine
 10
22.59973089678116
 20
-9.771599258481472
 30
0.0
 11
18.59973089678112
 21
-9.771599258481472
 31
0.0
  0
LINE
  5
47
330
22
100
AcDbEntity
  8
0
100
AcDbLine
 10
18.59973089678115
 20
-13.77159925848144
 30
0.0
 11
17.59973089678115
 21
-13.77159925848144
 31
0.0
  0
LINE
  5
48
330
22
100
AcDbEntity
  8
0
100
AcDbLine
 10
18.59973089678115
 20
-9.771599258481472
 30
0.0
 11
18.59973089678115
 21
-13.77159925848144
 31
0.0
  0
LINE
  5
49
330
22
100
AcDbEntity
  8
0
100
AcDbLine
 10
22.59973089678116
 20
-9.771599258481472
 30
0.0
 11
23.67152766650562
 21
-13.77159925848147
 31
0.0
  0
ARC
  5
4A
330
22
100
AcDbEntity
  8
0
100
AcDbCircle
 10
22.59973089678116
 20
-7.271599258481472
 30
0.0
 40
2.5
100
AcDbArc
 50
270.0
 51
270.0000000000007
  0
LINE
  5
4B
330
22
100
AcDbEntity
  8
0
100
AcDbLine
 10
28.77130377203494
 20
-12.77159925848147
 30
0.0
 11
24.43885465448463
 21
-12.77159925848144
 31
0.0
  0
LINE
  5
4C
330
22
100
AcDbEntity
  8
0
100
AcDbLine
 10
3.599730896781125
 20
-4.771599258481472
 30
0.0
 11
2.599730896781125
 21
-4.771599258481472
 31
0.0
  0
LINE
  5
4D
330
22
100
AcDbEntity
  8
0
100
AcDbLine
 10
22.59973089678116
 20
-8.771599258481472
 30
0.0
 11
18.59973089678115
 21
-8.771599258481472
 31
0.0
  0
LINE
  5
4E
330
22
100
AcDbEntity
  8
0
100
AcDbLine
 10
22.59973089678116
 20
-5.771599258481472
 30
0.0
 11
18.59973089678115
 21
-5.771599258481472
 31
0.0
  0
LINE
  5
4F
330
22
100
AcDbEntity
  8
0
100
AcDbLine
 10
22.59973089678116
 20
-4.771599258481472
 30
0.0
 11
17.59973089678115
 21
-4.771599258481472
 31
0.0
  0
LINE
  5
50
330
22
100
AcDbEntity
  8
0
100
AcDbLine
 10
18.59973089678115
 20
-5.771599258481472
 30
0.0
 11
18.59973089678115
 21
-8.771599258481472
 31
0.0
  0
ARC
  5
51
330
22
100
AcDbEntity
  8
0
100
AcDbCircle
 10
22.59973089678116
 20
-7.271599258481472
 30
0.0
 40
1.5
100
AcDbArc
 50
270.0
 51
90.0
  0
ENDBLK
  5
52
330
22
100
AcDbEntity
  8
0
100
AcDbBlockEnd
  0
BLOCK
  5
A0E
330
A04
100
AcDbEntity
  8
0
100
AcDbBlockBegin
  2
*D1
 70
     1
 10
0.0
 20
0.0
 30
0.0
  3
*D1
  1

  0
LINE
  5
C81
330
A04
100
AcDbEntity
  8
BEM
 62
     0
370
    -2
100
AcDbLine
 10
148.7370247033092
 20
200.9882547977569
 30
0.0
 11
148.7370247033092
 21
172.2493744648011
 31
0.0
  0
LINE
  5
C82
330
A04
100
AcDbEntity
  8
BEM
 62
     0
370
    -2
100
AcDbLine
 10
307.7370247033095
 20
200.988254797757
 30
0.0
 11
307.7370247033095
 21
172.2493744648011
 31
0.0
  0
LINE
  5
C83
330
A04
100
AcDbEntity
  8
BEM
 62
     0
370
    -2
100
AcDbLine
 10
155.7370247033092
 20
174.2493744648011
 30
0.0
 11
300.7370247033094
 21
174.2493744648011
 31
0.0
  0
SOLID
  5
C84
330
A04
100
AcDbEntity
  8
BEM
 62
     0
100
AcDbTrace
 10
155.7370247033092
 20
175.4160411314678
 30
0.0
 11
155.7370247033092
 21
173.0827077981344
 31
0.0
 12
148.7370247033092
 22
174.2493744648011
 32
0.0
 13
148.7370247033092
 23
174.2493744648011
 33
0.0
  0
SOLID
  5
C85
330
A04
100
AcDbEntity
  8
BEM
 62
     0
100
AcDbTrace
 10
300.7370247033094
 20
175.4160411314678
 30
0.0
 11
300.7370247033094
 21
173.0827077981344
 31
0.0
 12
307.7370247033095
 22
174.2493744648011
 32
0.0
 13
307.7370247033095
 23
174.2493744648011
 33
0.0
  0
MTEXT
  5
C86
330
A04
100
AcDbEntity
  8
BEM
 62
     1
100
AcDbMText
 10
228.2370247033093
 20
180.7493744648011
 30
0.0
 40
7.0
 41
0.0
 71
     5
 72
     1
  1
\A1;%%c159
  7
GREEKS
 73
     1
 44
1.0
  0
POINT
  5
C87
330
A04
100
AcDbEntity
  8
DEFPOINTS
 62
     0
100
AcDbPoint
 10
148.7370247033092
 20
202.9882547977569
 30
0.0
  0
POINT
  5
C88
330
A04
100
AcDbEntity
  8
DEFPOINTS
 62
     0
100
AcDbPoint
 10
307.7370247033095
 20
202.988254797757
 30
0.0
  0
POINT
  5
C89
330
A04
100
AcDbEntity
  8
DEFPOINTS
 62
     0
100
AcDbPoint
 10
307.7370247033095
 20
174.2493744648011
 30
0.0
  0
ENDBLK
  5
A0F
330
A04
100
AcDbEntity
  8
0
100
AcDbBlockEnd
  0
BLOCK
  5
A1A
330
A10
100
AcDbEntity
  8
0
100
AcDbBlockBegin
  2
*D2
 70
     1
 10
0.0
 20
0.0
 30
0.0
  3
*D2
  1

  0
LINE
  5
C78
330
A10
100
AcDbEntity
  8
BEM
 62
     0
370
    -2
100
AcDbLine
 10
118.7370247033092
 20
524.9882547977569
 30
0.0
 11
118.7370247033092
 21
538.4228302955846
 31
0.0
  0
LINE
  5
C79
330
A10
100
AcDbEntity
  8
BEM
 62
     0
370
    -2
100
AcDbLine
 10
337.7370247033092
 20
524.988254797757
 30
0.0
 11
337.7370247033092
 21
538.4228302955846
 31
0.0
  0
LINE
  5
C7A
330
A10
100
AcDbEntity
  8
BEM
 62
     0
370
    -2
100
AcDbLine
 10
125.7370247033092
 20
536.4228302955845
 30
0.0
 11
330.7370247033092
 21
536.4228302955845
 31
0.0
  0
SOLID
  5
C7B
330
A10
100
AcDbEntity
  8
BEM
 62
     0
100
AcDbTrace
 10
125.7370247033092
 20
537.5894969622512
 30
0.0
 11
125.7370247033092
 21
535.256163628918
 31
0.0
 12
118.7370247033092
 22
536.4228302955845
 32
0.0
 13
118.7370247033092
 23
536.4228302955845
 33
0.0
  0
SOLID
  5
C7C
330
A10
100
AcDbEntity
  8
BEM
 62
     0
100
AcDbTrace
 10
330.7370247033092
 20
537.5894969622512
 30
0.0
 11
330.7370247033092
 21
535.256163628918
 31
0.0
 12
337.7370247033092
 22
536.4228302955845
 32
0.0
 13
337.7370247033092
 23
536.4228302955845
 33
0.0
  0
MTEXT
  5
C7D
330
A10
100
AcDbEntity
  8
BEM
 62
     1
100
AcDbMText
 10
228.2370247033092
 20
542.9228302955846
 30
0.0
 40
7.0
 41
0.0
 71
     5
 72
     1
  1
\A1;%%c219
  7
GREEKS
 73
     1
 44
1.0
  0
POINT
  5
C7E
330
A10
100
AcDbEntity
  8
DEFPOINTS
 62
     0
100
AcDbPoint
 10
118.7370247033092
 20
522.9882547977569
 30
0.0
  0
POINT
  5
C7F
330
A10
100
AcDbEntity
  8
DEFPOINTS
 62
     0
100
AcDbPoint
 10
337.7370247033092
 20
522.9882547977569
 30
0.0
  0
POINT
  5
C80
330
A10
100
AcDbEntity
  8
DEFPOINTS
 62
     0
100
AcDbPoint
 10
337.7370247033092
 20
536.4228302955845
 30
0.0
  0
ENDBLK
  5
A1B
330
A10
100
AcDbEntity
  8
0
100
AcDbBlockEnd
  0
BLOCK
  5
A4C
330
A42
100
AcDbEntity
  8
0
100
AcDbBlockBegin
  2
*D3
 70
     1
 10
0.0
 20
0.0
 30
0.0
  3
*D3
  1

  0
LINE
  5
C6F
330
A42
100
AcDbEntity
  8
BEM
 62
     0
370
    -2
100
AcDbLine
 10
116.7370247033093
 20
522.9882547977569
 30
0.0
 11
84.37134208707819
 21
522.9882547977569
 31
0.0
  0
LINE
  5
C70
330
A42
100
AcDbEntity
  8
BEM
 62
     0
370
    -2
100
AcDbLine
 10
147.6023617447093
 20
192.988254797757
 30
0.0
 11
84.37134208707812
 21
192.988254797757
 31
0.0
  0
LINE
  5
C71
330
A42
100
AcDbEntity
  8
BEM
 62
     0
370
    -2
100
AcDbLine
 10
86.37134208707818
 20
515.988254797757
 30
0.0
 11
86.37134208707811
 21
199.988254797757
 31
0.0
  0
SOLID
  5
C72
330
A42
100
AcDbEntity
  8
BEM
 62
     0
100
AcDbTrace
 10
85.20467542041151
 20
515.988254797757
 30
0.0
 11
87.53800875374485
 21
515.988254797757
 31
0.0
 12
86.37134208707818
 22
522.9882547977569
 32
0.0
 13
86.37134208707818
 23
522.9882547977569
 33
0.0
  0
SOLID
  5
C73
330
A42
100
AcDbEntity
  8
BEM
 62
     0
100
AcDbTrace
 10
85.20467542041144
 20
199.988254797757
 30
0.0
 11
87.53800875374478
 21
199.988254797757
 31
0.0
 12
86.37134208707811
 22
192.988254797757
 32
0.0
 13
86.37134208707811
 23
192.988254797757
 33
0.0
  0
MTEXT
  5
C74
330
A42
100
AcDbEntity
  8
BEM
 62
     1
100
AcDbMText
 10
79.87134208707811
 20
357.988254797757
 30
0.0
 40
7.0
 41
0.0
 71
     5
 72
     1
  1
\A1;2080
  7
GREEKS
 11
0.0000000000000001
 21
1.0
 31
0.0
 73
     1
 44
1.0
  0
POINT
  5
C75
330
A42
100
AcDbEntity
  8
DEFPOINTS
 62
     0
100
AcDbPoint
 10
118.7370247033093
 20
522.9882547977569
 30
0.0
  0
POINT
  5
C76
330
A42
100
AcDbEntity
  8
DEFPOINTS
 62
     0
100
AcDbPoint
 10
149.6023617447093
 20
192.988254797757
 30
0.0
  0
POINT
  5
C77
330
A42
100
AcDbEntity
  8
DEFPOINTS
 62
     0
100
AcDbPoint
 10
86.37134208707811
 20
192.988254797757
 30
0.0
  0
ENDBLK
  5
A4D
330
A42
100
AcDbEntity
  8
0
100
AcDbBlockEnd
  0
BLOCK
  5
C95
330
C8B
100
AcDbEntity
  8
0
100
AcDbBlockBegin
  2
*D4
 70
     1
 10
0.0
 20
0.0
 30
0.0
  3
*D4
  1

  0
LINE
  5
C8C
330
C8B
100
AcDbEntity
  8
BEM
 62
     0
370
    -2
100
AcDbLine
 10
147.6023617447093
 20
192.9882547977569
 30
0.0
 11
100.9658956294261
 21
192.9882547977569
 31
0.0
  0
LINE
  5
C8D
330
C8B
100
AcDbEntity
  8
BEM
 62
     0
370
    -2
100
AcDbLine
 10
116.7370247033093
 20
257.9882547977569
 30
0.0
 11
100.9658956294261
 21
257.9882547977569
 31
0.0
  0
LINE
  5
C8E
330
C8B
100
AcDbEntity
  8
BEM
 62
     0
370
    -2
100
AcDbLine
 10
102.965895629426
 20
199.9882547977569
 30
0.0
 11
102.9658956294261
 21
250.9882547977569
 31
0.0
  0
SOLID
  5
C8F
330
C8B
100
AcDbEntity
  8
BEM
 62
     0
100
AcDbTrace
 10
101.7992289627594
 20
199.9882547977569
 30
0.0
 11
104.1325622960927
 21
199.9882547977569
 31
0.0
 12
102.965895629426
 22
192.9882547977569
 32
0.0
 13
102.965895629426
 23
192.9882547977569
 33
0.0
  0
SOLID
  5
C90
330
C8B
100
AcDbEntity
  8
BEM
 62
     0
100
AcDbTrace
 10
101.7992289627594
 20
250.9882547977569
 30
0.0
 11
104.1325622960927
 21
250.9882547977569
 31
0.0
 12
102.9658956294261
 22
257.9882547977569
 32
0.0
 13
102.9658956294261
 23
257.9882547977569
 33
0.0
  0
MTEXT
  5
C91
330
C8B
100
AcDbEntity
  8
BEM
 62
     1
100
AcDbMText
 10
96.46589562942605
 20
225.4882547977569
 30
0.0
 40
7.0
 41
0.0
 71
     5
 72
     1
  1
\A1;65
 11
0.0000000000000001
 21
1.0
 31
0.0
 73
     1
 44
1.0
  0
POINT
  5
C92
330
C8B
100
AcDbEntity
  8
DEFPOINTS
 62
     0
100
AcDbPoint
 10
149.6023617447093
 20
192.9882547977569
 30
0.0
  0
POINT
  5
C93
330
C8B
100
AcDbEntity
  8
DEFPOINTS
 62
     0
100
AcDbPoint
 10
118.7370247033093
 20
257.9882547977569
 30
0.0
  0
POINT
  5
C94
330
C8B
100
AcDbEntity
  8
DEFPOINTS
 62
     0
100
AcDbPoint
 10
102.9658956294261
 20
257.9882547977569
 30
0.0
  0
ENDBLK
  5
C96
330
C8B
100
AcDbEntity
  8
0
100
AcDbBlockEnd
  0
ENDSEC
  0
SECTION
  2
ENTITIES
  0
LINE
  5
57
330
1E
100
AcDbEntity
  8
STEMPEL
100
AcDbLine
 10
410.0
 20
110.0
 30
0.0
 11
39.99999999999997
 21
110.0
 31
0.0
  0
LINE
  5
58
330
1E
100
AcDbEntity
  8
STEMPEL
100
AcDbLine
 10
136.0000000000001
 20
109.9999999999999
 30
0.0
 11
136.0
 21
9.999999999999971
 31
0.0
  0
LINE
  5
59
330
1E
100
AcDbEntity
  8
STEMPEL
100
AcDbLine
 10
220.0
 20
110.0
 30
0.0
 11
220.0
 21
9.999999999999971
 31
0.0
  0
LINE
  5
5A
330
1E
100
AcDbEntity
  8
STEMPEL
100
AcDbLine
 10
332.0
 20
109.9999999999997
 30
0.0
 11
332.0
 21
40.0
 31
0.0
  0
LINE
  5
5B
330
1E
100
AcDbEntity
  8
STEMPEL
100
AcDbLine
 10
135.9999999999999
 20
29.99999999999997
 30
0.0
 11
39.99999999999997
 21
29.99999999999997
 31
0.0
  0
LINE
  5
5C
330
1E
100
AcDbEntity
  8
STEMPEL
100
AcDbLine
 10
410.0
 20
40.0
 30
0.0
 11
136.0000000000001
 21
39.99999999999997
 31
0.0
  0
LINE
  5
5D
330
1E
100
AcDbEntity
  8
STEMPEL
100
AcDbLine
 10
410.0
 20
80.0
 30
0.0
 11
136.0000000000001
 21
79.99999999999994
 31
0.0
  0
LINE
  5
5E
330
1E
100
AcDbEntity
  8
VOLL
100
AcDbLine
 10
54.00000000000009
 20
110.0
 30
0.0
 11
53.99999999999997
 21
9.999999999999971
 31
0.0
  0
LINE
  5
5F
330
1E
100
AcDbEntity
  8
VOLL
100
AcDbLine
 10
94.00000000000011
 20
109.9999999999999
 30
0.0
 11
94.0
 21
9.999999999999971
 31
0.0
  0
LINE
  5
60
330
1E
100
AcDbEntity
  8
VOLL
100
AcDbLine
 10
114.0000000000001
 20
109.9999999999999
 30
0.0
 11
114.0
 21
9.999999999999971
 31
0.0
  0
LINE
  5
61
330
1E
100
AcDbEntity
  8
VOLL
100
AcDbLine
 10
154.0000000000001
 20
79.99999999999994
 30
0.0
 11
154.0000000000001
 21
39.99999999999997
 31
0.0
  0
LINE
  5
62
330
1E
100
AcDbEntity
  8
VOLL
100
AcDbLine
 10
180.0000000000001
 20
109.9999999999998
 30
0.0
 11
180.0
 21
39.99999999999997
 31
0.0
  0
LINE
  5
63
330
1E
100
AcDbEntity
  8
HILF
100
AcDbLine
 10
40.00000000000008
 20
100.0
 30
0.0
 11
136.0000000000001
 21
100.0
 31
0.0
  0
LINE
  5
64
330
1E
100
AcDbEntity
  8
HILF
100
AcDbLine
 10
40.00000000000008
 20
90.00000000000005
 30
0.0
 11
136.0000000000001
 21
90.00000000000005
 31
0.0
  0
LINE
  5
65
330
1E
100
AcDbEntity
  8
HILF
100
AcDbLine
 10
40.00000000000008
 20
79.99999999999994
 30
0.0
 11
136.0000000000001
 21
79.99999999999994
 31
0.0
  0
LINE
  5
66
330
1E
100
AcDbEntity
  8
HILF
100
AcDbLine
 10
40.00000000000008
 20
69.99999999999994
 30
0.0
 11
136.0000000000001
 21
69.99999999999994
 31
0.0
  0
LINE
  5
67
330
1E
100
AcDbEntity
  8
HILF
100
AcDbLine
 10
40.00000000000008
 20
59.99999999999997
 30
0.0
 11
136.0000000000001
 21
59.99999999999997
 31
0.0
  0
LINE
  5
68
330
1E
100
AcDbEntity
  8
HILF
100
AcDbLine
 10
40.00000000000008
 20
49.99999999999997
 30
0.0
 11
136.0000000000001
 21
49.99999999999997
 31
0.0
  0
LINE
  5
69
330
1E
100
AcDbEntity
  8
HILF
100
AcDbLine
 10
40.00000000000008
 20
39.99999999999997
 30
0.0
 11
136.0000000000001
 21
39.99999999999997
 31
0.0
  0
LINE
  5
6A
330
1E
100
AcDbEntity
  8
HILF
100
AcDbLine
 10
136.0000000000001
 20
69.99999999999994
 30
0.0
 11
220.0
 21
69.99999999999994
 31
0.0
  0
LINE
  5
6B
330
1E
100
AcDbEntity
  8
HILF
100
AcDbLine
 10
136.0000000000001
 20
59.99999999999997
 30
0.0
 11
220.0
 21
59.99999999999997
 31
0.0
  0
LINE
  5
6C
330
1E
100
AcDbEntity
  8
HILF
100
AcDbLine
 10
136.0000000000001
 20
49.99999999999997
 30
0.0
 11
220.0
 21
49.99999999999997
 31
0.0
  0
LINE
  5
6D
330
1E
100
AcDbEntity
  8
HILF
100
AcDbLine
 10
224.7736801096948
 20
84.03758247564139
 30
0.0
 11
324.8353916556311
 21
84.03758247564139
 31
0.0
  0
LINE
  5
6E
330
1E
100
AcDbEntity
  8
HILF
100
AcDbLine
 10
224.7736801096948
 20
69.99999999999994
 30
0.0
 11
324.835391655631
 21
69.99999999999994
 31
0.0
  0
LINE
  5
6F
330
1E
100
AcDbEntity
  8
HILF
100
AcDbLine
 10
224.7736801096948
 20
59.99999999999997
 30
0.0
 11
324.835391655631
 21
59.99999999999997
 31
0.0
  0
LINE
  5
70
330
1E
100
AcDbEntity
  8
HILF
100
AcDbLine
 10
224.7736801096948
 20
49.99999999999997
 30
0.0
 11
324.835391655631
 21
49.99999999999997
 31
0.0
  0
LINE
  5
71
330
1E
100
AcDbEntity
  8
VOLL
100
AcDbLine
 10
332.0
 20
60.0
 30
0.0
 11
410.0
 21
60.0
 31
0.0
  0
LINE
  5
72
330
1E
100
AcDbEntity
  8
HILF
100
AcDbLine
 10
336.7238616296993
 20
83.77983636955827
 30
0.0
 11
404.8588839326728
 21
83.77983636955827
 31
0.0
  0
LINE
  5
73
330
1E
100
AcDbEntity
  8
HILF
100
AcDbLine
 10
223.4909699289885
 20
14.89398258028314
 30
0.0
 11
404.8588839326728
 21
14.89398258028314
 31
0.0
  0
TEXT
  5
74
330
1E
100
AcDbEntity
  8
TEXT
100
AcDbText
 10
63.86165979631819
 20
18.67381894984132
 30
0.0
 40
4.0
  1
Änderung
 41
0.8
  7
GREEKS
 72
     1
 11
74.60451693917534
 21
18.67381894984132
 31
0.0
100
AcDbText
  0
TEXT
  5
75
330
1E
100
AcDbEntity
  8
TEXT
100
AcDbText
 10
143.5163572150377
 20
102.4620895087088
 30
0.0
 40
5.0
  1
Maßstab
 41
0.8
  7
GREEKS
100
AcDbText
  0
TEXT
  5
76
330
1E
100
AcDbEntity
  8
TEXT
100
AcDbText
 10
184.2858954734051
 20
102.4184168434819
 30
0.0
 40
5.0
  1
Zul. Abw.
 41
0.8
  7
GREEKS
100
AcDbText
  0
TEXT
  5
77
330
1E
100
AcDbEntity
  8
TEXT
100
AcDbText
 10
224.877940380901
 20
102.5489328011779
 30
0.0
 40
5.0
  1
Benennung
 41
0.8
  7
GREEKS
100
AcDbText
  0
TEXT
  5
78
330
1E
100
AcDbEntity
  8
TEXT
100
AcDbText
 10
336.178754957634
 20
102.3132034537136
 30
0.0
 40
5.0
  1
Zeichnungs Nr.
 41
0.8
  7
GREEKS
100
AcDbText
  0
TEXT
  5
79
330
1E
100
AcDbEntity
  8
TEXT
100
AcDbText
 10
224.742238391136
 20
30.84560570193057
 30
0.0
 40
5.0
  1
Bauvorhaben
 41
0.8
  7
GREEKS
100
AcDbText
  0
TEXT
  5
7A
330
1E
100
AcDbEntity
  8
TEXT
100
AcDbText
 10
336.7238616296993
 20
73.1811823709997
 30
0.0
 40
5.0
  1
Ersatz für:
 41
0.8
  7
GREEKS
100
AcDbText
  0
TEXT
  5
7B
330
1E
100
AcDbEntity
  8
TEXT
100
AcDbText
 10
48.26641107045756
 20
13.65465846027192
 30
0.0
 40
4.0
  1
Index
 50
90.0
 41
0.8
  7
GREEKS
100
AcDbText
  0
TEXT
  5
7C
330
1E
100
AcDbEntity
  8
TEXT
100
AcDbText
 10
100.0934676075481
 20
18.6715626933981
 30
0.0
 40
4.0
  1
Tag
 41
0.8
  7
GREEKS
 72
     1
 11
103.8268009408814
 21
18.6715626933981
 31
0.0
100
AcDbText
  0
TEXT
  5
7D
330
1E
100
AcDbEntity
  8
TEXT
100
AcDbText
 10
119.0122744386592
 20
18.59324216966408
 30
0.0
 40
4.0
  1
Name
 41
0.8
  7
GREEKS
 72
     1
 11
125.3360839624688
 21
18.59324216966408
 31
0.0
100
AcDbText
  0
TEXT
  5
7E
330
1E
100
AcDbEntity
  8
TEXT
100
AcDbText
 10
162.3311673153651
 20
73.31880501229926
 30
0.0
 40
4.0
  1
Tag
 41
0.8
  7
GREEKS
100
AcDbText
  0
TEXT
  5
7F
330
1E
100
AcDbEntity
  8
TEXT
100
AcDbText
 10
192.4626584226295
 20
73.30961091915225
 30
0.0
 40
4.0
  1
Name
 41
0.8
  7
GREEKS
100
AcDbText
  0
TEXT
  5
80
330
1E
100
AcDbEntity
  8
TEXT
100
AcDbText
 10
137.5836127167615
 20
63.62990369617964
 30
0.0
 40
4.0
  1
Gez.
 41
0.8
  7
GREEKS
100
AcDbText
  0
TEXT
  5
81
330
1E
100
AcDbEntity
  8
TEXT
100
AcDbText
 10
137.5515086571672
 20
53.68926291428377
 30
0.0
 40
4.0
  1
Gepr.
 41
0.8
  7
GREEKS
100
AcDbText
  0
TEXT
  5
82
330
1E
100
AcDbEntity
  8
TEXT
100
AcDbText
 10
137.6006777387304
 20
43.52946389649807
 30
0.0
 40
4.0
  1
Norm.
 41
0.8
  7
GREEKS
100
AcDbText
  0
LINE
  5
83
330
1E
100
AcDbEntity
  8
STEMPEL
100
AcDbLine
 10
49.99999999999989
 20
10.0
 30
0.0
 11
410.0
 21
10.0
 31
0.0
  0
TEXT
  5
84
330
1E
100
AcDbEntity
  8
TEXT
100
AcDbText
 10
337.2400861497006
 20
52.07416177878602
 30
0.0
 40
5.0
  1
ersetzt durch:
 41
0.8
  7
GREEKS
100
AcDbText
  0
LINE
  5
85
330
1E
100
AcDbEntity
  8
STEMPEL
100
AcDbLine
 10
410.0
 20
10.0
 30
0.0
 11
39.99999999999989
 21
10.0
 31
0.0
  0
LINE
  5
86
330
1E
100
AcDbEntity
  8
STEMPEL
100
AcDbLine
 10
410.0
 20
10.0
 30
0.0
 11
410.0
 21
584.0
 31
0.0
  0
LINE
  5
87
330
1E
100
AcDbEntity
  8
STEMPEL
100
AcDbLine
 10
40.0
 20
10.0
 30
0.0
 11
39.99999999999989
 21
584.0
 31
0.0
  0
LINE
  5
88
330
1E
100
AcDbEntity
  8
STEMPEL
100
AcDbLine
 10
410.0
 20
584.0
 30
0.0
 11
39.99999999999989
 21
584.0
 31
0.0
  0
LINE
  5
89
330
1E
100
AcDbEntity
  8
HILF
100
AcDbLine
 10
0.0
 20
0.0
 30
0.0
 11
-0.0000000000001137
 21
594.0
 31
0.0
  0
LINE
  5
8A
330
1E
100
AcDbEntity
  8
HILF
100
AcDbLine
 10
419.9999999999999
 20
594.0000000000002
 30
0.0
 11
0.0
 21
594.0
 31
0.0
  0
LINE
  5
8B
330
1E
100
AcDbEntity
  8
HILF
100
AcDbLine
 10
420.0
 20
0.0
 30
0.0
 11
0.0
 21
0.0
 31
0.0
  0
LINE
  5
8C
330
1E
100
AcDbEntity
  8
HILF
100
AcDbLine
 10
31.08767135713856
 20
297.0
 30
0.0
 11
0.0000000000001137
 21
297.0
 31
0.0
  0
TEXT
  5
8D
330
1E
100
AcDbEntity
  8
TEXT
100
AcDbText
 10
138.622109822104
 20
73.14025471151666
 30
0.0
 40
4.0
  1
2007
 41
0.8
  7
GREEKS
100
AcDbText
  0
LINE
  5
8E
330
1E
100
AcDbEntity
  8
HILF
100
AcDbLine
 10
420.0
 20
-0.0000000000001137
 30
0.0
 11
419.9999999999999
 21
594.0
 31
0.0
  0
TEXT
  5
8F
330
1E
100
AcDbEntity
  8
VOLL
100
AcDbText
 10
78.07675471698113
 20
31.02594776470585
 30
0.0
 40
1.8
  1

  7
GREEKS
100
AcDbText
  0
TEXT
  5
90
330
1E
100
AcDbEntity
  8
TEXT
100
AcDbText
 10
41.85509950977674
 20
111.6719999999999
 30
0.0
 40
5.0
  1
Erstellt mit AUTOCAD 2004
 41
0.8
  7
GREEKS
100
AcDbText
  0
TEXT
  5
91
330
1E
100
AcDbEntity
  8
TEXT
100
AcDbText
 10
194.4216048581257
 20
63.0896391972351
 30
0.0
 40
4.0
  1
Koeh
 41
0.8
  7
GREEKS
 72
     1
 11
199.6787477152685
 21
63.0896391972351
 31
0.0
100
AcDbText
  0
TEXT
  5
92
330
1E
100
AcDbEntity
  8
TEXT
 62
     1
100
AcDbText
 10
347.7397460790191
 20
88.14901428913959
 30
0.0
 40
7.0
  1
58011150W
 41
0.8
  7
GREEKS
 72
     1
 11
370.1397460790191
 21
88.14901428913959
 31
0.0
100
AcDbText
  0
TEXT
  5
93
330
1E
100
AcDbEntity
  8
TEXT
 62
     1
100
AcDbText
 10
150.5006306481887
 20
88.14901428913959
 30
0.0
 40
7.0
  1
1:2
 41
0.8
  7
GREEKS
100
AcDbText
  0
TEXT
  5
94
330
1E
100
AcDbEntity
  8
TEXT
100
AcDbText
 10
160.398997108236
 20
63.10765040825732
 30
0.0
 40
4.0
  1
25.09.
 41
0.8
  7
GREEKS
 72
     1
 11
167.4085209177598
 21
63.10765040825732
 31
0.0
100
AcDbText
  0
TEXT
  5
95
330
1E
100
AcDbEntity
  8
TEXT
 62
     1
100
AcDbText
 10
226.8935731057402
 20
87.41748789253779
 30
0.0
 40
7.0
  1
Verbundrohr DN150
 41
0.8
  7
GREEKS
100
AcDbText
  0
TEXT
  5
96
330
1E
100
AcDbEntity
  8
TEXT
100
AcDbText
 10
225.1296391125315
 20
71.50334417585288
 30
0.0
 40
5.0
  1
2000mm lang
 41
0.8
  7
GREEKS
100
AcDbText
  0
TEXT
  5
98
330
1E
100
AcDbEntity
  8
TEXT
100
AcDbText
 10
225.1296391125315
 20
51.64011943042158
 30
0.0
 40
5.0
  1
EDV-Art.Nr. 58011.150X
 41
0.8
  7
GREEKS
100
AcDbText
  0
TEXT
  5
99
330
1E
100
AcDbEntity
  8
TEXT
100
AcDbText
 10
224.9837501577827
 20
42.62974153022632
 30
0.0
 40
4.0
  1
58011150W.DWG
 41
0.8
  7
GREEKS
100
AcDbText
  0
TEXT
  5
9A
330
1E
100
AcDbEntity
  8
TEXT
100
AcDbText
 10
182.626132208084
 20
90.76363841023022
 30
0.0
 40
4.0
  1
DIN EN1123-2
 41
0.8
  7
GREEKS
 72
     1
 11
199.6166083985602
 21
90.76363841023022
 31
0.0
100
AcDbText
  0
INSERT
  5
9B
330
1E
100
AcDbEntity
  8
STEMPEL
100
AcDbBlockReference
  2
LOGO
 10
140.9955485457794
 20
45.02105276448322
 30
0.0
 41
2.0
 42
2.0
 43
2.0
  0
TEXT
  5
118
330
1E
100
AcDbEntity
  8
TEXT
100
AcDbText
 10
417.3022923857165
 20
10.16790107998849
 30
0.0
 40
4.0
  1
Diese Zeichnung ist urheberrechtlich geschützt und bleibt unser Eigentum. Sie darf weder ganz noch teilweise verfielfältigt und nicht an Dritte weitergegeben werden.
 50
90.0
 41
0.8
  7
GREEKS
100
AcDbText
  0
TEXT
  5
3D8
330
1E
100
AcDbEntity
  8
TEXT
 62
     1
100
AcDbText
 10
193.6033828683802
 20
152.364339848487
 30
0.0
 40
7.0
  1
Außenrohr: P235 TR1 EN10217-1 feuerverzinkt
 41
0.8
  7
GREEKS
100
AcDbText
  0
TEXT
  5
3D9
330
1E
100
AcDbEntity
  8
TEXT
 62
     1
100
AcDbText
 10
197.3756002392442
 20
141.011271812132
 30
0.0
 40
7.0
  1
Innenrohr: E195 EN10305 feuerverzinkt
 41
0.8
  7
GREEKS
100
AcDbText
  0
TEXT
  5
3DA
330
1E
100
AcDbEntity
  8
TEXT
 62
     1
100
AcDbText
 10
189.8811895945471
 20
117.1473825875242
 30
0.0
 40
7.0
  1
Dämmung: 2 K-PU-Schaum
 41
0.8
  7
GREEKS
100
AcDbText
  0
TEXT
  5
3DB
330
1E
100
AcDbEntity
  8
TEXT
 62
     1
100
AcDbText
 10
245.030129115258
 20
129.7422179729062
 30
0.0
 40
7.0
  1
und innenbeschichtet
 41
0.8
  7
GREEKS
100
AcDbText
  0
TEXT
  5
478
330
1E
100
AcDbEntity
  8
TEXT
 62
     1
100
AcDbText
 10
214.0554962982351
 20
380.0807397111359
 30
0.0
 40
7.0
  1
DN150
 50
90.0
 41
0.8
  7
GREEKS
100
AcDbText
  0
DIMENSION
  5
9B9
330
1E
100
AcDbEntity
  8
BEM
100
AcDbDimension
  2
*D1
 10
307.7370247033095
 20
174.2493744648011
 30
0.0
 11
228.2370247033093
 21
180.7493744648011
 31
0.0
 70
    32
  1
%%c<>
 71
     5
 42
159.0000000000001
  3
Standard
100
AcDbAlignedDimension
 13
148.7370247033092
 23
202.9882547977569
 33
0.0
 14
307.7370247033095
 24
202.988254797757
 34
0.0
100
AcDbRotatedDimension
1001
ACAD
1000
DSTYLE
1002
{
1070
    40
1040
2.0
1070
    41
1040
3.5
1070
    42
1040
1.0
1070
    43
1040
7.0
1070
    44
1040
1.0
1070
    73
1070
     0
1070
    74
1070
     0
1070
    77
1070
     1
1070
    78
1070
     8
1070
    79
1070
     2
1070
   140
1040
3.5
1070
   141
1040
1.5
1070
   146
1040
0.5142857142857144
1070
   147
1040
1.5
1070
   172
1070
     1
1070
   178
1070
     1
1070
   179
1070
     2
1070
   271
1070
     2
1070
   272
1070
     2
1070
   284
1070
     8
1070
   285
1070
     8
1070
   286
1070
     8
1070
   289
1070
     0
1070
   340
1005
24
1002
}
  0
DIMENSION
  5
9BA
330
1E
100
AcDbEntity
  8
BEM
100
AcDbDimension
  2
*D2
 10
337.7370247033092
 20
536.4228302955845
 30
0.0
 11
228.2370247033092
 21
542.9228302955846
 31
0.0
 70
    32
  1
%%c<>
 71
     5
 42
218.9999999999999
  3
Standard
100
AcDbAlignedDimension
 13
118.7370247033092
 23
522.9882547977569
 33
0.0
 14
337.7370247033092
 24
522.9882547977569
 34
0.0
100
AcDbRotatedDimension
1001
ACAD
1000
DSTYLE
1002
{
1070
    40
1040
2.0
1070
    41
1040
3.5
1070
    42
1040
1.0
1070
    43
1040
7.0
1070
    44
1040
1.0
1070
    73
1070
     0
1070
    74
1070
     0
1070
    77
1070
     1
1070
    78
1070
     8
1070
    79
1070
     2
1070
   140
1040
3.5
1070
   141
1040
1.5
1070
   146
1040
0.5142857142857144
1070
   147
1040
1.5
1070
   172
1070
     1
1070
   178
1070
     1
1070
   179
1070
     2
1070
   271
1070
     2
1070
   272
1070
     2
1070
   284
1070
     8
1070
   285
1070
     8
1070
   286
1070
     8
1070
   289
1070
     0
1070
   340
1005
24
1002
}
  0
HATCH
  5
9BD
330
1E
100
AcDbEntity
  8
SCHRAFF
100
AcDbHatch
 10
0.0
 20
0.0
 30
0.0
210
0.0
220
0.0
230
1.0
  2
NET
 70
     0
 71
     1
 91
        2
 92
        7
 72
     1
 73
     1
 93
        6
 10
137.7370247033092
 20
504.9882547977569
 42
0.0
 10
137.7370247033092
 20
507.205150579823
 42
-0.1095178116832392
 10
141.0162521570264
 20
521.9967897407473
 42
0.0
 10
141.478579905903
 20
522.9882547977568
 42
0.0
 10
121.6370247033093
 20
522.9882547977569
 42
0.0
 10
121.6370247033093
 20
504.9882547977568
 42
0.0
 97
        6
330
9E3
330
9C4
330
9C7
330
9DE
330
9E1
330
9E0
 92
        7
 72
     1
 73
     1
 93
        6
 10
314.9954695007154
 20
522.9882547977569
 42
0.0
 10
315.457797249592
 20
521.9967897407473
 42
-0.1095178116832409
 10
318.7370247033092
 20
507.2051505798229
 42
0.0
 10
318.7370247033091
 20
504.9882547977569
 42
0.0
 10
334.8370247033093
 20
504.988254797757
 42
0.0
 10
334.8370247033093
 20
522.9882547977569
 42
0.0
 97
        6
330
9C4
330
A03
330
A01
330
9FE
330
9FD
330
9E7
 75
     0
 76
     1
 52
45.0
 41
20.0
 77
     0
 78
     2
 53
45.0
 43
-356.2180115351925
 44
0.0
 45
-1.767766952966368
 46
1.767766952966368
 79
     0
 53
135.0
 43
-356.2180115351925
 44
0.0
 45
-1.767766952966368
 46
-1.767766952966368
 79
     0
 47
0.7473116165668432
 98
        2
 10
129.1847765474049
 20
511.0244742629244
 10
326.6050637725121
 20
516.2556562286049
  0
LINE
  5
9C1
330
1E
100
AcDbEntity
  8
HILF
  6
Continuous
100
AcDbLine
 10
302.7274751094517
 20
202.988254797757
 30
0.0
 11
153.7465742971669
 21
202.9882547977569
 31
0.0
  0
LINE
  5
9C2
102
{ACAD_REACTORS
330
B61
102
}
330
1E
100
AcDbEntity
  8
STEMPEL
  6
Continuous
100
AcDbLine
 10
306.8716876619092
 20
192.988254797757
 30
0.0
 11
149.6023617447093
 21
192.9882547977569
 31
0.0
  0
LINE
  5
9C3
330
1E
100
AcDbEntity
  8
HILF
  6
Continuous
100
AcDbLine
 10
148.2003985577271
 20
471.4275700414573
 30
0.0
 11
308.2736508488914
 21
471.4275700414573
 31
0.0
  0
LINE
  5
9C4
102
{ACAD_REACTORS
330
9BD
330
B61
330
B79
102
}
330
1E
100
AcDbEntity
  8
STEMPEL
  6
Continuous
100
AcDbLine
 10
337.7370247033092
 20
522.9882547977569
 30
0.0
 11
118.7370247033092
 21
522.9882547977569
 31
0.0
  0
LINE
  5
9C5
330
1E
100
AcDbEntity
  8
HILF
  6
Continuous
100
AcDbLine
 10
149.5900453609847
 20
446.7977154446532
 30
0.0
 11
306.8840040456334
 21
446.7977154446532
 31
0.0
  0
LINE
  5
9C6
330
1E
100
AcDbEntity
  8
HILF
  6
Continuous
100
AcDbLine
 10
153.2645539888712
 20
439.1955962873226
 30
0.0
 11
303.2094954177474
 21
439.1955962873226
 31
0.0
  0
LINE
  5
9C7
102
{ACAD_REACTORS
330
9BD
330
B79
330
BA3
102
}
330
1E
100
AcDbEntity
  8
STEMPEL
100
AcDbLine
 10
121.6370247033093
 20
522.9882547977569
 30
0.0
 11
121.6370247033093
 21
372.8682809567326
 31
0.0
  0
LINE
  5
9C8
102
{ACAD_REACTORS
330
B79
102
}
330
1E
100
AcDbEntity
  8
STEMPEL
100
AcDbLine
 10
118.7370247033093
 20
522.9882547977569
 30
0.0
 11
118.7370247033093
 21
372.6371877225657
 31
0.0
  0
LINE
  5
9C9
102
{ACAD_REACTORS
330
B61
102
}
330
1E
100
AcDbEntity
  8
STEMPEL
  6
Continuous
100
AcDbLine
 10
151.2370247033092
 20
435.4605068831526
 30
0.0
 11
151.2370247033091
 21
374.8894099925016
 31
0.0
  0
LINE
  5
9CA
102
{ACAD_REACTORS
330
B61
330
BA3
102
}
330
1E
100
AcDbEntity
  8
STEMPEL
  6
Continuous
100
AcDbLine
 10
148.7370247033092
 20
435.4605068831526
 30
0.0
 11
148.7370247033092
 21
374.7541413877006
 31
0.0
  0
LINE
  5
9CC
102
{ACAD_REACTORS
330
B61
102
}
330
1E
100
AcDbEntity
  8
STEMPEL
100
AcDbLine
 10
148.7465379580791
 20
202.7703654408878
 30
0.0
 11
149.6023617447093
 21
192.9882547977569
 31
0.0
  0
LINE
  5
9CD
102
{ACAD_REACTORS
330
B61
102
}
330
1E
100
AcDbEntity
  8
STEMPEL
100
AcDbLine
 10
151.2370247033085
 20
202.9882547977569
 30
0.0
 11
152.1119113385678
 21
192.9882547977569
 31
0.0
  0
LINE
  5
9CE
102
{ACAD_REACTORS
330
BA3
102
}
330
1E
100
AcDbEntity
  8
STEMPEL
100
AcDbLine
 10
123.4870247033092
 20
273.988254797757
 30
0.0
 11
148.7370247033095
 21
273.988254797757
 31
0.0
  0
LINE
  5
9CF
102
{ACAD_REACTORS
330
B79
102
}
330
1E
100
AcDbEntity
  8
STEMPEL
  6
Continuous
100
AcDbLine
 10
121.6370247033093
 20
257.9882547977569
 30
0.0
 11
118.7370247033093
 21
257.9882547977569
 31
0.0
  0
LINE
  5
9D0
102
{ACAD_REACTORS
330
BA3
102
}
330
1E
100
AcDbEntity
  8
STEMPEL
100
AcDbLine
 10
121.6370247033092
 20
272.1382547977569
 30
0.0
 11
123.4870247033092
 21
273.988254797757
 31
0.0
  0
LINE
  5
9D2
330
1E
100
AcDbEntity
  8
STEMPEL
100
AcDbLine
 10
141.4370247033093
 20
264.9882547977569
 30
0.0
 11
148.7370247033095
 21
264.9882547977569
 31
0.0
  0
ARC
  5
9D3
102
{ACAD_REACTORS
330
B61
102
}
330
1E
100
AcDbEntity
  8
STEMPEL
  6
Continuous
100
AcDbCircle
 10
172.7350523830673
 20
490.985556317039
 30
0.0
 40
32.5
100
AcDbArc
 50
179.3687711177352
 51
207.3071230068022
  0
ARC
  5
9D4
102
{ACAD_REACTORS
330
B61
330
BA3
102
}
330
1E
100
AcDbEntity
  8
STEMPEL
  6
Continuous
100
AcDbCircle
 10
172.7370247033093
 20
490.9832547977568
 30
0.0
 40
35.00004740563918
100
AcDbArc
 50
179.9056985509049
 51
207.5271836205476
  0
ARC
  5
9D5
102
{ACAD_REACTORS
330
B61
102
}
330
1E
100
AcDbEntity
  8
STEMPEL
  6
Continuous
100
AcDbCircle
 10
138.7370247033092
 20
435.4605068831526
 30
0.0
 40
12.5
100
AcDbArc
 50
0.0
 51
34.77194403194904
  0
ARC
  5
9D6
102
{ACAD_REACTORS
330
B61
330
BA3
102
}
330
1E
100
AcDbEntity
  8
STEMPEL
  6
Continuous
100
AcDbCircle
 10
138.7370247033092
 20
435.4605068831526
 30
0.0
 40
10.0
100
AcDbArc
 50
0.0
 51
34.77194403194904
  0
LINE
  5
9D7
102
{ACAD_REACTORS
330
B61
102
}
330
1E
100
AcDbEntity
  8
STEMPEL
  6
Continuous
100
AcDbLine
 10
146.2370247033092
 20
466.4882547977568
 30
0.0
 11
146.2370247033092
 21
451.4292263058239
 31
0.0
  0
LINE
  5
9D8
102
{ACAD_REACTORS
330
B61
330
BA3
102
}
330
1E
100
AcDbEntity
  8
STEMPEL
  6
Continuous
100
AcDbLine
 10
143.7370247033092
 20
466.4882547977568
 30
0.0
 11
143.7370247033092
 21
451.4292263058239
 31
0.0
  0
ARC
  5
9D9
102
{ACAD_REACTORS
330
B61
102
}
330
1E
100
AcDbEntity
  8
STEMPEL
  6
Continuous
100
AcDbCircle
 10
161.7370247033093
 20
451.4292263058239
 30
0.0
 40
15.5
100
AcDbArc
 50
180.0
 51
214.7719440319491
  0
ARC
  5
9DA
102
{ACAD_REACTORS
330
B61
330
BA3
102
}
330
1E
100
AcDbEntity
  8
STEMPEL
  6
Continuous
100
AcDbCircle
 10
161.7370247033093
 20
451.4292263058239
 30
0.0
 40
18.0
100
AcDbArc
 50
180.0
 51
214.7719440319491
  0
ARC
  5
9DB
102
{ACAD_REACTORS
330
B61
102
}
330
1E
100
AcDbEntity
  8
STEMPEL
  6
Continuous
100
AcDbCircle
 10
125.7370247033092
 20
466.4882547977568
 30
0.0
 40
20.5
100
AcDbArc
 50
0.0
 51
27.88431368737399
  0
ARC
  5
9DC
102
{ACAD_REACTORS
330
B61
330
BA3
102
}
330
1E
100
AcDbEntity
  8
STEMPEL
  6
Continuous
100
AcDbCircle
 10
125.7370247033092
 20
466.4882547977568
 30
0.0
 40
18.0
100
AcDbArc
 50
0.0
 51
27.52718362054758
  0
LINE
  5
9DE
102
{ACAD_REACTORS
330
9BD
330
BA3
102
}
330
1E
100
AcDbEntity
  8
STEMPEL
  6
Continuous
100
AcDbLine
 10
137.7370247033092
 20
504.9882547977569
 30
0.0
 11
121.6370247033092
 21
504.9882547977569
 31
0.0
  0
ARC
  5
9DF
102
{ACAD_REACTORS
330
B61
102
}
330
1E
100
AcDbEntity
  8
STEMPEL
  6
Continuous
100
AcDbCircle
 10
172.7370247033093
 20
507.205150579823
 30
0.0
 40
32.5
100
AcDbArc
 50
155.0000000000079
 51
180.0
  0
ARC
  5
9E0
102
{ACAD_REACTORS
330
9BD
330
B61
102
}
330
1E
100
AcDbEntity
  8
STEMPEL
  6
Continuous
100
AcDbCircle
 10
172.7370247033093
 20
507.205150579823
 30
0.0
 40
35.0
100
AcDbArc
 50
155.0000000000079
 51
180.0
  0
LINE
  5
9E1
102
{ACAD_REACTORS
330
9BD
330
B61
330
BA3
102
}
330
1E
100
AcDbEntity
  8
STEMPEL
  6
Continuous
100
AcDbLine
 10
137.7370247033092
 20
507.205150579823
 30
0.0
 11
137.7370247033092
 21
491.0408603269339
 31
0.0
  0
LINE
  5
9E2
102
{ACAD_REACTORS
330
B61
102
}
330
1E
100
AcDbEntity
  8
STEMPEL
  6
Continuous
100
AcDbLine
 10
140.2370247033092
 20
507.205150579823
 30
0.0
 11
140.2370247033092
 21
491.3436022996775
 31
0.0
  0
LINE
  5
9E3
102
{ACAD_REACTORS
330
9BD
330
B61
102
}
330
1E
100
AcDbEntity
  8
STEMPEL
  6
Continuous
100
AcDbLine
 10
141.478579905903
 20
522.9882547977569
 30
0.0
 11
141.0162521570264
 21
521.9967897407473
 31
0.0
  0
LINE
  5
9E4
102
{ACAD_REACTORS
330
B61
102
}
330
1E
100
AcDbEntity
  8
STEMPEL
  6
Continuous
100
AcDbLine
 10
144.2370247033092
 20
522.9882547977569
 30
0.0
 11
143.2820216246181
 21
520.9402440863957
 31
0.0
  0
DIMENSION
  5
9E5
330
1E
100
AcDbEntity
  8
BEM
100
AcDbDimension
  2
*D3
 10
86.37134208707811
 20
192.988254797757
 30
0.0
 11
79.87134208707811
 21
357.988254797757
 31
0.0
 70
    32
  1
2080
 71
     5
 42
330.0
  3
Standard
100
AcDbAlignedDimension
 13
118.7370247033093
 23
522.9882547977569
 33
0.0
 14
149.6023617447093
 24
192.988254797757
 34
0.0
 50
90.0
100
AcDbRotatedDimension
1001
ACAD
1000
DSTYLE
1002
{
1070
    40
1040
2.0
1070
    41
1040
3.5
1070
    42
1040
1.0
1070
    43
1040
7.0
1070
    44
1040
1.0
1070
    73
1070
     0
1070
    74
1070
     0
1070
    77
1070
     1
1070
    78
1070
     8
1070
    79
1070
     2
1070
   140
1040
3.5
1070
   141
1040
1.5
1070
   146
1040
0.5142857142857144
1070
   147
1040
1.5
1070
   172
1070
     1
1070
   178
1070
     1
1070
   179
1070
     2
1070
   271
1070
     2
1070
   272
1070
     2
1070
   284
1070
     8
1070
   285
1070
     8
1070
   286
1070
     8
1070
   289
1070
     0
1070
   340
1005
24
1002
}
  0
LINE
  5
9E7
102
{ACAD_REACTORS
330
9BD
330
B79
330
BA3
102
}
330
1E
100
AcDbEntity
  8
STEMPEL
100
AcDbLine
 10
334.8370247033094
 20
522.9882547977569
 30
0.0
 11
334.8370247033094
 21
372.4060944883988
 31
0.0
  0
LINE
  5
9E8
102
{ACAD_REACTORS
330
B79
102
}
330
1E
100
AcDbEntity
  8
STEMPEL
100
AcDbLine
 10
337.7370247033093
 20
522.9882547977569
 30
0.0
 11
337.7370247033093
 21
372.6371877225657
 31
0.0
  0
LINE
  5
9E9
102
{ACAD_REACTORS
330
B61
330
BA3
102
}
330
1E
100
AcDbEntity
  8
STEMPEL
  6
Continuous
100
AcDbLine
 10
307.7370247033092
 20
435.4605068831526
 30
0.0
 11
307.7370247033093
 21
370.5202340574305
 31
0.0
  0
LINE
  5
9EA
102
{ACAD_REACTORS
330
B61
102
}
330
1E
100
AcDbEntity
  8
STEMPEL
  6
Continuous
100
AcDbLine
 10
305.2370247033092
 20
435.4605068831526
 30
0.0
 11
305.2370247033096
 21
370.3849654526296
 31
0.0
  0
LINE
  5
9EB
330
1E
100
AcDbEntity
  8
MITTEL
100
AcDbLine
 10
228.2370247033093
 20
527.9882547977568
 30
0.0
 11
228.2370247033093
 21
187.9882547977569
 31
0.0
  0
LINE
  5
9EC
102
{ACAD_REACTORS
330
B61
102
}
330
1E
100
AcDbEntity
  8
STEMPEL
100
AcDbLine
 10
305.2370247033101
 20
202.9882547977569
 30
0.0
 11
304.3621380680509
 21
192.988254797757
 31
0.0
  0
LINE
  5
9ED
102
{ACAD_REACTORS
330
B61
102
}
330
1E
100
AcDbEntity
  8
STEMPEL
100
AcDbLine
 10
307.7275114485394
 20
202.7703654408878
 30
0.0
 11
306.8716876619093
 21
192.988254797757
 31
0.0
  0
LINE
  5
9EE
102
{ACAD_REACTORS
330
BA3
102
}
330
1E
100
AcDbEntity
  8
STEMPEL
100
AcDbLine
 10
307.7370247033091
 20
273.988254797757
 30
0.0
 11
332.9870247033094
 21
273.988254797757
 31
0.0
  0
LINE
  5
9EF
102
{ACAD_REACTORS
330
B79
102
}
330
1E
100
AcDbEntity
  8
STEMPEL
  6
Continuous
100
AcDbLine
 10
337.7370247033093
 20
257.9882547977571
 30
0.0
 11
334.8370247033094
 21
257.9882547977571
 31
0.0
  0
LINE
  5
9F0
330
1E
100
AcDbEntity
  8
STEMPEL
100
AcDbLine
 10
307.7370247033091
 20
264.9882547977569
 30
0.0
 11
315.0370247033093
 21
264.9882547977569
 31
0.0
  0
LINE
  5
9F2
102
{ACAD_REACTORS
330
BA3
102
}
330
1E
100
AcDbEntity
  8
STEMPEL
100
AcDbLine
 10
334.8370247033094
 20
272.1382547977568
 30
0.0
 11
332.9870247033092
 21
273.988254797757
 31
0.0
  0
ARC
  5
9F3
102
{ACAD_REACTORS
330
B61
102
}
330
1E
100
AcDbEntity
  8
STEMPEL
  6
Continuous
100
AcDbCircle
 10
283.7389970235511
 20
490.985556317039
 30
0.0
 40
32.5
100
AcDbArc
 50
332.6928769931978
 51
0.6312288822648352
  0
ARC
  5
9F4
102
{ACAD_REACTORS
330
B61
330
BA3
102
}
330
1E
100
AcDbEntity
  8
STEMPEL
  6
Continuous
100
AcDbCircle
 10
283.7370247033092
 20
490.9832547977568
 30
0.0
 40
35.00004740563918
100
AcDbArc
 50
332.4728163794524
 51
0.0943014490885628
  0
ARC
  5
9F5
102
{ACAD_REACTORS
330
B61
330
BA3
102
}
330
1E
100
AcDbEntity
  8
STEMPEL
  6
Continuous
100
AcDbCircle
 10
317.7370247033092
 20
435.4605068831526
 30
0.0
 40
10.0
100
AcDbArc
 50
145.2280559680509
 51
180.0
  0
ARC
  5
9F6
102
{ACAD_REACTORS
330
B61
102
}
330
1E
100
AcDbEntity
  8
STEMPEL
  6
Continuous
100
AcDbCircle
 10
317.7370247033092
 20
435.4605068831526
 30
0.0
 40
12.5
100
AcDbArc
 50
145.2280559680509
 51
180.0
  0
LINE
  5
9F7
102
{ACAD_REACTORS
330
B61
330
BA3
102
}
330
1E
100
AcDbEntity
  8
STEMPEL
  6
Continuous
100
AcDbLine
 10
312.7370247033092
 20
466.4882547977568
 30
0.0
 11
312.7370247033092
 21
451.4292263058239
 31
0.0
  0
LINE
  5
9F8
102
{ACAD_REACTORS
330
B61
102
}
330
1E
100
AcDbEntity
  8
STEMPEL
  6
Continuous
100
AcDbLine
 10
310.2370247033092
 20
466.4882547977568
 30
0.0
 11
310.2370247033092
 21
451.4292263058239
 31
0.0
  0
ARC
  5
9F9
102
{ACAD_REACTORS
330
B61
330
BA3
102
}
330
1E
100
AcDbEntity
  8
STEMPEL
  6
Continuous
100
AcDbCircle
 10
294.7370247033092
 20
451.4292263058239
 30
0.0
 40
18.0
100
AcDbArc
 50
325.228055968051
 51
0.0
  0
ARC
  5
9FA
102
{ACAD_REACTORS
330
B61
102
}
330
1E
100
AcDbEntity
  8
STEMPEL
  6
Continuous
100
AcDbCircle
 10
294.7370247033092
 20
451.4292263058239
 30
0.0
 40
15.5
100
AcDbArc
 50
325.228055968051
 51
0.0
  0
ARC
  5
9FB
102
{ACAD_REACTORS
330
B61
330
BA3
102
}
330
1E
100
AcDbEntity
  8
STEMPEL
  6
Continuous
100
AcDbCircle
 10
330.7370247033092
 20
466.4882547977568
 30
0.0
 40
18.0
100
AcDbArc
 50
152.4728163794524
 51
180.0
  0
ARC
  5
9FC
102
{ACAD_REACTORS
330
B61
102
}
330
1E
100
AcDbEntity
  8
STEMPEL
  6
Continuous
100
AcDbCircle
 10
330.7370247033092
 20
466.4882547977568
 30
0.0
 40
20.5
100
AcDbArc
 50
152.115686312626
 51
180.0
  0
LINE
  5
9FD
102
{ACAD_REACTORS
330
9BD
330
BA3
102
}
330
1E
100
AcDbEntity
  8
STEMPEL
  6
Continuous
100
AcDbLine
 10
334.8370247033094
 20
504.988254797757
 30
0.0
 11
318.7370247033092
 21
504.988254797757
 31
0.0
  0
LINE
  5
9FE
102
{ACAD_REACTORS
330
9BD
330
B61
330
BA3
102
}
330
1E
100
AcDbEntity
  8
STEMPEL
  6
Continuous
100
AcDbLine
 10
318.7370247033092
 20
507.205150579823
 30
0.0
 11
318.7370247033092
 21
491.0408603269339
 31
0.0
  0
LINE
  5
9FF
102
{ACAD_REACTORS
330
B61
102
}
330
1E
100
AcDbEntity
  8
STEMPEL
  6
Continuous
100
AcDbLine
 10
316.2370247033092
 20
507.205150579823
 30
0.0
 11
316.2370247033092
 21
491.3436022996775
 31
0.0
  0
LINE
  5
A00
102
{ACAD_REACTORS
330
B61
102
}
330
1E
100
AcDbEntity
  8
STEMPEL
  6
Continuous
100
AcDbLine
 10
312.2370247033092
 20
522.9882547977569
 30
0.0
 11
313.1920277820004
 21
520.9402440863957
 31
0.0
  0
ARC
  5
A01
102
{ACAD_REACTORS
330
9BD
330
B61
102
}
330
1E
100
AcDbEntity
  8
STEMPEL
  6
Continuous
100
AcDbCircle
 10
283.7370247033092
 20
507.205150579823
 30
0.0
 40
35.0
100
AcDbArc
 50
0.0
 51
24.99999999999207
  0
ARC
  5
A02
102
{ACAD_REACTORS
330
B61
102
}
330
1E
100
AcDbEntity
  8
STEMPEL
  6
Continuous
100
AcDbCircle
 10
283.7370247033092
 20
507.205150579823
 30
0.0
 40
32.5
100
AcDbArc
 50
0.0
 51
24.99999999999207
  0
LINE
  5
A03
102
{ACAD_REACTORS
330
9BD
330
B61
102
}
330
1E
100
AcDbEntity
  8
STEMPEL
  6
Continuous
100
AcDbLine
 10
314.9954695007155
 20
522.9882547977569
 30
0.0
 11
315.457797249592
 21
521.9967897407473
 31
0.0
  0
POLYLINE
  5
AEC
102
{ACAD_REACTORS
330
B61
330
B79
330
BA3
102
}
330
1E
100
AcDbEntity
  8
HILF
100
AcDb2dPolyline
 66
     1
 10
0.0
 20
0.0
 30
0.0
 70
     4
 75
     6
  0
VERTEX
  5
AED
330
AEC
100
AcDbEntity
  8
HILF
100
AcDbVertex
100
AcDb2dVertex
 10
118.7370247033093
 20
367.6371877225657
 30
0.0
 70
    16
  0
VERTEX
  5
B04
330
AEC
100
AcDbEntity
  8
HILF
100
AcDbVertex
100
AcDb2dVertex
 10
118.7370247033093
 20
367.6371877225657
 30
0.0
 70
     8
  0
VERTEX
  5
AF3
330
AEC
100
AcDbEntity
  8
HILF
100
AcDbVertex
100
AcDb2dVertex
 10
138.0385383751843
 20
369.1752736600657
 30
0.0
 70
     8
  0
VERTEX
  5
AF4
330
AEC
100
AcDbEntity
  8
HILF
100
AcDbVertex
100
AcDb2dVertex
 10
155.0944465783093
 20
370.0981252225656
 30
0.0
 70
     8
  0
VERTEX
  5
AF5
330
AEC
100
AcDbEntity
  8
HILF
100
AcDbVertex
100
AcDb2dVertex
 10
170.2255500939343
 20
370.4936330350657
 30
0.0
 70
     8
  0
VERTEX
  5
AF6
330
AEC
100
AcDbEntity
  8
HILF
100
AcDbVertex
100
AcDb2dVertex
 10
183.7526497033093
 20
370.4496877225657
 30
0.0
 70
     8
  0
VERTEX
  5
AF7
330
AEC
100
AcDbEntity
  8
HILF
100
AcDbVertex
100
AcDb2dVertex
 10
195.9965461876843
 20
370.0541799100657
 30
0.0
 70
     8
  0
VERTEX
  5
AF8
330
AEC
100
AcDbEntity
  8
HILF
100
AcDbVertex
100
AcDb2dVertex
 10
207.2780403283093
 20
369.3950002225657
 30
0.0
 70
     8
  0
VERTEX
  5
AF9
330
AEC
100
AcDbEntity
  8
HILF
100
AcDbVertex
100
AcDb2dVertex
 10
217.9179329064343
 20
368.5600392850657
 30
0.0
 70
     8
  0
VERTEX
  5
AFA
330
AEC
100
AcDbEntity
  8
HILF
100
AcDbVertex
100
AcDb2dVertex
 10
228.2370247033093
 20
367.6371877225656
 30
0.0
 70
     8
  0
VERTEX
  5
AFB
330
AEC
100
AcDbEntity
  8
HILF
100
AcDbVertex
100
AcDb2dVertex
 10
238.5561165001843
 20
366.7143361600656
 30
0.0
 70
     8
  0
VERTEX
  5
AFC
330
AEC
100
AcDbEntity
  8
HILF
100
AcDbVertex
100
AcDb2dVertex
 10
249.1960090783093
 20
365.8793752225656
 30
0.0
 70
     8
  0
VERTEX
  5
AFD
330
AEC
100
AcDbEntity
  8
HILF
100
AcDbVertex
100
AcDb2dVertex
 10
260.4775032189343
 20
365.2201955350656
 30
0.0
 70
     8
  0
VERTEX
  5
AFE
330
AEC
100
AcDbEntity
  8
HILF
100
AcDbVertex
100
AcDb2dVertex
 10
272.7213997033093
 20
364.8246877225656
 30
0.0
 70
     8
  0
VERTEX
  5
AFF
330
AEC
100
AcDbEntity
  8
HILF
100
AcDbVertex
100
AcDb2dVertex
 10
286.2484993126843
 20
364.7807424100656
 30
0.0
 70
     8
  0
VERTEX
  5
B00
330
AEC
100
AcDbEntity
  8
HILF
100
AcDbVertex
100
AcDb2dVertex
 10
301.3796028283093
 20
365.1762502225656
 30
0.0
 70
     8
  0
VERTEX
  5
B01
330
AEC
100
AcDbEntity
  8
HILF
100
AcDbVertex
100
AcDb2dVertex
 10
318.4355110314343
 20
366.0991017850656
 30
0.0
 70
     8
  0
VERTEX
  5
B02
330
AEC
100
AcDbEntity
  8
HILF
100
AcDbVertex
100
AcDb2dVertex
 10
337.7370247033093
 20
367.6371877225656
 30
0.0
 70
     8
  0
VERTEX
  5
AEE
330
AEC
100
AcDbEntity
  8
HILF
100
AcDbVertex
100
AcDb2dVertex
 10
173.4870247033093
 20
372.6371877225656
 30
0.0
 70
    16
  0
VERTEX
  5
AEF
330
AEC
100
AcDbEntity
  8
HILF
100
AcDbVertex
100
AcDb2dVertex
 10
228.2370247033093
 20
367.6371877225657
 30
0.0
 70
    16
  0
VERTEX
  5
AF0
330
AEC
100
AcDbEntity
  8
HILF
100
AcDbVertex
100
AcDb2dVertex
 10
282.9870247033093
 20
362.6371877225657
 30
0.0
 70
    16
  0
VERTEX
  5
AF1
330
AEC
100
AcDbEntity
  8
HILF
100
AcDbVertex
100
AcDb2dVertex
 10
337.7370247033093
 20
367.6371877225657
 30
0.0
 70
    16
  0
SEQEND
  5
AF2
330
AEC
100
AcDbEntity
  8
HILF
  0
POLYLINE
  5
B06
102
{ACAD_REACTORS
330
B61
330
B79
330
BA3
102
}
330
1E
100
AcDbEntity
  8
HILF
100
AcDb2dPolyline
 66
     1
 10
0.0
 20
0.0
 30
0.0
 70
     4
 75
     6
  0
VERTEX
  5
B07
330
B06
100
AcDbEntity
  8
HILF
100
AcDbVertex
100
AcDb2dVertex
 10
118.7370247033093
 20
372.6371877225657
 30
0.0
 70
    16
  0
VERTEX
  5
B08
330
B06
100
AcDbEntity
  8
HILF
100
AcDbVertex
100
AcDb2dVertex
 10
118.7370247033093
 20
372.6371877225657
 30
0.0
 70
     8
  0
VERTEX
  5
B09
330
B06
100
AcDbEntity
  8
HILF
100
AcDbVertex
100
AcDb2dVertex
 10
138.0385383751843
 20
374.1752736600657
 30
0.0
 70
     8
  0
VERTEX
  5
B0A
330
B06
100
AcDbEntity
  8
HILF
100
AcDbVertex
100
AcDb2dVertex
 10
155.0944465783093
 20
375.0981252225656
 30
0.0
 70
     8
  0
VERTEX
  5
B0B
330
B06
100
AcDbEntity
  8
HILF
100
AcDbVertex
100
AcDb2dVertex
 10
170.2255500939343
 20
375.4936330350657
 30
0.0
 70
     8
  0
VERTEX
  5
B0C
330
B06
100
AcDbEntity
  8
HILF
100
AcDbVertex
100
AcDb2dVertex
 10
183.7526497033093
 20
375.4496877225657
 30
0.0
 70
     8
  0
VERTEX
  5
B0D
330
B06
100
AcDbEntity
  8
HILF
100
AcDbVertex
100
AcDb2dVertex
 10
195.9965461876843
 20
375.0541799100657
 30
0.0
 70
     8
  0
VERTEX
  5
B0E
330
B06
100
AcDbEntity
  8
HILF
100
AcDbVertex
100
AcDb2dVertex
 10
207.2780403283093
 20
374.3950002225657
 30
0.0
 70
     8
  0
VERTEX
  5
B0F
330
B06
100
AcDbEntity
  8
HILF
100
AcDbVertex
100
AcDb2dVertex
 10
217.9179329064343
 20
373.5600392850657
 30
0.0
 70
     8
  0
VERTEX
  5
B10
330
B06
100
AcDbEntity
  8
HILF
100
AcDbVertex
100
AcDb2dVertex
 10
228.2370247033093
 20
372.6371877225656
 30
0.0
 70
     8
  0
VERTEX
  5
B11
330
B06
100
AcDbEntity
  8
HILF
100
AcDbVertex
100
AcDb2dVertex
 10
238.5561165001843
 20
371.7143361600656
 30
0.0
 70
     8
  0
VERTEX
  5
B12
330
B06
100
AcDbEntity
  8
HILF
100
AcDbVertex
100
AcDb2dVertex
 10
249.1960090783093
 20
370.8793752225656
 30
0.0
 70
     8
  0
VERTEX
  5
B13
330
B06
100
AcDbEntity
  8
HILF
100
AcDbVertex
100
AcDb2dVertex
 10
260.4775032189343
 20
370.2201955350656
 30
0.0
 70
     8
  0
VERTEX
  5
B14
330
B06
100
AcDbEntity
  8
HILF
100
AcDbVertex
100
AcDb2dVertex
 10
272.7213997033093
 20
369.8246877225656
 30
0.0
 70
     8
  0
VERTEX
  5
B15
330
B06
100
AcDbEntity
  8
HILF
100
AcDbVertex
100
AcDb2dVertex
 10
286.2484993126843
 20
369.7807424100656
 30
0.0
 70
     8
  0
VERTEX
  5
B16
330
B06
100
AcDbEntity
  8
HILF
100
AcDbVertex
100
AcDb2dVertex
 10
301.3796028283093
 20
370.1762502225656
 30
0.0
 70
     8
  0
VERTEX
  5
B17
330
B06
100
AcDbEntity
  8
HILF
100
AcDbVertex
100
AcDb2dVertex
 10
318.4355110314343
 20
371.0991017850655
 30
0.0
 70
     8
  0
VERTEX
  5
B18
330
B06
100
AcDbEntity
  8
HILF
100
AcDbVertex
100
AcDb2dVertex
 10
337.7370247033093
 20
372.6371877225655
 30
0.0
 70
     8
  0
VERTEX
  5
B19
330
B06
100
AcDbEntity
  8
HILF
100
AcDbVertex
100
AcDb2dVertex
 10
173.4870247033093
 20
377.6371877225656
 30
0.0
 70
    16
  0
VERTEX
  5
B1A
330
B06
100
AcDbEntity
  8
HILF
100
AcDbVertex
100
AcDb2dVertex
 10
228.2370247033093
 20
372.6371877225657
 30
0.0
 70
    16
  0
VERTEX
  5
B1B
330
B06
100
AcDbEntity
  8
HILF
100
AcDbVertex
100
AcDb2dVertex
 10
282.9870247033093
 20
367.6371877225657
 30
0.0
 70
    16
  0
VERTEX
  5
B1C
330
B06
100
AcDbEntity
  8
HILF
100
AcDbVertex
100
AcDb2dVertex
 10
337.7370247033093
 20
372.6371877225657
 30
0.0
 70
    16
  0
SEQEND
  5
B1D
330
B06
100
AcDbEntity
  8
HILF
  0
LINE
  5
B1E
102
{ACAD_REACTORS
330
B79
330
BA3
102
}
330
1E
100
AcDbEntity
  8
STEMPEL
100
AcDbLine
 10
334.8370247033094
 20
367.4060944883988
 30
0.0
 11
334.8370247033094
 21
257.9882547977571
 31
0.0
  0
LINE
  5
B1F
102
{ACAD_REACTORS
330
B79
102
}
330
1E
100
AcDbEntity
  8
STEMPEL
100
AcDbLine
 10
337.7370247033093
 20
367.6371877225657
 30
0.0
 11
337.7370247033092
 21
255.9882547977572
 31
0.0
  0
LINE
  5
B20
102
{ACAD_REACTORS
330
B61
330
BA3
102
}
330
1E
100
AcDbEntity
  8
STEMPEL
  6
Continuous
100
AcDbLine
 10
307.7370247033093
 20
365.5202340574306
 30
0.0
 11
307.7370247033095
 21
202.988254797757
 31
0.0
  0
LINE
  5
B21
102
{ACAD_REACTORS
330
B61
102
}
330
1E
100
AcDbEntity
  8
STEMPEL
  6
Continuous
100
AcDbLine
 10
305.2370247033096
 20
365.3849654526297
 30
0.0
 11
305.2370247033108
 21
202.988254797757
 31
0.0
  0
LINE
  5
B22
102
{ACAD_REACTORS
330
B61
102
}
330
1E
100
AcDbEntity
  8
STEMPEL
  6
Continuous
100
AcDbLine
 10
151.2370247033091
 20
369.8894099925015
 30
0.0
 11
151.2370247033085
 21
202.9882547977569
 31
0.0
  0
LINE
  5
B23
102
{ACAD_REACTORS
330
B61
330
BA3
102
}
330
1E
100
AcDbEntity
  8
STEMPEL
  6
Continuous
100
AcDbLine
 10
148.7370247033092
 20
369.7541413877006
 30
0.0
 11
148.7370247033092
 21
202.9882547977569
 31
0.0
  0
LINE
  5
B24
102
{ACAD_REACTORS
330
B79
330
BA3
102
}
330
1E
100
AcDbEntity
  8
STEMPEL
100
AcDbLine
 10
121.6370247033093
 20
367.8682809567326
 30
0.0
 11
121.6370247033093
 21
257.9882547977569
 31
0.0
  0
LINE
  5
B25
102
{ACAD_REACTORS
330
B79
102
}
330
1E
100
AcDbEntity
  8
STEMPEL
100
AcDbLine
 10
118.7370247033093
 20
367.6371877225657
 30
0.0
 11
118.7370247033093
 21
255.9882547977571
 31
0.0
  0
HATCH
  5
B61
330
1E
100
AcDbEntity
  8
SCHRAFF
100
AcDbHatch
 10
0.0
 20
0.0
 30
0.0
210
0.0
220
0.0
230
1.0
  2
_USER
 70
     0
 71
     1
 91
        4
 92
        7
 72
     1
 73
     1
 93
       20
 10
305.2370247033096
 20
370.3849654526296
 42
0.0
 10
307.7370247033093
 20
370.5202340574306
 42
0.0
 10
307.7370247033092
 20
435.4605068831526
 42
-0.1528962216020417
 10
309.5227389890236
 20
441.1636209626782
 42
0.152896221602038
 10
312.7370247033092
 20
451.4292263058239
 42
0.0
 10
312.7370247033092
 20
466.4882547977568
 42
-0.1206909349745489
 10
314.7747748297361
 20
474.8073039605888
 42
0.1202734944247372
 10
318.7370247033092
 20
490.9256492685879
 42
0.0
 10
318.7370247033092
 20
507.205150579823
 42
0.1095178116832393
 10
315.457797249592
 20
521.9967897407473
 42
0.0
 10
314.9954695007154
 20
522.9882547977569
 42
0.0
 10
312.2370247033091
 20
522.9882547977569
 42
0.0
 10
313.1920277820004
 20
520.9402440863957
 42
-0.1095178116832397
 10
316.2370247033092
 20
507.2051505798232
 42
0.0
 10
316.2370247033092
 20
491.3436022996775
 42
-0.1244894853098043
 10
312.5001369985761
 20
475.85126322694
 42
0.1191385083150166
 10
310.2370247033092
 20
466.4882547977568
 42
0.0
 10
310.2370247033092
 20
451.4292263058239
 42
-0.1528962216020417
 10
307.469167560452
 20
442.5893994825593
 42
0.1528962216020375
 10
305.2370247033092
 20
435.4605068831526
 42
0.0
 97
       20
330
9F5
330
9F9
330
9F7
330
9FB
330
9F4
330
9FE
330
A01
330
A03
330
9C4
330
A00
330
A02
330
9FF
330
9F3
330
9FC
330
9F8
330
9FA
330
9F6
330
9EA
330
B06
330
9E9
 92
        7
 72
     0
 73
     1
 93
        6
 10
305.2370247033107
 20
202.9882547977643
 10
304.3621380680508
 20
192.988254797757
 10
306.8716876619093
 20
192.988254797757
 10
307.7370247033095
 20
202.879102440479
 10
307.7370247033093
 20
365.5202340574306
 10
305.2370247033096
 20
365.3849654526296
 97
        6
330
AEC
330
B21
330
9EC
330
9C2
330
9ED
330
B20
 92
        7
 72
     0
 73
     1
 93
        6
 10
151.2370247033091
 20
369.8894099925017
 10
148.7370247033092
 20
369.7541413877007
 10
148.7370247033092
 20
202.879102440477
 10
149.6023617447094
 20
192.9882547977569
 10
152.1119113385678
 20
192.9882547977569
 10
151.2370247033085
 20
202.9882547977572
 97
        6
330
AEC
330
B23
330
9CC
330
9C2
330
9CD
330
B22
 92
        7
 72
     1
 73
     1
 93
       20
 10
148.7370247033092
 20
374.7541413877007
 42
0.0
 10
151.2370247033091
 20
374.8894099925016
 42
0.0
 10
151.2370247033092
 20
435.4605068831526
 42
0.1528962216020389
 10
149.0048818461664
 20
442.5893994825594
 42
-0.1528962216020395
 10
146.2370247033092
 20
451.4292263058239
 42
0.0
 10
146.2370247033092
 20
466.4882547977568
 42
0.1191385083149826
 10
143.9739124080436
 20
475.8512632269376
 42
-0.1244894853098254
 10
140.2370247033092
 20
491.3436022996775
 42
0.0
 10
140.2370247033092
 20
507.205150579823
 42
-0.1095178116832407
 10
143.2820216246181
 20
520.9402440863957
 42
0.0
 10
144.2370247033092
 20
522.9882547977568
 42
0.0
 10
141.478579905903
 20
522.9882547977568
 42
0.0
 10
141.0162521570264
 20
521.9967897407473
 42
0.1095178116832392
 10
137.7370247033092
 20
507.205150579823
 42
0.0
 10
137.7370247033092
 20
490.9256492686294
 42
0.1202734944250272
 10
141.6992745768818
 20
474.80730396059
 42
-0.120690934974568
 10
143.7370247033092
 20
466.4882547977569
 42
0.0
 10
143.7370247033092
 20
451.4292263058239
 42
0.1528962216020391
 10
146.951310417595
 20
441.1636209626781
 42
-0.1528962216020398
 10
148.7370247033092
 20
435.4605068831526
 42
0.0
 97
       20
330
9D5
330
9D9
330
9D7
330
9DB
330
9D3
330
9E2
330
9DF
330
9E4
330
9C4
330
9E3
330
9E0
330
9E1
330
9D4
330
9DC
330
9D8
330
9DA
330
9D6
330
9CA
330
B06
330
9C9
 75
     0
 76
     0
 52
45.0
 41
2.0
 77
     0
 78
     1
 53
45.0
 43
12.19716779901182
 44
0.0
 45
-1.414213562373094
 46
1.414213562373095
 79
     0
 47
0.6890064374883624
 98
        4
 10
306.2593691774869
 20
414.9998998730122
 10
306.2593691774869
 20
335.0751520686085
 10
150.4343840031911
 20
343.3432301515245
 10
149.744891574021
 20
389.5066608666341
  0
HATCH
  5
B79
330
1E
100
AcDbEntity
  8
SCHRAFF
100
AcDbHatch
 10
0.0
 20
0.0
 30
0.0
210
0.0
220
0.0
230
1.0
  2
_USER
 70
     0
 71
     1
 91
        4
 92
        7
 72
     0
 73
     1
 93
        4
 10
334.8370247033093
 20
372.4060944883987
 10
337.7370247033093
 20
372.6371877225655
 10
337.7370247033092
 20
522.9882547977569
 10
334.8370247033094
 20
522.9882547977569
 97
        4
330
9C4
330
9E7
330
B06
330
9E8
 92
        7
 72
     0
 73
     1
 93
        4
 10
337.7370247033093
 20
367.6371877225655
 10
334.8370247033094
 20
367.4060944883986
 10
334.8370247033094
 20
257.9882547977571
 10
337.7370247033093
 20
257.9882547977571
 97
        4
330
AEC
330
B1E
330
9EF
330
B1F
 92
        7
 72
     0
 73
     1
 93
        4
 10
121.6370247033093
 20
367.8682809567326
 10
118.7370247033093
 20
367.6371877225657
 10
118.7370247033093
 20
257.9882547977569
 10
121.6370247033093
 20
257.9882547977569
 97
        4
330
AEC
330
B25
330
9CF
330
B24
 92
        7
 72
     0
 73
     1
 93
        4
 10
118.7370247033093
 20
372.6371877225657
 10
121.6370247033093
 20
372.8682809567326
 10
121.6370247033093
 20
522.9882547977569
 10
118.7370247033093
 20
522.9882547977568
 97
        4
330
9C4
330
9C8
330
B06
330
9C7
 75
     0
 76
     0
 52
135.0
 41
2.0
 77
     0
 78
     1
 53
135.0
 43
12.19716779901182
 44
0.0
 45
-1.414213562373095
 46
-1.414213562373094
 79
     0
 47
0.6890064374883624
 98
        4
 10
335.9074844813654
 20
431.5360546394206
 10
336.5969769105354
 20
344.0322363085784
 10
120.7862660106561
 20
343.3432301515245
 10
120.0967762701425
 20
388.1286485525263
  0
HATCH
  5
BA3
330
1E
100
AcDbEntity
  8
SCHRAFF
100
AcDbHatch
 10
0.0
 20
0.0
 30
0.0
210
0.0
220
0.0
230
1.0
  2
HONEY
 70
     0
 71
     1
 91
        4
 92
        7
 72
     1
 73
     1
 93
       11
 10
334.8370247033094
 20
504.988254797757
 42
0.0
 10
318.7370247033093
 20
504.9882547977571
 42
0.0
 10
318.7370247033092
 20
491.0408603269339
 42
-0.1211084169870577
 10
314.774774829738
 20
474.8073039605924
 42
0.1206909349746067
 10
312.7370247033092
 20
466.4882547977568
 42
0.0
 10
312.7370247033092
 20
451.4292263058239
 42
-0.1528962216020418
 10
309.5227389890234
 20
441.1636209626779
 42
0.152896221602038
 10
307.7370247033092
 20
435.4605068831525
 42
0.0
 10
307.7370247033093
 20
370.5202340574306
 42
0.0
 10
318.4355110314339
 20
371.0991017850655
 42
0.0
 10
334.8370247033094
 20
372.4060944883986
 42
0.0
 97
       10
330
9FD
330
9FE
330
9F4
330
9FB
330
9F7
330
9F9
330
9F5
330
9E9
330
B06
330
9E7
 92
        7
 72
     1
 73
     1
 93
       11
 10
148.7370247033092
 20
435.4605068831526
 42
0.1528962216020396
 10
146.951310417595
 20
441.1636209626781
 42
-0.1528962216020392
 10
143.7370247033092
 20
451.4292263058239
 42
0.0
 10
143.7370247033092
 20
466.4882547977568
 42
0.1206909349745688
 10
141.6992745768818
 20
474.80730396059
 42
-0.1211084169870773
 10
137.7370247033092
 20
491.0408603269339
 42
0.0
 10
137.7370247033092
 20
504.9882547977569
 42
0.0
 10
121.6370247033093
 20
504.9882547977568
 42
0.0
 10
121.6370247033093
 20
372.8682809567326
 42
0.0
 10
138.038538375185
 20
374.1752736600657
 42
0.0
 10
148.7370247033092
 20
374.7541413877006
 42
0.0
 97
       10
330
9D6
330
9DA
330
9D8
330
9DC
330
9D4
330
9E1
330
9DE
330
9C7
330
B06
330
9CA
 92
        7
 72
     0
 73
     1
 93
        6
 10
148.7370247033092
 20
369.7541413877007
 10
138.0385383751838
 20
369.1752736600656
 10
121.6370247033093
 20
367.8682809567326
 10
121.6370247033093
 20
272.1382547977569
 10
123.4870247033092
 20
273.988254797757
 10
148.7370247033092
 20
273.988254797757
 97
        5
330
AEC
330
B24
330
9D0
330
9CE
330
B23
 92
        7
 72
     0
 73
     1
 93
        6
 10
334.8370247033094
 20
367.4060944883986
 10
318.4355110314343
 20
366.0991017850654
 10
307.7370247033093
 20
365.5202340574305
 10
307.7370247033094
 20
273.988254797757
 10
332.9870247033092
 20
273.988254797757
 10
334.8370247033094
 20
272.1382547977567
 97
        5
330
AEC
330
B20
330
9EE
330
9F2
330
B1E
 75
     0
 76
     1
 52
0.0
 41
30.0
 77
     0
 78
     3
 53
0.0
 43
12.19716779901182
 44
0.0
 45
5.625
 46
3.247595249999999
 79
     2
 49
3.75
 49
-7.5
 53
120.0
 43
12.19716779901182
 44
0.0
 45
-5.624999987709673
 46
3.247595271287468
 79
     2
 49
3.749999999999999
 49
-7.499999999999999
 53
60.0
 43
12.19716779901182
 44
0.0
 45
0.0000000122903263
 46
6.495190521287468
 79
     2
 49
-7.5
 49
3.75
 47
0.6890064374883624
 98
        4
 10
323.4966449542089
 20
402.5977834483499
 10
136.6445623063505
 20
412.2438738453736
 10
139.4025266457188
 20
354.3673328626558
 10
322.1176627845248
 20
340.5872041238859
  0
HATCH
  5
C2F
330
1E
100
AcDbEntity
  8
SCHRAFF
100
AcDbHatch
 10
0.0
 20
0.0
 30
0.0
210
0.0
220
0.0
230
1.0
  2
NET
 70
     0
 71
     0
 91
        2
 92
        7
 72
     0
 73
     1
 93
       11
 10
335.1760120935135
 20
272.1382547977568
 10
333.3260120935133
 20
273.9882547977571
 10
308.0760120935134
 20
273.9882547977571
 10
308.0760120935134
 20
264.9882547977571
 10
315.3760120935134
 20
264.9882547977571
 10
319.4174639778407
 20
257.9882547977571
 10
330.5760120935133
 20
257.9882547977571
 10
330.5760120935135
 20
255.9882547977571
 10
338.0760120935134
 20
255.9882547977571
 10
338.0760120935134
 20
257.9882547977572
 10
335.1760120935135
 20
257.9882547977572
 97
        0
 92
        7
 72
     0
 73
     1
 93
       11
 10
149.0760120935133
 20
273.9882547977571
 10
123.8260120935133
 20
273.9882547977571
 10
121.9760120935133
 20
272.1382547977571
 10
121.9760120935133
 20
257.988254797757
 10
119.0760120935134
 20
257.988254797757
 10
119.0760120935134
 20
255.9882547977571
 10
126.6760120935134
 20
255.9882547977571
 10
126.6760120935134
 20
257.9882547977572
 10
137.7345602091861
 20
257.9882547977572
 10
141.7760120935134
 20
264.9882547977571
 10
149.0760120935133
 20
264.9882547977571
 97
        0
 75
     0
 76
     1
 52
45.0
 41
20.0
 77
     0
 78
     2
 53
45.0
 43
12.53615518921589
 44
0.0000000000001137
 45
-1.767766952966368
 46
1.767766952966368
 79
     0
 53
135.0
 43
12.53615518921589
 44
0.0000000000001137
 45
-1.767766952966368
 46
-1.767766952966368
 79
     0
 47
0.2699286479089143
 98
        2
 10
326.066632261008
 20
269.0403516108641
 10
129.7101199451484
 20
267.420780398665
  0
LINE
  5
C30
330
1E
100
AcDbEntity
  8
STEMPEL
100
AcDbLine
 10
337.7370247033092
 20
255.9882547977572
 30
0.0
 11
308.0760120935135
 21
255.9882547977572
 31
0.0
  0
LINE
  5
C31
330
1E
100
AcDbEntity
  8
STEMPEL
100
AcDbLine
 10
315.3760120935134
 20
264.9882547977571
 30
0.0
 11
319.4174639778408
 21
257.9882547977569
 31
0.0
  0
LINE
  5
C32
330
1E
100
AcDbEntity
  8
STEMPEL
100
AcDbLine
 10
330.5760120935135
 20
257.9882547977571
 30
0.0
 11
308.0760120935135
 21
257.9882547977571
 31
0.0
  0
LINE
  5
C33
330
1E
100
AcDbEntity
  8
STEMPEL
100
AcDbLine
 10
330.5760120935135
 20
255.9882547977571
 30
0.0
 11
330.5760120935133
 21
257.9882547977571
 31
0.0
  0
POINT
  5
C34
330
1E
100
AcDbEntity
  8
DEFPOINTS
  6
ByBlock
 62
     0
100
AcDbPoint
 10
320.5760120935134
 20
257.9882547977571
 30
0.0
  0
POINT
  5
C35
330
1E
100
AcDbEntity
  8
DEFPOINTS
  6
ByBlock
 62
     0
100
AcDbPoint
 10
330.5760120935135
 20
255.9882547977571
 30
0.0
  0
POINT
  5
C36
330
1E
100
AcDbEntity
  8
DEFPOINTS
  6
ByBlock
 62
     0
100
AcDbPoint
 10
319.4174639778408
 20
257.9882547977571
 30
0.0
  0
POINT
  5
C37
330
1E
100
AcDbEntity
  8
DEFPOINTS
  6
ByBlock
 62
     0
100
AcDbPoint
 10
319.4174639778408
 20
257.9882547977571
 30
0.0
  0
POINT
  5
C38
330
1E
100
AcDbEntity
  8
DEFPOINTS
  6
ByBlock
 62
     0
100
AcDbPoint
 10
319.4174639778408
 20
257.9882547977569
 30
0.0
  0
POINT
  5
C39
330
1E
100
AcDbEntity
  8
DEFPOINTS
  6
ByBlock
 62
     0
100
AcDbPoint
 10
330.5760120935135
 20
255.9882547977571
 30
0.0
  0
LINE
  5
C3A
330
1E
100
AcDbEntity
  8
STEMPEL
100
AcDbLine
 10
148.7370247033092
 20
255.988254797757
 30
0.0
 11
118.7370247033093
 21
255.9882547977569
 31
0.0
  0
LINE
  5
C3B
330
1E
100
AcDbEntity
  8
STEMPEL
100
AcDbLine
 10
148.7370247033092
 20
257.9882547977571
 30
0.0
 11
126.3370247033092
 21
257.9882547977571
 31
0.0
  0
LINE
  5
C3C
330
1E
100
AcDbEntity
  8
STEMPEL
100
AcDbLine
 10
126.3370247033092
 20
255.9882547977569
 30
0.0
 11
126.3370247033092
 21
257.9882547977569
 31
0.0
  0
LINE
  5
C3D
330
1E
100
AcDbEntity
  8
STEMPEL
100
AcDbLine
 10
141.4370247033093
 20
264.9882547977569
 30
0.0
 11
137.3955728189819
 21
257.9882547977568
 31
0.0
  0
POINT
  5
C3E
330
1E
100
AcDbEntity
  8
DEFPOINTS
  6
ByBlock
 62
     0
100
AcDbPoint
 10
137.395572818982
 20
257.9882547977569
 30
0.0
  0
POINT
  5
C3F
330
1E
100
AcDbEntity
  8
DEFPOINTS
  6
ByBlock
 62
     0
100
AcDbPoint
 10
126.3370247033092
 20
255.9882547977569
 30
0.0
  0
POINT
  5
C40
330
1E
100
AcDbEntity
  8
DEFPOINTS
  6
ByBlock
 62
     0
100
AcDbPoint
 10
126.3370247033092
 20
257.9882547977569
 30
0.0
  0
DIMENSION
  5
C8A
330
1E
100
AcDbEntity
  8
BEM
100
AcDbDimension
  2
*D4
 10
102.9658956294261
 20
257.9882547977569
 30
0.0
 11
96.46589562942605
 21
225.4882547977569
 31
0.0
 70
    32
 71
     5
 42
64.99999999999997
  3
Standard
100
AcDbAlignedDimension
 13
149.6023617447093
 23
192.9882547977569
 33
0.0
 14
118.7370247033093
 24
257.9882547977569
 34
0.0
 50
90.0
100
AcDbRotatedDimension
1001
ACAD
1000
DSTYLE
1002
{
1070
    40
1040
2.0
1070
    41
1040
3.5
1070
    42
1040
1.0
1070
    43
1040
7.0
1070
    44
1040
1.0
1070
    73
1070
     0
1070
    74
1070
     0
1070
    77
1070
     1
1070
    78
1070
     8
1070
    79
1070
     2
1070
   140
1040
3.5
1070
   141
1040
1.5
1070
   146
1040
0.5142857142857144
1070
   147
1040
1.5
1070
   172
1070
     1
1070
   178
1070
     1
1070
   179
1070
     2
1070
   271
1070
     2
1070
   272
1070
     2
1070
   284
1070
     8
1070
   285
1070
     8
1070
   286
1070
     8
1002
}
  0
ENDSEC
  0
SECTION
  2
OBJECTS
  0
DICTIONARY
  5
C
330
0
100
AcDbDictionary
281
     1
  3
ACAD_COLOR
350
DF
  3
ACAD_GROUP
350
D
  3
ACAD_LAYOUT
350
19
  3
ACAD_MATERIAL
350
DE
  3
ACAD_MLINESTYLE
350
16
  3
ACAD_PLOTSETTINGS
350
18
  3
ACAD_PLOTSTYLENAME
350
E
  3
AcDbVariableDictionary
350
EA
  0
DICTIONARY
  5
A0
330
1E
100
AcDbDictionary
280
     1
281
     1
  3
ACAD_LAYOUTSELFREF
360
D4
  0
DICTIONARY
  5
A2
330
1A
100
AcDbDictionary
280
     1
281
     1
  3
ACAD_LAYOUTSELFREF
360
D3
  0
DICTIONARY
  5
DF
102
{ACAD_REACTORS
330
C
102
}
330
C
100
AcDbDictionary
281
     1
  0
DICTIONARY
  5
D
102
{ACAD_REACTORS
330
C
102
}
330
C
100
AcDbDictionary
281
     1
  0
DICTIONARY
  5
19
102
{ACAD_REACTORS
330
C
102
}
330
C
100
AcDbDictionary
281
     1
  3
Layout1
350
1D
  3
Model
350
21
  0
DICTIONARY
  5
DE
102
{ACAD_REACTORS
330
C
102
}
330
C
100
AcDbDictionary
281
     1
  0
DICTIONARY
  5
16
102
{ACAD_REACTORS
330
C
102
}
330
C
100
AcDbDictionary
281
     1
  3
Standard
350
17
  0
DICTIONARY
  5
18
102
{ACAD_REACTORS
330
C
102
}
330
C
100
AcDbDictionary
281
     1
  0
ACDBDICTIONARYWDFLT
  5
E
102
{ACAD_REACTORS
330
C
102
}
330
C
100
AcDbDictionary
281
     1
  3
Normal
350
F
100
AcDbDictionaryWithDefault
340
F
  0
DICTIONARY
  5
EA
102
{ACAD_REACTORS
330
C
102
}
330
C
100
AcDbDictionary
281
     1
  3
DIMASSOC
350
EB
  3
PROJECTNAME
350
EC
  0
XRECORD
  5
D4
102
{ACAD_REACTORS
330
A0
102
}
330
A0
100
AcDbXrecord
280
     1
340
1E
  0
XRECORD
  5
D3
102
{ACAD_REACTORS
330
A2
102
}
330
A2
100
AcDbXrecord
280
     1
340
1A
  0
LAYOUT
  5
1D
102
{ACAD_REACTORS
330
19
102
}
330
19
100
AcDbPlotSettings
  1

  2
\\NT_WORK01\HP LaserJet 5000 PCL 6
  4

  6

 40
0.0
 41
0.0
 42
0.0
 43
0.0
 44
0.0
 45
0.0
 46
0.0
 47
0.0
 48
0.0
 49
0.0
140
0.0
141
0.0
142
1.0
143
1.0
 70
   688
 72
     0
 73
     0
 74
     5
  7

 75
    16
147
1.0
 76
     0
 77
     2
 78
   300
148
0.0
149
0.0
100
AcDbLayout
  1
Layout1
 70
     0
 71
     1
 10
0.0
 20
0.0
 11
12.0
 21
9.0
 12
0.0
 22
0.0
 32
0.0
 14
1.000000000000000E+20
 24
1.000000000000000E+20
 34
1.000000000000000E+20
 15
-1.000000000000000E+20
 25
-1.000000000000000E+20
 35
-1.000000000000000E+20
146
0.0
 13
0.0
 23
0.0
 33
0.0
 16
1.0
 26
0.0
 36
0.0
 17
0.0
 27
1.0
 37
0.0
 76
     0
330
1A
  0
LAYOUT
  5
21
102
{ACAD_REACTORS
330
19
102
}
330
19
100
AcDbPlotSettings
  1

  2
none_device
  4
Letter_(8.50_x_11.00_Inches)
  6

 40
6.349999904632568
 41
6.349999904632568
 42
6.350006103515625
 43
6.350006103515625
 44
215.8999938964844
 45
279.3999938964844
 46
0.0
 47
0.0
 48
0.0
 49
0.0
140
0.0
141
0.0
142
1.0
143
1.0
 70
 11952
 72
     0
 73
     1
 74
     0
  7

 75
     0
147
1.0
 76
     0
 77
     2
 78
   300
148
2286.722511197659
149
76.92250090747274
100
AcDbLayout
  1
Model
 70
     1
 71
     0
 10
0.0
 20
0.0
 11
12.0
 21
9.0
 12
0.0
 22
0.0
 32
0.0
 14
0.0
 24
0.0
 34
0.0
 15
0.0
 25
0.0
 35
0.0
146
0.0
 13
0.0
 23
0.0
 33
0.0
 16
1.0
 26
0.0
 36
0.0
 17
0.0
 27
1.0
 37
0.0
 76
     0
330
1E
  0
MLINESTYLE
  5
17
102
{ACAD_REACTORS
330
16
102
}
330
16
100
AcDbMlineStyle
  2
STANDARD
 70
     0
  3

 62
   256
 51
90.0
 52
90.0
 71
     2
 49
0.5
 62
   256
  6
BYLAYER
 49
-0.5
 62
   256
  6
BYLAYER
  0
ACDBPLACEHOLDER
  5
F
102
{ACAD_REACTORS
330
E
102
}
330
E
  0
DICTIONARYVAR
  5
EB
102
{ACAD_REACTORS
330
EA
102
}
330
EA
100
DictionaryVariables
280
     0
  1
1
  0
DICTIONARYVAR
  5
EC
102
{ACAD_REACTORS
330
EA
102
}
330
EA
100
DictionaryVariables
280
     0
  1

  0
ENDSEC
  0
EOF
