  0
SECTION
  2
HEADER
  9
$ACADVER
  1
AC1018
  9
$ACADMAINTVER
 70
     2
  9
$DWGCODEPAGE
  3
ANSI_1252
  9
$INSBASE
 10
0.0
 20
0.0
 30
0.0
  9
$EXTMIN
 10
-0.02563359212877
 20
-0.0362532231533805
 30
-0.0000000349181948
  9
$EXTMAX
 10
420.0256375038029
 20
594.0362587553789
 30
0.0000000814935746
  9
$LIMMIN
 10
0.0
 20
0.0
  9
$LIMMAX
 10
419.9999999999999
 20
594.0
  9
$ORTHOMODE
 70
     1
  9
$REGENMODE
 70
     1
  9
$FILLMODE
 70
     1
  9
$QTEXTMODE
 70
     0
  9
$MIRRTEXT
 70
     1
  9
$LTSCALE
 40
20.0
  9
$ATTMODE
 70
     1
  9
$TEXTSIZE
 40
3.5
  9
$TRACEWID
 40
0.5
  9
$TEXTSTYLE
  7
STANDARD
  9
$CLAYER
  8
SCHRAFF
  9
$CELTYPE
  6
ByLayer
  9
$CECOLOR
 62
   256
  9
$CELTSCALE
 40
1.0
  9
$DISPSILH
 70
     0
  9
$DIMSCALE
 40
2.0
  9
$DIMASZ
 40
3.5
  9
$DIMEXO
 40
1.0
  9
$DIMDLI
 40
7.0
  9
$DIMRND
 40
0.0
  9
$DIMDLE
 40
0.0
  9
$DIMEXE
 40
1.0
  9
$DIMTP
 40
0.0
  9
$DIMTM
 40
0.0
  9
$DIMTXT
 40
3.5
  9
$DIMCEN
 40
1.5
  9
$DIMTSZ
 40
0.0
  9
$DIMTOL
 70
     0
  9
$DIMLIM
 70
     0
  9
$DIMTIH
 70
     0
  9
$DIMTOH
 70
     0
  9
$DIMSE1
 70
     0
  9
$DIMSE2
 70
     0
  9
$DIMTAD
 70
     1
  9
$DIMZIN
 70
     8
  9
$DIMBLK
  1

  9
$DIMASO
 70
     1
  9
$DIMSHO
 70
     0
  9
$DIMPOST
  1

  9
$DIMAPOST
  1

  9
$DIMALT
 70
     0
  9
$DIMALTD
 70
     2
  9
$DIMALTF
 40
25.4
  9
$DIMLFAC
 40
1.0
  9
$DIMTOFL
 70
     1
  9
$DIMTVP
 40
0.0
  9
$DIMTIX
 70
     0
  9
$DIMSOXD
 70
     0
  9
$DIMSAH
 70
     0
  9
$DIMBLK1
  1

  9
$DIMBLK2
  1

  9
$DIMSTYLE
  2
Standard
  9
$DIMCLRD
 70
     0
  9
$DIMCLRE
 70
     0
  9
$DIMCLRT
 70
     1
  9
$DIMTFAC
 40
0.5142857142857144
  9
$DIMGAP
 40
1.5
  9
$DIMJUST
 70
     0
  9
$DIMSD1
 70
     0
  9
$DIMSD2
 70
     0
  9
$DIMTOLJ
 70
     1
  9
$DIMTZIN
 70
     8
  9
$DIMALTZ
 70
     8
  9
$DIMALTTZ
 70
     8
  9
$DIMUPT
 70
     0
  9
$DIMDEC
 70
     2
  9
$DIMTDEC
 70
     2
  9
$DIMALTU
 70
     2
  9
$DIMALTTD
 70
     2
  9
$DIMTXSTY
  7
STANDARD
  9
$DIMAUNIT
 70
     0
  9
$DIMADEC
 70
     2
  9
$DIMALTRND
 40
0.0
  9
$DIMAZIN
 70
     2
  9
$DIMDSEP
 70
    46
  9
$DIMATFIT
 70
     3
  9
$DIMFRAC
 70
     0
  9
$DIMLDRBLK
  1

  9
$DIMLUNIT
 70
     2
  9
$DIMLWD
 70
    -2
  9
$DIMLWE
 70
    -2
  9
$DIMTMOVE
 70
     0
  9
$LUNITS
 70
     2
  9
$LUPREC
 70
     2
  9
$SKETCHINC
 40
1.0
  9
$FILLETRAD
 40
0.0
  9
$AUNITS
 70
     0
  9
$AUPREC
 70
     0
  9
$MENU
  1
ACAD
  9
$ELEVATION
 40
0.0
  9
$PELEVATION
 40
0.0
  9
$THICKNESS
 40
0.0
  9
$LIMCHECK
 70
     0
  9
$CHAMFERA
 40
0.0
  9
$CHAMFERB
 40
0.0
  9
$CHAMFERC
 40
0.0
  9
$CHAMFERD
 40
0.0
  9
$SKPOLY
 70
     0
  9
$TDCREATE
 40
2455397.864709028
  9
$TDUCREATE
 40
2455397.781375695
  9
$TDUPDATE
 40
2455652.360523993
  9
$TDUUPDATE
 40
2455652.277190660
  9
$TDINDWG
 40
0.0860134144
  9
$TDUSRTIMER
 40
0.0860134144
  9
$USRTIMER
 70
     1
  9
$ANGBASE
 50
0.0
  9
$ANGDIR
 70
     0
  9
$PDMODE
 70
     0
  9
$PDSIZE
 40
0.0
  9
$PLINEWID
 40
0.0
  9
$SPLFRAME
 70
     0
  9
$SPLINETYPE
 70
     6
  9
$SPLINESEGS
 70
     8
  9
$HANDSEED
  5
A83
  9
$SURFTAB1
 70
     6
  9
$SURFTAB2
 70
     6
  9
$SURFTYPE
 70
     6
  9
$SURFU
 70
     6
  9
$SURFV
 70
     6
  9
$UCSBASE
  2

  9
$UCSNAME
  2

  9
$UCSORG
 10
0.0
 20
0.0
 30
0.0
  9
$UCSXDIR
 10
1.0
 20
0.0
 30
0.0
  9
$UCSYDIR
 10
0.0
 20
1.0
 30
0.0
  9
$UCSORTHOREF
  2

  9
$UCSORTHOVIEW
 70
     0
  9
$UCSORGTOP
 10
0.0
 20
0.0
 30
0.0
  9
$UCSORGBOTTOM
 10
0.0
 20
0.0
 30
0.0
  9
$UCSORGLEFT
 10
0.0
 20
0.0
 30
0.0
  9
$UCSORGRIGHT
 10
0.0
 20
0.0
 30
0.0
  9
$UCSORGFRONT
 10
0.0
 20
0.0
 30
0.0
  9
$UCSORGBACK
 10
0.0
 20
0.0
 30
0.0
  9
$PUCSBASE
  2

  9
$PUCSNAME
  2

  9
$PUCSORG
 10
0.0
 20
0.0
 30
0.0
  9
$PUCSXDIR
 10
1.0
 20
0.0
 30
0.0
  9
$PUCSYDIR
 10
0.0
 20
1.0
 30
0.0
  9
$PUCSORTHOREF
  2

  9
$PUCSORTHOVIEW
 70
     0
  9
$PUCSORGTOP
 10
0.0
 20
0.0
 30
0.0
  9
$PUCSORGBOTTOM
 10
0.0
 20
0.0
 30
0.0
  9
$PUCSORGLEFT
 10
0.0
 20
0.0
 30
0.0
  9
$PUCSORGRIGHT
 10
0.0
 20
0.0
 30
0.0
  9
$PUCSORGFRONT
 10
0.0
 20
0.0
 30
0.0
  9
$PUCSORGBACK
 10
0.0
 20
0.0
 30
0.0
  9
$USERI1
 70
     0
  9
$USERI2
 70
     0
  9
$USERI3
 70
     0
  9
$USERI4
 70
     0
  9
$USERI5
 70
     0
  9
$USERR1
 40
0.0
  9
$USERR2
 40
0.0
  9
$USERR3
 40
0.0
  9
$USERR4
 40
0.0
  9
$USERR5
 40
0.0
  9
$WORLDVIEW
 70
     1
  9
$SHADEDGE
 70
     3
  9
$SHADEDIF
 70
    70
  9
$TILEMODE
 70
     1
  9
$MAXACTVP
 70
    16
  9
$PINSBASE
 10
0.0
 20
0.0
 30
0.0
  9
$PLIMCHECK
 70
     0
  9
$PEXTMIN
 10
1.000000000000000E+20
 20
1.000000000000000E+20
 30
1.000000000000000E+20
  9
$PEXTMAX
 10
-1.000000000000000E+20
 20
-1.000000000000000E+20
 30
-1.000000000000000E+20
  9
$PLIMMIN
 10
0.0
 20
0.0
  9
$PLIMMAX
 10
12.0
 20
9.0
  9
$UNITMODE
 70
     0
  9
$VISRETAIN
 70
     0
  9
$PLINEGEN
 70
     0
  9
$PSLTSCALE
 70
     0
  9
$TREEDEPTH
 70
  3020
  9
$CMLSTYLE
  2
Standard
  9
$CMLJUST
 70
     0
  9
$CMLSCALE
 40
1.0
  9
$PROXYGRAPHICS
 70
     1
  9
$MEASUREMENT
 70
     0
  9
$CELWEIGHT
370
    -1
  9
$ENDCAPS
280
     0
  9
$JOINSTYLE
280
     0
  9
$LWDISPLAY
290
     0
  9
$INSUNITS
 70
     0
  9
$HYPERLINKBASE
  1

  9
$STYLESHEET
  1
monochrome 1.ctb
  9
$XEDIT
290
     1
  9
$CEPSNTYPE
380
     0
  9
$PSTYLEMODE
290
     1
  9
$FINGERPRINTGUID
  2
{D68B0D02-A558-11D7-B632-000102183313}
  9
$VERSIONGUID
  2
{EEA461B2-D625-4F7C-A3D6-46FAA53094D1}
  9
$EXTNAMES
290
     1
  9
$PSVPSCALE
 40
0.0
  9
$OLESTARTUP
290
     0
  9
$SORTENTS
280
   127
  9
$INDEXCTL
280
     0
  9
$HIDETEXT
280
     0
  9
$XCLIPFRAME
290
     0
  9
$HALOGAP
280
     0
  9
$OBSCOLOR
 70
   257
  9
$OBSLTYPE
280
     0
  9
$INTERSECTIONDISPLAY
280
     0
  9
$INTERSECTIONCOLOR
 70
   257
  9
$DIMASSOC
280
     1
  9
$PROJECTNAME
  1

  0
ENDSEC
  0
SECTION
  2
CLASSES
  0
CLASS
  1
ACDBDICTIONARYWDFLT
  2
AcDbDictionaryWithDefault
  3
ObjectDBX Classes
 90
        0
 91
        1
280
     0
281
     0
  0
CLASS
  1
DICTIONARYVAR
  2
AcDbDictionaryVar
  3
ObjectDBX Classes
 90
        0
 91
        2
280
     0
281
     0
  0
ENDSEC
  0
SECTION
  2
TABLES
  0
TABLE
  2
VPORT
  5
8
330
0
100
AcDbSymbolTable
 70
     3
  0
VPORT
  5
A82
330
8
100
AcDbSymbolTableRecord
100
AcDbViewportTableRecord
  2
*Active
 70
     0
 10
0.0
 20
0.0
 11
1.0
 21
1.0
 12
210.0
 22
297.0
 13
0.0
 23
0.0
 14
1.0
 24
1.0
 15
10.0
 25
10.0
 16
0.0
 26
0.0
 36
1.0
 17
0.0
 27
0.0
 37
0.0
 40
594.0
 41
1.334231805929919
 42
50.0
 43
0.0
 44
0.0
 50
0.0
 51
0.0
 71
     0
 72
  1500
 73
     1
 74
     0
 75
     0
 76
     0
 77
     0
 78
     0
281
     0
 65
     1
110
0.0
120
0.0
130
0.0
111
1.0
121
0.0
131
0.0
112
0.0
122
1.0
132
0.0
 79
     0
146
0.0
  0
ENDTAB
  0
TABLE
  2
LTYPE
  5
5
330
0
100
AcDbSymbolTable
 70
     2
  0
LTYPE
  5
13
330
5
100
AcDbSymbolTableRecord
100
AcDbLinetypeTableRecord
  2
ByBlock
 70
     0
  3

 72
    65
 73
     0
 40
0.0
  0
LTYPE
  5
14
330
5
100
AcDbSymbolTableRecord
100
AcDbLinetypeTableRecord
  2
ByLayer
 70
     0
  3

 72
    65
 73
     0
 40
0.0
  0
LTYPE
  5
15
330
5
100
AcDbSymbolTableRecord
100
AcDbLinetypeTableRecord
  2
Continuous
 70
     0
  3
Solid line
 72
    65
 73
     0
 40
0.0
  0
LTYPE
  5
25
330
5
100
AcDbSymbolTableRecord
100
AcDbLinetypeTableRecord
  2
STRICHPUNKT
 70
     0
  3
__ . __ . __ . __ . __ . __ . __ . __ . __ . __
 72
    65
 73
     4
 40
1.0
 49
0.5
 74
     0
 49
-0.25
 74
     0
 49
0.0
 74
     0
 49
-0.25
 74
     0
  0
ENDTAB
  0
TABLE
  2
LAYER
  5
2
330
0
100
AcDbSymbolTable
 70
     9
  0
LAYER
  5
10
330
2
100
AcDbSymbolTableRecord
100
AcDbLayerTableRecord
  2
0
 70
     0
 62
     7
  6
Continuous
370
    -3
390
F
  0
LAYER
  5
2A
330
2
100
AcDbSymbolTableRecord
100
AcDbLayerTableRecord
  2
VOLL
 70
     0
 62
     1
  6
Continuous
370
    -3
390
F
  0
LAYER
  5
2B
330
2
100
AcDbSymbolTableRecord
100
AcDbLayerTableRecord
  2
HILF
 70
     0
 62
     2
  6
Continuous
370
    -3
390
F
  0
LAYER
  5
2C
330
2
100
AcDbSymbolTableRecord
100
AcDbLayerTableRecord
  2
MITTEL
 70
     0
 62
     2
  6
STRICHPUNKT
370
    -3
390
F
  0
LAYER
  5
2F
330
2
100
AcDbSymbolTableRecord
100
AcDbLayerTableRecord
  2
BEM
 70
     0
 62
     7
  6
Continuous
370
    -3
390
F
  0
LAYER
  5
30
330
2
100
AcDbSymbolTableRecord
100
AcDbLayerTableRecord
  2
STEMPEL
 70
     0
 62
     3
  6
Continuous
370
    -3
390
F
  0
LAYER
  5
31
330
2
100
AcDbSymbolTableRecord
100
AcDbLayerTableRecord
  2
TEXT
 70
     0
 62
     7
  6
Continuous
370
    -3
390
F
  0
LAYER
  5
199
330
2
100
AcDbSymbolTableRecord
100
AcDbLayerTableRecord
  2
DEFPOINTS
 70
     0
 62
     7
  6
Continuous
290
     0
370
    -3
390
F
  0
LAYER
  5
19A
330
2
100
AcDbSymbolTableRecord
100
AcDbLayerTableRecord
  2
SCHRAFF
 70
     0
 62
     7
  6
Continuous
370
    -3
390
F
  0
ENDTAB
  0
TABLE
  2
STYLE
  5
3
330
0
100
AcDbSymbolTable
 70
     2
  0
STYLE
  5
11
330
3
100
AcDbSymbolTableRecord
100
AcDbTextStyleTableRecord
  2
STANDARD
 70
     0
 40
0.0
 41
0.8
 50
0.0
 71
     0
 42
3.5
  3
simplex.shx
  4

  0
STYLE
  5
24
330
3
100
AcDbSymbolTableRecord
100
AcDbTextStyleTableRecord
  2
GREEKS
 70
     0
 40
0.0
 41
0.8
 50
0.0
 71
     0
 42
2.5
  3
SIMPLEX.shx
  4

  0
ENDTAB
  0
TABLE
  2
VIEW
  5
6
330
0
100
AcDbSymbolTable
 70
     0
  0
ENDTAB
  0
TABLE
  2
UCS
  5
7
330
0
100
AcDbSymbolTable
 70
     0
  0
ENDTAB
  0
TABLE
  2
APPID
  5
9
330
0
100
AcDbSymbolTable
 70
     1
  0
APPID
  5
12
330
9
100
AcDbSymbolTableRecord
100
AcDbRegAppTableRecord
  2
ACAD
 70
     0
  0
ENDTAB
  0
TABLE
  2
DIMSTYLE
  5
A
330
0
100
AcDbSymbolTable
 70
     1
100
AcDbDimStyleTable
 71
     1
340
9D
  0
DIMSTYLE
105
9D
102
{ACAD_REACTORS
330
556
330
57D
330
581
330
7A5
330
7B2
330
819
330
863
102
}
330
A
100
AcDbSymbolTableRecord
100
AcDbDimStyleTableRecord
  2
Standard
 70
     0
340
11
  0
ENDTAB
  0
TABLE
  2
BLOCK_RECORD
  5
1
330
0
100
AcDbSymbolTable
 70
    10
  0
BLOCK_RECORD
  5
1E
102
{ACAD_XDICTIONARY
360
A0
102
}
330
1
100
AcDbSymbolTableRecord
100
AcDbBlockTableRecord
  2
*Model_Space
340
21
  0
BLOCK_RECORD
  5
1A
102
{ACAD_XDICTIONARY
360
A2
102
}
330
1
100
AcDbSymbolTableRecord
100
AcDbBlockTableRecord
  2
*Paper_Space
340
1D
  0
BLOCK_RECORD
  5
22
330
1
100
AcDbSymbolTableRecord
100
AcDbBlockTableRecord
  2
LOGO
340
0
102
{BLKREFS
331
9B
102
}
  0
BLOCK_RECORD
  5
5A6
330
1
100
AcDbSymbolTableRecord
100
AcDbBlockTableRecord
  2
*D1
340
0
  0
BLOCK_RECORD
  5
5D8
330
1
100
AcDbSymbolTableRecord
100
AcDbBlockTableRecord
  2
*D3
340
0
  0
BLOCK_RECORD
  5
5E4
330
1
100
AcDbSymbolTableRecord
100
AcDbBlockTableRecord
  2
*D4
340
0
  0
BLOCK_RECORD
  5
7A6
330
1
100
AcDbSymbolTableRecord
100
AcDbBlockTableRecord
  2
*D5
340
0
  0
BLOCK_RECORD
  5
7B3
330
1
100
AcDbSymbolTableRecord
100
AcDbBlockTableRecord
  2
*D6
340
0
  0
BLOCK_RECORD
  5
81A
330
1
100
AcDbSymbolTableRecord
100
AcDbBlockTableRecord
  2
*D7
340
0
  0
BLOCK_RECORD
  5
864
330
1
100
AcDbSymbolTableRecord
100
AcDbBlockTableRecord
  2
*D9
340
0
  0
ENDTAB
  0
ENDSEC
  0
SECTION
  2
BLOCKS
  0
BLOCK
  5
35
330
1E
100
AcDbEntity
  8
0
100
AcDbBlockBegin
  2
*Model_Space
 70
     0
 10
0.0
 20
0.0
 30
0.0
  3
*Model_Space
  1

  0
ENDBLK
  5
36
330
1E
100
AcDbEntity
  8
0
100
AcDbBlockEnd
  0
BLOCK
  5
33
330
1A
100
AcDbEntity
 67
     1
  8
0
100
AcDbBlockBegin
  2
*Paper_Space
 70
     0
 10
0.0
 20
0.0
 30
0.0
  3
*Paper_Space
  1

  0
ENDBLK
  5
34
330
1A
100
AcDbEntity
 67
     1
  8
0
100
AcDbBlockEnd
  0
BLOCK
  5
37
330
22
100
AcDbEntity
  8
0
100
AcDbBlockBegin
  2
LOGO
 70
     0
 10
0.0
 20
0.0
 30
0.0
  3
LOGO
  1

  0
ARC
  5
38
330
22
100
AcDbEntity
  8
0
100
AcDbCircle
 10
11.59973089678112
 20
-9.271599258481501
 30
0.0
 40
4.5
100
AcDbArc
 50
270.0
 51
231.0575587310159
  0
LINE
  5
39
330
22
100
AcDbEntity
  8
0
100
AcDbLine
 10
3.599730896781125
 20
-4.771599258481529
 30
0.0
 11
3.599730896781153
 21
-11.77159925848133
 31
0.0
  0
LINE
  5
3A
330
22
100
AcDbEntity
  8
0
100
AcDbLine
 10
2.599730896781125
 20
-4.771599258481529
 30
0.0
 11
2.599730896781153
 21
-11.77159925848133
 31
0.0
  0
CIRCLE
  5
3B
330
22
100
AcDbEntity
  8
0
100
AcDbCircle
 10
11.59973089678112
 20
-9.271599258481501
 30
0.0
 40
3.5
  0
ARC
  5
3C
330
22
100
AcDbEntity
  8
0
100
AcDbCircle
 10
31.59973089678115
 20
-9.271599258481472
 30
0.0
 40
4.5
100
AcDbArc
 50
270.0
 51
231.0575587310182
  0
LINE
  5
3D
330
22
100
AcDbEntity
  8
0
100
AcDbLine
 10
17.59973089678112
 20
-4.771599258481472
 30
0.0
 11
17.59973089678115
 21
-13.77159925848147
 31
0.0
  0
ARC
  5
3E
330
22
100
AcDbEntity
  8
0
100
AcDbCircle
 10
22.59973089678116
 20
-7.271599258481472
 30
0.0
 40
2.5
100
AcDbArc
 50
293.1161887722295
 51
90.0
  0
CIRCLE
  5
3F
330
22
100
AcDbEntity
  8
0
100
AcDbCircle
 10
31.59973089678115
 20
-9.271599258481472
 30
0.0
 40
3.5
  0
ARC
  5
40
330
22
100
AcDbEntity
  8
0
100
AcDbCircle
 10
4.599730896781153
 20
-11.77159925848133
 30
0.0
 40
1.0
100
AcDbArc
 50
180.0
 51
270.0
  0
ARC
  5
41
330
22
100
AcDbEntity
  8
0
100
AcDbCircle
 10
4.599730896781153
 20
-11.77159925848133
 30
0.0
 40
2.0
100
AcDbArc
 50
179.9999999999992
 51
270.0
  0
LINE
  5
42
330
22
100
AcDbEntity
  8
0
100
AcDbLine
 10
11.59973089678115
 20
-13.77159925848144
 30
0.0
 11
4.599730896781153
 21
-13.77159925848147
 31
0.0
  0
LINE
  5
43
330
22
100
AcDbEntity
  8
0
100
AcDbLine
 10
8.771303772034769
 20
-12.77159925848136
 30
0.0
 11
4.599730896781153
 21
-12.77159925848133
 31
0.0
  0
LINE
  5
44
330
22
100
AcDbEntity
  8
0
100
AcDbLine
 10
31.59973089678115
 20
-13.77159925848147
 30
0.0
 11
23.6715276665056
 21
-13.77159925848144
 31
0.0
  0
LINE
  5
45
330
22
100
AcDbEntity
  8
0
100
AcDbLine
 10
23.56565672307022
 20
-9.51278021337896
 30
0.0
 11
24.4388546544846
 21
-12.77159925848144
 31
0.0
  0
LINE
  5
46
330
22
100
AcDbEntity
  8
0
100
AcDbLine
 10
22.59973089678116
 20
-9.771599258481472
 30
0.0
 11
18.59973089678112
 21
-9.771599258481472
 31
0.0
  0
LINE
  5
47
330
22
100
AcDbEntity
  8
0
100
AcDbLine
 10
18.59973089678115
 20
-13.77159925848144
 30
0.0
 11
17.59973089678115
 21
-13.77159925848144
 31
0.0
  0
LINE
  5
48
330
22
100
AcDbEntity
  8
0
100
AcDbLine
 10
18.59973089678115
 20
-9.771599258481472
 30
0.0
 11
18.59973089678115
 21
-13.77159925848144
 31
0.0
  0
LINE
  5
49
330
22
100
AcDbEntity
  8
0
100
AcDbLine
 10
22.59973089678116
 20
-9.771599258481472
 30
0.0
 11
23.67152766650562
 21
-13.77159925848147
 31
0.0
  0
ARC
  5
4A
330
22
100
AcDbEntity
  8
0
100
AcDbCircle
 10
22.59973089678116
 20
-7.271599258481472
 30
0.0
 40
2.5
100
AcDbArc
 50
270.0
 51
270.0000000000007
  0
LINE
  5
4B
330
22
100
AcDbEntity
  8
0
100
AcDbLine
 10
28.77130377203494
 20
-12.77159925848147
 30
0.0
 11
24.43885465448463
 21
-12.77159925848144
 31
0.0
  0
LINE
  5
4C
330
22
100
AcDbEntity
  8
0
100
AcDbLine
 10
3.599730896781125
 20
-4.771599258481472
 30
0.0
 11
2.599730896781125
 21
-4.771599258481472
 31
0.0
  0
LINE
  5
4D
330
22
100
AcDbEntity
  8
0
100
AcDbLine
 10
22.59973089678116
 20
-8.771599258481472
 30
0.0
 11
18.59973089678115
 21
-8.771599258481472
 31
0.0
  0
LINE
  5
4E
330
22
100
AcDbEntity
  8
0
100
AcDbLine
 10
22.59973089678116
 20
-5.771599258481472
 30
0.0
 11
18.59973089678115
 21
-5.771599258481472
 31
0.0
  0
LINE
  5
4F
330
22
100
AcDbEntity
  8
0
100
AcDbLine
 10
22.59973089678116
 20
-4.771599258481472
 30
0.0
 11
17.59973089678115
 21
-4.771599258481472
 31
0.0
  0
LINE
  5
50
330
22
100
AcDbEntity
  8
0
100
AcDbLine
 10
18.59973089678115
 20
-5.771599258481472
 30
0.0
 11
18.59973089678115
 21
-8.771599258481472
 31
0.0
  0
ARC
  5
51
330
22
100
AcDbEntity
  8
0
100
AcDbCircle
 10
22.59973089678116
 20
-7.271599258481472
 30
0.0
 40
1.5
100
AcDbArc
 50
270.0
 51
90.0
  0
ENDBLK
  5
52
330
22
100
AcDbEntity
  8
0
100
AcDbBlockEnd
  0
BLOCK
  5
5B0
330
5A6
100
AcDbEntity
  8
0
100
AcDbBlockBegin
  2
*D1
 70
     1
 10
0.0
 20
0.0
 30
0.0
  3
*D1
  1

  0
LINE
  5
9A3
330
5A6
100
AcDbEntity
  8
BEM
 62
     0
370
    -2
100
AcDbLine
 10
173.9999999999998
 20
148.3470250013641
 30
0.0
 11
173.9999999999998
 21
120.2908509846387
 31
0.0
  0
LINE
  5
9A4
330
5A6
100
AcDbEntity
  8
BEM
 62
     0
370
    -2
100
AcDbLine
 10
275.9999999999997
 20
148.347025001364
 30
0.0
 11
275.9999999999997
 21
120.2908509846387
 31
0.0
  0
LINE
  5
9A5
330
5A6
100
AcDbEntity
  8
BEM
 62
     0
370
    -2
100
AcDbLine
 10
180.9999999999998
 20
122.2908509846387
 30
0.0
 11
268.9999999999997
 21
122.2908509846387
 31
0.0
  0
SOLID
  5
9A6
330
5A6
100
AcDbEntity
  8
BEM
 62
     0
100
AcDbTrace
 10
180.9999999999998
 20
123.4575176513054
 30
0.0
 11
180.9999999999998
 21
121.124184317972
 31
0.0
 12
173.9999999999998
 22
122.2908509846387
 32
0.0
 13
173.9999999999998
 23
122.2908509846387
 33
0.0
  0
SOLID
  5
9A7
330
5A6
100
AcDbEntity
  8
BEM
 62
     0
100
AcDbTrace
 10
268.9999999999997
 20
123.4575176513054
 30
0.0
 11
268.9999999999997
 21
121.124184317972
 31
0.0
 12
275.9999999999997
 22
122.2908509846387
 32
0.0
 13
275.9999999999997
 23
122.2908509846387
 33
0.0
  0
MTEXT
  5
9A8
330
5A6
100
AcDbEntity
  8
BEM
 62
     1
100
AcDbMText
 10
224.9999999999998
 20
128.7908509846387
 30
0.0
 40
7.0
 41
0.0
 71
     5
 72
     1
  1
\A1;%%c102
  7
GREEKS
 73
     1
 44
1.0
  0
POINT
  5
9A9
330
5A6
100
AcDbEntity
  8
DEFPOINTS
 62
     0
100
AcDbPoint
 10
173.9999999999998
 20
150.3470250013641
 30
0.0
  0
POINT
  5
9AA
330
5A6
100
AcDbEntity
  8
DEFPOINTS
 62
     0
100
AcDbPoint
 10
275.9999999999997
 20
150.347025001364
 30
0.0
  0
POINT
  5
9AB
330
5A6
100
AcDbEntity
  8
DEFPOINTS
 62
     0
100
AcDbPoint
 10
275.9999999999997
 20
122.2908509846387
 30
0.0
  0
ENDBLK
  5
5B1
330
5A6
100
AcDbEntity
  8
0
100
AcDbBlockEnd
  0
BLOCK
  5
5E2
330
5D8
100
AcDbEntity
  8
0
100
AcDbBlockBegin
  2
*D3
 70
     1
 10
0.0
 20
0.0
 30
0.0
  3
*D3
  1

  0
LINE
  5
A5D
330
5D8
100
AcDbEntity
  8
BEM
 62
     0
370
    -2
100
AcDbLine
 10
293.5
 20
492.4343468871834
 30
0.0
 11
312.5401079952965
 21
492.4343468871834
 31
0.0
  0
LINE
  5
A5E
330
5D8
100
AcDbEntity
  8
BEM
 62
     0
370
    -2
100
AcDbLine
 10
293.4999999999998
 20
242.4343468871835
 30
0.0
 11
312.5401079952964
 21
242.4343468871835
 31
0.0
  0
LINE
  5
A5F
330
5D8
100
AcDbEntity
  8
BEM
 62
     0
370
    -2
100
AcDbLine
 10
310.5401079952965
 20
485.4343468871834
 30
0.0
 11
310.5401079952964
 21
249.4343468871834
 31
0.0
  0
SOLID
  5
A60
330
5D8
100
AcDbEntity
  8
BEM
 62
     0
100
AcDbTrace
 10
309.3734413286298
 20
485.4343468871834
 30
0.0
 11
311.7067746619631
 21
485.4343468871834
 31
0.0
 12
310.5401079952965
 22
492.4343468871834
 32
0.0
 13
310.5401079952965
 23
492.4343468871834
 33
0.0
  0
SOLID
  5
A61
330
5D8
100
AcDbEntity
  8
BEM
 62
     0
100
AcDbTrace
 10
309.3734413286297
 20
249.4343468871834
 30
0.0
 11
311.7067746619631
 21
249.4343468871834
 31
0.0
 12
310.5401079952964
 22
242.4343468871835
 32
0.0
 13
310.5401079952964
 23
242.4343468871835
 33
0.0
  0
MTEXT
  5
A62
330
5D8
100
AcDbEntity
  8
BEM
 62
     1
100
AcDbMText
 10
304.0401079952963
 20
367.4343468871835
 30
0.0
 40
7.0
 41
0.0
 71
     5
 72
     1
  1
\A1;1500
  7
GREEKS
 11
0.0000000000000001
 21
1.0
 31
0.0
 73
     1
 44
1.0
  0
POINT
  5
A63
330
5D8
100
AcDbEntity
  8
DEFPOINTS
 62
     0
100
AcDbPoint
 10
291.5
 20
492.4343468871834
 30
0.0
  0
POINT
  5
A64
330
5D8
100
AcDbEntity
  8
DEFPOINTS
 62
     0
100
AcDbPoint
 10
291.4999999999998
 20
242.4343468871835
 30
0.0
  0
POINT
  5
A65
330
5D8
100
AcDbEntity
  8
DEFPOINTS
 62
     0
100
AcDbPoint
 10
310.5401079952964
 20
242.4343468871835
 30
0.0
  0
ENDBLK
  5
5E3
330
5D8
100
AcDbEntity
  8
0
100
AcDbBlockEnd
  0
BLOCK
  5
5EE
330
5E4
100
AcDbEntity
  8
0
100
AcDbBlockBegin
  2
*D4
 70
     1
 10
0.0
 20
0.0
 30
0.0
  3
*D4
  1

  0
LINE
  5
A66
330
5E4
100
AcDbEntity
  8
BEM
 62
     0
370
    -2
100
AcDbLine
 10
293.5
 20
492.4343468871835
 30
0.0
 11
329.7176721458205
 21
492.4343468871835
 31
0.0
  0
LINE
  5
A67
330
5E4
100
AcDbEntity
  8
BEM
 62
     0
370
    -2
100
AcDbLine
 10
277.3077303668791
 20
142.4343468871835
 30
0.0
 11
329.7176721458205
 21
142.4343468871834
 31
0.0
  0
LINE
  5
A68
330
5E4
100
AcDbEntity
  8
BEM
 62
     0
370
    -2
100
AcDbLine
 10
327.7176721458205
 20
485.4343468871835
 30
0.0
 11
327.7176721458205
 21
149.4343468871834
 31
0.0
  0
SOLID
  5
A69
330
5E4
100
AcDbEntity
  8
BEM
 62
     0
100
AcDbTrace
 10
326.5510054791538
 20
485.4343468871835
 30
0.0
 11
328.8843388124872
 21
485.4343468871835
 31
0.0
 12
327.7176721458205
 22
492.4343468871835
 32
0.0
 13
327.7176721458205
 23
492.4343468871835
 33
0.0
  0
SOLID
  5
A6A
330
5E4
100
AcDbEntity
  8
BEM
 62
     0
100
AcDbTrace
 10
326.5510054791538
 20
149.4343468871834
 30
0.0
 11
328.8843388124872
 21
149.4343468871834
 31
0.0
 12
327.7176721458205
 22
142.4343468871834
 32
0.0
 13
327.7176721458205
 23
142.4343468871834
 33
0.0
  0
MTEXT
  5
A6B
330
5E4
100
AcDbEntity
  8
BEM
 62
     1
100
AcDbMText
 10
321.2176721458204
 20
317.4343468871835
 30
0.0
 40
7.0
 41
0.0
 71
     5
 72
     1
  1
\A1;1600
  7
GREEKS
 11
0.0000000000000001
 21
1.0
 31
0.0
 73
     1
 44
1.0
  0
POINT
  5
A6C
330
5E4
100
AcDbEntity
  8
DEFPOINTS
 62
     0
100
AcDbPoint
 10
291.5
 20
492.4343468871835
 30
0.0
  0
POINT
  5
A6D
330
5E4
100
AcDbEntity
  8
DEFPOINTS
 62
     0
100
AcDbPoint
 10
275.3077303668791
 20
142.4343468871835
 30
0.0
  0
POINT
  5
A6E
330
5E4
100
AcDbEntity
  8
DEFPOINTS
 62
     0
100
AcDbPoint
 10
327.7176721458205
 20
142.4343468871834
 30
0.0
  0
ENDBLK
  5
5EF
330
5E4
100
AcDbEntity
  8
0
100
AcDbBlockEnd
  0
BLOCK
  5
7B0
330
7A6
100
AcDbEntity
  8
0
100
AcDbBlockBegin
  2
*D5
 70
     1
 10
0.0
 20
0.0
 30
0.0
  3
*D5
  1

  0
LINE
  5
97D
330
7A6
100
AcDbEntity
  8
BEM
 62
     0
370
    -2
100
AcDbLine
 10
167.2932441620748
 20
567.4343468871835
 30
0.0
 11
142.4578110883612
 21
567.4343468871835
 31
0.0
  0
LINE
  5
97E
330
7A6
100
AcDbEntity
  8
BEM
 62
     0
370
    -2
100
AcDbLine
 10
156.4999999999998
 20
492.4343468871835
 30
0.0
 11
142.4578110883612
 21
492.4343468871835
 31
0.0
  0
LINE
  5
97F
330
7A6
100
AcDbEntity
  8
BEM
 62
     0
370
    -2
100
AcDbLine
 10
144.4578110883612
 20
560.4343468871835
 30
0.0
 11
144.4578110883612
 21
499.4343468871835
 31
0.0
  0
SOLID
  5
980
330
7A6
100
AcDbEntity
  8
BEM
 62
     0
100
AcDbTrace
 10
143.2911444216946
 20
560.4343468871835
 30
0.0
 11
145.6244777550279
 21
560.4343468871835
 31
0.0
 12
144.4578110883612
 22
567.4343468871835
 32
0.0
 13
144.4578110883612
 23
567.4343468871835
 33
0.0
  0
SOLID
  5
981
330
7A6
100
AcDbEntity
  8
BEM
 62
     0
100
AcDbTrace
 10
143.2911444216946
 20
499.4343468871835
 30
0.0
 11
145.6244777550279
 21
499.4343468871835
 31
0.0
 12
144.4578110883612
 22
492.4343468871835
 32
0.0
 13
144.4578110883612
 23
492.4343468871835
 33
0.0
  0
MTEXT
  5
982
330
7A6
100
AcDbEntity
  8
BEM
 62
     1
100
AcDbMText
 10
137.9578110883612
 20
529.9343468871835
 30
0.0
 40
7.0
 41
0.0
 71
     5
 72
     1
  1
\A1;75
 11
0.0000000000000001
 21
1.0
 31
0.0
 73
     1
 44
1.0
  0
POINT
  5
983
330
7A6
100
AcDbEntity
  8
DEFPOINTS
 62
     0
100
AcDbPoint
 10
169.2932441620748
 20
567.4343468871835
 30
0.0
  0
POINT
  5
984
330
7A6
100
AcDbEntity
  8
DEFPOINTS
 62
     0
100
AcDbPoint
 10
158.4999999999998
 20
492.4343468871835
 30
0.0
  0
POINT
  5
985
330
7A6
100
AcDbEntity
  8
DEFPOINTS
 62
     0
100
AcDbPoint
 10
144.4578110883612
 20
492.4343468871835
 30
0.0
  0
ENDBLK
  5
7B1
330
7A6
100
AcDbEntity
  8
0
100
AcDbBlockEnd
  0
BLOCK
  5
7BD
330
7B3
100
AcDbEntity
  8
0
100
AcDbBlockBegin
  2
*D6
 70
     1
 10
0.0
 20
0.0
 30
0.0
  3
*D6
  1

  0
LINE
  5
A54
330
7B3
100
AcDbEntity
  8
BEM
 62
     0
370
    -2
100
AcDbLine
 10
167.2932441620748
 20
567.4343468871835
 30
0.0
 11
121.8743443552549
 21
567.4343468871835
 31
0.0
  0
LINE
  5
A55
330
7B3
100
AcDbEntity
  8
BEM
 62
     0
370
    -2
100
AcDbLine
 10
172.6922696331203
 20
142.4343468871835
 30
0.0
 11
121.8743443552548
 21
142.4343468871835
 31
0.0
  0
LINE
  5
A56
330
7B3
100
AcDbEntity
  8
BEM
 62
     0
370
    -2
100
AcDbLine
 10
123.8743443552549
 20
560.4343468871835
 30
0.0
 11
123.8743443552548
 21
149.4343468871835
 31
0.0
  0
SOLID
  5
A57
330
7B3
100
AcDbEntity
  8
BEM
 62
     0
100
AcDbTrace
 10
122.7076776885882
 20
560.4343468871835
 30
0.0
 11
125.0410110219216
 21
560.4343468871835
 31
0.0
 12
123.8743443552549
 22
567.4343468871835
 32
0.0
 13
123.8743443552549
 23
567.4343468871835
 33
0.0
  0
SOLID
  5
A58
330
7B3
100
AcDbEntity
  8
BEM
 62
     0
100
AcDbTrace
 10
122.7076776885881
 20
149.4343468871835
 30
0.0
 11
125.0410110219215
 21
149.4343468871835
 31
0.0
 12
123.8743443552548
 22
142.4343468871835
 32
0.0
 13
123.8743443552548
 23
142.4343468871835
 33
0.0
  0
MTEXT
  5
A59
330
7B3
100
AcDbEntity
  8
BEM
 62
     1
100
AcDbMText
 10
117.3743443552548
 20
354.9343468871835
 30
0.0
 40
7.0
 41
0.0
 71
     5
 72
     1
  1
\A1;1675
 11
0.0000000000000001
 21
1.0
 31
0.0
 73
     1
 44
1.0
  0
POINT
  5
A5A
330
7B3
100
AcDbEntity
  8
DEFPOINTS
 62
     0
100
AcDbPoint
 10
169.2932441620748
 20
567.4343468871835
 30
0.0
  0
POINT
  5
A5B
330
7B3
100
AcDbEntity
  8
DEFPOINTS
 62
     0
100
AcDbPoint
 10
174.6922696331203
 20
142.4343468871835
 30
0.0
  0
POINT
  5
A5C
330
7B3
100
AcDbEntity
  8
DEFPOINTS
 62
     0
100
AcDbPoint
 10
123.8743443552548
 20
142.4343468871835
 30
0.0
  0
ENDBLK
  5
7BE
330
7B3
100
AcDbEntity
  8
0
100
AcDbBlockEnd
  0
BLOCK
  5
824
330
81A
100
AcDbEntity
  8
0
100
AcDbBlockBegin
  2
*D7
 70
     1
 10
0.0
 20
0.0
 30
0.0
  3
*D7
  1

  0
LINE
  5
96B
330
81A
100
AcDbEntity
  8
BEM
 62
     0
370
    -2
100
AcDbLine
 10
291.4999999999998
 20
238.4343468871831
 30
0.0
 11
291.4999999999998
 21
197.9355742897096
 31
0.0
  0
LINE
  5
96C
330
81A
100
AcDbEntity
  8
BEM
 62
     0
370
    -2
100
AcDbLine
 10
158.4999999999997
 20
238.4343468871835
 30
0.0
 11
158.4999999999997
 21
197.9355742897096
 31
0.0
  0
LINE
  5
96D
330
81A
100
AcDbEntity
  8
BEM
 62
     0
370
    -2
100
AcDbLine
 10
284.4999999999998
 20
199.9355742897096
 30
0.0
 11
165.4999999999997
 21
199.9355742897096
 31
0.0
  0
SOLID
  5
96E
330
81A
100
AcDbEntity
  8
BEM
 62
     0
100
AcDbTrace
 10
284.4999999999998
 20
201.1022409563763
 30
0.0
 11
284.4999999999998
 21
198.7689076230429
 31
0.0
 12
291.4999999999998
 22
199.9355742897096
 32
0.0
 13
291.4999999999998
 23
199.9355742897096
 33
0.0
  0
SOLID
  5
96F
330
81A
100
AcDbEntity
  8
BEM
 62
     0
100
AcDbTrace
 10
165.4999999999997
 20
201.1022409563763
 30
0.0
 11
165.4999999999997
 21
198.7689076230429
 31
0.0
 12
158.4999999999997
 22
199.9355742897096
 32
0.0
 13
158.4999999999997
 23
199.9355742897096
 33
0.0
  0
MTEXT
  5
970
330
81A
100
AcDbEntity
  8
BEM
 62
     1
100
AcDbMText
 10
224.9999999999998
 20
206.4355742897096
 30
0.0
 40
7.0
 41
0.0
 71
     5
 72
     1
  1
\A1;%%c133
 73
     1
 44
1.0
  0
POINT
  5
971
330
81A
100
AcDbEntity
  8
DEFPOINTS
 62
     0
100
AcDbPoint
 10
291.4999999999998
 20
240.4343468871831
 30
0.0
  0
POINT
  5
972
330
81A
100
AcDbEntity
  8
DEFPOINTS
 62
     0
100
AcDbPoint
 10
158.4999999999997
 20
240.4343468871835
 30
0.0
  0
POINT
  5
973
330
81A
100
AcDbEntity
  8
DEFPOINTS
 62
     0
100
AcDbPoint
 10
158.4999999999997
 20
199.9355742897096
 30
0.0
  0
ENDBLK
  5
825
330
81A
100
AcDbEntity
  8
0
100
AcDbBlockEnd
  0
BLOCK
  5
86E
330
864
100
AcDbEntity
  8
0
100
AcDbBlockBegin
  2
*D9
 70
     1
 10
0.0
 20
0.0
 30
0.0
  3
*D9
  1

  0
LINE
  5
957
330
864
100
AcDbEntity
  8
BEM
 62
     0
370
    -2
100
AcDbLine
 10
293.4999999999998
 20
242.4343468871835
 30
0.0
 11
312.5401079952964
 21
242.4343468871835
 31
0.0
  0
LINE
  5
958
330
864
100
AcDbEntity
  8
BEM
 62
     0
370
    -2
100
AcDbLine
 10
277.3077303668791
 20
142.4343468871835
 30
0.0
 11
312.5401079952964
 21
142.4343468871835
 31
0.0
  0
LINE
  5
959
330
864
100
AcDbEntity
  8
BEM
 62
     0
370
    -2
100
AcDbLine
 10
310.5401079952964
 20
235.4343468871834
 30
0.0
 11
310.5401079952964
 21
149.4343468871835
 31
0.0
  0
SOLID
  5
95A
330
864
100
AcDbEntity
  8
BEM
 62
     0
100
AcDbTrace
 10
309.3734413286297
 20
235.4343468871834
 30
0.0
 11
311.7067746619631
 21
235.4343468871834
 31
0.0
 12
310.5401079952964
 22
242.4343468871835
 32
0.0
 13
310.5401079952964
 23
242.4343468871835
 33
0.0
  0
SOLID
  5
95B
330
864
100
AcDbEntity
  8
BEM
 62
     0
100
AcDbTrace
 10
309.3734413286297
 20
149.4343468871835
 30
0.0
 11
311.7067746619631
 21
149.4343468871835
 31
0.0
 12
310.5401079952964
 22
142.4343468871835
 32
0.0
 13
310.5401079952964
 23
142.4343468871835
 33
0.0
  0
MTEXT
  5
95C
330
864
100
AcDbEntity
  8
BEM
 62
     1
100
AcDbMText
 10
304.0401079952963
 20
192.4343468871835
 30
0.0
 40
7.0
 41
0.0
 71
     5
 72
     1
  1
\A1;100
 11
0.0000000000000001
 21
1.0
 31
0.0
 73
     1
 44
1.0
  0
POINT
  5
95D
330
864
100
AcDbEntity
  8
DEFPOINTS
 62
     0
100
AcDbPoint
 10
291.4999999999998
 20
242.4343468871835
 30
0.0
  0
POINT
  5
95E
330
864
100
AcDbEntity
  8
DEFPOINTS
 62
     0
100
AcDbPoint
 10
275.3077303668791
 20
142.4343468871835
 30
0.0
  0
POINT
  5
95F
330
864
100
AcDbEntity
  8
DEFPOINTS
 62
     0
100
AcDbPoint
 10
310.5401079952964
 20
142.4343468871835
 30
0.0
  0
ENDBLK
  5
86F
330
864
100
AcDbEntity
  8
0
100
AcDbBlockEnd
  0
ENDSEC
  0
SECTION
  2
ENTITIES
  0
LINE
  5
57
330
1E
100
AcDbEntity
  8
STEMPEL
100
AcDbLine
 10
410.0
 20
110.0
 30
0.0
 11
39.99999999999997
 21
110.0
 31
0.0
  0
LINE
  5
58
330
1E
100
AcDbEntity
  8
STEMPEL
100
AcDbLine
 10
136.0000000000001
 20
109.9999999999999
 30
0.0
 11
136.0
 21
9.999999999999971
 31
0.0
  0
LINE
  5
59
330
1E
100
AcDbEntity
  8
STEMPEL
100
AcDbLine
 10
220.0
 20
110.0
 30
0.0
 11
220.0
 21
9.999999999999971
 31
0.0
  0
LINE
  5
5A
330
1E
100
AcDbEntity
  8
STEMPEL
100
AcDbLine
 10
332.0
 20
109.9999999999997
 30
0.0
 11
332.0
 21
40.0
 31
0.0
  0
LINE
  5
5B
330
1E
100
AcDbEntity
  8
STEMPEL
100
AcDbLine
 10
135.9999999999999
 20
29.99999999999997
 30
0.0
 11
39.99999999999997
 21
29.99999999999997
 31
0.0
  0
LINE
  5
5C
330
1E
100
AcDbEntity
  8
STEMPEL
100
AcDbLine
 10
410.0
 20
40.0
 30
0.0
 11
136.0000000000001
 21
39.99999999999997
 31
0.0
  0
LINE
  5
5D
330
1E
100
AcDbEntity
  8
STEMPEL
100
AcDbLine
 10
410.0
 20
80.0
 30
0.0
 11
136.0000000000001
 21
79.99999999999994
 31
0.0
  0
LINE
  5
5E
330
1E
100
AcDbEntity
  8
VOLL
100
AcDbLine
 10
54.00000000000009
 20
110.0
 30
0.0
 11
53.99999999999997
 21
9.999999999999971
 31
0.0
  0
LINE
  5
5F
330
1E
100
AcDbEntity
  8
VOLL
100
AcDbLine
 10
94.00000000000011
 20
109.9999999999999
 30
0.0
 11
94.0
 21
9.999999999999971
 31
0.0
  0
LINE
  5
60
330
1E
100
AcDbEntity
  8
VOLL
100
AcDbLine
 10
114.0000000000001
 20
109.9999999999999
 30
0.0
 11
114.0
 21
9.999999999999971
 31
0.0
  0
LINE
  5
61
330
1E
100
AcDbEntity
  8
VOLL
100
AcDbLine
 10
154.0000000000001
 20
79.99999999999994
 30
0.0
 11
154.0000000000001
 21
39.99999999999997
 31
0.0
  0
LINE
  5
62
330
1E
100
AcDbEntity
  8
VOLL
100
AcDbLine
 10
180.0000000000001
 20
109.9999999999998
 30
0.0
 11
180.0
 21
39.99999999999997
 31
0.0
  0
LINE
  5
63
330
1E
100
AcDbEntity
  8
HILF
100
AcDbLine
 10
40.00000000000008
 20
100.0
 30
0.0
 11
136.0000000000001
 21
100.0
 31
0.0
  0
LINE
  5
64
330
1E
100
AcDbEntity
  8
HILF
100
AcDbLine
 10
40.00000000000008
 20
90.00000000000005
 30
0.0
 11
136.0000000000001
 21
90.00000000000005
 31
0.0
  0
LINE
  5
65
330
1E
100
AcDbEntity
  8
HILF
100
AcDbLine
 10
40.00000000000008
 20
79.99999999999994
 30
0.0
 11
136.0000000000001
 21
79.99999999999994
 31
0.0
  0
LINE
  5
66
330
1E
100
AcDbEntity
  8
HILF
100
AcDbLine
 10
40.00000000000008
 20
69.99999999999994
 30
0.0
 11
136.0000000000001
 21
69.99999999999994
 31
0.0
  0
LINE
  5
67
330
1E
100
AcDbEntity
  8
HILF
100
AcDbLine
 10
40.00000000000008
 20
59.99999999999997
 30
0.0
 11
136.0000000000001
 21
59.99999999999997
 31
0.0
  0
LINE
  5
68
330
1E
100
AcDbEntity
  8
HILF
100
AcDbLine
 10
40.00000000000008
 20
49.99999999999997
 30
0.0
 11
136.0000000000001
 21
49.99999999999997
 31
0.0
  0
LINE
  5
69
330
1E
100
AcDbEntity
  8
HILF
100
AcDbLine
 10
40.00000000000008
 20
39.99999999999997
 30
0.0
 11
136.0000000000001
 21
39.99999999999997
 31
0.0
  0
LINE
  5
6A
330
1E
100
AcDbEntity
  8
HILF
100
AcDbLine
 10
136.0000000000001
 20
69.99999999999994
 30
0.0
 11
220.0
 21
69.99999999999994
 31
0.0
  0
LINE
  5
6B
330
1E
100
AcDbEntity
  8
HILF
100
AcDbLine
 10
136.0000000000001
 20
59.99999999999997
 30
0.0
 11
220.0
 21
59.99999999999997
 31
0.0
  0
LINE
  5
6C
330
1E
100
AcDbEntity
  8
HILF
100
AcDbLine
 10
136.0000000000001
 20
49.99999999999997
 30
0.0
 11
220.0
 21
49.99999999999997
 31
0.0
  0
LINE
  5
6D
330
1E
100
AcDbEntity
  8
HILF
100
AcDbLine
 10
224.7736801096948
 20
84.03758247564139
 30
0.0
 11
324.8353916556311
 21
84.03758247564139
 31
0.0
  0
LINE
  5
6E
330
1E
100
AcDbEntity
  8
HILF
100
AcDbLine
 10
224.7736801096948
 20
69.99999999999994
 30
0.0
 11
324.835391655631
 21
69.99999999999994
 31
0.0
  0
LINE
  5
6F
330
1E
100
AcDbEntity
  8
HILF
100
AcDbLine
 10
224.7736801096948
 20
59.99999999999997
 30
0.0
 11
324.835391655631
 21
59.99999999999997
 31
0.0
  0
LINE
  5
70
330
1E
100
AcDbEntity
  8
HILF
100
AcDbLine
 10
224.7736801096948
 20
49.99999999999997
 30
0.0
 11
324.835391655631
 21
49.99999999999997
 31
0.0
  0
LINE
  5
71
330
1E
100
AcDbEntity
  8
VOLL
100
AcDbLine
 10
332.0
 20
60.0
 30
0.0
 11
410.0
 21
60.0
 31
0.0
  0
LINE
  5
72
330
1E
100
AcDbEntity
  8
HILF
100
AcDbLine
 10
336.7238616296993
 20
83.77983636955827
 30
0.0
 11
404.8588839326728
 21
83.77983636955827
 31
0.0
  0
LINE
  5
73
330
1E
100
AcDbEntity
  8
HILF
100
AcDbLine
 10
223.4909699289885
 20
14.89398258028314
 30
0.0
 11
404.8588839326728
 21
14.89398258028314
 31
0.0
  0
TEXT
  5
74
330
1E
100
AcDbEntity
  8
TEXT
100
AcDbText
 10
63.86165979631819
 20
18.67381894984132
 30
0.0
 40
4.0
  1
Änderung
 41
0.8
  7
GREEKS
 72
     1
 11
74.60451693917534
 21
18.67381894984132
 31
0.0
100
AcDbText
  0
TEXT
  5
75
330
1E
100
AcDbEntity
  8
TEXT
100
AcDbText
 10
143.5163572150377
 20
102.4620895087088
 30
0.0
 40
5.0
  1
Maßstab
 41
0.8
  7
GREEKS
100
AcDbText
  0
TEXT
  5
76
330
1E
100
AcDbEntity
  8
TEXT
100
AcDbText
 10
184.2858954734051
 20
102.4184168434819
 30
0.0
 40
5.0
  1
Zul. Abw.
 41
0.8
  7
GREEKS
100
AcDbText
  0
TEXT
  5
77
330
1E
100
AcDbEntity
  8
TEXT
100
AcDbText
 10
224.877940380901
 20
102.5489328011779
 30
0.0
 40
5.0
  1
Benennung
 41
0.8
  7
GREEKS
100
AcDbText
  0
TEXT
  5
78
330
1E
100
AcDbEntity
  8
TEXT
100
AcDbText
 10
336.178754957634
 20
102.3132034537136
 30
0.0
 40
5.0
  1
Zeichnungs Nr.
 41
0.8
  7
GREEKS
100
AcDbText
  0
TEXT
  5
79
330
1E
100
AcDbEntity
  8
TEXT
100
AcDbText
 10
224.742238391136
 20
30.84560570193057
 30
0.0
 40
5.0
  1
Bauvorhaben
 41
0.8
  7
GREEKS
100
AcDbText
  0
TEXT
  5
7A
330
1E
100
AcDbEntity
  8
TEXT
100
AcDbText
 10
336.7238616296993
 20
73.1811823709997
 30
0.0
 40
5.0
  1
Ersatz für:
 41
0.8
  7
GREEKS
100
AcDbText
  0
TEXT
  5
7B
330
1E
100
AcDbEntity
  8
TEXT
100
AcDbText
 10
48.26641107045756
 20
13.65465846027192
 30
0.0
 40
4.0
  1
Index
 50
90.0
 41
0.8
  7
GREEKS
100
AcDbText
  0
TEXT
  5
7C
330
1E
100
AcDbEntity
  8
TEXT
100
AcDbText
 10
100.0934676075481
 20
18.6715626933981
 30
0.0
 40
4.0
  1
Tag
 41
0.8
  7
GREEKS
 72
     1
 11
103.8268009408814
 21
18.6715626933981
 31
0.0
100
AcDbText
  0
TEXT
  5
7D
330
1E
100
AcDbEntity
  8
TEXT
100
AcDbText
 10
119.0122744386592
 20
18.59324216966408
 30
0.0
 40
4.0
  1
Name
 41
0.8
  7
GREEKS
 72
     1
 11
125.3360839624688
 21
18.59324216966408
 31
0.0
100
AcDbText
  0
TEXT
  5
7E
330
1E
100
AcDbEntity
  8
TEXT
100
AcDbText
 10
162.3311673153651
 20
73.31880501229926
 30
0.0
 40
4.0
  1
Tag
 41
0.8
  7
GREEKS
100
AcDbText
  0
TEXT
  5
7F
330
1E
100
AcDbEntity
  8
TEXT
100
AcDbText
 10
192.4626584226295
 20
73.30961091915225
 30
0.0
 40
4.0
  1
Name
 41
0.8
  7
GREEKS
100
AcDbText
  0
TEXT
  5
80
330
1E
100
AcDbEntity
  8
TEXT
100
AcDbText
 10
137.5836127167615
 20
63.62990369617964
 30
0.0
 40
4.0
  1
Gez.
 41
0.8
  7
GREEKS
100
AcDbText
  0
TEXT
  5
81
330
1E
100
AcDbEntity
  8
TEXT
100
AcDbText
 10
137.5515086571672
 20
53.68926291428377
 30
0.0
 40
4.0
  1
Gepr.
 41
0.8
  7
GREEKS
100
AcDbText
  0
TEXT
  5
82
330
1E
100
AcDbEntity
  8
TEXT
100
AcDbText
 10
137.6006777387304
 20
43.52946389649807
 30
0.0
 40
4.0
  1
Norm.
 41
0.8
  7
GREEKS
100
AcDbText
  0
LINE
  5
83
330
1E
100
AcDbEntity
  8
STEMPEL
100
AcDbLine
 10
49.99999999999989
 20
10.0
 30
0.0
 11
410.0
 21
10.0
 31
0.0
  0
TEXT
  5
84
330
1E
100
AcDbEntity
  8
TEXT
100
AcDbText
 10
337.2400861497006
 20
52.07416177878602
 30
0.0
 40
5.0
  1
ersetzt durch:
 41
0.8
  7
GREEKS
100
AcDbText
  0
LINE
  5
85
330
1E
100
AcDbEntity
  8
STEMPEL
100
AcDbLine
 10
410.0
 20
10.0
 30
0.0
 11
39.99999999999989
 21
10.0
 31
0.0
  0
LINE
  5
86
330
1E
100
AcDbEntity
  8
STEMPEL
100
AcDbLine
 10
410.0
 20
10.0
 30
0.0
 11
410.0
 21
584.0
 31
0.0
  0
LINE
  5
87
330
1E
100
AcDbEntity
  8
STEMPEL
100
AcDbLine
 10
40.0
 20
10.0
 30
0.0
 11
39.99999999999989
 21
584.0
 31
0.0
  0
LINE
  5
88
330
1E
100
AcDbEntity
  8
STEMPEL
100
AcDbLine
 10
410.0
 20
584.0
 30
0.0
 11
39.99999999999989
 21
584.0
 31
0.0
  0
LINE
  5
89
330
1E
100
AcDbEntity
  8
HILF
100
AcDbLine
 10
0.0
 20
0.0
 30
0.0
 11
-0.0000000000001137
 21
594.0
 31
0.0
  0
LINE
  5
8A
330
1E
100
AcDbEntity
  8
HILF
100
AcDbLine
 10
419.9999999999999
 20
594.0000000000002
 30
0.0
 11
0.0
 21
594.0
 31
0.0
  0
LINE
  5
8B
330
1E
100
AcDbEntity
  8
HILF
100
AcDbLine
 10
420.0
 20
0.0
 30
0.0
 11
0.0
 21
0.0
 31
0.0
  0
LINE
  5
8C
330
1E
100
AcDbEntity
  8
HILF
100
AcDbLine
 10
31.08767135713856
 20
297.0
 30
0.0
 11
0.0000000000001137
 21
297.0
 31
0.0
  0
LINE
  5
8E
330
1E
100
AcDbEntity
  8
HILF
100
AcDbLine
 10
420.0
 20
-0.0000000000001137
 30
0.0
 11
419.9999999999999
 21
594.0
 31
0.0
  0
TEXT
  5
8F
330
1E
100
AcDbEntity
  8
VOLL
100
AcDbText
 10
78.07675471698113
 20
31.02594776470585
 30
0.0
 40
1.8
  1

  7
GREEKS
100
AcDbText
  0
TEXT
  5
90
330
1E
100
AcDbEntity
  8
TEXT
100
AcDbText
 10
41.85509950977674
 20
111.6719999999999
 30
0.0
 40
5.0
  1
Erstellt mit AUTOCAD 2004
 41
0.8
  7
GREEKS
100
AcDbText
  0
TEXT
  5
91
330
1E
100
AcDbEntity
  8
TEXT
100
AcDbText
 10
194.4216048581257
 20
63.0896391972351
 30
0.0
 40
4.0
  1
Koeh
 41
0.8
  7
GREEKS
 72
     1
 11
199.6787477152685
 21
63.0896391972351
 31
0.0
100
AcDbText
  0
TEXT
  5
92
330
1E
100
AcDbEntity
  8
TEXT
 62
     1
100
AcDbText
 10
346.6730794123524
 20
88.14901428913959
 30
0.0
 40
7.0
  1
58007100W
 41
0.8
  7
GREEKS
 72
     1
 11
370.1397460790191
 21
88.14901428913959
 31
0.0
100
AcDbText
  0
TEXT
  5
93
330
1E
100
AcDbEntity
  8
TEXT
 62
     1
100
AcDbText
 10
150.5006306481887
 20
88.14901428913959
 30
0.0
 40
7.0
  1
1:2
 41
0.8
  7
GREEKS
100
AcDbText
  0
TEXT
  5
95
330
1E
100
AcDbEntity
  8
TEXT
 62
     1
100
AcDbText
 10
226.8935731057402
 20
87.41748789253779
 30
0.0
 40
7.0
  1
Verbundrohr DN100
 41
0.8
  7
GREEKS
100
AcDbText
  0
TEXT
  5
96
330
1E
100
AcDbEntity
  8
TEXT
100
AcDbText
 10
225.1296391125315
 20
71.50334417585288
 30
0.0
 40
5.0
  1
1500mm lang
 41
0.8
  7
GREEKS
100
AcDbText
  0
TEXT
  5
98
330
1E
100
AcDbEntity
  8
TEXT
100
AcDbText
 10
225.1296391125315
 20
51.64011943042158
 30
0.0
 40
5.0
  1
EDV-Art.Nr. 58007.100X
 41
0.8
  7
GREEKS
100
AcDbText
  0
TEXT
  5
99
330
1E
100
AcDbEntity
  8
TEXT
100
AcDbText
 10
224.9837501577827
 20
42.62974153022632
 30
0.0
 40
4.0
  1
58007100W.DWG
 41
0.8
  7
GREEKS
100
AcDbText
  0
TEXT
  5
9A
330
1E
100
AcDbEntity
  8
TEXT
100
AcDbText
 10
182.626132208084
 20
90.76363841023022
 30
0.0
 40
4.0
  1
DIN EN1123-2
 41
0.8
  7
GREEKS
 72
     1
 11
199.6166083985602
 21
90.76363841023022
 31
0.0
100
AcDbText
  0
INSERT
  5
9B
330
1E
100
AcDbEntity
  8
STEMPEL
100
AcDbBlockReference
  2
LOGO
 10
140.9955485457794
 20
45.02105276448322
 30
0.0
 41
2.0
 42
2.0
 43
2.0
  0
TEXT
  5
118
330
1E
100
AcDbEntity
  8
TEXT
100
AcDbText
 10
417.3022923857165
 20
10.16790107998849
 30
0.0
 40
4.0
  1
Diese Zeichnung ist urheberrechtlich geschützt und bleibt unser Eigentum. Sie darf weder ganz noch teilweise verfielfältigt und nicht an Dritte weitergegeben werden.
 50
90.0
 41
0.8
  7
GREEKS
100
AcDbText
  0
TEXT
  5
3D8
330
1E
100
AcDbEntity
  8
TEXT
 62
     1
100
AcDbText
 10
63.2329185995028
 20
147.7313430069686
 30
0.0
 40
7.0
  1
Außenrohr: E195 EN10305 feuerverzinkt
 50
90.0
 41
0.8
  7
GREEKS
100
AcDbText
  0
TEXT
  5
3D9
330
1E
100
AcDbEntity
  8
TEXT
 62
     1
100
AcDbText
 10
74.58598663585781
 20
151.5035603778326
 30
0.0
 40
7.0
  1
Innenrohr: E195 EN10305 feuerverzinkt
 50
90.0
 41
0.8
  7
GREEKS
100
AcDbText
  0
TEXT
  5
3DA
330
1E
100
AcDbEntity
  8
TEXT
 62
     1
100
AcDbText
 10
98.44987586046563
 20
144.0091497331355
 30
0.0
 40
7.0
  1
Dämmung: 2 K-PU-Schaum
 50
90.0
 41
0.8
  7
GREEKS
100
AcDbText
  0
TEXT
  5
3DB
330
1E
100
AcDbEntity
  8
TEXT
 62
     1
100
AcDbText
 10
85.85504047508356
 20
199.1580892538464
 30
0.0
 40
7.0
  1
und innenbeschichtet
 50
90.0
 41
0.8
  7
GREEKS
100
AcDbText
  0
TEXT
  5
477
330
1E
100
AcDbEntity
  8
TEXT
 62
     1
100
AcDbText
 10
370.1397460790191
 20
62.93308771210013
 30
0.0
 40
7.0
  1

 41
0.8
  7
GREEKS
 72
     1
 11
370.1397460790191
 21
62.93308771210013
 31
0.0
100
AcDbText
  0
TEXT
  5
478
330
1E
100
AcDbEntity
  8
TEXT
 62
     1
100
AcDbText
 10
215.8910492387708
 20
454.3430040949056
 30
0.0
 40
7.0
  1
DN100
 50
90.0
 41
0.8
  7
GREEKS
100
AcDbText
  0
LINE
  5
54F
330
1E
100
AcDbEntity
  8
HILF
100
AcDbLine
 10
177.6320397104758
 20
494.3491934904131
 30
0.0
 11
272.367960289524
 21
494.3491934904131
 31
0.0
  0
LINE
  5
550
330
1E
100
AcDbEntity
  8
HILF
100
AcDbLine
 10
275.3103999838067
 20
500.5283449041037
 30
0.0
 11
174.6896000161929
 21
500.5283449041037
 31
0.0
  0
LINE
  5
551
330
1E
100
AcDbEntity
  8
HILF
100
AcDbLine
 10
173.6614013950781
 20
523.2085653194572
 30
0.0
 11
276.3385986049217
 21
523.2085653194572
 31
0.0
  0
LINE
  5
554
330
1E
100
AcDbEntity
  8
HILF
100
AcDbLine
 10
178.0076396750864
 20
150.4343468871835
 30
0.0
 11
271.992360324913
 21
150.4343468871834
 31
0.0
  0
LINE
  5
555
102
{ACAD_REACTORS
330
9E9
102
}
330
1E
100
AcDbEntity
  8
STEMPEL
100
AcDbLine
 10
174.6922696331203
 20
142.4343468871835
 30
0.0
 11
275.3077303668791
 21
142.4343468871835
 31
0.0
  0
DIMENSION
  5
556
330
1E
100
AcDbEntity
  8
BEM
100
AcDbDimension
  2
*D1
 10
275.9999999999997
 20
122.2908509846387
 30
0.0
 11
224.9999999999998
 21
128.7908509846387
 31
0.0
 70
    32
  1
%%c<>
 71
     5
 42
101.9999999999999
  3
Standard
100
AcDbAlignedDimension
 13
173.9999999999998
 23
150.3470250013641
 33
0.0
 14
275.9999999999997
 24
150.347025001364
 34
0.0
100
AcDbRotatedDimension
1001
ACAD
1000
DSTYLE
1002
{
1070
    40
1040
2.0
1070
    41
1040
3.5
1070
    42
1040
1.0
1070
    43
1040
7.0
1070
    44
1040
1.0
1070
    73
1070
     0
1070
    74
1070
     0
1070
    77
1070
     1
1070
    78
1070
     8
1070
    79
1070
     2
1070
   140
1040
3.5
1070
   141
1040
1.5
1070
   146
1040
0.5142857142857144
1070
   147
1040
1.5
1070
   172
1070
     1
1070
   178
1070
     1
1070
   179
1070
     2
1070
   271
1070
     2
1070
   272
1070
     2
1070
   284
1070
     8
1070
   285
1070
     8
1070
   286
1070
     8
1070
   289
1070
     0
1070
   340
1005
24
1002
}
  0
LINE
  5
55D
102
{ACAD_REACTORS
330
A03
102
}
330
1E
100
AcDbEntity
  8
STEMPEL
100
AcDbLine
 10
158.4999999999998
 20
494.4343468871839
 30
0.0
 11
158.4999999999998
 21
368.9522447250116
 31
0.0
  0
LINE
  5
55E
102
{ACAD_REACTORS
330
A03
330
A25
102
}
330
1E
100
AcDbEntity
  8
STEMPEL
100
AcDbLine
 10
160.9999999999998
 20
492.4343468871835
 30
0.0
 11
160.9999999999997
 21
369.6083170387599
 31
0.0
  0
LINE
  5
55F
102
{ACAD_REACTORS
330
9E9
102
}
330
1E
100
AcDbEntity
  8
STEMPEL
100
AcDbLine
 10
175.9999999999999
 20
491.4003543673153
 30
0.0
 11
175.9999999999998
 21
373.0580028507333
 31
0.0
  0
LINE
  5
560
102
{ACAD_REACTORS
330
9E9
330
A25
102
}
330
1E
100
AcDbEntity
  8
STEMPEL
100
AcDbLine
 10
173.9999999999999
 20
491.4003543673153
 30
0.0
 11
173.9999999999998
 21
372.7016260152276
 31
0.0
  0
LINE
  5
561
102
{ACAD_REACTORS
330
9E9
102
}
330
1E
100
AcDbEntity
  8
STEMPEL
100
AcDbLine
 10
175.9999999999997
 20
150.4343468871835
 30
0.0
 11
176.6999093082072
 21
142.4343468871835
 31
0.0
  0
LINE
  5
562
102
{ACAD_REACTORS
330
9E9
102
}
330
1E
100
AcDbEntity
  8
STEMPEL
100
AcDbLine
 10
173.9999999999998
 20
150.3470250013641
 30
0.0
 11
174.6922696331203
 21
142.4343468871835
 31
0.0
  0
LINE
  5
564
102
{ACAD_REACTORS
330
A03
102
}
330
1E
100
AcDbEntity
  8
STEMPEL
100
AcDbLine
 10
158.4999999999998
 20
242.4343468871835
 30
0.0
 11
160.9999999999997
 21
242.4343468871835
 31
0.0
  0
LINE
  5
566
330
1E
100
AcDbEntity
  8
STEMPEL
100
AcDbLine
 10
173.9999999999997
 20
248.4343468871835
 30
0.0
 11
168.9999999999997
 21
248.4343468871835
 31
0.0
  0
LINE
  5
567
102
{ACAD_REACTORS
330
A25
102
}
330
1E
100
AcDbEntity
  8
STEMPEL
100
AcDbLine
 10
173.9999999999997
 20
259.9343468871834
 30
0.0
 11
162.4999999999998
 21
259.9343468871835
 31
0.0
  0
LINE
  5
568
102
{ACAD_REACTORS
330
A25
102
}
330
1E
100
AcDbEntity
  8
STEMPEL
100
AcDbLine
 10
160.9999999999997
 20
258.4343468871835
 30
0.0
 11
162.4999999999998
 21
259.9343468871835
 31
0.0
  0
ARC
  5
569
102
{ACAD_REACTORS
330
9E9
102
}
330
1E
100
AcDbEntity
  8
STEMPEL
100
AcDbCircle
 10
190.9999999999998
 20
536.667547417865
 30
0.0
 40
25.0
100
AcDbArc
 50
180.0
 51
206.8880476177246
  0
ARC
  5
56A
102
{ACAD_REACTORS
330
9E9
102
}
330
1E
100
AcDbEntity
  8
STEMPEL
100
AcDbCircle
 10
190.9999999999999
 20
536.6673468871835
 30
0.0
 40
23.0
100
AcDbArc
 50
180.0
 51
206.7887981052072
  0
LINE
  5
56B
102
{ACAD_REACTORS
330
9E9
102
}
330
1E
100
AcDbEntity
  8
STEMPEL
100
AcDbLine
 10
171.9999999999999
 20
519.9343468871834
 30
0.0
 11
171.9999999999999
 21
504.3618357641309
 31
0.0
  0
LINE
  5
56C
102
{ACAD_REACTORS
330
9E9
102
}
330
1E
100
AcDbEntity
  8
STEMPEL
100
AcDbLine
 10
169.9999999999999
 20
519.9343468871834
 30
0.0
 11
169.9999999999999
 21
504.3618357641309
 31
0.0
  0
ARC
  5
56D
102
{ACAD_REACTORS
330
9E9
102
}
330
1E
100
AcDbEntity
  8
STEMPEL
100
AcDbCircle
 10
165.9999999999999
 20
491.4003543673153
 30
0.0
 40
10.0
100
AcDbArc
 50
0.0
 51
34.3011527567924
  0
ARC
  5
56E
102
{ACAD_REACTORS
330
9E9
102
}
330
1E
100
AcDbEntity
  8
STEMPEL
100
AcDbCircle
 10
165.9999999999999
 20
491.4003543673153
 30
0.0
 40
8.0
100
AcDbArc
 50
0.0
 51
34.3011527567924
  0
ARC
  5
56F
102
{ACAD_REACTORS
330
9E9
102
}
330
1E
100
AcDbEntity
  8
STEMPEL
100
AcDbCircle
 10
184.9999999999999
 20
504.3618357641309
 30
0.0
 40
13.0
100
AcDbArc
 50
180.0
 51
214.3011527567924
  0
ARC
  5
570
102
{ACAD_REACTORS
330
9E9
102
}
330
1E
100
AcDbEntity
  8
STEMPEL
100
AcDbCircle
 10
184.9999999999999
 20
504.3618357641309
 30
0.0
 40
15.0
100
AcDbArc
 50
180.0
 51
214.3011527567924
  0
ARC
  5
571
102
{ACAD_REACTORS
330
9E9
102
}
330
1E
100
AcDbEntity
  8
STEMPEL
100
AcDbCircle
 10
157.9999999999999
 20
519.9343468871834
 30
0.0
 40
12.0
100
AcDbArc
 50
0.0
 51
26.88804761772463
  0
ARC
  5
572
102
{ACAD_REACTORS
330
9E9
102
}
330
1E
100
AcDbEntity
  8
STEMPEL
100
AcDbCircle
 10
157.9999999999999
 20
519.9343468871834
 30
0.0
 40
14.0
100
AcDbArc
 50
0.0
 51
27.05036856337947
  0
LINE
  5
574
102
{ACAD_REACTORS
330
9E9
102
}
330
1E
100
AcDbEntity
  8
STEMPEL
100
AcDbLine
 10
167.9999999999999
 20
554.8295954246123
 30
0.0
 11
167.9999999999999
 21
536.6673468871835
 31
0.0
  0
LINE
  5
575
102
{ACAD_REACTORS
330
9E9
102
}
330
1E
100
AcDbEntity
  8
STEMPEL
100
AcDbLine
 10
165.9999999999999
 20
554.8295954246123
 30
0.0
 11
165.9999999999999
 21
536.667547417865
 31
0.0
  0
LINE
  5
576
102
{ACAD_REACTORS
330
9E9
102
}
330
1E
100
AcDbEntity
  8
STEMPEL
100
AcDbLine
 10
169.2932441620748
 20
567.4343468871835
 30
0.0
 11
168.3423053240835
 21
565.3950519681298
 31
0.0
  0
ARC
  5
577
102
{ACAD_REACTORS
330
9E9
102
}
330
1E
100
AcDbEntity
  8
STEMPEL
100
AcDbCircle
 10
190.9999999999998
 20
554.8295954246123
 30
0.0
 40
23.0
100
AcDbArc
 50
155.0000000000079
 51
180.0
  0
ARC
  5
578
102
{ACAD_REACTORS
330
9E9
102
}
330
1E
100
AcDbEntity
  8
STEMPEL
100
AcDbCircle
 10
190.9999999999998
 20
554.8295954246123
 30
0.0
 40
25.0
100
AcDbArc
 50
155.0000000000079
 51
180.0
  0
LINE
  5
57A
102
{ACAD_REACTORS
330
9E9
102
}
330
1E
100
AcDbEntity
  8
STEMPEL
100
AcDbLine
 10
171.4999999999999
 20
567.4343468871835
 30
0.0
 11
170.1549208981569
 21
564.5498154446483
 31
0.0
  0
LINE
  5
57B
102
{ACAD_REACTORS
330
A03
102
}
330
1E
100
AcDbEntity
  8
STEMPEL
100
AcDbLine
 10
291.5
 20
494.4343468871833
 30
0.0
 11
291.4999999999999
 21
368.9522447250116
 31
0.0
  0
LINE
  5
57C
102
{ACAD_REACTORS
330
A03
330
A25
102
}
330
1E
100
AcDbEntity
  8
STEMPEL
100
AcDbLine
 10
289.0
 20
492.4343468871834
 30
0.0
 11
288.9999999999999
 21
368.2961724112632
 31
0.0
  0
DIMENSION
  5
57D
330
1E
100
AcDbEntity
  8
BEM
100
AcDbDimension
  2
*D3
 10
310.5401079952964
 20
242.4343468871835
 30
0.0
 11
304.0401079952963
 21
367.4343468871835
 31
0.0
 70
    32
  1
1500
 71
     5
 42
250.0
  3
Standard
100
AcDbAlignedDimension
 13
291.5
 23
492.4343468871834
 33
0.0
 14
291.4999999999998
 24
242.4343468871835
 34
0.0
 50
90.0
100
AcDbRotatedDimension
1001
ACAD
1000
DSTYLE
1002
{
1070
    40
1040
2.0
1070
    41
1040
3.5
1070
    42
1040
1.0
1070
    43
1040
7.0
1070
    44
1040
1.0
1070
    73
1070
     0
1070
    74
1070
     0
1070
    77
1070
     1
1070
    78
1070
     8
1070
    79
1070
     2
1070
   140
1040
3.5
1070
   141
1040
1.5
1070
   146
1040
0.5142857142857144
1070
   147
1040
1.5
1070
   172
1070
     1
1070
   178
1070
     1
1070
   179
1070
     2
1070
   271
1070
     2
1070
   272
1070
     2
1070
   284
1070
     8
1070
   285
1070
     8
1070
   286
1070
     8
1070
   289
1070
     0
1070
   340
1005
24
1002
}
  0
LINE
  5
57E
330
1E
100
AcDbEntity
  8
MITTEL
100
AcDbLine
 10
225.0
 20
572.4343468871835
 30
0.0
 11
224.9999999999997
 21
214.8344021756498
 31
0.0
  0
LINE
  5
57F
102
{ACAD_REACTORS
330
9E9
102
}
330
1E
100
AcDbEntity
  8
STEMPEL
100
AcDbLine
 10
273.9999999999997
 20
491.4003543673152
 30
0.0
 11
273.9999999999997
 21
364.8464865992897
 31
0.0
  0
LINE
  5
580
102
{ACAD_REACTORS
330
9E9
330
A25
102
}
330
1E
100
AcDbEntity
  8
STEMPEL
100
AcDbLine
 10
275.9999999999997
 20
491.4003543673152
 30
0.0
 11
275.9999999999997
 21
365.2028634347954
 31
0.0
  0
DIMENSION
  5
581
330
1E
100
AcDbEntity
  8
BEM
100
AcDbDimension
  2
*D4
 10
327.7176721458205
 20
142.4343468871834
 30
0.0
 11
321.2176721458204
 21
317.4343468871835
 31
0.0
 70
    32
  1
1600
 71
     5
 42
350.0
  3
Standard
100
AcDbAlignedDimension
 13
291.5
 23
492.4343468871835
 33
0.0
 14
275.3077303668791
 24
142.4343468871835
 34
0.0
 50
90.0
100
AcDbRotatedDimension
1001
ACAD
1000
DSTYLE
1002
{
1070
    40
1040
2.0
1070
    41
1040
3.5
1070
    42
1040
1.0
1070
    43
1040
7.0
1070
    44
1040
1.0
1070
    73
1070
     0
1070
    74
1070
     0
1070
    77
1070
     1
1070
    78
1070
     8
1070
    79
1070
     2
1070
   140
1040
3.5
1070
   141
1040
1.5
1070
   146
1040
0.5142857142857144
1070
   147
1040
1.5
1070
   172
1070
     1
1070
   178
1070
     1
1070
   179
1070
     2
1070
   271
1070
     2
1070
   272
1070
     2
1070
   284
1070
     8
1070
   285
1070
     8
1070
   286
1070
     8
1070
   289
1070
     0
1070
   340
1005
24
1002
}
  0
LINE
  5
582
102
{ACAD_REACTORS
330
9E9
102
}
330
1E
100
AcDbEntity
  8
STEMPEL
100
AcDbLine
 10
275.9999999999997
 20
150.347025001364
 30
0.0
 11
275.3077303668792
 21
142.4343468871834
 31
0.0
  0
LINE
  5
583
102
{ACAD_REACTORS
330
9E9
102
}
330
1E
100
AcDbEntity
  8
STEMPEL
100
AcDbLine
 10
273.9999999999997
 20
150.4343468871834
 30
0.0
 11
273.3000906917924
 21
142.4343468871834
 31
0.0
  0
LINE
  5
584
102
{ACAD_REACTORS
330
A03
102
}
330
1E
100
AcDbEntity
  8
STEMPEL
100
AcDbLine
 10
291.4999999999997
 20
242.4343468871835
 30
0.0
 11
288.9999999999998
 21
242.4343468871835
 31
0.0
  0
LINE
  5
586
330
1E
100
AcDbEntity
  8
STEMPEL
100
AcDbLine
 10
280.9999999999997
 20
248.4343468871835
 30
0.0
 11
275.9999999999997
 21
248.4343468871835
 31
0.0
  0
LINE
  5
587
102
{ACAD_REACTORS
330
A25
102
}
330
1E
100
AcDbEntity
  8
STEMPEL
100
AcDbLine
 10
287.4999999999996
 20
259.9343468871835
 30
0.0
 11
275.9999999999997
 21
259.9343468871835
 31
0.0
  0
LINE
  5
588
102
{ACAD_REACTORS
330
A25
102
}
330
1E
100
AcDbEntity
  8
STEMPEL
100
AcDbLine
 10
288.9999999999997
 20
258.4343468871835
 30
0.0
 11
287.4999999999996
 21
259.9343468871835
 31
0.0
  0
ARC
  5
589
102
{ACAD_REACTORS
330
9E9
102
}
330
1E
100
AcDbEntity
  8
STEMPEL
100
AcDbCircle
 10
258.9999999999999
 20
536.6673468871835
 30
0.0
 40
23.0
100
AcDbArc
 50
333.2112018947928
 51
0.0
  0
ARC
  5
58A
102
{ACAD_REACTORS
330
9E9
102
}
330
1E
100
AcDbEntity
  8
STEMPEL
100
AcDbCircle
 10
258.9999999999999
 20
536.6675474178649
 30
0.0
 40
25.0
100
AcDbArc
 50
333.1119523822754
 51
0.0
  0
ARC
  5
58B
102
{ACAD_REACTORS
330
9E9
102
}
330
1E
100
AcDbEntity
  8
STEMPEL
100
AcDbCircle
 10
283.9999999999997
 20
491.4003543673152
 30
0.0
 40
10.0
100
AcDbArc
 50
145.6988472432076
 51
180.0
  0
LINE
  5
58C
102
{ACAD_REACTORS
330
9E9
102
}
330
1E
100
AcDbEntity
  8
STEMPEL
100
AcDbLine
 10
277.9999999999999
 20
519.9343468871833
 30
0.0
 11
277.9999999999999
 21
504.3618357641309
 31
0.0
  0
LINE
  5
58D
102
{ACAD_REACTORS
330
9E9
102
}
330
1E
100
AcDbEntity
  8
STEMPEL
100
AcDbLine
 10
279.9999999999999
 20
519.9343468871834
 30
0.0
 11
279.9999999999997
 21
504.3618357641308
 31
0.0
  0
ARC
  5
58E
102
{ACAD_REACTORS
330
9E9
102
}
330
1E
100
AcDbEntity
  8
STEMPEL
100
AcDbCircle
 10
283.9999999999997
 20
491.4003543673152
 30
0.0
 40
8.0
100
AcDbArc
 50
145.6988472432076
 51
180.0
  0
ARC
  5
58F
102
{ACAD_REACTORS
330
9E9
102
}
330
1E
100
AcDbEntity
  8
STEMPEL
100
AcDbCircle
 10
264.9999999999999
 20
504.3618357641309
 30
0.0
 40
15.0
100
AcDbArc
 50
325.6988472432076
 51
0.0
  0
ARC
  5
590
102
{ACAD_REACTORS
330
9E9
102
}
330
1E
100
AcDbEntity
  8
STEMPEL
100
AcDbCircle
 10
264.9999999999999
 20
504.3618357641309
 30
0.0
 40
13.0
100
AcDbArc
 50
325.6988472432076
 51
0.0
  0
ARC
  5
591
102
{ACAD_REACTORS
330
9E9
102
}
330
1E
100
AcDbEntity
  8
STEMPEL
100
AcDbCircle
 10
291.9999999999999
 20
519.9343468871833
 30
0.0
 40
12.0
100
AcDbArc
 50
153.1119523822753
 51
180.0
  0
ARC
  5
592
102
{ACAD_REACTORS
330
9E9
102
}
330
1E
100
AcDbEntity
  8
STEMPEL
100
AcDbCircle
 10
291.9999999999999
 20
519.9343468871833
 30
0.0
 40
14.0
100
AcDbArc
 50
152.9496314366205
 51
180.0
  0
LINE
  5
593
102
{ACAD_REACTORS
330
9E9
102
}
330
1E
100
AcDbEntity
  8
STEMPEL
100
AcDbLine
 10
281.9999999999999
 20
554.8295954246123
 30
0.0
 11
281.9999999999999
 21
536.6673468871834
 31
0.0
  0
LINE
  5
594
102
{ACAD_REACTORS
330
9E9
102
}
330
1E
100
AcDbEntity
  8
STEMPEL
100
AcDbLine
 10
283.9999999999999
 20
554.8295954246123
 30
0.0
 11
283.9999999999999
 21
536.6675474178649
 31
0.0
  0
ARC
  5
595
102
{ACAD_REACTORS
330
9E9
102
}
330
1E
100
AcDbEntity
  8
STEMPEL
100
AcDbCircle
 10
258.9999999999999
 20
554.8295954246123
 30
0.0
 40
25.0
100
AcDbArc
 50
0.0
 51
24.99999999999207
  0
ARC
  5
596
102
{ACAD_REACTORS
330
9E9
102
}
330
1E
100
AcDbEntity
  8
STEMPEL
100
AcDbCircle
 10
258.9999999999999
 20
554.8295954246123
 30
0.0
 40
23.0
100
AcDbArc
 50
0.0
 51
24.99999999999207
  0
LINE
  5
597
102
{ACAD_REACTORS
330
9E9
102
}
330
1E
100
AcDbEntity
  8
STEMPEL
100
AcDbLine
 10
278.5
 20
567.4343468871834
 30
0.0
 11
279.8450791018428
 21
564.5498154446483
 31
0.0
  0
LINE
  5
598
102
{ACAD_REACTORS
330
9E9
102
}
330
1E
100
AcDbEntity
  8
STEMPEL
100
AcDbLine
 10
280.7067558379248
 20
567.4343468871834
 30
0.0
 11
281.6576946759162
 21
565.3950519681297
 31
0.0
  0
TEXT
  5
73F
330
1E
100
AcDbEntity
  8
TEXT
100
AcDbText
 10
138.622109822104
 20
73.14025471151666
 30
0.0
 40
4.0
  1
2011
 41
0.8
  7
GREEKS
100
AcDbText
  0
TEXT
  5
740
330
1E
100
AcDbEntity
  8
TEXT
100
AcDbText
 10
160.7037590129979
 20
63.10765040825732
 30
0.0
 40
4.0
  1
31.03.
 41
0.8
  7
GREEKS
 72
     1
 11
167.4085209177598
 21
63.10765040825732
 31
0.0
100
AcDbText
  0
LINE
  5
74B
330
1E
100
AcDbEntity
  8
STEMPEL
100
AcDbLine
 10
280.9999999999997
 20
248.4343468871835
 30
0.0
 11
285.6188021535169
 21
240.4343468871831
 31
0.0
  0
HATCH
  5
74C
330
1E
100
AcDbEntity
  8
SCHRAFF
100
AcDbHatch
 10
0.0
 20
0.0
 30
0.0
210
0.0
220
0.0
230
1.0
  2
NET
 70
     0
 71
     0
 91
        2
 92
        7
 72
     0
 73
     1
 93
        9
 10
288.9999999999998
 20
258.4343468871833
 10
287.4999999999996
 20
259.9343468871836
 10
275.9999999999998
 20
259.9343468871836
 10
275.9999999999998
 20
248.4343468871835
 10
280.9999999999997
 20
248.4343468871835
 10
285.6188021535169
 20
240.4343468871831
 10
291.5
 20
240.4343468871831
 10
291.5
 20
242.4343468871835
 10
289.0
 20
242.4343468871835
 97
        0
 92
        7
 72
     0
 73
     1
 93
        9
 10
173.9999999999999
 20
259.9343468871834
 10
162.4999999999998
 20
259.9343468871836
 10
160.9999999999997
 20
258.4343468871836
 10
160.9999999999997
 20
242.4343468871834
 10
158.4999999999997
 20
242.4343468871835
 10
158.4999999999997
 20
240.4343468871835
 10
164.3811978464826
 20
240.4343468871835
 10
168.9999999999997
 20
248.4343468871835
 10
173.9999999999998
 20
248.4343468871834
 97
        0
 75
     0
 76
     1
 52
45.0
 41
20.0
 77
     0
 78
     2
 53
45.0
 43
0.0000000000000284
 44
-69.44064717200217
 45
-1.767766952966368
 46
1.767766952966368
 79
     0
 53
135.0
 43
0.0000000000000284
 44
-69.44064717200217
 45
-1.767766952966368
 46
-1.767766952966368
 79
     0
 47
0.1961114262777251
 98
        2
 10
284.7813654002298
 20
253.6322572767376
 10
172.3417287551679
 20
254.8089258154264
  0
LINE
  5
74D
330
1E
100
AcDbEntity
  8
STEMPEL
100
AcDbLine
 10
275.9999999999997
 20
240.4343468871831
 30
0.0
 11
291.5
 21
240.4343468871831
 31
0.0
  0
LINE
  5
74E
330
1E
100
AcDbEntity
  8
STEMPEL
100
AcDbLine
 10
168.9999999999997
 20
248.4343468871835
 30
0.0
 11
164.3811978464826
 21
240.4343468871835
 31
0.0
  0
LINE
  5
74F
330
1E
100
AcDbEntity
  8
STEMPEL
100
AcDbLine
 10
158.4999999999997
 20
240.4343468871835
 30
0.0
 11
173.9999999999998
 21
240.4343468871834
 31
0.0
  0
LINE
  5
76D
330
1E
100
AcDbEntity
  8
STEMPEL
100
AcDbLine
 10
291.5
 20
494.4343468871833
 30
0.0
 11
276.5976429841984
 21
494.4343468871835
 31
0.0
  0
LINE
  5
76E
330
1E
100
AcDbEntity
  8
STEMPEL
100
AcDbLine
 10
280.9999999999998
 20
486.4343468871834
 30
0.0
 11
285.6188021535171
 21
494.4343468871834
 31
0.0
  0
LINE
  5
76F
330
1E
100
AcDbEntity
  8
STEMPEL
100
AcDbLine
 10
173.4023570158011
 20
494.4343468871839
 30
0.0
 11
158.4999999999998
 21
494.4343468871839
 31
0.0
  0
HATCH
  5
770
330
1E
100
AcDbEntity
  8
SCHRAFF
100
AcDbHatch
 10
0.0
 20
0.0
 30
0.0
210
0.0
220
0.0
230
1.0
  2
NET
 70
     0
 71
     0
 91
        2
 92
        7
 72
     0
 73
     1
 93
        9
 10
160.9999999999998
 20
476.4343468871836
 10
162.5
 20
474.9343468871834
 10
173.9999999999998
 20
474.9343468871834
 10
173.9999999999998
 20
486.4343468871835
 10
168.9999999999998
 20
486.4343468871835
 10
164.3811978464826
 20
494.4343468871839
 10
158.4999999999996
 20
494.4343468871839
 10
158.4999999999996
 20
492.4343468871835
 10
160.9999999999996
 20
492.4343468871835
 97
        0
 92
        7
 72
     0
 73
     1
 93
        9
 10
275.9999999999997
 20
474.9343468871835
 10
287.4999999999997
 20
474.9343468871834
 10
288.9999999999998
 20
476.4343468871834
 10
288.9999999999998
 20
492.4343468871835
 10
291.4999999999998
 20
492.4343468871834
 10
291.4999999999998
 20
494.4343468871834
 10
285.6188021535171
 20
494.4343468871834
 10
280.9999999999998
 20
486.4343468871834
 10
275.9999999999997
 20
486.4343468871835
 97
        0
 75
     0
 76
     1
 52
225.0
 41
20.0
 77
     0
 78
     2
 53
225.0
 43
449.9999999999996
 44
804.309340946369
 45
1.767766952966368
 46
-1.767766952966369
 79
     0
 53
315.0
 43
449.9999999999996
 44
804.309340946369
 45
1.767766952966369
 46
1.767766952966368
 79
     0
 47
0.1961114262777251
 98
        2
 10
165.2186345997698
 20
481.2364364976294
 10
277.6582712448317
 20
480.0597679589405
  0
LINE
  5
771
330
1E
100
AcDbEntity
  8
STEMPEL
100
AcDbLine
 10
168.9999999999998
 20
486.4343468871835
 30
0.0
 11
164.3811978464826
 21
494.4343468871839
 31
0.0
  0
LINE
  5
772
102
{ACAD_REACTORS
330
A25
102
}
330
1E
100
AcDbEntity
  8
STEMPEL
100
AcDbLine
 10
160.9999999999998
 20
476.4343468871834
 30
0.0
 11
162.5
 21
474.9343468871835
 31
0.0
  0
LINE
  5
773
102
{ACAD_REACTORS
330
A25
102
}
330
1E
100
AcDbEntity
  8
STEMPEL
100
AcDbLine
 10
162.5
 20
474.9343468871835
 30
0.0
 11
173.9999999999998
 21
474.9343468871835
 31
0.0
  0
LINE
  5
774
330
1E
100
AcDbEntity
  8
STEMPEL
100
AcDbLine
 10
168.9999999999998
 20
486.4343468871835
 30
0.0
 11
173.9999999999998
 21
486.4343468871835
 31
0.0
  0
LINE
  5
775
102
{ACAD_REACTORS
330
A03
102
}
330
1E
100
AcDbEntity
  8
STEMPEL
100
AcDbLine
 10
158.4999999999998
 20
492.4343468871835
 30
0.0
 11
160.9999999999998
 21
492.4343468871835
 31
0.0
  0
LINE
  5
776
102
{ACAD_REACTORS
330
A25
102
}
330
1E
100
AcDbEntity
  8
STEMPEL
100
AcDbLine
 10
288.9999999999998
 20
476.4343468871834
 30
0.0
 11
287.4999999999998
 21
474.9343468871834
 31
0.0
  0
LINE
  5
777
102
{ACAD_REACTORS
330
A25
102
}
330
1E
100
AcDbEntity
  8
STEMPEL
100
AcDbLine
 10
275.9999999999998
 20
474.9343468871835
 30
0.0
 11
287.4999999999998
 21
474.9343468871834
 31
0.0
  0
LINE
  5
778
330
1E
100
AcDbEntity
  8
STEMPEL
100
AcDbLine
 10
275.9999999999998
 20
486.4343468871834
 30
0.0
 11
280.9999999999998
 21
486.4343468871834
 31
0.0
  0
LINE
  5
779
102
{ACAD_REACTORS
330
A03
102
}
330
1E
100
AcDbEntity
  8
STEMPEL
100
AcDbLine
 10
291.4999999999998
 20
492.4343468871834
 30
0.0
 11
288.9999999999998
 21
492.4343468871834
 31
0.0
  0
LINE
  5
7A3
102
{ACAD_REACTORS
330
9E9
102
}
330
1E
100
AcDbEntity
  8
STEMPEL
100
AcDbLine
 10
280.7067558379248
 20
567.4343468871834
 30
0.0
 11
169.2932441620748
 21
567.4343468871835
 31
0.0
  0
DIMENSION
  5
7A5
330
1E
100
AcDbEntity
  8
BEM
100
AcDbDimension
  2
*D5
 10
144.4578110883612
 20
492.4343468871835
 30
0.0
 11
137.9578110883612
 21
529.9343468871835
 31
0.0
 70
    32
 71
     5
 42
74.99999999999994
  3
Standard
100
AcDbAlignedDimension
 13
169.2932441620748
 23
567.4343468871835
 33
0.0
 14
158.4999999999998
 24
492.4343468871835
 34
0.0
 50
90.0
100
AcDbRotatedDimension
1001
ACAD
1000
DSTYLE
1002
{
1070
    40
1040
2.0
1070
    41
1040
3.5
1070
    42
1040
1.0
1070
    43
1040
7.0
1070
    44
1040
1.0
1070
    73
1070
     0
1070
    74
1070
     0
1070
    77
1070
     1
1070
    78
1070
     8
1070
    79
1070
     2
1070
   140
1040
3.5
1070
   141
1040
1.5
1070
   146
1040
0.5142857142857144
1070
   147
1040
1.5
1070
   172
1070
     1
1070
   178
1070
     1
1070
   179
1070
     2
1070
   271
1070
     2
1070
   272
1070
     2
1070
   284
1070
     8
1070
   285
1070
     8
1070
   286
1070
     8
1002
}
  0
DIMENSION
  5
7B2
330
1E
100
AcDbEntity
  8
BEM
100
AcDbDimension
  2
*D6
 10
123.8743443552548
 20
142.4343468871835
 30
0.0
 11
117.3743443552548
 21
354.9343468871835
 31
0.0
 70
    32
  1
1675
 71
     5
 42
425.0
  3
Standard
100
AcDbAlignedDimension
 13
169.2932441620748
 23
567.4343468871835
 33
0.0
 14
174.6922696331203
 24
142.4343468871835
 34
0.0
 50
90.0
100
AcDbRotatedDimension
1001
ACAD
1000
DSTYLE
1002
{
1070
    40
1040
2.0
1070
    41
1040
3.5
1070
    42
1040
1.0
1070
    43
1040
7.0
1070
    44
1040
1.0
1070
    73
1070
     0
1070
    74
1070
     0
1070
    77
1070
     1
1070
    78
1070
     8
1070
    79
1070
     2
1070
   140
1040
3.5
1070
   141
1040
1.5
1070
   146
1040
0.5142857142857144
1070
   147
1040
1.5
1070
   172
1070
     1
1070
   178
1070
     1
1070
   179
1070
     2
1070
   271
1070
     2
1070
   272
1070
     2
1070
   284
1070
     8
1070
   285
1070
     8
1070
   286
1070
     8
1002
}
  0
DIMENSION
  5
819
330
1E
100
AcDbEntity
  8
BEM
100
AcDbDimension
  2
*D7
 10
158.4999999999997
 20
199.9355742897096
 30
0.0
 11
224.9999999999998
 21
206.4355742897096
 31
0.0
 70
    32
  1
%%c<>
 71
     5
 42
133.0000000000001
  3
Standard
100
AcDbAlignedDimension
 13
291.4999999999998
 23
240.4343468871831
 33
0.0
 14
158.4999999999997
 24
240.4343468871835
 34
0.0
100
AcDbRotatedDimension
1001
ACAD
1000
DSTYLE
1002
{
1070
    40
1040
2.0
1070
    41
1040
3.5
1070
    42
1040
1.0
1070
    43
1040
7.0
1070
    44
1040
1.0
1070
    73
1070
     0
1070
    74
1070
     0
1070
    77
1070
     1
1070
    78
1070
     8
1070
    79
1070
     2
1070
   140
1040
3.5
1070
   141
1040
1.5
1070
   146
1040
0.5142857142857144
1070
   147
1040
1.5
1070
   172
1070
     1
1070
   178
1070
     1
1070
   179
1070
     2
1070
   271
1070
     2
1070
   272
1070
     2
1070
   284
1070
     8
1070
   285
1070
     8
1070
   286
1070
     8
1002
}
  0
TEXT
  5
85A
330
1E
100
AcDbEntity
  8
TEXT
 62
     1
100
AcDbText
 10
370.1397460790191
 20
63.30391769954167
 30
0.0
 40
7.0
  1

 41
0.8
  7
GREEKS
 72
     1
 11
370.1397460790191
 21
63.30391769954167
 31
0.0
100
AcDbText
  0
DIMENSION
  5
863
330
1E
100
AcDbEntity
  8
BEM
100
AcDbDimension
  2
*D9
 10
310.5401079952964
 20
142.4343468871835
 30
0.0
 11
304.0401079952963
 21
192.4343468871835
 31
0.0
 70
    32
 71
     5
 42
99.99999999999994
  3
Standard
100
AcDbAlignedDimension
 13
291.4999999999998
 23
242.4343468871835
 33
0.0
 14
275.3077303668791
 24
142.4343468871835
 34
0.0
 50
90.0
100
AcDbRotatedDimension
1001
ACAD
1000
DSTYLE
1002
{
1070
    40
1040
2.0
1070
    41
1040
3.5
1070
    42
1040
1.0
1070
    43
1040
7.0
1070
    44
1040
1.0
1070
    73
1070
     0
1070
    74
1070
     0
1070
    77
1070
     1
1070
    78
1070
     8
1070
    79
1070
     2
1070
   140
1040
3.5
1070
   141
1040
1.5
1070
   146
1040
0.5142857142857144
1070
   147
1040
1.5
1070
   172
1070
     1
1070
   178
1070
     1
1070
   179
1070
     2
1070
   271
1070
     2
1070
   272
1070
     2
1070
   284
1070
     8
1070
   285
1070
     8
1070
   286
1070
     8
1002
}
  0
LINE
  5
91A
330
1E
100
AcDbEntity
  8
MITTEL
100
AcDbLine
 10
224.9999999999997
 20
193.9422315836034
 30
0.0
 11
224.9999999999997
 21
137.4343468871835
 31
0.0
  0
POLYLINE
  5
91F
102
{ACAD_REACTORS
330
9E9
330
A03
330
A25
102
}
330
1E
100
AcDbEntity
  8
HILF
100
AcDb2dPolyline
 66
     1
 10
0.0
 20
0.0
 30
0.0
 70
     4
 75
     6
  0
VERTEX
  5
920
330
91F
100
AcDbEntity
  8
HILF
100
AcDbVertex
100
AcDb2dVertex
 10
158.4999999999998
 20
363.9522447250115
 30
0.0
 70
    16
  0
VERTEX
  5
926
330
91F
100
AcDbEntity
  8
HILF
100
AcDbVertex
100
AcDb2dVertex
 10
158.4999999999998
 20
363.9522447250115
 30
0.0
 70
     8
  0
VERTEX
  5
927
330
91F
100
AcDbEntity
  8
HILF
100
AcDbVertex
100
AcDb2dVertex
 10
170.2219238281247
 20
367.0284166000115
 30
0.0
 70
     8
  0
VERTEX
  5
928
330
91F
100
AcDbEntity
  8
HILF
100
AcDbVertex
100
AcDb2dVertex
 10
180.5800781249997
 20
368.8741197250115
 30
0.0
 70
     8
  0
VERTEX
  5
929
330
91F
100
AcDbEntity
  8
HILF
100
AcDbVertex
100
AcDb2dVertex
 10
189.7692871093747
 20
369.6651353500115
 30
0.0
 70
     8
  0
VERTEX
  5
92A
330
91F
100
AcDbEntity
  8
HILF
100
AcDbVertex
100
AcDb2dVertex
 10
197.9843749999998
 20
369.5772447250115
 30
0.0
 70
     8
  0
VERTEX
  5
92B
330
91F
100
AcDbEntity
  8
HILF
100
AcDbVertex
100
AcDb2dVertex
 10
205.4201660156248
 20
368.7862291000114
 30
0.0
 70
     8
  0
VERTEX
  5
92C
330
91F
100
AcDbEntity
  8
HILF
100
AcDbVertex
100
AcDb2dVertex
 10
212.2714843749998
 20
367.4678697250113
 30
0.0
 70
     8
  0
VERTEX
  5
92D
330
91F
100
AcDbEntity
  8
HILF
100
AcDbVertex
100
AcDb2dVertex
 10
218.7331542968748
 20
365.7979478500113
 30
0.0
 70
     8
  0
VERTEX
  5
92E
330
91F
100
AcDbEntity
  8
HILF
100
AcDbVertex
100
AcDb2dVertex
 10
224.9999999999998
 20
363.9522447250115
 30
0.0
 70
     8
  0
VERTEX
  5
92F
330
91F
100
AcDbEntity
  8
HILF
100
AcDbVertex
100
AcDb2dVertex
 10
231.2668457031248
 20
362.1065416000115
 30
0.0
 70
     8
  0
VERTEX
  5
930
330
91F
100
AcDbEntity
  8
HILF
100
AcDbVertex
100
AcDb2dVertex
 10
237.7285156249998
 20
360.4366197250115
 30
0.0
 70
     8
  0
VERTEX
  5
931
330
91F
100
AcDbEntity
  8
HILF
100
AcDbVertex
100
AcDb2dVertex
 10
244.5798339843748
 20
359.1182603500115
 30
0.0
 70
     8
  0
VERTEX
  5
932
330
91F
100
AcDbEntity
  8
HILF
100
AcDbVertex
100
AcDb2dVertex
 10
252.0156249999998
 20
358.3272447250115
 30
0.0
 70
     8
  0
VERTEX
  5
933
330
91F
100
AcDbEntity
  8
HILF
100
AcDbVertex
100
AcDb2dVertex
 10
260.2307128906249
 20
358.2393541000115
 30
0.0
 70
     8
  0
VERTEX
  5
934
330
91F
100
AcDbEntity
  8
HILF
100
AcDbVertex
100
AcDb2dVertex
 10
269.4199218749999
 20
359.0303697250115
 30
0.0
 70
     8
  0
VERTEX
  5
935
330
91F
100
AcDbEntity
  8
HILF
100
AcDbVertex
100
AcDb2dVertex
 10
279.7780761718749
 20
360.8760728500115
 30
0.0
 70
     8
  0
VERTEX
  5
936
330
91F
100
AcDbEntity
  8
HILF
100
AcDbVertex
100
AcDb2dVertex
 10
291.4999999999999
 20
363.9522447250115
 30
0.0
 70
     8
  0
VERTEX
  5
921
330
91F
100
AcDbEntity
  8
HILF
100
AcDbVertex
100
AcDb2dVertex
 10
191.7499999999997
 20
373.9522447250115
 30
0.0
 70
    16
  0
VERTEX
  5
922
330
91F
100
AcDbEntity
  8
HILF
100
AcDbVertex
100
AcDb2dVertex
 10
224.9999999999998
 20
363.9522447250115
 30
0.0
 70
    16
  0
VERTEX
  5
923
330
91F
100
AcDbEntity
  8
HILF
100
AcDbVertex
100
AcDb2dVertex
 10
258.2499999999998
 20
353.9522447250115
 30
0.0
 70
    16
  0
VERTEX
  5
924
330
91F
100
AcDbEntity
  8
HILF
100
AcDbVertex
100
AcDb2dVertex
 10
291.4999999999999
 20
363.9522447250115
 30
0.0
 70
    16
  0
SEQEND
  5
925
330
91F
100
AcDbEntity
  8
HILF
  0
POLYLINE
  5
937
102
{ACAD_REACTORS
330
9E9
330
A03
330
A25
102
}
330
1E
100
AcDbEntity
  8
HILF
100
AcDb2dPolyline
 66
     1
 10
0.0
 20
0.0
 30
0.0
 70
     4
 75
     6
  0
VERTEX
  5
938
330
937
100
AcDbEntity
  8
HILF
100
AcDbVertex
100
AcDb2dVertex
 10
158.4999999999998
 20
368.9522447250116
 30
0.0
 70
    16
  0
VERTEX
  5
939
330
937
100
AcDbEntity
  8
HILF
100
AcDbVertex
100
AcDb2dVertex
 10
158.4999999999998
 20
368.9522447250116
 30
0.0
 70
     8
  0
VERTEX
  5
93A
330
937
100
AcDbEntity
  8
HILF
100
AcDbVertex
100
AcDb2dVertex
 10
170.2219238281247
 20
372.0284166000115
 30
0.0
 70
     8
  0
VERTEX
  5
93B
330
937
100
AcDbEntity
  8
HILF
100
AcDbVertex
100
AcDb2dVertex
 10
180.5800781249997
 20
373.8741197250115
 30
0.0
 70
     8
  0
VERTEX
  5
93C
330
937
100
AcDbEntity
  8
HILF
100
AcDbVertex
100
AcDb2dVertex
 10
189.7692871093747
 20
374.6651353500114
 30
0.0
 70
     8
  0
VERTEX
  5
93D
330
937
100
AcDbEntity
  8
HILF
100
AcDbVertex
100
AcDb2dVertex
 10
197.9843749999998
 20
374.5772447250114
 30
0.0
 70
     8
  0
VERTEX
  5
93E
330
937
100
AcDbEntity
  8
HILF
100
AcDbVertex
100
AcDb2dVertex
 10
205.4201660156248
 20
373.7862291000114
 30
0.0
 70
     8
  0
VERTEX
  5
93F
330
937
100
AcDbEntity
  8
HILF
100
AcDbVertex
100
AcDb2dVertex
 10
212.2714843749998
 20
372.4678697250113
 30
0.0
 70
     8
  0
VERTEX
  5
940
330
937
100
AcDbEntity
  8
HILF
100
AcDbVertex
100
AcDb2dVertex
 10
218.7331542968748
 20
370.7979478500113
 30
0.0
 70
     8
  0
VERTEX
  5
941
330
937
100
AcDbEntity
  8
HILF
100
AcDbVertex
100
AcDb2dVertex
 10
224.9999999999998
 20
368.9522447250115
 30
0.0
 70
     8
  0
VERTEX
  5
942
330
937
100
AcDbEntity
  8
HILF
100
AcDbVertex
100
AcDb2dVertex
 10
231.2668457031248
 20
367.1065416000115
 30
0.0
 70
     8
  0
VERTEX
  5
943
330
937
100
AcDbEntity
  8
HILF
100
AcDbVertex
100
AcDb2dVertex
 10
237.7285156249998
 20
365.4366197250115
 30
0.0
 70
     8
  0
VERTEX
  5
944
330
937
100
AcDbEntity
  8
HILF
100
AcDbVertex
100
AcDb2dVertex
 10
244.5798339843748
 20
364.1182603500115
 30
0.0
 70
     8
  0
VERTEX
  5
945
330
937
100
AcDbEntity
  8
HILF
100
AcDbVertex
100
AcDb2dVertex
 10
252.0156249999998
 20
363.3272447250115
 30
0.0
 70
     8
  0
VERTEX
  5
946
330
937
100
AcDbEntity
  8
HILF
100
AcDbVertex
100
AcDb2dVertex
 10
260.2307128906249
 20
363.2393541000115
 30
0.0
 70
     8
  0
VERTEX
  5
947
330
937
100
AcDbEntity
  8
HILF
100
AcDbVertex
100
AcDb2dVertex
 10
269.4199218749999
 20
364.0303697250115
 30
0.0
 70
     8
  0
VERTEX
  5
948
330
937
100
AcDbEntity
  8
HILF
100
AcDbVertex
100
AcDb2dVertex
 10
279.7780761718749
 20
365.8760728500116
 30
0.0
 70
     8
  0
VERTEX
  5
949
330
937
100
AcDbEntity
  8
HILF
100
AcDbVertex
100
AcDb2dVertex
 10
291.4999999999999
 20
368.9522447250116
 30
0.0
 70
     8
  0
VERTEX
  5
94A
330
937
100
AcDbEntity
  8
HILF
100
AcDbVertex
100
AcDb2dVertex
 10
191.7499999999997
 20
378.9522447250115
 30
0.0
 70
    16
  0
VERTEX
  5
94B
330
937
100
AcDbEntity
  8
HILF
100
AcDbVertex
100
AcDb2dVertex
 10
224.9999999999998
 20
368.9522447250115
 30
0.0
 70
    16
  0
VERTEX
  5
94C
330
937
100
AcDbEntity
  8
HILF
100
AcDbVertex
100
AcDb2dVertex
 10
258.2499999999998
 20
358.9522447250115
 30
0.0
 70
    16
  0
VERTEX
  5
94D
330
937
100
AcDbEntity
  8
HILF
100
AcDbVertex
100
AcDb2dVertex
 10
291.4999999999999
 20
368.9522447250115
 30
0.0
 70
    16
  0
SEQEND
  5
94E
330
937
100
AcDbEntity
  8
HILF
  0
LINE
  5
94F
102
{ACAD_REACTORS
330
9E9
102
}
330
1E
100
AcDbEntity
  8
STEMPEL
100
AcDbLine
 10
175.9999999999998
 20
368.0580028507334
 30
0.0
 11
175.9999999999997
 21
150.4343468871835
 31
0.0
  0
LINE
  5
950
102
{ACAD_REACTORS
330
9E9
330
A25
102
}
330
1E
100
AcDbEntity
  8
STEMPEL
100
AcDbLine
 10
173.9999999999998
 20
367.7016260152277
 30
0.0
 11
173.9999999999998
 21
150.3470250013641
 31
0.0
  0
LINE
  5
951
102
{ACAD_REACTORS
330
A03
330
A25
102
}
330
1E
100
AcDbEntity
  8
STEMPEL
100
AcDbLine
 10
160.9999999999997
 20
364.6083170387599
 30
0.0
 11
160.9999999999997
 21
242.4343468871835
 31
0.0
  0
LINE
  5
952
102
{ACAD_REACTORS
330
A03
102
}
330
1E
100
AcDbEntity
  8
STEMPEL
100
AcDbLine
 10
158.4999999999998
 20
363.9522447250115
 30
0.0
 11
158.4999999999997
 21
240.4343468871835
 31
0.0
  0
LINE
  5
953
102
{ACAD_REACTORS
330
A03
102
}
330
1E
100
AcDbEntity
  8
STEMPEL
100
AcDbLine
 10
291.4999999999999
 20
363.9522447250116
 30
0.0
 11
291.4999999999998
 21
240.4343468871831
 31
0.0
  0
LINE
  5
954
102
{ACAD_REACTORS
330
A03
330
A25
102
}
330
1E
100
AcDbEntity
  8
STEMPEL
100
AcDbLine
 10
288.9999999999999
 20
363.2961724112631
 30
0.0
 11
288.9999999999998
 21
242.4343468871835
 31
0.0
  0
LINE
  5
955
102
{ACAD_REACTORS
330
9E9
330
A25
102
}
330
1E
100
AcDbEntity
  8
STEMPEL
100
AcDbLine
 10
275.9999999999997
 20
360.2028634347954
 30
0.0
 11
275.9999999999997
 21
150.347025001364
 31
0.0
  0
LINE
  5
956
102
{ACAD_REACTORS
330
9E9
102
}
330
1E
100
AcDbEntity
  8
STEMPEL
100
AcDbLine
 10
273.9999999999997
 20
359.8464865992897
 30
0.0
 11
273.9999999999997
 21
150.4343468871834
 31
0.0
  0
HATCH
  5
9E9
330
1E
100
AcDbEntity
  8
SCHRAFF
100
AcDbHatch
 10
0.0
 20
0.0
 30
0.0
210
0.0
220
0.0
230
1.0
  2
_USER
 70
     0
 71
     1
 91
        4
 92
        7
 72
     1
 73
     1
 93
       20
 10
275.9999999999997
 20
491.4003543673152
 42
-0.1507946423587077
 10
277.3913043478259
 20
495.9086957227294
 42
0.1507946423587007
 10
279.9999999999997
 20
504.3618357641308
 42
0.0
 10
279.9999999999999
 20
519.9343468871834
 42
-0.1178625008509358
 10
281.2972972972973
 20
525.3613308430801
 42
0.1178625008509355
 10
283.9999999999999
 20
536.6675474178649
 42
0.0
 10
283.9999999999999
 20
554.8295954246123
 42
0.1095178116832408
 10
281.6576946759162
 20
565.3950519681297
 42
0.0
 10
280.7067558379249
 20
567.4343468871834
 42
0.0
 10
278.5
 20
567.4343468871835
 42
0.0
 10
279.8450791018428
 20
564.5498154446483
 42
-0.1095178116832425
 10
281.9999999999999
 20
554.829595424612
 42
0.0
 10
281.9999999999999
 20
536.6673468871834
 42
-0.118299146089337
 10
279.4955654706275
 20
526.2303072667155
 42
0.1171420130220837
 10
277.9999999999999
 20
519.9343468871833
 42
0.0
 10
277.9999999999999
 20
504.3618357641309
 42
-0.1507946423587077
 10
275.7391304347824
 20
497.0357810615828
 42
0.1507946423587096
 10
273.9999999999997
 20
491.4003543673149
 42
0.0
 10
273.9999999999998
 20
364.8464865992897
 42
0.0
 10
275.9999999999997
 20
365.2028634347955
 42
0.0
 97
       20
330
58E
330
58F
330
58D
330
591
330
58A
330
594
330
595
330
598
330
7A3
330
597
330
596
330
593
330
589
330
592
330
58C
330
590
330
58B
330
57F
330
937
330
580
 92
        7
 72
     1
 73
     1
 93
       20
 10
175.9999999999999
 20
491.4003543673153
 42
0.1507946423587027
 10
174.2608695652173
 20
497.035781061583
 42
-0.1507946423587038
 10
171.9999999999999
 20
504.3618357641309
 42
0.0
 10
171.9999999999999
 20
519.9343468871834
 42
0.1171420130216853
 10
170.5044345293821
 20
526.2303072666959
 42
-0.1182991460895799
 10
167.9999999999999
 20
536.6673468871835
 42
0.0
 10
167.9999999999999
 20
554.8295954246123
 42
-0.1095178116832409
 10
170.1549208981569
 20
564.5498154446483
 42
0.0
 10
171.4999999999998
 20
567.4343468871835
 42
0.0
 10
169.2932441620748
 20
567.4343468871835
 42
0.0
 10
168.3423053240835
 20
565.3950519681298
 42
0.1095178116832417
 10
165.9999999999999
 20
554.8295954246123
 42
0.0
 10
165.9999999999999
 20
536.667547417865
 42
0.1178625008509366
 10
168.7027027027026
 20
525.3613308430801
 42
-0.1178625008509357
 10
169.9999999999999
 20
519.9343468871834
 42
0.0
 10
169.9999999999999
 20
504.3618357641309
 42
0.150794642358704
 10
172.6086956521738
 20
495.9086957227293
 42
-0.1507946423587032
 10
173.9999999999999
 20
491.4003543673152
 42
0.0
 10
173.9999999999998
 20
372.7016260152276
 42
0.0
 10
175.9999999999998
 20
373.0580028507333
 42
0.0
 97
       20
330
56D
330
56F
330
56B
330
572
330
56A
330
574
330
577
330
57A
330
7A3
330
576
330
578
330
575
330
569
330
571
330
56C
330
570
330
56E
330
560
330
937
330
55F
 92
        7
 72
     0
 73
     1
 93
        6
 10
275.9999999999997
 20
360.2028634347953
 10
273.9999999999997
 20
359.8464865992896
 10
273.9999999999997
 20
150.4343468871837
 10
273.3000906917924
 20
142.4343468871834
 10
275.3077303668792
 20
142.4343468871835
 10
275.9999999999997
 20
150.347025001364
 97
        6
330
91F
330
956
330
583
330
555
330
582
330
955
 92
        7
 72
     0
 73
     1
 93
        6
 10
175.9999999999998
 20
368.0580028507332
 10
173.9999999999998
 20
367.7016260152277
 10
173.9999999999998
 20
150.3470250013639
 10
174.6922696331203
 20
142.4343468871835
 10
176.6999093082072
 20
142.4343468871835
 10
175.9999999999997
 20
150.4343468871834
 97
        6
330
91F
330
950
330
562
330
555
330
561
330
94F
 75
     0
 76
     0
 52
45.0
 41
2.0
 77
     0
 78
     1
 53
45.0
 43
0.0
 44
0.0
 45
-1.414213562373094
 46
1.414213562373095
 79
     0
 47
0.7703037469528863
 98
        4
 10
275.1733050568873
 20
452.8682705256087
 10
174.9795007128787
 20
443.6246254136533
 10
275.1733050568873
 20
346.5663531212215
 10
174.9795007128787
 20
347.3366559584854
  0
HATCH
  5
A03
330
1E
100
AcDbEntity
  8
SCHRAFF
100
AcDbHatch
 10
0.0
 20
0.0
 30
0.0
210
0.0
220
0.0
230
1.0
  2
_USER
 70
     0
 71
     1
 91
        4
 92
        7
 72
     0
 73
     1
 93
        4
 10
291.5
 20
492.4343468871834
 10
289.0
 20
492.4343468871834
 10
288.9999999999999
 20
368.2961724112632
 10
291.4999999999999
 20
368.9522447250116
 97
        4
330
779
330
57C
330
937
330
57B
 92
        7
 72
     0
 73
     1
 93
        4
 10
291.4999999999999
 20
363.9522447250116
 10
288.9999999999999
 20
363.2961724112632
 10
288.9999999999998
 20
242.4343468871835
 10
291.4999999999998
 20
242.4343468871835
 97
        4
330
91F
330
954
330
584
330
953
 92
        7
 72
     0
 73
     1
 93
        4
 10
160.9999999999998
 20
492.4343468871835
 10
158.4999999999998
 20
492.4343468871835
 10
158.4999999999998
 20
368.9522447250115
 10
160.9999999999997
 20
369.6083170387598
 97
        4
330
775
330
55D
330
937
330
55E
 92
        7
 72
     0
 73
     1
 93
        4
 10
160.9999999999997
 20
364.6083170387599
 10
158.4999999999998
 20
363.9522447250115
 10
158.4999999999997
 20
242.4343468871835
 10
160.9999999999997
 20
242.4343468871835
 97
        4
330
91F
330
952
330
564
330
951
 75
     0
 76
     0
 52
135.0
 41
2.0
 77
     0
 78
     1
 53
135.0
 43
0.0
 44
0.0
 45
-1.414213562373095
 46
-1.414213562373094
 79
     0
 47
0.7703037469528863
 98
        4
 10
289.8170150212536
 20
429.7591577457206
 10
290.5877351125805
 20
319.605722005718
 10
160.3357907485124
 20
405.8797421285682
 10
160.3357907485124
 20
352.7287827348255
  0
HATCH
  5
A25
330
1E
100
AcDbEntity
  8
SCHRAFF
100
AcDbHatch
 10
0.0
 20
0.0
 30
0.0
210
0.0
220
0.0
230
1.0
  2
HONEY
 70
     0
 71
     1
 91
        4
 92
        7
 72
     0
 73
     1
 93
        6
 10
288.9999999999999
 20
476.4343468871834
 10
287.4999999999998
 20
474.9343468871834
 10
275.9999999999997
 20
474.9343468871834
 10
275.9999999999997
 20
365.2028634347953
 10
279.7780761718748
 20
365.8760728500116
 10
288.9999999999999
 20
368.2961724112632
 97
        5
330
776
330
777
330
580
330
937
330
57C
 92
        7
 72
     0
 73
     1
 93
        6
 10
173.9999999999999
 20
474.9343468871835
 10
162.5000000000001
 20
474.9343468871835
 10
160.9999999999998
 20
476.4343468871834
 10
160.9999999999997
 20
369.6083170387598
 10
170.221923828124
 20
372.0284166000112
 10
173.9999999999998
 20
372.7016260152276
 97
        5
330
773
330
772
330
55E
330
937
330
560
 92
        7
 72
     0
 73
     1
 93
        6
 10
173.9999999999999
 20
367.7016260152277
 10
170.2219238281248
 20
367.0284166000115
 10
160.9999999999997
 20
364.6083170387599
 10
160.9999999999997
 20
258.4343468871835
 10
162.4999999999998
 20
259.9343468871835
 10
173.9999999999998
 20
259.9343468871834
 97
        5
330
91F
330
951
330
568
330
567
330
950
 92
        7
 72
     0
 73
     1
 93
        6
 10
288.9999999999999
 20
363.2961724112632
 10
279.7780761718752
 20
360.8760728500117
 10
275.9999999999997
 20
360.2028634347955
 10
275.9999999999997
 20
259.9343468871834
 10
287.4999999999996
 20
259.9343468871835
 10
288.9999999999998
 20
258.4343468871834
 97
        5
330
91F
330
955
330
587
330
588
330
954
 75
     0
 76
     1
 52
0.0
 41
25.0
 77
     0
 78
     3
 53
0.0
 43
0.0
 44
0.0
 45
4.6875
 46
2.706329374999999
 79
     2
 49
3.125
 49
-6.25
 53
120.0
 43
0.0
 44
0.0
 45
-4.687499989758061
 46
2.706329392739557
 79
     2
 49
3.125
 49
-6.25
 53
60.0
 43
0.0
 44
0.0
 45
0.0000000102419385
 46
5.412658767739556
 79
     2
 49
-6.25
 49
3.125
 47
0.7703037469528863
 98
        4
 10
279.7976333037095
 20
439.7731070780382
 10
167.2722844018885
 20
434.3809803016982
 10
169.584449808443
 20
353.499086955188
 10
282.1097987102635
 20
342.7148334025078
  0
ENDSEC
  0
SECTION
  2
OBJECTS
  0
DICTIONARY
  5
C
330
0
100
AcDbDictionary
281
     1
  3
ACAD_COLOR
350
DF
  3
ACAD_GROUP
350
D
  3
ACAD_LAYOUT
350
19
  3
ACAD_MATERIAL
350
DE
  3
ACAD_MLINESTYLE
350
16
  3
ACAD_PLOTSETTINGS
350
18
  3
ACAD_PLOTSTYLENAME
350
E
  3
AcDbVariableDictionary
350
EA
  0
DICTIONARY
  5
A0
330
1E
100
AcDbDictionary
280
     1
281
     1
  3
ACAD_LAYOUTSELFREF
360
D4
  0
DICTIONARY
  5
A2
330
1A
100
AcDbDictionary
280
     1
281
     1
  3
ACAD_LAYOUTSELFREF
360
D3
  0
DICTIONARY
  5
DF
102
{ACAD_REACTORS
330
C
102
}
330
C
100
AcDbDictionary
281
     1
  0
DICTIONARY
  5
D
102
{ACAD_REACTORS
330
C
102
}
330
C
100
AcDbDictionary
281
     1
  0
DICTIONARY
  5
19
102
{ACAD_REACTORS
330
C
102
}
330
C
100
AcDbDictionary
281
     1
  3
Layout1
350
1D
  3
Model
350
21
  0
DICTIONARY
  5
DE
102
{ACAD_REACTORS
330
C
102
}
330
C
100
AcDbDictionary
281
     1
  0
DICTIONARY
  5
16
102
{ACAD_REACTORS
330
C
102
}
330
C
100
AcDbDictionary
281
     1
  3
Standard
350
17
  0
DICTIONARY
  5
18
102
{ACAD_REACTORS
330
C
102
}
330
C
100
AcDbDictionary
281
     1
  0
ACDBDICTIONARYWDFLT
  5
E
102
{ACAD_REACTORS
330
C
102
}
330
C
100
AcDbDictionary
281
     1
  3
Normal
350
F
100
AcDbDictionaryWithDefault
340
F
  0
DICTIONARY
  5
EA
102
{ACAD_REACTORS
330
C
102
}
330
C
100
AcDbDictionary
281
     1
  3
DIMASSOC
350
EB
  3
PROJECTNAME
350
EC
  0
XRECORD
  5
D4
102
{ACAD_REACTORS
330
A0
102
}
330
A0
100
AcDbXrecord
280
     1
340
1E
  0
XRECORD
  5
D3
102
{ACAD_REACTORS
330
A2
102
}
330
A2
100
AcDbXrecord
280
     1
340
1A
  0
LAYOUT
  5
1D
102
{ACAD_REACTORS
330
19
102
}
330
19
100
AcDbPlotSettings
  1

  2
\\NT_WORK01\HP LaserJet 5000 PCL 6
  4

  6

 40
0.0
 41
0.0
 42
0.0
 43
0.0
 44
0.0
 45
0.0
 46
0.0
 47
0.0
 48
0.0
 49
0.0
140
0.0
141
0.0
142
1.0
143
1.0
 70
   688
 72
     0
 73
     0
 74
     5
  7

 75
    16
147
1.0
 76
     0
 77
     2
 78
   300
148
0.0
149
0.0
100
AcDbLayout
  1
Layout1
 70
     0
 71
     1
 10
0.0
 20
0.0
 11
12.0
 21
9.0
 12
0.0
 22
0.0
 32
0.0
 14
1.000000000000000E+20
 24
1.000000000000000E+20
 34
1.000000000000000E+20
 15
-1.000000000000000E+20
 25
-1.000000000000000E+20
 35
-1.000000000000000E+20
146
0.0
 13
0.0
 23
0.0
 33
0.0
 16
1.0
 26
0.0
 36
0.0
 17
0.0
 27
1.0
 37
0.0
 76
     0
330
1A
  0
LAYOUT
  5
21
102
{ACAD_REACTORS
330
19
102
}
330
19
100
AcDbPlotSettings
  1

  2
none_device
  4
Letter_(8.50_x_11.00_Inches)
  6

 40
6.349999904632568
 41
6.349999904632568
 42
6.350006103515625
 43
6.350006103515625
 44
215.8999938964844
 45
279.3999938964844
 46
0.0
 47
0.0
 48
0.0
 49
0.0
140
0.0
141
0.0
142
1.0
143
1.0
 70
 11952
 72
     0
 73
     1
 74
     0
  7

 75
     0
147
1.0
 76
     0
 77
     2
 78
   300
148
2286.489852936626
149
76.68982206418684
100
AcDbLayout
  1
Model
 70
     1
 71
     0
 10
0.0
 20
0.0
 11
12.0
 21
9.0
 12
0.0
 22
0.0
 32
0.0
 14
0.0
 24
0.0
 34
0.0
 15
0.0
 25
0.0
 35
0.0
146
0.0
 13
0.0
 23
0.0
 33
0.0
 16
1.0
 26
0.0
 36
0.0
 17
0.0
 27
1.0
 37
0.0
 76
     0
330
1E
  0
MLINESTYLE
  5
17
102
{ACAD_REACTORS
330
16
102
}
330
16
100
AcDbMlineStyle
  2
STANDARD
 70
     0
  3

 62
   256
 51
90.0
 52
90.0
 71
     2
 49
0.5
 62
   256
  6
BYLAYER
 49
-0.5
 62
   256
  6
BYLAYER
  0
ACDBPLACEHOLDER
  5
F
102
{ACAD_REACTORS
330
E
102
}
330
E
  0
DICTIONARYVAR
  5
EB
102
{ACAD_REACTORS
330
EA
102
}
330
EA
100
DictionaryVariables
280
     0
  1
1
  0
DICTIONARYVAR
  5
EC
102
{ACAD_REACTORS
330
EA
102
}
330
EA
100
DictionaryVariables
280
     0
  1

  0
ENDSEC
  0
EOF
