  0
SECTION
  2
HEADER
  9
$ACADVER
  1
AC1018
  9
$ACADMAINTVER
 70
     2
  9
$DWGCODEPAGE
  3
ANSI_1252
  9
$INSBASE
 10
0.0
 20
0.0
 30
0.0
  9
$EXTMIN
 10
-0.0320258532665321
 20
-0.0452937067634594
 30
-0.0000000000000129
  9
$EXTMAX
 10
420.0000078240054
 20
594.0000110653779
 30
0.0000000000000023
  9
$LIMMIN
 10
0.0
 20
0.0
  9
$LIMMAX
 10
419.9999999999999
 20
594.0
  9
$ORTHOMODE
 70
     0
  9
$REGENMODE
 70
     1
  9
$FILLMODE
 70
     1
  9
$QTEXTMODE
 70
     0
  9
$MIRRTEXT
 70
     1
  9
$LTSCALE
 40
20.0
  9
$ATTMODE
 70
     1
  9
$TEXTSIZE
 40
3.5
  9
$TRACEWID
 40
0.5
  9
$TEXTSTYLE
  7
STANDARD
  9
$CLAYER
  8
VOLL
  9
$CELTYPE
  6
ByLayer
  9
$CECOLOR
 62
   256
  9
$CELTSCALE
 40
1.0
  9
$DISPSILH
 70
     0
  9
$DIMSCALE
 40
2.0
  9
$DIMASZ
 40
3.5
  9
$DIMEXO
 40
1.0
  9
$DIMDLI
 40
7.0
  9
$DIMRND
 40
0.0
  9
$DIMDLE
 40
0.0
  9
$DIMEXE
 40
1.0
  9
$DIMTP
 40
0.0
  9
$DIMTM
 40
0.0
  9
$DIMTXT
 40
3.5
  9
$DIMCEN
 40
1.5
  9
$DIMTSZ
 40
0.0
  9
$DIMTOL
 70
     0
  9
$DIMLIM
 70
     0
  9
$DIMTIH
 70
     0
  9
$DIMTOH
 70
     0
  9
$DIMSE1
 70
     0
  9
$DIMSE2
 70
     0
  9
$DIMTAD
 70
     1
  9
$DIMZIN
 70
     8
  9
$DIMBLK
  1

  9
$DIMASO
 70
     1
  9
$DIMSHO
 70
     0
  9
$DIMPOST
  1

  9
$DIMAPOST
  1

  9
$DIMALT
 70
     0
  9
$DIMALTD
 70
     2
  9
$DIMALTF
 40
25.4
  9
$DIMLFAC
 40
1.0
  9
$DIMTOFL
 70
     1
  9
$DIMTVP
 40
0.0
  9
$DIMTIX
 70
     0
  9
$DIMSOXD
 70
     0
  9
$DIMSAH
 70
     0
  9
$DIMBLK1
  1

  9
$DIMBLK2
  1

  9
$DIMSTYLE
  2
Standard
  9
$DIMCLRD
 70
     0
  9
$DIMCLRE
 70
     0
  9
$DIMCLRT
 70
     1
  9
$DIMTFAC
 40
0.5
  9
$DIMGAP
 40
1.5
  9
$DIMJUST
 70
     0
  9
$DIMSD1
 70
     0
  9
$DIMSD2
 70
     0
  9
$DIMTOLJ
 70
     1
  9
$DIMTZIN
 70
     8
  9
$DIMALTZ
 70
     8
  9
$DIMALTTZ
 70
     8
  9
$DIMUPT
 70
     0
  9
$DIMDEC
 70
     2
  9
$DIMTDEC
 70
     2
  9
$DIMALTU
 70
     2
  9
$DIMALTTD
 70
     2
  9
$DIMTXSTY
  7
STANDARD
  9
$DIMAUNIT
 70
     0
  9
$DIMADEC
 70
     2
  9
$DIMALTRND
 40
0.0
  9
$DIMAZIN
 70
     2
  9
$DIMDSEP
 70
    46
  9
$DIMATFIT
 70
     3
  9
$DIMFRAC
 70
     0
  9
$DIMLDRBLK
  1

  9
$DIMLUNIT
 70
     2
  9
$DIMLWD
 70
    -2
  9
$DIMLWE
 70
    -2
  9
$DIMTMOVE
 70
     0
  9
$LUNITS
 70
     2
  9
$LUPREC
 70
     2
  9
$SKETCHINC
 40
1.0
  9
$FILLETRAD
 40
0.0
  9
$AUNITS
 70
     0
  9
$AUPREC
 70
     0
  9
$MENU
  1
ACAD
  9
$ELEVATION
 40
0.0
  9
$PELEVATION
 40
0.0
  9
$THICKNESS
 40
0.0
  9
$LIMCHECK
 70
     0
  9
$CHAMFERA
 40
0.0
  9
$CHAMFERB
 40
0.0
  9
$CHAMFERC
 40
0.0
  9
$CHAMFERD
 40
0.0
  9
$SKPOLY
 70
     0
  9
$TDCREATE
 40
2455397.823042361
  9
$TDUCREATE
 40
2455397.781375695
  9
$TDUPDATE
 40
2455532.352735695
  9
$TDUUPDATE
 40
2455532.311069028
  9
$TDINDWG
 40
0.1498058449
  9
$TDUSRTIMER
 40
0.1498058449
  9
$USRTIMER
 70
     1
  9
$ANGBASE
 50
0.0
  9
$ANGDIR
 70
     0
  9
$PDMODE
 70
     0
  9
$PDSIZE
 40
0.0
  9
$PLINEWID
 40
0.0
  9
$SPLFRAME
 70
     0
  9
$SPLINETYPE
 70
     6
  9
$SPLINESEGS
 70
     8
  9
$HANDSEED
  5
E83
  9
$SURFTAB1
 70
     6
  9
$SURFTAB2
 70
     6
  9
$SURFTYPE
 70
     6
  9
$SURFU
 70
     6
  9
$SURFV
 70
     6
  9
$UCSBASE
  2

  9
$UCSNAME
  2

  9
$UCSORG
 10
0.0
 20
0.0
 30
0.0
  9
$UCSXDIR
 10
1.0
 20
0.0
 30
0.0
  9
$UCSYDIR
 10
0.0
 20
1.0
 30
0.0
  9
$UCSORTHOREF
  2

  9
$UCSORTHOVIEW
 70
     0
  9
$UCSORGTOP
 10
0.0
 20
0.0
 30
0.0
  9
$UCSORGBOTTOM
 10
0.0
 20
0.0
 30
0.0
  9
$UCSORGLEFT
 10
0.0
 20
0.0
 30
0.0
  9
$UCSORGRIGHT
 10
0.0
 20
0.0
 30
0.0
  9
$UCSORGFRONT
 10
0.0
 20
0.0
 30
0.0
  9
$UCSORGBACK
 10
0.0
 20
0.0
 30
0.0
  9
$PUCSBASE
  2

  9
$PUCSNAME
  2

  9
$PUCSORG
 10
0.0
 20
0.0
 30
0.0
  9
$PUCSXDIR
 10
1.0
 20
0.0
 30
0.0
  9
$PUCSYDIR
 10
0.0
 20
1.0
 30
0.0
  9
$PUCSORTHOREF
  2

  9
$PUCSORTHOVIEW
 70
     0
  9
$PUCSORGTOP
 10
0.0
 20
0.0
 30
0.0
  9
$PUCSORGBOTTOM
 10
0.0
 20
0.0
 30
0.0
  9
$PUCSORGLEFT
 10
0.0
 20
0.0
 30
0.0
  9
$PUCSORGRIGHT
 10
0.0
 20
0.0
 30
0.0
  9
$PUCSORGFRONT
 10
0.0
 20
0.0
 30
0.0
  9
$PUCSORGBACK
 10
0.0
 20
0.0
 30
0.0
  9
$USERI1
 70
     0
  9
$USERI2
 70
     0
  9
$USERI3
 70
     0
  9
$USERI4
 70
     0
  9
$USERI5
 70
     0
  9
$USERR1
 40
0.0
  9
$USERR2
 40
0.0
  9
$USERR3
 40
0.0
  9
$USERR4
 40
0.0
  9
$USERR5
 40
0.0
  9
$WORLDVIEW
 70
     1
  9
$SHADEDGE
 70
     3
  9
$SHADEDIF
 70
    70
  9
$TILEMODE
 70
     1
  9
$MAXACTVP
 70
    16
  9
$PINSBASE
 10
0.0
 20
0.0
 30
0.0
  9
$PLIMCHECK
 70
     0
  9
$PEXTMIN
 10
1.000000000000000E+20
 20
1.000000000000000E+20
 30
1.000000000000000E+20
  9
$PEXTMAX
 10
-1.000000000000000E+20
 20
-1.000000000000000E+20
 30
-1.000000000000000E+20
  9
$PLIMMIN
 10
0.0
 20
0.0
  9
$PLIMMAX
 10
12.0
 20
9.0
  9
$UNITMODE
 70
     0
  9
$VISRETAIN
 70
     0
  9
$PLINEGEN
 70
     0
  9
$PSLTSCALE
 70
     0
  9
$TREEDEPTH
 70
  3020
  9
$CMLSTYLE
  2
Standard
  9
$CMLJUST
 70
     0
  9
$CMLSCALE
 40
1.0
  9
$PROXYGRAPHICS
 70
     1
  9
$MEASUREMENT
 70
     0
  9
$CELWEIGHT
370
    -1
  9
$ENDCAPS
280
     0
  9
$JOINSTYLE
280
     0
  9
$LWDISPLAY
290
     0
  9
$INSUNITS
 70
     0
  9
$HYPERLINKBASE
  1

  9
$STYLESHEET
  1
monochrome 1.ctb
  9
$XEDIT
290
     1
  9
$CEPSNTYPE
380
     0
  9
$PSTYLEMODE
290
     1
  9
$FINGERPRINTGUID
  2
{D68B0D02-A558-11D7-B632-000102183313}
  9
$VERSIONGUID
  2
{CB1DD429-561C-447B-BC89-2E38033FDC1C}
  9
$EXTNAMES
290
     1
  9
$PSVPSCALE
 40
0.0
  9
$OLESTARTUP
290
     0
  9
$SORTENTS
280
   127
  9
$INDEXCTL
280
     0
  9
$HIDETEXT
280
     0
  9
$XCLIPFRAME
290
     0
  9
$HALOGAP
280
     0
  9
$OBSCOLOR
 70
   257
  9
$OBSLTYPE
280
     0
  9
$INTERSECTIONDISPLAY
280
     0
  9
$INTERSECTIONCOLOR
 70
   257
  9
$DIMASSOC
280
     1
  9
$PROJECTNAME
  1

  0
ENDSEC
  0
SECTION
  2
CLASSES
  0
CLASS
  1
ACDBDICTIONARYWDFLT
  2
AcDbDictionaryWithDefault
  3
ObjectDBX Classes
 90
        0
 91
        1
280
     0
281
     0
  0
CLASS
  1
DICTIONARYVAR
  2
AcDbDictionaryVar
  3
ObjectDBX Classes
 90
        0
 91
        2
280
     0
281
     0
  0
ENDSEC
  0
SECTION
  2
TABLES
  0
TABLE
  2
VPORT
  5
8
330
0
100
AcDbSymbolTable
 70
     2
  0
VPORT
  5
E82
330
8
100
AcDbSymbolTableRecord
100
AcDbViewportTableRecord
  2
*Active
 70
     0
 10
0.0
 20
0.0
 11
1.0
 21
1.0
 12
209.9839909853695
 22
296.9773586793072
 13
0.0
 23
0.0
 14
1.0
 24
1.0
 15
10.0
 25
10.0
 16
0.0
 26
0.0
 36
1.0
 17
0.0
 27
0.0
 37
0.0
 40
598.8424404768961
 41
1.336927223719676
 42
50.0
 43
0.0
 44
0.0
 50
0.0
 51
0.0
 71
     0
 72
  1500
 73
     1
 74
     0
 75
     0
 76
     0
 77
     0
 78
     0
281
     0
 65
     1
110
0.0
120
0.0
130
0.0
111
1.0
121
0.0
131
0.0
112
0.0
122
1.0
132
0.0
 79
     0
146
0.0
  0
ENDTAB
  0
TABLE
  2
LTYPE
  5
5
330
0
100
AcDbSymbolTable
 70
     2
  0
LTYPE
  5
13
330
5
100
AcDbSymbolTableRecord
100
AcDbLinetypeTableRecord
  2
ByBlock
 70
     0
  3

 72
    65
 73
     0
 40
0.0
  0
LTYPE
  5
14
330
5
100
AcDbSymbolTableRecord
100
AcDbLinetypeTableRecord
  2
ByLayer
 70
     0
  3

 72
    65
 73
     0
 40
0.0
  0
LTYPE
  5
15
330
5
100
AcDbSymbolTableRecord
100
AcDbLinetypeTableRecord
  2
Continuous
 70
     0
  3
Solid line
 72
    65
 73
     0
 40
0.0
  0
LTYPE
  5
25
330
5
100
AcDbSymbolTableRecord
100
AcDbLinetypeTableRecord
  2
STRICHPUNKT
 70
     0
  3
__ . __ . __ . __ . __ . __ . __ . __ . __ . __
 72
    65
 73
     4
 40
1.0
 49
0.5
 74
     0
 49
-0.25
 74
     0
 49
0.0
 74
     0
 49
-0.25
 74
     0
  0
ENDTAB
  0
TABLE
  2
LAYER
  5
2
330
0
100
AcDbSymbolTable
 70
     9
  0
LAYER
  5
10
330
2
100
AcDbSymbolTableRecord
100
AcDbLayerTableRecord
  2
0
 70
     0
 62
     7
  6
Continuous
370
    -3
390
F
  0
LAYER
  5
2A
330
2
100
AcDbSymbolTableRecord
100
AcDbLayerTableRecord
  2
VOLL
 70
     0
 62
     1
  6
Continuous
370
    -3
390
F
  0
LAYER
  5
2B
330
2
100
AcDbSymbolTableRecord
100
AcDbLayerTableRecord
  2
HILF
 70
     0
 62
     2
  6
Continuous
370
    -3
390
F
  0
LAYER
  5
2C
330
2
100
AcDbSymbolTableRecord
100
AcDbLayerTableRecord
  2
MITTEL
 70
     0
 62
     2
  6
STRICHPUNKT
370
    -3
390
F
  0
LAYER
  5
2F
330
2
100
AcDbSymbolTableRecord
100
AcDbLayerTableRecord
  2
BEM
 70
     0
 62
     7
  6
Continuous
370
    -3
390
F
  0
LAYER
  5
30
330
2
100
AcDbSymbolTableRecord
100
AcDbLayerTableRecord
  2
STEMPEL
 70
     0
 62
     3
  6
Continuous
370
    -3
390
F
  0
LAYER
  5
31
330
2
100
AcDbSymbolTableRecord
100
AcDbLayerTableRecord
  2
TEXT
 70
     0
 62
     7
  6
Continuous
370
    -3
390
F
  0
LAYER
  5
390
330
2
100
AcDbSymbolTableRecord
100
AcDbLayerTableRecord
  2
DEFPOINTS
 70
     0
 62
     7
  6
Continuous
290
     0
370
    -3
390
F
  0
LAYER
  5
391
330
2
100
AcDbSymbolTableRecord
100
AcDbLayerTableRecord
  2
SCHRAFF
 70
     0
 62
     7
  6
Continuous
370
    -3
390
F
  0
ENDTAB
  0
TABLE
  2
STYLE
  5
3
330
0
100
AcDbSymbolTable
 70
     2
  0
STYLE
  5
11
330
3
100
AcDbSymbolTableRecord
100
AcDbTextStyleTableRecord
  2
STANDARD
 70
     0
 40
0.0
 41
0.8
 50
0.0
 71
     0
 42
3.5
  3
simplex.shx
  4

  0
STYLE
  5
24
330
3
100
AcDbSymbolTableRecord
100
AcDbTextStyleTableRecord
  2
GREEKS
 70
     0
 40
0.0
 41
0.8
 50
0.0
 71
     0
 42
2.5
  3
SIMPLEX.shx
  4

  0
ENDTAB
  0
TABLE
  2
VIEW
  5
6
330
0
100
AcDbSymbolTable
 70
     0
  0
ENDTAB
  0
TABLE
  2
UCS
  5
7
330
0
100
AcDbSymbolTable
 70
     0
  0
ENDTAB
  0
TABLE
  2
APPID
  5
9
330
0
100
AcDbSymbolTable
 70
     1
  0
APPID
  5
12
330
9
100
AcDbSymbolTableRecord
100
AcDbRegAppTableRecord
  2
ACAD
 70
     0
  0
ENDTAB
  0
TABLE
  2
DIMSTYLE
  5
A
330
0
100
AcDbSymbolTable
 70
     1
100
AcDbDimStyleTable
 71
     1
340
9D
  0
DIMSTYLE
105
9D
102
{ACAD_REACTORS
330
6F2
330
986
330
AE2
330
AEF
330
E60
102
}
330
A
100
AcDbSymbolTableRecord
100
AcDbDimStyleTableRecord
  2
Standard
 70
     0
340
11
  0
ENDTAB
  0
TABLE
  2
BLOCK_RECORD
  5
1
330
0
100
AcDbSymbolTable
 70
     6
  0
BLOCK_RECORD
  5
1E
102
{ACAD_XDICTIONARY
360
A0
102
}
330
1
100
AcDbSymbolTableRecord
100
AcDbBlockTableRecord
  2
*Model_Space
340
21
  0
BLOCK_RECORD
  5
1A
102
{ACAD_XDICTIONARY
360
A2
102
}
330
1
100
AcDbSymbolTableRecord
100
AcDbBlockTableRecord
  2
*Paper_Space
340
1D
  0
BLOCK_RECORD
  5
22
330
1
100
AcDbSymbolTableRecord
100
AcDbBlockTableRecord
  2
LOGO
340
0
102
{BLKREFS
331
9B
102
}
  0
BLOCK_RECORD
  5
6F3
330
1
100
AcDbSymbolTableRecord
100
AcDbBlockTableRecord
  2
*D1
340
0
  0
BLOCK_RECORD
  5
987
330
1
100
AcDbSymbolTableRecord
100
AcDbBlockTableRecord
  2
*D2
340
0
  0
BLOCK_RECORD
  5
AE3
330
1
100
AcDbSymbolTableRecord
100
AcDbBlockTableRecord
  2
*D3
340
0
  0
BLOCK_RECORD
  5
AF0
330
1
100
AcDbSymbolTableRecord
100
AcDbBlockTableRecord
  2
*D4
340
0
  0
BLOCK_RECORD
  5
E61
330
1
100
AcDbSymbolTableRecord
100
AcDbBlockTableRecord
  2
*D5
340
0
  0
ENDTAB
  0
ENDSEC
  0
SECTION
  2
BLOCKS
  0
BLOCK
  5
35
330
1E
100
AcDbEntity
  8
0
100
AcDbBlockBegin
  2
*Model_Space
 70
     0
 10
0.0
 20
0.0
 30
0.0
  3
*Model_Space
  1

  0
ENDBLK
  5
36
330
1E
100
AcDbEntity
  8
0
100
AcDbBlockEnd
  0
BLOCK
  5
33
330
1A
100
AcDbEntity
 67
     1
  8
0
100
AcDbBlockBegin
  2
*Paper_Space
 70
     0
 10
0.0
 20
0.0
 30
0.0
  3
*Paper_Space
  1

  0
ENDBLK
  5
34
330
1A
100
AcDbEntity
 67
     1
  8
0
100
AcDbBlockEnd
  0
BLOCK
  5
37
330
22
100
AcDbEntity
  8
0
100
AcDbBlockBegin
  2
LOGO
 70
     0
 10
0.0
 20
0.0
 30
0.0
  3
LOGO
  1

  0
ARC
  5
38
330
22
100
AcDbEntity
  8
0
100
AcDbCircle
 10
11.59973089678112
 20
-9.271599258481501
 30
0.0
 40
4.5
100
AcDbArc
 50
270.0
 51
231.0575587310159
  0
LINE
  5
39
330
22
100
AcDbEntity
  8
0
100
AcDbLine
 10
3.599730896781125
 20
-4.771599258481529
 30
0.0
 11
3.599730896781153
 21
-11.77159925848133
 31
0.0
  0
LINE
  5
3A
330
22
100
AcDbEntity
  8
0
100
AcDbLine
 10
2.599730896781125
 20
-4.771599258481529
 30
0.0
 11
2.599730896781153
 21
-11.77159925848133
 31
0.0
  0
CIRCLE
  5
3B
330
22
100
AcDbEntity
  8
0
100
AcDbCircle
 10
11.59973089678112
 20
-9.271599258481501
 30
0.0
 40
3.5
  0
ARC
  5
3C
330
22
100
AcDbEntity
  8
0
100
AcDbCircle
 10
31.59973089678115
 20
-9.271599258481472
 30
0.0
 40
4.5
100
AcDbArc
 50
270.0
 51
231.0575587310182
  0
LINE
  5
3D
330
22
100
AcDbEntity
  8
0
100
AcDbLine
 10
17.59973089678112
 20
-4.771599258481472
 30
0.0
 11
17.59973089678115
 21
-13.77159925848147
 31
0.0
  0
ARC
  5
3E
330
22
100
AcDbEntity
  8
0
100
AcDbCircle
 10
22.59973089678116
 20
-7.271599258481472
 30
0.0
 40
2.5
100
AcDbArc
 50
293.1161887722295
 51
90.0
  0
CIRCLE
  5
3F
330
22
100
AcDbEntity
  8
0
100
AcDbCircle
 10
31.59973089678115
 20
-9.271599258481472
 30
0.0
 40
3.5
  0
ARC
  5
40
330
22
100
AcDbEntity
  8
0
100
AcDbCircle
 10
4.599730896781153
 20
-11.77159925848133
 30
0.0
 40
1.0
100
AcDbArc
 50
180.0
 51
270.0
  0
ARC
  5
41
330
22
100
AcDbEntity
  8
0
100
AcDbCircle
 10
4.599730896781153
 20
-11.77159925848133
 30
0.0
 40
2.0
100
AcDbArc
 50
179.9999999999992
 51
270.0
  0
LINE
  5
42
330
22
100
AcDbEntity
  8
0
100
AcDbLine
 10
11.59973089678115
 20
-13.77159925848144
 30
0.0
 11
4.599730896781153
 21
-13.77159925848147
 31
0.0
  0
LINE
  5
43
330
22
100
AcDbEntity
  8
0
100
AcDbLine
 10
8.771303772034769
 20
-12.77159925848136
 30
0.0
 11
4.599730896781153
 21
-12.77159925848133
 31
0.0
  0
LINE
  5
44
330
22
100
AcDbEntity
  8
0
100
AcDbLine
 10
31.59973089678115
 20
-13.77159925848147
 30
0.0
 11
23.6715276665056
 21
-13.77159925848144
 31
0.0
  0
LINE
  5
45
330
22
100
AcDbEntity
  8
0
100
AcDbLine
 10
23.56565672307022
 20
-9.51278021337896
 30
0.0
 11
24.4388546544846
 21
-12.77159925848144
 31
0.0
  0
LINE
  5
46
330
22
100
AcDbEntity
  8
0
100
AcDbLine
 10
22.59973089678116
 20
-9.771599258481472
 30
0.0
 11
18.59973089678112
 21
-9.771599258481472
 31
0.0
  0
LINE
  5
47
330
22
100
AcDbEntity
  8
0
100
AcDbLine
 10
18.59973089678115
 20
-13.77159925848144
 30
0.0
 11
17.59973089678115
 21
-13.77159925848144
 31
0.0
  0
LINE
  5
48
330
22
100
AcDbEntity
  8
0
100
AcDbLine
 10
18.59973089678115
 20
-9.771599258481472
 30
0.0
 11
18.59973089678115
 21
-13.77159925848144
 31
0.0
  0
LINE
  5
49
330
22
100
AcDbEntity
  8
0
100
AcDbLine
 10
22.59973089678116
 20
-9.771599258481472
 30
0.0
 11
23.67152766650562
 21
-13.77159925848147
 31
0.0
  0
ARC
  5
4A
330
22
100
AcDbEntity
  8
0
100
AcDbCircle
 10
22.59973089678116
 20
-7.271599258481472
 30
0.0
 40
2.5
100
AcDbArc
 50
270.0
 51
270.0000000000007
  0
LINE
  5
4B
330
22
100
AcDbEntity
  8
0
100
AcDbLine
 10
28.77130377203494
 20
-12.77159925848147
 30
0.0
 11
24.43885465448463
 21
-12.77159925848144
 31
0.0
  0
LINE
  5
4C
330
22
100
AcDbEntity
  8
0
100
AcDbLine
 10
3.599730896781125
 20
-4.771599258481472
 30
0.0
 11
2.599730896781125
 21
-4.771599258481472
 31
0.0
  0
LINE
  5
4D
330
22
100
AcDbEntity
  8
0
100
AcDbLine
 10
22.59973089678116
 20
-8.771599258481472
 30
0.0
 11
18.59973089678115
 21
-8.771599258481472
 31
0.0
  0
LINE
  5
4E
330
22
100
AcDbEntity
  8
0
100
AcDbLine
 10
22.59973089678116
 20
-5.771599258481472
 30
0.0
 11
18.59973089678115
 21
-5.771599258481472
 31
0.0
  0
LINE
  5
4F
330
22
100
AcDbEntity
  8
0
100
AcDbLine
 10
22.59973089678116
 20
-4.771599258481472
 30
0.0
 11
17.59973089678115
 21
-4.771599258481472
 31
0.0
  0
LINE
  5
50
330
22
100
AcDbEntity
  8
0
100
AcDbLine
 10
18.59973089678115
 20
-5.771599258481472
 30
0.0
 11
18.59973089678115
 21
-8.771599258481472
 31
0.0
  0
ARC
  5
51
330
22
100
AcDbEntity
  8
0
100
AcDbCircle
 10
22.59973089678116
 20
-7.271599258481472
 30
0.0
 40
1.5
100
AcDbArc
 50
270.0
 51
90.0
  0
ENDBLK
  5
52
330
22
100
AcDbEntity
  8
0
100
AcDbBlockEnd
  0
BLOCK
  5
6FD
330
6F3
100
AcDbEntity
  8
0
100
AcDbBlockBegin
  2
*D1
 70
     1
 10
0.0
 20
0.0
 30
0.0
  3
*D1
  1

  0
LINE
  5
E42
330
6F3
100
AcDbEntity
  8
BEM
 62
     0
370
    -2
100
AcDbLine
 10
140.7489246406833
 20
218.1540733416987
 30
0.0
 11
140.7489246406833
 21
197.773655543628
 31
0.0
  0
LINE
  5
E43
330
6F3
100
AcDbEntity
  8
BEM
 62
     0
370
    -2
100
AcDbLine
 10
240.7489246406832
 20
218.1540733416986
 30
0.0
 11
240.7489246406832
 21
197.773655543628
 31
0.0
  0
LINE
  5
E44
330
6F3
100
AcDbEntity
  8
BEM
 62
     0
370
    -2
100
AcDbLine
 10
147.7489246406833
 20
199.773655543628
 30
0.0
 11
233.7489246406832
 21
199.773655543628
 31
0.0
  0
SOLID
  5
E45
330
6F3
100
AcDbEntity
  8
BEM
 62
     0
100
AcDbTrace
 10
147.7489246406833
 20
200.9403222102946
 30
0.0
 11
147.7489246406833
 21
198.6069888769613
 31
0.0
 12
140.7489246406833
 22
199.773655543628
 32
0.0
 13
140.7489246406833
 23
199.773655543628
 33
0.0
  0
SOLID
  5
E46
330
6F3
100
AcDbEntity
  8
BEM
 62
     0
100
AcDbTrace
 10
233.7489246406832
 20
200.9403222102946
 30
0.0
 11
233.7489246406832
 21
198.6069888769613
 31
0.0
 12
240.7489246406832
 22
199.773655543628
 32
0.0
 13
240.7489246406832
 23
199.773655543628
 33
0.0
  0
MTEXT
  5
E47
330
6F3
100
AcDbEntity
  8
BEM
 62
     1
100
AcDbMText
 10
194.1760176724
 20
206.273655543628
 30
0.0
 40
7.0
 41
0.0
 71
     5
 72
     1
  1
\A1;100
 73
     1
 44
1.0
  0
POINT
  5
E48
330
6F3
100
AcDbEntity
  8
DEFPOINTS
 62
     0
100
AcDbPoint
 10
140.7489246406833
 20
220.1540733416987
 30
0.0
  0
POINT
  5
E49
330
6F3
100
AcDbEntity
  8
DEFPOINTS
 62
     0
100
AcDbPoint
 10
240.7489246406832
 20
220.1540733416986
 30
0.0
  0
POINT
  5
E4A
330
6F3
100
AcDbEntity
  8
DEFPOINTS
 62
     0
100
AcDbPoint
 10
240.7489246406832
 20
199.773655543628
 30
0.0
  0
ENDBLK
  5
6FE
330
6F3
100
AcDbEntity
  8
0
100
AcDbBlockEnd
  0
BLOCK
  5
991
330
987
100
AcDbEntity
  8
0
100
AcDbBlockBegin
  2
*D2
 70
     1
 10
0.0
 20
0.0
 30
0.0
  3
*D2
  1

  0
LINE
  5
E30
330
987
100
AcDbEntity
  8
BEM
 62
     0
370
    -2
100
AcDbLine
 10
271.2530316787719
 20
530.066271907036
 30
0.0
 11
261.2916204863373
 21
540.027683099471
 31
0.0
  0
LINE
  5
E31
330
987
100
AcDbEntity
  8
BEM
 62
     0
370
    -2
100
AcDbLine
 10
222.6151115886187
 20
479.7092426310727
 30
0.0
 11
211.7941458032783
 21
490.5302084164133
 31
0.0
  0
LINE
  5
E32
330
987
100
AcDbEntity
  8
BEM
 62
     0
370
    -2
100
AcDbLine
 10
257.7560865804044
 20
533.6637220687921
 30
0.0
 11
218.1581068339573
 21
494.065742322346
 31
0.0
  0
SOLID
  5
E33
330
987
100
AcDbEntity
  8
BEM
 62
     0
100
AcDbTrace
 10
256.93112866902
 20
534.4886799801763
 30
0.0
 11
258.5810444917886
 21
532.8387641574078
 31
0.0
 12
262.7058340487103
 22
538.6134695370978
 32
0.0
 13
262.7058340487103
 23
538.6134695370978
 33
0.0
  0
SOLID
  5
E34
330
987
100
AcDbEntity
  8
BEM
 62
     0
100
AcDbTrace
 10
217.333148922573
 20
494.8907002337302
 30
0.0
 11
218.9830647453415
 21
493.2407844109617
 31
0.0
 12
213.2083593656514
 22
489.1159948540402
 32
0.0
 13
213.2083593656514
 23
489.1159948540402
 33
0.0
  0
MTEXT
  5
E35
330
987
100
AcDbEntity
  8
BEM
 62
     1
100
AcDbMText
 10
233.3609026294684
 20
518.4609262732817
 30
0.0
 40
7.0
 41
0.0
 71
     5
 72
     1
  1
\A1;70
 11
0.7071067811865567
 21
0.7071067811865384
 31
0.0
 73
     1
 44
1.0
  0
POINT
  5
E36
330
987
100
AcDbEntity
  8
DEFPOINTS
 62
     0
100
AcDbPoint
 10
272.6672452411449
 20
528.6520583446629
 30
0.0
  0
POINT
  5
E37
330
987
100
AcDbEntity
  8
DEFPOINTS
 62
     0
100
AcDbPoint
 10
224.0293251509918
 20
478.2950290686995
 30
0.0
  0
POINT
  5
E38
330
987
100
AcDbEntity
  8
DEFPOINTS
 62
     0
100
AcDbPoint
 10
213.2083593656514
 20
489.1159948540402
 30
0.0
  0
ENDBLK
  5
992
330
987
100
AcDbEntity
  8
0
100
AcDbBlockEnd
  0
BLOCK
  5
AED
330
AE3
100
AcDbEntity
  8
0
100
AcDbBlockBegin
  2
*D3
 70
     1
 10
0.0
 20
0.0
 30
0.0
  3
*D3
  1

  0
LINE
  5
E1C
330
AE3
100
AcDbEntity
  8
BEM
 62
     0
370
    -2
100
AcDbLine
 10
271.253031678772
 20
530.0662719070362
 30
0.0
 11
249.1748437459684
 21
552.1444598398399
 31
0.0
  0
LINE
  5
E1D
330
AE3
100
AcDbEntity
  8
BEM
 62
     0
370
    -2
100
AcDbLine
 10
189.3347110783103
 20
371.5682869040717
 30
0.0
 11
128.9666909442549
 21
431.9363070381277
 31
0.0
  0
LINE
  5
E1E
330
AE3
100
AcDbEntity
  8
BEM
 62
     0
370
    -2
100
AcDbLine
 10
245.6393098400356
 20
545.780498809161
 30
0.0
 11
135.3306519749339
 21
435.4718409440604
 31
0.0
  0
SOLID
  5
E1F
330
AE3
100
AcDbEntity
  8
BEM
 62
     0
100
AcDbTrace
 10
244.8143519286514
 20
546.6054567205453
 30
0.0
 11
246.4642677514199
 21
544.9555408977767
 31
0.0
 12
250.5890573083415
 22
550.7302462774669
 32
0.0
 13
250.5890573083415
 23
550.7302462774669
 33
0.0
  0
SOLID
  5
E20
330
AE3
100
AcDbEntity
  8
BEM
 62
     0
100
AcDbTrace
 10
134.5056940635496
 20
436.2967988554447
 30
0.0
 11
136.1556098863182
 21
434.6468830326761
 31
0.0
 12
130.380904506628
 22
430.5220934757547
 32
0.0
 13
130.380904506628
 23
430.5220934757547
 33
0.0
  0
MTEXT
  5
E21
330
AE3
100
AcDbEntity
  8
BEM
 62
     1
100
AcDbMText
 10
185.8887868297722
 20
495.2223639543233
 30
0.0
 40
7.0
 41
0.0
 71
     5
 72
     1
  1
\A1;170
 11
0.7071067811865511
 21
0.7071067811865439
 31
0.0
 73
     1
 44
1.0
  0
POINT
  5
E22
330
AE3
100
AcDbEntity
  8
DEFPOINTS
 62
     0
100
AcDbPoint
 10
272.667245241145
 20
528.6520583446631
 30
0.0
  0
POINT
  5
E23
330
AE3
100
AcDbEntity
  8
DEFPOINTS
 62
     0
100
AcDbPoint
 10
190.7489246406834
 20
370.1540733416986
 30
0.0
  0
POINT
  5
E24
330
AE3
100
AcDbEntity
  8
DEFPOINTS
 62
     0
100
AcDbPoint
 10
130.380904506628
 20
430.5220934757546
 30
0.0
  0
ENDBLK
  5
AEE
330
AE3
100
AcDbEntity
  8
0
100
AcDbBlockEnd
  0
BLOCK
  5
AFA
330
AF0
100
AcDbEntity
  8
0
100
AcDbBlockBegin
  2
*D4
 70
     1
 10
0.0
 20
0.0
 30
0.0
  3
*D4
  1

  0
LINE
  5
E13
330
AF0
100
AcDbEntity
  8
BEM
 62
     0
370
    -2
100
AcDbLine
 10
138.7489246406833
 20
220.1540733416987
 30
0.0
 11
103.6377786406763
 21
220.1540733416987
 31
0.0
  0
LINE
  5
E14
330
AF0
100
AcDbEntity
  8
BEM
 62
     0
370
    -2
100
AcDbLine
 10
188.7489246406834
 20
370.1540733416986
 30
0.0
 11
103.6377786406764
 21
370.1540733416986
 31
0.0
  0
LINE
  5
E15
330
AF0
100
AcDbEntity
  8
BEM
 62
     0
370
    -2
100
AcDbLine
 10
105.6377786406763
 20
227.1540733416987
 30
0.0
 11
105.6377786406764
 21
363.1540733416986
 31
0.0
  0
SOLID
  5
E16
330
AF0
100
AcDbEntity
  8
BEM
 62
     0
100
AcDbTrace
 10
104.4711119740096
 20
227.1540733416987
 30
0.0
 11
106.804445307343
 21
227.1540733416987
 31
0.0
 12
105.6377786406763
 22
220.1540733416987
 32
0.0
 13
105.6377786406763
 23
220.1540733416987
 33
0.0
  0
SOLID
  5
E17
330
AF0
100
AcDbEntity
  8
BEM
 62
     0
100
AcDbTrace
 10
104.4711119740097
 20
363.1540733416986
 30
0.0
 11
106.804445307343
 21
363.1540733416986
 31
0.0
 12
105.6377786406764
 22
370.1540733416986
 32
0.0
 13
105.6377786406764
 23
370.1540733416986
 33
0.0
  0
MTEXT
  5
E18
330
AF0
100
AcDbEntity
  8
BEM
 62
     1
100
AcDbMText
 10
99.13777864067631
 20
295.1540733416987
 30
0.0
 40
7.0
 41
0.0
 71
     5
 72
     1
  1
\A1;150
 11
0.0000000000000001
 21
1.0
 31
0.0
 73
     1
 44
1.0
  0
POINT
  5
E19
330
AF0
100
AcDbEntity
  8
DEFPOINTS
 62
     0
100
AcDbPoint
 10
140.7489246406833
 20
220.1540733416987
 30
0.0
  0
POINT
  5
E1A
330
AF0
100
AcDbEntity
  8
DEFPOINTS
 62
     0
100
AcDbPoint
 10
190.7489246406834
 20
370.1540733416986
 30
0.0
  0
POINT
  5
E1B
330
AF0
100
AcDbEntity
  8
DEFPOINTS
 62
     0
100
AcDbPoint
 10
105.6377786406764
 20
370.1540733416986
 30
0.0
  0
ENDBLK
  5
AFB
330
AF0
100
AcDbEntity
  8
0
100
AcDbBlockEnd
  0
BLOCK
  5
E6D
330
E61
100
AcDbEntity
  8
0
100
AcDbBlockBegin
  2
*D5
 70
     1
 10
0.0
 20
0.0
 30
0.0
  3
*D5
  1

  0
LINE
  5
E6F
330
E61
100
AcDbEntity
  8
BEM
 62
     0
370
    -2
100
AcDbLine
 10
153.9793720189832
 20
406.9236259633993
 30
0.0
 11
128.966690944255
 21
431.9363070381278
 31
0.0
  0
LINE
  5
E70
330
E61
100
AcDbEntity
  8
BEM
 62
     0
370
    -2
100
AcDbLine
 10
138.7489246406834
 20
370.1540733416987
 30
0.0
 11
103.3756518334897
 21
370.1540733416988
 31
0.0
  0
ARC
  5
E71
330
E61
100
AcDbEntity
  8
BEM
 62
     0
370
    -2
100
AcDbCircle
 10
190.7489246406834
 20
370.1540733416986
 30
0.0
 40
85.37327280719377
100
AcDbArc
 50
139.6991625774582
 51
175.3008374225412
  0
SOLID
  5
E72
330
E61
100
AcDbEntity
  8
BEM
 62
     0
100
AcDbTrace
 10
124.7801556392107
 20
426.1640293143141
 30
0.0
 11
126.4963250357546
 21
424.5831412579323
 31
0.0
 12
130.3809045066281
 22
430.5220934757548
 32
0.0
 13
130.3809045066281
 23
430.5220934757548
 33
0.0
  0
SOLID
  5
E73
330
E61
100
AcDbEntity
  8
BEM
 62
     0
100
AcDbTrace
 10
106.8283127339422
 20
377.1003592139767
 30
0.0
 11
104.4969410510168
 21
377.1960175669733
 31
0.0
 12
105.3756518334897
 22
370.1540733416988
 32
0.0
 13
105.3756518334897
 23
370.1540733416988
 33
0.0
  0
MTEXT
  5
E74
330
E61
100
AcDbEntity
  8
BEM
 62
     1
100
AcDbMText
 10
105.8690883092915
 20
405.3124527221702
 30
0.0
 40
7.0
 41
0.0
 71
     5
 72
     1
  1
\A1;45°
 11
0.3826834323650923
 21
0.9238795325112857
 31
0.0
 73
     1
 44
1.0
  0
POINT
  5
E75
330
E61
100
AcDbEntity
  8
DEFPOINTS
 62
     0
100
AcDbPoint
 10
116.8135015854347
 20
412.8407097452959
 30
0.0
  0
POINT
  5
E76
330
E61
100
AcDbEntity
  8
DEFPOINTS
 62
     0
100
AcDbPoint
 10
189.3347110783104
 20
371.5682869040717
 30
0.0
  0
POINT
  5
E77
330
E61
100
AcDbEntity
  8
DEFPOINTS
 62
     0
100
AcDbPoint
 10
188.7489246406834
 20
370.1540733416986
 30
0.0
  0
POINT
  5
E78
330
E61
100
AcDbEntity
  8
DEFPOINTS
 62
     0
100
AcDbPoint
 10
140.7489246406835
 20
370.1540733416987
 30
0.0
  0
POINT
  5
E79
330
E61
100
AcDbEntity
  8
DEFPOINTS
 62
     0
100
AcDbPoint
 10
155.3935855813563
 20
405.5094124010262
 30
0.0
  0
ENDBLK
  5
E6E
330
E61
100
AcDbEntity
  8
0
100
AcDbBlockEnd
  0
ENDSEC
  0
SECTION
  2
ENTITIES
  0
LINE
  5
57
330
1E
100
AcDbEntity
  8
STEMPEL
100
AcDbLine
 10
410.0
 20
110.0
 30
0.0
 11
39.99999999999997
 21
110.0
 31
0.0
  0
LINE
  5
58
330
1E
100
AcDbEntity
  8
STEMPEL
100
AcDbLine
 10
136.0000000000001
 20
109.9999999999999
 30
0.0
 11
136.0
 21
9.999999999999971
 31
0.0
  0
LINE
  5
59
330
1E
100
AcDbEntity
  8
STEMPEL
100
AcDbLine
 10
220.0
 20
110.0
 30
0.0
 11
220.0
 21
9.999999999999971
 31
0.0
  0
LINE
  5
5A
330
1E
100
AcDbEntity
  8
STEMPEL
100
AcDbLine
 10
332.0
 20
109.9999999999997
 30
0.0
 11
332.0
 21
40.0
 31
0.0
  0
LINE
  5
5B
330
1E
100
AcDbEntity
  8
STEMPEL
100
AcDbLine
 10
135.9999999999999
 20
29.99999999999997
 30
0.0
 11
39.99999999999997
 21
29.99999999999997
 31
0.0
  0
LINE
  5
5C
330
1E
100
AcDbEntity
  8
STEMPEL
100
AcDbLine
 10
410.0
 20
40.0
 30
0.0
 11
136.0000000000001
 21
39.99999999999997
 31
0.0
  0
LINE
  5
5D
330
1E
100
AcDbEntity
  8
STEMPEL
100
AcDbLine
 10
410.0
 20
80.0
 30
0.0
 11
136.0000000000001
 21
79.99999999999994
 31
0.0
  0
LINE
  5
5E
330
1E
100
AcDbEntity
  8
VOLL
100
AcDbLine
 10
54.00000000000009
 20
110.0
 30
0.0
 11
53.99999999999997
 21
9.999999999999971
 31
0.0
  0
LINE
  5
5F
330
1E
100
AcDbEntity
  8
VOLL
100
AcDbLine
 10
94.00000000000011
 20
109.9999999999999
 30
0.0
 11
94.0
 21
9.999999999999971
 31
0.0
  0
LINE
  5
60
330
1E
100
AcDbEntity
  8
VOLL
100
AcDbLine
 10
114.0000000000001
 20
109.9999999999999
 30
0.0
 11
114.0
 21
9.999999999999971
 31
0.0
  0
LINE
  5
61
330
1E
100
AcDbEntity
  8
VOLL
100
AcDbLine
 10
154.0000000000001
 20
79.99999999999994
 30
0.0
 11
154.0000000000001
 21
39.99999999999997
 31
0.0
  0
LINE
  5
62
330
1E
100
AcDbEntity
  8
VOLL
100
AcDbLine
 10
180.0000000000001
 20
109.9999999999998
 30
0.0
 11
180.0
 21
39.99999999999997
 31
0.0
  0
LINE
  5
63
330
1E
100
AcDbEntity
  8
HILF
100
AcDbLine
 10
40.00000000000008
 20
100.0
 30
0.0
 11
136.0000000000001
 21
100.0
 31
0.0
  0
LINE
  5
64
330
1E
100
AcDbEntity
  8
HILF
100
AcDbLine
 10
40.00000000000008
 20
90.00000000000005
 30
0.0
 11
136.0000000000001
 21
90.00000000000005
 31
0.0
  0
LINE
  5
65
330
1E
100
AcDbEntity
  8
HILF
100
AcDbLine
 10
40.00000000000008
 20
79.99999999999994
 30
0.0
 11
136.0000000000001
 21
79.99999999999994
 31
0.0
  0
LINE
  5
66
330
1E
100
AcDbEntity
  8
HILF
100
AcDbLine
 10
40.00000000000008
 20
69.99999999999994
 30
0.0
 11
136.0000000000001
 21
69.99999999999994
 31
0.0
  0
LINE
  5
67
330
1E
100
AcDbEntity
  8
HILF
100
AcDbLine
 10
40.00000000000008
 20
59.99999999999997
 30
0.0
 11
136.0000000000001
 21
59.99999999999997
 31
0.0
  0
LINE
  5
68
330
1E
100
AcDbEntity
  8
HILF
100
AcDbLine
 10
40.00000000000008
 20
49.99999999999997
 30
0.0
 11
136.0000000000001
 21
49.99999999999997
 31
0.0
  0
LINE
  5
69
330
1E
100
AcDbEntity
  8
HILF
100
AcDbLine
 10
40.00000000000008
 20
39.99999999999997
 30
0.0
 11
136.0000000000001
 21
39.99999999999997
 31
0.0
  0
LINE
  5
6A
330
1E
100
AcDbEntity
  8
HILF
100
AcDbLine
 10
136.0000000000001
 20
69.99999999999994
 30
0.0
 11
220.0
 21
69.99999999999994
 31
0.0
  0
LINE
  5
6B
330
1E
100
AcDbEntity
  8
HILF
100
AcDbLine
 10
136.0000000000001
 20
59.99999999999997
 30
0.0
 11
220.0
 21
59.99999999999997
 31
0.0
  0
LINE
  5
6C
330
1E
100
AcDbEntity
  8
HILF
100
AcDbLine
 10
136.0000000000001
 20
49.99999999999997
 30
0.0
 11
220.0
 21
49.99999999999997
 31
0.0
  0
LINE
  5
6D
330
1E
100
AcDbEntity
  8
HILF
100
AcDbLine
 10
224.7736801096948
 20
84.03758247564139
 30
0.0
 11
324.8353916556311
 21
84.03758247564139
 31
0.0
  0
LINE
  5
6E
330
1E
100
AcDbEntity
  8
HILF
100
AcDbLine
 10
224.7736801096948
 20
69.99999999999994
 30
0.0
 11
324.835391655631
 21
69.99999999999994
 31
0.0
  0
LINE
  5
6F
330
1E
100
AcDbEntity
  8
HILF
100
AcDbLine
 10
224.7736801096948
 20
59.99999999999997
 30
0.0
 11
324.835391655631
 21
59.99999999999997
 31
0.0
  0
LINE
  5
70
330
1E
100
AcDbEntity
  8
HILF
100
AcDbLine
 10
224.7736801096948
 20
49.99999999999997
 30
0.0
 11
324.835391655631
 21
49.99999999999997
 31
0.0
  0
LINE
  5
71
330
1E
100
AcDbEntity
  8
VOLL
100
AcDbLine
 10
332.0
 20
60.0
 30
0.0
 11
410.0
 21
60.0
 31
0.0
  0
LINE
  5
72
330
1E
100
AcDbEntity
  8
HILF
100
AcDbLine
 10
336.7238616296993
 20
83.77983636955827
 30
0.0
 11
404.8588839326728
 21
83.77983636955827
 31
0.0
  0
LINE
  5
73
330
1E
100
AcDbEntity
  8
HILF
100
AcDbLine
 10
223.4909699289885
 20
14.89398258028314
 30
0.0
 11
404.8588839326728
 21
14.89398258028314
 31
0.0
  0
TEXT
  5
74
330
1E
100
AcDbEntity
  8
TEXT
100
AcDbText
 10
63.86165979631819
 20
18.67381894984132
 30
0.0
 40
4.0
  1
Änderung
 41
0.8
  7
GREEKS
 72
     1
 11
74.60451693917534
 21
18.67381894984132
 31
0.0
100
AcDbText
  0
TEXT
  5
75
330
1E
100
AcDbEntity
  8
TEXT
100
AcDbText
 10
143.5163572150377
 20
102.4620895087088
 30
0.0
 40
5.0
  1
Maßstab
 41
0.8
  7
GREEKS
100
AcDbText
  0
TEXT
  5
76
330
1E
100
AcDbEntity
  8
TEXT
100
AcDbText
 10
184.2858954734051
 20
102.4184168434819
 30
0.0
 40
5.0
  1
Zul. Abw.
 41
0.8
  7
GREEKS
100
AcDbText
  0
TEXT
  5
77
330
1E
100
AcDbEntity
  8
TEXT
100
AcDbText
 10
224.877940380901
 20
102.5489328011779
 30
0.0
 40
5.0
  1
Benennung
 41
0.8
  7
GREEKS
100
AcDbText
  0
TEXT
  5
78
330
1E
100
AcDbEntity
  8
TEXT
100
AcDbText
 10
336.178754957634
 20
102.3132034537136
 30
0.0
 40
5.0
  1
Zeichnungs Nr.
 41
0.8
  7
GREEKS
100
AcDbText
  0
TEXT
  5
79
330
1E
100
AcDbEntity
  8
TEXT
100
AcDbText
 10
224.742238391136
 20
30.84560570193057
 30
0.0
 40
5.0
  1
Bauvorhaben
 41
0.8
  7
GREEKS
100
AcDbText
  0
TEXT
  5
7A
330
1E
100
AcDbEntity
  8
TEXT
100
AcDbText
 10
336.7238616296993
 20
73.1811823709997
 30
0.0
 40
5.0
  1
Ersatz für:
 41
0.8
  7
GREEKS
100
AcDbText
  0
TEXT
  5
7B
330
1E
100
AcDbEntity
  8
TEXT
100
AcDbText
 10
48.26641107045756
 20
13.65465846027192
 30
0.0
 40
4.0
  1
Index
 50
90.0
 41
0.8
  7
GREEKS
100
AcDbText
  0
TEXT
  5
7C
330
1E
100
AcDbEntity
  8
TEXT
100
AcDbText
 10
100.0934676075481
 20
18.6715626933981
 30
0.0
 40
4.0
  1
Tag
 41
0.8
  7
GREEKS
 72
     1
 11
103.8268009408814
 21
18.6715626933981
 31
0.0
100
AcDbText
  0
TEXT
  5
7D
330
1E
100
AcDbEntity
  8
TEXT
100
AcDbText
 10
119.0122744386592
 20
18.59324216966408
 30
0.0
 40
4.0
  1
Name
 41
0.8
  7
GREEKS
 72
     1
 11
125.3360839624688
 21
18.59324216966408
 31
0.0
100
AcDbText
  0
TEXT
  5
7E
330
1E
100
AcDbEntity
  8
TEXT
100
AcDbText
 10
162.3311673153651
 20
73.31880501229926
 30
0.0
 40
4.0
  1
Tag
 41
0.8
  7
GREEKS
100
AcDbText
  0
TEXT
  5
7F
330
1E
100
AcDbEntity
  8
TEXT
100
AcDbText
 10
192.4626584226295
 20
73.30961091915225
 30
0.0
 40
4.0
  1
Name
 41
0.8
  7
GREEKS
100
AcDbText
  0
TEXT
  5
80
330
1E
100
AcDbEntity
  8
TEXT
100
AcDbText
 10
137.5836127167615
 20
63.62990369617964
 30
0.0
 40
4.0
  1
Gez.
 41
0.8
  7
GREEKS
100
AcDbText
  0
TEXT
  5
81
330
1E
100
AcDbEntity
  8
TEXT
100
AcDbText
 10
137.5515086571672
 20
53.68926291428377
 30
0.0
 40
4.0
  1
Gepr.
 41
0.8
  7
GREEKS
100
AcDbText
  0
TEXT
  5
82
330
1E
100
AcDbEntity
  8
TEXT
100
AcDbText
 10
137.6006777387304
 20
43.52946389649807
 30
0.0
 40
4.0
  1
Norm.
 41
0.8
  7
GREEKS
100
AcDbText
  0
LINE
  5
83
330
1E
100
AcDbEntity
  8
STEMPEL
100
AcDbLine
 10
49.99999999999989
 20
10.0
 30
0.0
 11
410.0
 21
10.0
 31
0.0
  0
TEXT
  5
84
330
1E
100
AcDbEntity
  8
TEXT
100
AcDbText
 10
337.2400861497006
 20
52.07416177878602
 30
0.0
 40
5.0
  1
ersetzt durch:
 41
0.8
  7
GREEKS
100
AcDbText
  0
LINE
  5
85
330
1E
100
AcDbEntity
  8
STEMPEL
100
AcDbLine
 10
410.0
 20
10.0
 30
0.0
 11
39.99999999999989
 21
10.0
 31
0.0
  0
LINE
  5
86
330
1E
100
AcDbEntity
  8
STEMPEL
100
AcDbLine
 10
410.0
 20
10.0
 30
0.0
 11
410.0
 21
584.0
 31
0.0
  0
LINE
  5
87
330
1E
100
AcDbEntity
  8
STEMPEL
100
AcDbLine
 10
40.0
 20
10.0
 30
0.0
 11
39.99999999999989
 21
584.0
 31
0.0
  0
LINE
  5
88
330
1E
100
AcDbEntity
  8
STEMPEL
100
AcDbLine
 10
410.0
 20
584.0
 30
0.0
 11
39.99999999999989
 21
584.0
 31
0.0
  0
LINE
  5
89
330
1E
100
AcDbEntity
  8
HILF
100
AcDbLine
 10
0.0
 20
0.0
 30
0.0
 11
-0.0000000000001137
 21
594.0
 31
0.0
  0
LINE
  5
8A
330
1E
100
AcDbEntity
  8
HILF
100
AcDbLine
 10
419.9999999999999
 20
594.0000000000002
 30
0.0
 11
0.0
 21
594.0
 31
0.0
  0
LINE
  5
8B
330
1E
100
AcDbEntity
  8
HILF
100
AcDbLine
 10
420.0
 20
0.0
 30
0.0
 11
0.0
 21
0.0
 31
0.0
  0
LINE
  5
8C
330
1E
100
AcDbEntity
  8
HILF
100
AcDbLine
 10
31.08767135713856
 20
297.0
 30
0.0
 11
0.0000000000001137
 21
297.0
 31
0.0
  0
TEXT
  5
8D
330
1E
100
AcDbEntity
  8
TEXT
100
AcDbText
 10
138.622109822104
 20
73.14025471151666
 30
0.0
 40
4.0
  1
2009
 41
0.8
  7
GREEKS
100
AcDbText
  0
LINE
  5
8E
330
1E
100
AcDbEntity
  8
HILF
100
AcDbLine
 10
420.0
 20
-0.0000000000001137
 30
0.0
 11
419.9999999999999
 21
594.0
 31
0.0
  0
TEXT
  5
8F
330
1E
100
AcDbEntity
  8
VOLL
100
AcDbText
 10
78.07675471698113
 20
31.02594776470585
 30
0.0
 40
1.8
  1

  7
GREEKS
100
AcDbText
  0
TEXT
  5
90
330
1E
100
AcDbEntity
  8
TEXT
100
AcDbText
 10
41.85509950977674
 20
111.6719999999999
 30
0.0
 40
5.0
  1
Erstellt mit AUTOCAD 2004
 41
0.8
  7
GREEKS
100
AcDbText
  0
TEXT
  5
91
330
1E
100
AcDbEntity
  8
TEXT
100
AcDbText
 10
194.4216048581257
 20
63.0896391972351
 30
0.0
 40
4.0
  1
Koeh
 41
0.8
  7
GREEKS
 72
     1
 11
199.6787477152685
 21
63.0896391972351
 31
0.0
100
AcDbText
  0
TEXT
  5
92
330
1E
100
AcDbEntity
  8
TEXT
 62
     1
100
AcDbText
 10
346.881885078688
 20
88.14901428913959
 30
0.0
 40
7.0
  1
55698100W
 41
0.8
  7
GREEKS
 72
     1
 11
370.3485517453547
 21
88.14901428913959
 31
0.0
100
AcDbText
  0
TEXT
  5
93
330
1E
100
AcDbEntity
  8
TEXT
 62
     1
100
AcDbText
 10
150.5006306481887
 20
88.14901428913959
 30
0.0
 40
7.0
  1
1:2
 41
0.8
  7
GREEKS
100
AcDbText
  0
TEXT
  5
94
330
1E
100
AcDbEntity
  8
TEXT
100
AcDbText
 10
161.0085209177598
 20
63.10765040825732
 30
0.0
 40
4.0
  1
05.11.
 41
0.8
  7
GREEKS
 72
     1
 11
167.4085209177598
 21
63.10765040825732
 31
0.0
100
AcDbText
  0
TEXT
  5
95
330
1E
100
AcDbEntity
  8
TEXT
 62
     1
100
AcDbText
 10
226.8935731057402
 20
87.41748789253779
 30
0.0
 40
7.0
  1
Bogen DN100 45°
 41
0.8
  7
GREEKS
100
AcDbText
  0
TEXT
  5
96
330
1E
100
AcDbEntity
  8
TEXT
100
AcDbText
 10
225.1296391125315
 20
71.50334417585288
 30
0.0
 40
5.0
  1
quadratisch mit Muffe
 41
0.8
  7
GREEKS
100
AcDbText
  0
TEXT
  5
97
330
1E
100
AcDbEntity
  8
TEXT
100
AcDbText
 10
225.1296391125315
 20
62.11580706774856
 30
0.0
 40
5.0
  1

 41
0.8
  7
GREEKS
100
AcDbText
  0
TEXT
  5
98
330
1E
100
AcDbEntity
  8
TEXT
100
AcDbText
 10
225.1296391125315
 20
51.64011943042158
 30
0.0
 40
5.0
  1
EDV-Art.Nr. 55698.100X
 41
0.8
  7
GREEKS
100
AcDbText
  0
TEXT
  5
99
330
1E
100
AcDbEntity
  8
TEXT
100
AcDbText
 10
224.9837501577827
 20
42.62974153022632
 30
0.0
 40
4.0
  1
55698100W.DWG
 41
0.8
  7
GREEKS
100
AcDbText
  0
TEXT
  5
9A
330
1E
100
AcDbEntity
  8
TEXT
100
AcDbText
 10
182.626132208084
 20
90.76363841023022
 30
0.0
 40
4.0
  1
DIN EN1123-2
 41
0.8
  7
GREEKS
 72
     1
 11
199.6166083985602
 21
90.76363841023022
 31
0.0
100
AcDbText
  0
INSERT
  5
9B
330
1E
100
AcDbEntity
  8
STEMPEL
100
AcDbBlockReference
  2
LOGO
 10
140.9955485457794
 20
45.02105276448322
 30
0.0
 41
2.0
 42
2.0
 43
2.0
  0
TEXT
  5
118
330
1E
100
AcDbEntity
  8
BEM
100
AcDbText
 10
417.3022923857165
 20
10.16790107998849
 30
0.0
 40
4.0
  1
Diese Zeichnung ist urheberrechtlich geschützt und bleibt unser Eigentum. Sie darf weder ganz noch teilweise verfielfältigt und nicht an Dritte weitergegeben werden.
 50
90.0
 41
0.8
  7
GREEKS
100
AcDbText
  0
LINE
  5
6DA
330
1E
100
AcDbEntity
  8
MITTEL
100
AcDbLine
 10
314.4926113483293
 20
493.8977600493442
 30
0.0
 11
190.7489246406834
 21
370.1540733416986
 31
0.0
  0
LINE
  5
6EE
330
1E
100
AcDbEntity
  8
STEMPEL
100
AcDbLine
 10
240.7489246406832
 20
220.1540733416986
 30
0.0
 11
140.7489246406833
 21
220.1540733416987
 31
0.0
  0
DIMENSION
  5
6F2
330
1E
100
AcDbEntity
  8
BEM
100
AcDbDimension
  2
*D1
 10
240.7489246406832
 20
199.773655543628
 30
0.0
 11
194.1760176724
 21
199.773655543628
 31
0.0
 70
   160
 71
     5
 42
99.99999999999984
  3
Standard
100
AcDbAlignedDimension
 13
140.7489246406833
 23
220.1540733416987
 33
0.0
 14
240.7489246406832
 24
220.1540733416986
 34
0.0
100
AcDbRotatedDimension
1001
ACAD
1000
DSTYLE
1002
{
1070
    40
1040
2.0
1070
    41
1040
3.5
1070
    42
1040
1.0
1070
    43
1040
7.0
1070
    44
1040
1.0
1070
    73
1070
     0
1070
    74
1070
     0
1070
    77
1070
     1
1070
    78
1070
     8
1070
    79
1070
     2
1070
   140
1040
3.5
1070
   141
1040
1.5
1070
   146
1040
0.5
1070
   147
1040
1.5
1070
   172
1070
     1
1070
   178
1070
     1
1070
   179
1070
     2
1070
   271
1070
     2
1070
   272
1070
     2
1070
   284
1070
     8
1070
   285
1070
     8
1070
   286
1070
     8
1002
}
  0
LWPOLYLINE
  5
700
330
1E
100
AcDbEntity
  8
BEM
 62
     1
100
AcDbPolyline
 90
        4
 70
     1
 43
0.0
 10
176.9939253294553
 20
209.8276183206086
 10
176.9939253294553
 20
202.8276183206085
 10
183.9939253294553
 20
202.8276183206085
 10
183.9939253294553
 20
209.8276183206086
  0
TEXT
  5
7C7
330
1E
100
AcDbEntity
  8
TEXT
 62
     1
100
AcDbText
 10
234.6057658946468
 20
129.0783465745483
 30
0.0
 40
7.0
  1
und innen beschichtet
 41
0.8
  7
GREEKS
100
AcDbText
  0
TEXT
  5
7C8
330
1E
100
AcDbEntity
  8
TEXT
 62
     1
100
AcDbText
 10
186.6560484572489
 20
139.8004583895517
 30
0.0
 40
7.0
  1
Werkstoff: S235 JRH EN10305 feuerverzinkt
 41
0.8
  7
GREEKS
100
AcDbText
  0
TEXT
  5
7D4
330
1E
100
AcDbEntity
  8
TEXT
 62
     1
100
AcDbText
 10
205.1146380104379
 20
400.6665529373104
 30
0.0
 40
7.0
  1
DN100
 50
44.99999999999999
 41
0.8
  7
GREEKS
100
AcDbText
  0
LINE
  5
928
330
1E
100
AcDbEntity
  8
STEMPEL
100
AcDbLine
 10
349.246909643648
 20
452.0723939421598
 30
0.0
 11
304.2808869080709
 21
407.1063712065825
 31
0.0
  0
ARC
  5
929
330
1E
100
AcDbEntity
  8
STEMPEL
100
AcDbCircle
 10
300.7162811065121
 20
388.1975482532761
 30
0.0
 40
15.0
100
AcDbArc
 50
105.7279257826982
 51
134.9999999999999
  0
ARC
  5
92D
330
1E
100
AcDbEntity
  8
STEMPEL
100
AcDbCircle
 10
291.9065182373062
 20
419.4807398773473
 30
0.0
 40
17.5
100
AcDbArc
 50
285.7279257826982
 51
315.0
  0
LINE
  5
92E
102
{ACAD_REACTORS
330
DFD
102
}
330
1E
100
AcDbEntity
  8
STEMPEL
100
AcDbLine
 10
290.109679388714
 20
398.8041499710743
 30
0.0
 11
240.7489246406834
 21
349.4433952230437
 31
0.0
  0
ARC
  5
931
330
1E
100
AcDbEntity
  8
STEMPEL
100
AcDbCircle
 10
208.7923995522611
 20
480.1214298075271
 30
0.0
 40
15.0
100
AcDbArc
 50
315.0
 51
344.2720742173018
  0
ARC
  5
933
330
1E
100
AcDbEntity
  8
STEMPEL
100
AcDbCircle
 10
240.0755911763323
 20
471.3116669383213
 30
0.0
 40
17.5
100
AcDbArc
 50
134.9999999999999
 51
164.2720742173017
  0
LINE
  5
935
330
1E
100
AcDbEntity
  8
STEMPEL
100
AcDbLine
 10
272.6672452411449
 20
528.6520583446629
 30
0.0
 11
227.7012225055677
 21
483.6860356090858
 31
0.0
  0
LINE
  5
937
102
{ACAD_REACTORS
330
DFD
102
}
330
1E
100
AcDbEntity
  8
STEMPEL
100
AcDbLine
 10
219.3990012700593
 20
469.514828089729
 30
0.0
 11
140.7489246406834
 21
390.8647514603533
 31
0.0
  0
LINE
  5
938
330
1E
100
AcDbEntity
  8
STEMPEL
100
AcDbLine
 10
272.6672452411449
 20
528.6520583446629
 30
0.0
 11
349.246909643648
 21
452.0723939421598
 31
0.0
  0
LINE
  5
93A
330
1E
100
AcDbEntity
  8
HILF
100
AcDbLine
 10
299.236140233044
 20
406.9696791149819
 30
0.0
 11
227.5645304139671
 21
478.6412889340592
 31
0.0
  0
LINE
  5
93B
330
1E
100
AcDbEntity
  8
HILF
100
AcDbLine
 10
291.6174400083548
 20
403.7285202341433
 30
0.0
 11
224.3233715331284
 21
471.0225887093698
 31
0.0
  0
DIMENSION
  5
986
330
1E
100
AcDbEntity
  8
BEM
100
AcDbDimension
  2
*D2
 10
213.2083593656514
 20
489.1159948540402
 30
0.0
 11
233.3609026294684
 21
518.4609262732817
 31
0.0
 70
    32
 71
     5
 42
69.99999999999989
  3
Standard
100
AcDbAlignedDimension
 13
272.6672452411449
 23
528.6520583446629
 33
0.0
 14
224.0293251509917
 24
478.2950290686996
 34
0.0
 50
44.99999999999926
100
AcDbRotatedDimension
1001
ACAD
1000
DSTYLE
1002
{
1070
    40
1040
2.0
1070
    41
1040
3.5
1070
    42
1040
1.0
1070
    43
1040
7.0
1070
    44
1040
1.0
1070
    73
1070
     0
1070
    74
1070
     0
1070
    77
1070
     1
1070
    78
1070
     8
1070
    79
1070
     2
1070
   140
1040
3.5
1070
   141
1040
1.5
1070
   146
1040
0.5
1070
   147
1040
1.5
1070
   172
1070
     1
1070
   178
1070
     1
1070
   179
1070
     2
1070
   271
1070
     2
1070
   272
1070
     2
1070
   284
1070
     8
1070
   285
1070
     8
1070
   286
1070
     8
1002
}
  0
LINE
  5
A22
102
{ACAD_REACTORS
330
DFD
102
}
330
1E
100
AcDbEntity
  8
STEMPEL
100
AcDbLine
 10
240.7489246406834
 20
349.4433952230437
 30
0.0
 11
240.7489246406832
 21
220.1540733416986
 31
0.0
  0
LINE
  5
A23
330
1E
100
AcDbEntity
  8
MITTEL
100
AcDbLine
 10
190.7489246406834
 20
370.1540733416986
 30
0.0
 11
190.7489246406832
 21
215.1540733416986
 31
0.0
  0
LINE
  5
A24
102
{ACAD_REACTORS
330
DFD
102
}
330
1E
100
AcDbEntity
  8
STEMPEL
100
AcDbLine
 10
140.7489246406834
 20
390.8647514603533
 30
0.0
 11
140.7489246406833
 21
220.1540733416987
 31
0.0
  0
DIMENSION
  5
AE2
330
1E
100
AcDbEntity
  8
BEM
100
AcDbDimension
  2
*D3
 10
130.380904506628
 20
430.5220934757546
 30
0.0
 11
185.8887868297722
 21
495.2223639543233
 31
0.0
 70
    32
 71
     5
 42
169.9999999999996
 51
357.0
  3
Standard
100
AcDbAlignedDimension
 13
272.667245241145
 23
528.6520583446631
 33
0.0
 14
190.7489246406834
 24
370.1540733416986
 34
0.0
 50
44.9999999999997
100
AcDbRotatedDimension
1001
ACAD
1000
DSTYLE
1002
{
1070
    40
1040
2.0
1070
    41
1040
3.5
1070
    42
1040
1.0
1070
    43
1040
7.0
1070
    44
1040
1.0
1070
    73
1070
     0
1070
    74
1070
     0
1070
    77
1070
     1
1070
    78
1070
     8
1070
    79
1070
     2
1070
   140
1040
3.5
1070
   141
1040
1.5
1070
   146
1040
0.5
1070
   147
1040
1.5
1070
   172
1070
     1
1070
   178
1070
     1
1070
   179
1070
     2
1070
   271
1070
     2
1070
   272
1070
     2
1070
   284
1070
     8
1070
   285
1070
     8
1070
   286
1070
     8
1002
}
  0
DIMENSION
  5
AEF
330
1E
100
AcDbEntity
  8
BEM
100
AcDbDimension
  2
*D4
 10
105.6377786406764
 20
370.1540733416986
 30
0.0
 11
99.13777864067631
 21
295.1540733416987
 31
0.0
 70
    32
 71
     5
 42
149.9999999999999
  3
Standard
100
AcDbAlignedDimension
 13
140.7489246406833
 23
220.1540733416987
 33
0.0
 14
190.7489246406834
 24
370.1540733416986
 34
0.0
 50
90.0
100
AcDbRotatedDimension
1001
ACAD
1000
DSTYLE
1002
{
1070
    40
1040
2.0
1070
    41
1040
3.5
1070
    42
1040
1.0
1070
    43
1040
7.0
1070
    44
1040
1.0
1070
    73
1070
     0
1070
    74
1070
     0
1070
    77
1070
     1
1070
    78
1070
     8
1070
    79
1070
     2
1070
   140
1040
3.5
1070
   141
1040
1.5
1070
   146
1040
0.5
1070
   147
1040
1.5
1070
   172
1070
     1
1070
   178
1070
     1
1070
   179
1070
     2
1070
   271
1070
     2
1070
   272
1070
     2
1070
   284
1070
     8
1070
   285
1070
     8
1070
   286
1070
     8
1002
}
  0
LINE
  5
DF0
330
1E
100
AcDbEntity
  8
STEMPEL
100
AcDbLine
 10
240.7489246406834
 20
349.4433952230437
 30
0.0
 11
140.7489246406834
 21
390.8647514603533
 31
0.0
  0
ARC
  5
DF3
102
{ACAD_REACTORS
330
DFD
102
}
330
1E
100
AcDbEntity
  8
SCHRAFF
100
AcDbCircle
 10
239.8258217958331
 20
349.8257569408459
 30
0.0
 40
3.745085749209511
100
AcDbArc
 50
284.2695367368563
 51
30.73046326314404
  0
ARC
  5
DF4
102
{ACAD_REACTORS
330
DFD
102
}
330
1E
100
AcDbEntity
  8
SCHRAFF
100
AcDbCircle
 10
142.5600625770956
 20
390.114553563763
 30
0.0
 40
3.084659344947681
100
AcDbArc
 50
80.95456902824016
 51
234.0454309717597
  0
HATCH
  5
DFD
330
1E
100
AcDbEntity
  8
SCHRAFF
100
AcDbHatch
 10
0.0
 20
0.0
 30
0.0
210
0.0
220
0.0
230
1.0
  2
_USER
 70
     0
 71
     1
 91
        2
 92
        7
 72
     1
 73
     1
 93
        3
 10
240.7489246406834
 20
346.1962186221665
 42
0.5010952475855356
 10
243.0450252348739
 20
351.7394958172342
 42
0.0
 10
240.7489246406833
 20
349.4433952230437
 42
0.0
 97
        3
330
92E
330
A22
330
DF3
 92
        7
 72
     1
 73
     1
 93
        3
 10
140.7489246406834
 20
387.6175748594761
 42
0.0
 10
140.7489246406834
 20
390.8647514603533
 42
0.0
 10
143.045025234874
 20
393.1608520545438
 42
0.7889794853469533
 97
        3
330
937
330
DF4
330
A24
 75
     0
 76
     0
 52
0.0
 41
0.1
 77
     0
 78
     1
 53
0.0
 43
14.1015605661255
 44
0.0
 45
0.0
 46
0.1
 79
     0
 47
0.1536142465268393
 98
        2
 10
241.6465796229136
 20
348.9076551659871
 10
140.0524854200339
 20
389.6154318176307
  0
ARC
  5
DFE
330
1E
100
AcDbEntity
  8
SCHRAFF
100
AcDbCircle
 10
140.7489246406834
 20
390.8647514603533
 30
0.0
 40
5.0
100
AcDbArc
 50
300.6301023541555
 51
14.36989764584433
  0
ARC
  5
DFF
330
1E
100
AcDbEntity
  8
SCHRAFF
100
AcDbCircle
 10
145.3683223032399
 20
388.9513342985278
 30
0.0
 40
5.0
100
AcDbArc
 50
300.6301023541555
 51
14.36989764584433
  0
ARC
  5
E00
330
1E
100
AcDbEntity
  8
SCHRAFF
100
AcDbCircle
 10
149.9877199657963
 20
387.0379171367024
 30
0.0
 40
5.0
100
AcDbArc
 50
300.6301023541555
 51
14.36989764584433
  0
ARC
  5
E01
330
1E
100
AcDbEntity
  8
SCHRAFF
100
AcDbCircle
 10
154.6071176283527
 20
385.1244999748769
 30
0.0
 40
5.0
100
AcDbArc
 50
300.6301023541555
 51
14.36989764584433
  0
ARC
  5
E02
330
1E
100
AcDbEntity
  8
SCHRAFF
100
AcDbCircle
 10
159.2265152909092
 20
383.2110828130515
 30
0.0
 40
5.0
100
AcDbArc
 50
300.6301023541555
 51
14.36989764584433
  0
ARC
  5
E03
330
1E
100
AcDbEntity
  8
SCHRAFF
100
AcDbCircle
 10
163.8459129534656
 20
381.297665651226
 30
0.0
 40
5.0
100
AcDbArc
 50
300.6301023541555
 51
14.36989764584433
  0
ARC
  5
E04
330
1E
100
AcDbEntity
  8
SCHRAFF
100
AcDbCircle
 10
168.465310616022
 20
379.3842484894005
 30
0.0
 40
5.0
100
AcDbArc
 50
300.6301023541555
 51
14.36989764584433
  0
ARC
  5
E05
330
1E
100
AcDbEntity
  8
SCHRAFF
100
AcDbCircle
 10
173.0847082785785
 20
377.4708313275751
 30
0.0
 40
5.0
100
AcDbArc
 50
300.6301023541555
 51
14.36989764584433
  0
ARC
  5
E06
330
1E
100
AcDbEntity
  8
SCHRAFF
100
AcDbCircle
 10
177.7041059411349
 20
375.5574141657497
 30
0.0
 40
5.0
100
AcDbArc
 50
300.6301023541555
 51
14.36989764584433
  0
ARC
  5
E07
330
1E
100
AcDbEntity
  8
SCHRAFF
100
AcDbCircle
 10
182.3235036036913
 20
373.6439970039242
 30
0.0
 40
5.0
100
AcDbArc
 50
300.6301023541555
 51
14.36989764584433
  0
ARC
  5
E08
330
1E
100
AcDbEntity
  8
SCHRAFF
100
AcDbCircle
 10
186.9429012662477
 20
371.7305798420988
 30
0.0
 40
5.0
100
AcDbArc
 50
300.6301023541555
 51
14.36989764584433
  0
ARC
  5
E09
330
1E
100
AcDbEntity
  8
SCHRAFF
100
AcDbCircle
 10
191.5622989288042
 20
369.8171626802733
 30
0.0
 40
5.0
100
AcDbArc
 50
300.6301023541555
 51
14.36989764584433
  0
ARC
  5
E0A
330
1E
100
AcDbEntity
  8
SCHRAFF
100
AcDbCircle
 10
196.1816965913606
 20
367.9037455184479
 30
0.0
 40
5.0
100
AcDbArc
 50
300.6301023541555
 51
14.36989764584433
  0
ARC
  5
E0B
330
1E
100
AcDbEntity
  8
SCHRAFF
100
AcDbCircle
 10
200.8010942539171
 20
365.9903283566224
 30
0.0
 40
5.0
100
AcDbArc
 50
300.6301023541555
 51
14.36989764584433
  0
ARC
  5
E0C
330
1E
100
AcDbEntity
  8
SCHRAFF
100
AcDbCircle
 10
205.4204919164735
 20
364.0769111947969
 30
0.0
 40
5.0
100
AcDbArc
 50
300.6301023541555
 51
14.36989764584433
  0
ARC
  5
E0D
330
1E
100
AcDbEntity
  8
SCHRAFF
100
AcDbCircle
 10
210.0398895790299
 20
362.1634940329715
 30
0.0
 40
5.0
100
AcDbArc
 50
300.6301023541555
 51
14.36989764584433
  0
ARC
  5
E0E
330
1E
100
AcDbEntity
  8
SCHRAFF
100
AcDbCircle
 10
214.6592872415864
 20
360.2500768711461
 30
0.0
 40
5.0
100
AcDbArc
 50
300.6301023541555
 51
14.36989764584433
  0
ARC
  5
E0F
330
1E
100
AcDbEntity
  8
SCHRAFF
100
AcDbCircle
 10
219.2786849041428
 20
358.3366597093206
 30
0.0
 40
5.0
100
AcDbArc
 50
300.6301023541555
 51
14.36989764584433
  0
ARC
  5
E10
330
1E
100
AcDbEntity
  8
SCHRAFF
100
AcDbCircle
 10
223.8980825666992
 20
356.4232425474951
 30
0.0
 40
5.0
100
AcDbArc
 50
300.6301023541555
 51
14.36989764584433
  0
ARC
  5
E11
330
1E
100
AcDbEntity
  8
SCHRAFF
100
AcDbCircle
 10
228.5174802292556
 20
354.5098253856697
 30
0.0
 40
5.0
100
AcDbArc
 50
300.6301023541555
 51
14.36989764584433
  0
ARC
  5
E12
330
1E
100
AcDbEntity
  8
SCHRAFF
100
AcDbCircle
 10
233.1368778918121
 20
352.5964082238443
 30
0.0
 40
5.0
100
AcDbArc
 50
300.6301023541555
 51
14.36989764584433
  0
DIMENSION
  5
E60
330
1E
100
AcDbEntity
  8
BEM
100
AcDbDimension
  2
*D5
 10
155.3935855813563
 20
405.5094124010261
 30
0.0
 11
105.8690883092915
 21
405.3124527221702
 31
0.0
 70
    34
 71
     5
 42
0.7853981633974526
  3
Standard
100
AcDb2LineAngularDimension
 13
188.7489246406834
 23
370.1540733416986
 33
0.0
 14
140.7489246406834
 24
370.1540733416986
 34
0.0
 15
189.3347110783103
 25
371.5682869040717
 35
0.0
 16
116.8135015854347
 26
412.8407097452959
 36
0.0
1001
ACAD
1000
DSTYLE
1002
{
1070
    40
1040
2.0
1070
    41
1040
3.5
1070
    42
1040
1.0
1070
    43
1040
7.0
1070
    44
1040
1.0
1070
    73
1070
     0
1070
    74
1070
     0
1070
    77
1070
     1
1070
    78
1070
     8
1070
    79
1070
     2
1070
   140
1040
3.5
1070
   141
1040
1.5
1070
   146
1040
0.5
1070
   147
1040
1.5
1070
   172
1070
     1
1070
   178
1070
     1
1070
   179
1070
     2
1070
   271
1070
     2
1070
   272
1070
     2
1070
   284
1070
     8
1070
   285
1070
     8
1070
   286
1070
     8
1002
}
  0
ENDSEC
  0
SECTION
  2
OBJECTS
  0
DICTIONARY
  5
C
330
0
100
AcDbDictionary
281
     1
  3
ACAD_COLOR
350
DF
  3
ACAD_GROUP
350
D
  3
ACAD_LAYOUT
350
19
  3
ACAD_MATERIAL
350
DE
  3
ACAD_MLINESTYLE
350
16
  3
ACAD_PLOTSETTINGS
350
18
  3
ACAD_PLOTSTYLENAME
350
E
  3
AcDbVariableDictionary
350
EA
  0
DICTIONARY
  5
A0
330
1E
100
AcDbDictionary
280
     1
281
     1
  3
ACAD_LAYOUTSELFREF
360
D4
  0
DICTIONARY
  5
A2
330
1A
100
AcDbDictionary
280
     1
281
     1
  3
ACAD_LAYOUTSELFREF
360
D3
  0
DICTIONARY
  5
DF
102
{ACAD_REACTORS
330
C
102
}
330
C
100
AcDbDictionary
281
     1
  0
DICTIONARY
  5
D
102
{ACAD_REACTORS
330
C
102
}
330
C
100
AcDbDictionary
281
     1
  0
DICTIONARY
  5
19
102
{ACAD_REACTORS
330
C
102
}
330
C
100
AcDbDictionary
281
     1
  3
Layout1
350
1D
  3
Model
350
21
  0
DICTIONARY
  5
DE
102
{ACAD_REACTORS
330
C
102
}
330
C
100
AcDbDictionary
281
     1
  0
DICTIONARY
  5
16
102
{ACAD_REACTORS
330
C
102
}
330
C
100
AcDbDictionary
281
     1
  3
Standard
350
17
  0
DICTIONARY
  5
18
102
{ACAD_REACTORS
330
C
102
}
330
C
100
AcDbDictionary
281
     1
  0
ACDBDICTIONARYWDFLT
  5
E
102
{ACAD_REACTORS
330
C
102
}
330
C
100
AcDbDictionary
281
     1
  3
Normal
350
F
100
AcDbDictionaryWithDefault
340
F
  0
DICTIONARY
  5
EA
102
{ACAD_REACTORS
330
C
102
}
330
C
100
AcDbDictionary
281
     1
  3
DIMASSOC
350
EB
  3
PROJECTNAME
350
EC
  0
XRECORD
  5
D4
102
{ACAD_REACTORS
330
A0
102
}
330
A0
100
AcDbXrecord
280
     1
340
1E
  0
XRECORD
  5
D3
102
{ACAD_REACTORS
330
A2
102
}
330
A2
100
AcDbXrecord
280
     1
340
1A
  0
LAYOUT
  5
1D
102
{ACAD_REACTORS
330
19
102
}
330
19
100
AcDbPlotSettings
  1

  2
\\NT_WORK01\HP LaserJet 5000 PCL 6
  4

  6

 40
0.0
 41
0.0
 42
0.0
 43
0.0
 44
0.0
 45
0.0
 46
0.0
 47
0.0
 48
0.0
 49
0.0
140
0.0
141
0.0
142
1.0
143
1.0
 70
   688
 72
     0
 73
     0
 74
     5
  7

 75
    16
147
1.0
 76
     0
 77
     2
 78
   300
148
0.0
149
0.0
100
AcDbLayout
  1
Layout1
 70
     0
 71
     1
 10
0.0
 20
0.0
 11
12.0
 21
9.0
 12
0.0
 22
0.0
 32
0.0
 14
1.000000000000000E+20
 24
1.000000000000000E+20
 34
1.000000000000000E+20
 15
-1.000000000000000E+20
 25
-1.000000000000000E+20
 35
-1.000000000000000E+20
146
0.0
 13
0.0
 23
0.0
 33
0.0
 16
1.0
 26
0.0
 36
0.0
 17
0.0
 27
1.0
 37
0.0
 76
     0
330
1A
  0
LAYOUT
  5
21
102
{ACAD_REACTORS
330
19
102
}
330
19
100
AcDbPlotSettings
  1

  2
none_device
  4
Letter_(8.50_x_11.00_Inches)
  6

 40
6.349999904632568
 41
6.349999904632568
 42
6.350006103515625
 43
6.350006103515625
 44
215.8999938964844
 45
279.3999938964844
 46
0.0
 47
0.0
 48
0.0
 49
0.0
140
0.0
141
0.0
142
1.0
143
1.0
 70
 11952
 72
     0
 73
     1
 74
     0
  7

 75
     0
147
1.0
 76
     0
 77
     2
 78
   300
148
2271.705623028196
149
62.07408360217847
100
AcDbLayout
  1
Model
 70
     1
 71
     0
 10
0.0
 20
0.0
 11
12.0
 21
9.0
 12
0.0
 22
0.0
 32
0.0
 14
0.0
 24
0.0
 34
0.0
 15
0.0
 25
0.0
 35
0.0
146
0.0
 13
0.0
 23
0.0
 33
0.0
 16
1.0
 26
0.0
 36
0.0
 17
0.0
 27
1.0
 37
0.0
 76
     0
330
1E
  0
MLINESTYLE
  5
17
102
{ACAD_REACTORS
330
16
102
}
330
16
100
AcDbMlineStyle
  2
STANDARD
 70
     0
  3

 62
   256
 51
90.0
 52
90.0
 71
     2
 49
0.5
 62
   256
  6
BYLAYER
 49
-0.5
 62
   256
  6
BYLAYER
  0
ACDBPLACEHOLDER
  5
F
102
{ACAD_REACTORS
330
E
102
}
330
E
  0
DICTIONARYVAR
  5
EB
102
{ACAD_REACTORS
330
EA
102
}
330
EA
100
DictionaryVariables
280
     0
  1
1
  0
DICTIONARYVAR
  5
EC
102
{ACAD_REACTORS
330
EA
102
}
330
EA
100
DictionaryVariables
280
     0
  1

  0
ENDSEC
  0
EOF
