  0
SECTION
  2
HEADER
  9
$ACADVER
  1
AC1018
  9
$ACADMAINTVER
 70
     2
  9
$DWGCODEPAGE
  3
ANSI_1252
  9
$INSBASE
 10
0.0
 20
0.0
 30
0.0
  9
$EXTMIN
 10
-0.0320258532665321
 20
-0.0452937067634594
 30
-0.0000000000000129
  9
$EXTMAX
 10
420.0000078240054
 20
594.0000110653779
 30
0.0000000000000023
  9
$LIMMIN
 10
0.0
 20
0.0
  9
$LIMMAX
 10
419.9999999999999
 20
594.0
  9
$ORTHOMODE
 70
     1
  9
$REGENMODE
 70
     1
  9
$FILLMODE
 70
     1
  9
$QTEXTMODE
 70
     0
  9
$MIRRTEXT
 70
     1
  9
$LTSCALE
 40
20.0
  9
$ATTMODE
 70
     1
  9
$TEXTSIZE
 40
3.5
  9
$TRACEWID
 40
0.5
  9
$TEXTSTYLE
  7
STANDARD
  9
$CLAYER
  8
BEM
  9
$CELTYPE
  6
ByLayer
  9
$CECOLOR
 62
   256
  9
$CELTSCALE
 40
1.0
  9
$DISPSILH
 70
     0
  9
$DIMSCALE
 40
2.0
  9
$DIMASZ
 40
3.5
  9
$DIMEXO
 40
1.0
  9
$DIMDLI
 40
7.0
  9
$DIMRND
 40
0.0
  9
$DIMDLE
 40
0.0
  9
$DIMEXE
 40
1.0
  9
$DIMTP
 40
0.0
  9
$DIMTM
 40
0.0
  9
$DIMTXT
 40
3.5
  9
$DIMCEN
 40
1.5
  9
$DIMTSZ
 40
0.0
  9
$DIMTOL
 70
     0
  9
$DIMLIM
 70
     0
  9
$DIMTIH
 70
     0
  9
$DIMTOH
 70
     0
  9
$DIMSE1
 70
     0
  9
$DIMSE2
 70
     0
  9
$DIMTAD
 70
     1
  9
$DIMZIN
 70
     8
  9
$DIMBLK
  1

  9
$DIMASO
 70
     1
  9
$DIMSHO
 70
     0
  9
$DIMPOST
  1

  9
$DIMAPOST
  1

  9
$DIMALT
 70
     0
  9
$DIMALTD
 70
     2
  9
$DIMALTF
 40
25.4
  9
$DIMLFAC
 40
1.0
  9
$DIMTOFL
 70
     1
  9
$DIMTVP
 40
0.0
  9
$DIMTIX
 70
     0
  9
$DIMSOXD
 70
     0
  9
$DIMSAH
 70
     0
  9
$DIMBLK1
  1

  9
$DIMBLK2
  1

  9
$DIMSTYLE
  2
Standard
  9
$DIMCLRD
 70
     0
  9
$DIMCLRE
 70
     0
  9
$DIMCLRT
 70
     1
  9
$DIMTFAC
 40
0.5
  9
$DIMGAP
 40
1.5
  9
$DIMJUST
 70
     0
  9
$DIMSD1
 70
     0
  9
$DIMSD2
 70
     0
  9
$DIMTOLJ
 70
     1
  9
$DIMTZIN
 70
     8
  9
$DIMALTZ
 70
     8
  9
$DIMALTTZ
 70
     8
  9
$DIMUPT
 70
     0
  9
$DIMDEC
 70
     2
  9
$DIMTDEC
 70
     2
  9
$DIMALTU
 70
     2
  9
$DIMALTTD
 70
     2
  9
$DIMTXSTY
  7
STANDARD
  9
$DIMAUNIT
 70
     0
  9
$DIMADEC
 70
     2
  9
$DIMALTRND
 40
0.0
  9
$DIMAZIN
 70
     2
  9
$DIMDSEP
 70
    46
  9
$DIMATFIT
 70
     3
  9
$DIMFRAC
 70
     0
  9
$DIMLDRBLK
  1

  9
$DIMLUNIT
 70
     2
  9
$DIMLWD
 70
    -2
  9
$DIMLWE
 70
    -2
  9
$DIMTMOVE
 70
     0
  9
$LUNITS
 70
     2
  9
$LUPREC
 70
     2
  9
$SKETCHINC
 40
1.0
  9
$FILLETRAD
 40
0.0
  9
$AUNITS
 70
     0
  9
$AUPREC
 70
     0
  9
$MENU
  1
ACAD
  9
$ELEVATION
 40
0.0
  9
$PELEVATION
 40
0.0
  9
$THICKNESS
 40
0.0
  9
$LIMCHECK
 70
     0
  9
$CHAMFERA
 40
0.0
  9
$CHAMFERB
 40
0.0
  9
$CHAMFERC
 40
0.0
  9
$CHAMFERD
 40
0.0
  9
$SKPOLY
 70
     0
  9
$TDCREATE
 40
2455397.823042361
  9
$TDUCREATE
 40
2455397.781375695
  9
$TDUPDATE
 40
2455532.329559237
  9
$TDUUPDATE
 40
2455532.287892570
  9
$TDINDWG
 40
0.1676682755
  9
$TDUSRTIMER
 40
0.1676682755
  9
$USRTIMER
 70
     1
  9
$ANGBASE
 50
0.0
  9
$ANGDIR
 70
     0
  9
$PDMODE
 70
     0
  9
$PDSIZE
 40
0.0
  9
$PLINEWID
 40
0.0
  9
$SPLFRAME
 70
     0
  9
$SPLINETYPE
 70
     6
  9
$SPLINESEGS
 70
     8
  9
$HANDSEED
  5
E9C
  9
$SURFTAB1
 70
     6
  9
$SURFTAB2
 70
     6
  9
$SURFTYPE
 70
     6
  9
$SURFU
 70
     6
  9
$SURFV
 70
     6
  9
$UCSBASE
  2

  9
$UCSNAME
  2

  9
$UCSORG
 10
0.0
 20
0.0
 30
0.0
  9
$UCSXDIR
 10
1.0
 20
0.0
 30
0.0
  9
$UCSYDIR
 10
0.0
 20
1.0
 30
0.0
  9
$UCSORTHOREF
  2

  9
$UCSORTHOVIEW
 70
     0
  9
$UCSORGTOP
 10
0.0
 20
0.0
 30
0.0
  9
$UCSORGBOTTOM
 10
0.0
 20
0.0
 30
0.0
  9
$UCSORGLEFT
 10
0.0
 20
0.0
 30
0.0
  9
$UCSORGRIGHT
 10
0.0
 20
0.0
 30
0.0
  9
$UCSORGFRONT
 10
0.0
 20
0.0
 30
0.0
  9
$UCSORGBACK
 10
0.0
 20
0.0
 30
0.0
  9
$PUCSBASE
  2

  9
$PUCSNAME
  2

  9
$PUCSORG
 10
0.0
 20
0.0
 30
0.0
  9
$PUCSXDIR
 10
1.0
 20
0.0
 30
0.0
  9
$PUCSYDIR
 10
0.0
 20
1.0
 30
0.0
  9
$PUCSORTHOREF
  2

  9
$PUCSORTHOVIEW
 70
     0
  9
$PUCSORGTOP
 10
0.0
 20
0.0
 30
0.0
  9
$PUCSORGBOTTOM
 10
0.0
 20
0.0
 30
0.0
  9
$PUCSORGLEFT
 10
0.0
 20
0.0
 30
0.0
  9
$PUCSORGRIGHT
 10
0.0
 20
0.0
 30
0.0
  9
$PUCSORGFRONT
 10
0.0
 20
0.0
 30
0.0
  9
$PUCSORGBACK
 10
0.0
 20
0.0
 30
0.0
  9
$USERI1
 70
     0
  9
$USERI2
 70
     0
  9
$USERI3
 70
     0
  9
$USERI4
 70
     0
  9
$USERI5
 70
     0
  9
$USERR1
 40
0.0
  9
$USERR2
 40
0.0
  9
$USERR3
 40
0.0
  9
$USERR4
 40
0.0
  9
$USERR5
 40
0.0
  9
$WORLDVIEW
 70
     1
  9
$SHADEDGE
 70
     3
  9
$SHADEDIF
 70
    70
  9
$TILEMODE
 70
     1
  9
$MAXACTVP
 70
    16
  9
$PINSBASE
 10
0.0
 20
0.0
 30
0.0
  9
$PLIMCHECK
 70
     0
  9
$PEXTMIN
 10
1.000000000000000E+20
 20
1.000000000000000E+20
 30
1.000000000000000E+20
  9
$PEXTMAX
 10
-1.000000000000000E+20
 20
-1.000000000000000E+20
 30
-1.000000000000000E+20
  9
$PLIMMIN
 10
0.0
 20
0.0
  9
$PLIMMAX
 10
12.0
 20
9.0
  9
$UNITMODE
 70
     0
  9
$VISRETAIN
 70
     0
  9
$PLINEGEN
 70
     0
  9
$PSLTSCALE
 70
     0
  9
$TREEDEPTH
 70
  3020
  9
$CMLSTYLE
  2
Standard
  9
$CMLJUST
 70
     0
  9
$CMLSCALE
 40
1.0
  9
$PROXYGRAPHICS
 70
     1
  9
$MEASUREMENT
 70
     0
  9
$CELWEIGHT
370
    -1
  9
$ENDCAPS
280
     0
  9
$JOINSTYLE
280
     0
  9
$LWDISPLAY
290
     0
  9
$INSUNITS
 70
     0
  9
$HYPERLINKBASE
  1

  9
$STYLESHEET
  1
monochrome 1.ctb
  9
$XEDIT
290
     1
  9
$CEPSNTYPE
380
     0
  9
$PSTYLEMODE
290
     1
  9
$FINGERPRINTGUID
  2
{D68B0D02-A558-11D7-B632-000102183313}
  9
$VERSIONGUID
  2
{572FE115-0958-4E2A-BF17-F135539D6609}
  9
$EXTNAMES
290
     1
  9
$PSVPSCALE
 40
0.0
  9
$OLESTARTUP
290
     0
  9
$SORTENTS
280
   127
  9
$INDEXCTL
280
     0
  9
$HIDETEXT
280
     0
  9
$XCLIPFRAME
290
     0
  9
$HALOGAP
280
     0
  9
$OBSCOLOR
 70
   257
  9
$OBSLTYPE
280
     0
  9
$INTERSECTIONDISPLAY
280
     0
  9
$INTERSECTIONCOLOR
 70
   257
  9
$DIMASSOC
280
     1
  9
$PROJECTNAME
  1

  0
ENDSEC
  0
SECTION
  2
CLASSES
  0
CLASS
  1
ACDBDICTIONARYWDFLT
  2
AcDbDictionaryWithDefault
  3
ObjectDBX Classes
 90
        0
 91
        1
280
     0
281
     0
  0
CLASS
  1
DICTIONARYVAR
  2
AcDbDictionaryVar
  3
ObjectDBX Classes
 90
        0
 91
        2
280
     0
281
     0
  0
ENDSEC
  0
SECTION
  2
TABLES
  0
TABLE
  2
VPORT
  5
8
330
0
100
AcDbSymbolTable
 70
     2
  0
VPORT
  5
E9B
330
8
100
AcDbSymbolTableRecord
100
AcDbViewportTableRecord
  2
*Active
 70
     0
 10
0.0
 20
0.0
 11
1.0
 21
1.0
 12
209.9839909853695
 22
296.9773586793072
 13
0.0
 23
0.0
 14
1.0
 24
1.0
 15
10.0
 25
10.0
 16
0.0
 26
0.0
 36
1.0
 17
0.0
 27
0.0
 37
0.0
 40
598.8424404768961
 41
1.336927223719676
 42
50.0
 43
0.0
 44
0.0
 50
0.0
 51
0.0
 71
     0
 72
  1500
 73
     1
 74
     0
 75
     0
 76
     0
 77
     0
 78
     0
281
     0
 65
     1
110
0.0
120
0.0
130
0.0
111
1.0
121
0.0
131
0.0
112
0.0
122
1.0
132
0.0
 79
     0
146
0.0
  0
ENDTAB
  0
TABLE
  2
LTYPE
  5
5
330
0
100
AcDbSymbolTable
 70
     2
  0
LTYPE
  5
13
330
5
100
AcDbSymbolTableRecord
100
AcDbLinetypeTableRecord
  2
ByBlock
 70
     0
  3

 72
    65
 73
     0
 40
0.0
  0
LTYPE
  5
14
330
5
100
AcDbSymbolTableRecord
100
AcDbLinetypeTableRecord
  2
ByLayer
 70
     0
  3

 72
    65
 73
     0
 40
0.0
  0
LTYPE
  5
15
330
5
100
AcDbSymbolTableRecord
100
AcDbLinetypeTableRecord
  2
Continuous
 70
     0
  3
Solid line
 72
    65
 73
     0
 40
0.0
  0
LTYPE
  5
25
330
5
100
AcDbSymbolTableRecord
100
AcDbLinetypeTableRecord
  2
STRICHPUNKT
 70
     0
  3
__ . __ . __ . __ . __ . __ . __ . __ . __ . __
 72
    65
 73
     4
 40
1.0
 49
0.5
 74
     0
 49
-0.25
 74
     0
 49
0.0
 74
     0
 49
-0.25
 74
     0
  0
ENDTAB
  0
TABLE
  2
LAYER
  5
2
330
0
100
AcDbSymbolTable
 70
     9
  0
LAYER
  5
10
330
2
100
AcDbSymbolTableRecord
100
AcDbLayerTableRecord
  2
0
 70
     0
 62
     7
  6
Continuous
370
    -3
390
F
  0
LAYER
  5
2A
330
2
100
AcDbSymbolTableRecord
100
AcDbLayerTableRecord
  2
VOLL
 70
     0
 62
     1
  6
Continuous
370
    -3
390
F
  0
LAYER
  5
2B
330
2
100
AcDbSymbolTableRecord
100
AcDbLayerTableRecord
  2
HILF
 70
     0
 62
     2
  6
Continuous
370
    -3
390
F
  0
LAYER
  5
2C
330
2
100
AcDbSymbolTableRecord
100
AcDbLayerTableRecord
  2
MITTEL
 70
     0
 62
     2
  6
STRICHPUNKT
370
    -3
390
F
  0
LAYER
  5
2F
330
2
100
AcDbSymbolTableRecord
100
AcDbLayerTableRecord
  2
BEM
 70
     0
 62
     7
  6
Continuous
370
    -3
390
F
  0
LAYER
  5
30
330
2
100
AcDbSymbolTableRecord
100
AcDbLayerTableRecord
  2
STEMPEL
 70
     0
 62
     3
  6
Continuous
370
    -3
390
F
  0
LAYER
  5
31
330
2
100
AcDbSymbolTableRecord
100
AcDbLayerTableRecord
  2
TEXT
 70
     0
 62
     7
  6
Continuous
370
    -3
390
F
  0
LAYER
  5
390
330
2
100
AcDbSymbolTableRecord
100
AcDbLayerTableRecord
  2
DEFPOINTS
 70
     0
 62
     7
  6
Continuous
290
     0
370
    -3
390
F
  0
LAYER
  5
391
330
2
100
AcDbSymbolTableRecord
100
AcDbLayerTableRecord
  2
SCHRAFF
 70
     0
 62
     7
  6
Continuous
370
    -3
390
F
  0
ENDTAB
  0
TABLE
  2
STYLE
  5
3
330
0
100
AcDbSymbolTable
 70
     2
  0
STYLE
  5
11
330
3
100
AcDbSymbolTableRecord
100
AcDbTextStyleTableRecord
  2
STANDARD
 70
     0
 40
0.0
 41
0.8
 50
0.0
 71
     0
 42
3.5
  3
simplex.shx
  4

  0
STYLE
  5
24
330
3
100
AcDbSymbolTableRecord
100
AcDbTextStyleTableRecord
  2
GREEKS
 70
     0
 40
0.0
 41
0.8
 50
0.0
 71
     0
 42
2.5
  3
SIMPLEX.shx
  4

  0
ENDTAB
  0
TABLE
  2
VIEW
  5
6
330
0
100
AcDbSymbolTable
 70
     0
  0
ENDTAB
  0
TABLE
  2
UCS
  5
7
330
0
100
AcDbSymbolTable
 70
     0
  0
ENDTAB
  0
TABLE
  2
APPID
  5
9
330
0
100
AcDbSymbolTable
 70
     1
  0
APPID
  5
12
330
9
100
AcDbSymbolTableRecord
100
AcDbRegAppTableRecord
  2
ACAD
 70
     0
  0
ENDTAB
  0
TABLE
  2
DIMSTYLE
  5
A
330
0
100
AcDbSymbolTable
 70
     1
100
AcDbDimStyleTable
 71
     1
340
9D
  0
DIMSTYLE
105
9D
102
{ACAD_REACTORS
330
6F2
330
9B7
330
986
330
B31
330
BE1
330
E88
102
}
330
A
100
AcDbSymbolTableRecord
100
AcDbDimStyleTableRecord
  2
Standard
 70
     0
340
11
  0
ENDTAB
  0
TABLE
  2
BLOCK_RECORD
  5
1
330
0
100
AcDbSymbolTable
 70
     7
  0
BLOCK_RECORD
  5
1E
102
{ACAD_XDICTIONARY
360
A0
102
}
330
1
100
AcDbSymbolTableRecord
100
AcDbBlockTableRecord
  2
*Model_Space
340
21
  0
BLOCK_RECORD
  5
1A
102
{ACAD_XDICTIONARY
360
A2
102
}
330
1
100
AcDbSymbolTableRecord
100
AcDbBlockTableRecord
  2
*Paper_Space
340
1D
  0
BLOCK_RECORD
  5
22
330
1
100
AcDbSymbolTableRecord
100
AcDbBlockTableRecord
  2
LOGO
340
0
102
{BLKREFS
331
9B
102
}
  0
BLOCK_RECORD
  5
6F3
330
1
100
AcDbSymbolTableRecord
100
AcDbBlockTableRecord
  2
*D1
340
0
  0
BLOCK_RECORD
  5
987
330
1
100
AcDbSymbolTableRecord
100
AcDbBlockTableRecord
  2
*D2
340
0
  0
BLOCK_RECORD
  5
9B8
330
1
100
AcDbSymbolTableRecord
100
AcDbBlockTableRecord
  2
*D3
340
0
  0
BLOCK_RECORD
  5
B32
330
1
100
AcDbSymbolTableRecord
100
AcDbBlockTableRecord
  2
*D4
340
0
  0
BLOCK_RECORD
  5
BE2
330
1
100
AcDbSymbolTableRecord
100
AcDbBlockTableRecord
  2
*D5
340
0
  0
BLOCK_RECORD
  5
E89
330
1
100
AcDbSymbolTableRecord
100
AcDbBlockTableRecord
  2
*D6
340
0
  0
ENDTAB
  0
ENDSEC
  0
SECTION
  2
BLOCKS
  0
BLOCK
  5
35
330
1E
100
AcDbEntity
  8
0
100
AcDbBlockBegin
  2
*Model_Space
 70
     0
 10
0.0
 20
0.0
 30
0.0
  3
*Model_Space
  1

  0
ENDBLK
  5
36
330
1E
100
AcDbEntity
  8
0
100
AcDbBlockEnd
  0
BLOCK
  5
33
330
1A
100
AcDbEntity
 67
     1
  8
0
100
AcDbBlockBegin
  2
*Paper_Space
 70
     0
 10
0.0
 20
0.0
 30
0.0
  3
*Paper_Space
  1

  0
ENDBLK
  5
34
330
1A
100
AcDbEntity
 67
     1
  8
0
100
AcDbBlockEnd
  0
BLOCK
  5
37
330
22
100
AcDbEntity
  8
0
100
AcDbBlockBegin
  2
LOGO
 70
     0
 10
0.0
 20
0.0
 30
0.0
  3
LOGO
  1

  0
ARC
  5
38
330
22
100
AcDbEntity
  8
0
100
AcDbCircle
 10
11.59973089678112
 20
-9.271599258481501
 30
0.0
 40
4.5
100
AcDbArc
 50
270.0
 51
231.0575587310159
  0
LINE
  5
39
330
22
100
AcDbEntity
  8
0
100
AcDbLine
 10
3.599730896781125
 20
-4.771599258481529
 30
0.0
 11
3.599730896781153
 21
-11.77159925848133
 31
0.0
  0
LINE
  5
3A
330
22
100
AcDbEntity
  8
0
100
AcDbLine
 10
2.599730896781125
 20
-4.771599258481529
 30
0.0
 11
2.599730896781153
 21
-11.77159925848133
 31
0.0
  0
CIRCLE
  5
3B
330
22
100
AcDbEntity
  8
0
100
AcDbCircle
 10
11.59973089678112
 20
-9.271599258481501
 30
0.0
 40
3.5
  0
ARC
  5
3C
330
22
100
AcDbEntity
  8
0
100
AcDbCircle
 10
31.59973089678115
 20
-9.271599258481472
 30
0.0
 40
4.5
100
AcDbArc
 50
270.0
 51
231.0575587310182
  0
LINE
  5
3D
330
22
100
AcDbEntity
  8
0
100
AcDbLine
 10
17.59973089678112
 20
-4.771599258481472
 30
0.0
 11
17.59973089678115
 21
-13.77159925848147
 31
0.0
  0
ARC
  5
3E
330
22
100
AcDbEntity
  8
0
100
AcDbCircle
 10
22.59973089678116
 20
-7.271599258481472
 30
0.0
 40
2.5
100
AcDbArc
 50
293.1161887722295
 51
90.0
  0
CIRCLE
  5
3F
330
22
100
AcDbEntity
  8
0
100
AcDbCircle
 10
31.59973089678115
 20
-9.271599258481472
 30
0.0
 40
3.5
  0
ARC
  5
40
330
22
100
AcDbEntity
  8
0
100
AcDbCircle
 10
4.599730896781153
 20
-11.77159925848133
 30
0.0
 40
1.0
100
AcDbArc
 50
180.0
 51
270.0
  0
ARC
  5
41
330
22
100
AcDbEntity
  8
0
100
AcDbCircle
 10
4.599730896781153
 20
-11.77159925848133
 30
0.0
 40
2.0
100
AcDbArc
 50
179.9999999999992
 51
270.0
  0
LINE
  5
42
330
22
100
AcDbEntity
  8
0
100
AcDbLine
 10
11.59973089678115
 20
-13.77159925848144
 30
0.0
 11
4.599730896781153
 21
-13.77159925848147
 31
0.0
  0
LINE
  5
43
330
22
100
AcDbEntity
  8
0
100
AcDbLine
 10
8.771303772034769
 20
-12.77159925848136
 30
0.0
 11
4.599730896781153
 21
-12.77159925848133
 31
0.0
  0
LINE
  5
44
330
22
100
AcDbEntity
  8
0
100
AcDbLine
 10
31.59973089678115
 20
-13.77159925848147
 30
0.0
 11
23.6715276665056
 21
-13.77159925848144
 31
0.0
  0
LINE
  5
45
330
22
100
AcDbEntity
  8
0
100
AcDbLine
 10
23.56565672307022
 20
-9.51278021337896
 30
0.0
 11
24.4388546544846
 21
-12.77159925848144
 31
0.0
  0
LINE
  5
46
330
22
100
AcDbEntity
  8
0
100
AcDbLine
 10
22.59973089678116
 20
-9.771599258481472
 30
0.0
 11
18.59973089678112
 21
-9.771599258481472
 31
0.0
  0
LINE
  5
47
330
22
100
AcDbEntity
  8
0
100
AcDbLine
 10
18.59973089678115
 20
-13.77159925848144
 30
0.0
 11
17.59973089678115
 21
-13.77159925848144
 31
0.0
  0
LINE
  5
48
330
22
100
AcDbEntity
  8
0
100
AcDbLine
 10
18.59973089678115
 20
-9.771599258481472
 30
0.0
 11
18.59973089678115
 21
-13.77159925848144
 31
0.0
  0
LINE
  5
49
330
22
100
AcDbEntity
  8
0
100
AcDbLine
 10
22.59973089678116
 20
-9.771599258481472
 30
0.0
 11
23.67152766650562
 21
-13.77159925848147
 31
0.0
  0
ARC
  5
4A
330
22
100
AcDbEntity
  8
0
100
AcDbCircle
 10
22.59973089678116
 20
-7.271599258481472
 30
0.0
 40
2.5
100
AcDbArc
 50
270.0
 51
270.0000000000007
  0
LINE
  5
4B
330
22
100
AcDbEntity
  8
0
100
AcDbLine
 10
28.77130377203494
 20
-12.77159925848147
 30
0.0
 11
24.43885465448463
 21
-12.77159925848144
 31
0.0
  0
LINE
  5
4C
330
22
100
AcDbEntity
  8
0
100
AcDbLine
 10
3.599730896781125
 20
-4.771599258481472
 30
0.0
 11
2.599730896781125
 21
-4.771599258481472
 31
0.0
  0
LINE
  5
4D
330
22
100
AcDbEntity
  8
0
100
AcDbLine
 10
22.59973089678116
 20
-8.771599258481472
 30
0.0
 11
18.59973089678115
 21
-8.771599258481472
 31
0.0
  0
LINE
  5
4E
330
22
100
AcDbEntity
  8
0
100
AcDbLine
 10
22.59973089678116
 20
-5.771599258481472
 30
0.0
 11
18.59973089678115
 21
-5.771599258481472
 31
0.0
  0
LINE
  5
4F
330
22
100
AcDbEntity
  8
0
100
AcDbLine
 10
22.59973089678116
 20
-4.771599258481472
 30
0.0
 11
17.59973089678115
 21
-4.771599258481472
 31
0.0
  0
LINE
  5
50
330
22
100
AcDbEntity
  8
0
100
AcDbLine
 10
18.59973089678115
 20
-5.771599258481472
 30
0.0
 11
18.59973089678115
 21
-8.771599258481472
 31
0.0
  0
ARC
  5
51
330
22
100
AcDbEntity
  8
0
100
AcDbCircle
 10
22.59973089678116
 20
-7.271599258481472
 30
0.0
 40
1.5
100
AcDbArc
 50
270.0
 51
90.0
  0
ENDBLK
  5
52
330
22
100
AcDbEntity
  8
0
100
AcDbBlockEnd
  0
BLOCK
  5
6FD
330
6F3
100
AcDbEntity
  8
0
100
AcDbBlockBegin
  2
*D1
 70
     1
 10
0.0
 20
0.0
 30
0.0
  3
*D1
  1

  0
LINE
  5
DC9
330
6F3
100
AcDbEntity
  8
BEM
 62
     0
370
    -2
100
AcDbLine
 10
126.3696131405522
 20
176.9949148024592
 30
0.0
 11
126.3696131405522
 21
156.6144970043885
 31
0.0
  0
LINE
  5
DCA
330
6F3
100
AcDbEntity
  8
BEM
 62
     0
370
    -2
100
AcDbLine
 10
226.3696131405521
 20
176.9949148024591
 30
0.0
 11
226.3696131405521
 21
156.6144970043885
 31
0.0
  0
LINE
  5
DCB
330
6F3
100
AcDbEntity
  8
BEM
 62
     0
370
    -2
100
AcDbLine
 10
133.3696131405522
 20
158.6144970043885
 30
0.0
 11
219.369613140552
 21
158.6144970043885
 31
0.0
  0
SOLID
  5
DCC
330
6F3
100
AcDbEntity
  8
BEM
 62
     0
100
AcDbTrace
 10
133.3696131405522
 20
159.7811636710551
 30
0.0
 11
133.3696131405522
 21
157.4478303377218
 31
0.0
 12
126.3696131405522
 22
158.6144970043885
 32
0.0
 13
126.3696131405522
 23
158.6144970043885
 33
0.0
  0
SOLID
  5
DCD
330
6F3
100
AcDbEntity
  8
BEM
 62
     0
100
AcDbTrace
 10
219.369613140552
 20
159.7811636710551
 30
0.0
 11
219.369613140552
 21
157.4478303377218
 31
0.0
 12
226.3696131405521
 22
158.6144970043885
 32
0.0
 13
226.3696131405521
 23
158.6144970043885
 33
0.0
  0
MTEXT
  5
DCE
330
6F3
100
AcDbEntity
  8
BEM
 62
     1
100
AcDbMText
 10
179.7967061722687
 20
165.1144970043885
 30
0.0
 40
7.0
 41
0.0
 71
     5
 72
     1
  1
\A1;100
 73
     1
 44
1.0
  0
POINT
  5
DCF
330
6F3
100
AcDbEntity
  8
DEFPOINTS
 62
     0
100
AcDbPoint
 10
126.3696131405522
 20
178.9949148024592
 30
0.0
  0
POINT
  5
DD0
330
6F3
100
AcDbEntity
  8
DEFPOINTS
 62
     0
100
AcDbPoint
 10
226.3696131405521
 20
178.9949148024591
 30
0.0
  0
POINT
  5
DD1
330
6F3
100
AcDbEntity
  8
DEFPOINTS
 62
     0
100
AcDbPoint
 10
226.3696131405521
 20
158.6144970043885
 30
0.0
  0
ENDBLK
  5
6FE
330
6F3
100
AcDbEntity
  8
0
100
AcDbBlockEnd
  0
BLOCK
  5
991
330
987
100
AcDbEntity
  8
0
100
AcDbBlockBegin
  2
*D2
 70
     1
 10
0.0
 20
0.0
 30
0.0
  3
*D2
  1

  0
LINE
  5
DB7
330
987
100
AcDbEntity
  8
BEM
 62
     0
370
    -2
100
AcDbLine
 10
120.2196131405522
 20
538.9986637625382
 30
0.0
 11
106.1320503318353
 21
538.9986637625382
 31
0.0
  0
LINE
  5
DB8
330
987
100
AcDbEntity
  8
BEM
 62
     0
370
    -2
100
AcDbLine
 10
121.4352069034388
 20
468.9986637625381
 30
0.0
 11
106.1320503318353
 21
468.9986637625381
 31
0.0
  0
LINE
  5
DB9
330
987
100
AcDbEntity
  8
BEM
 62
     0
370
    -2
100
AcDbLine
 10
108.1320503318353
 20
531.9986637625381
 30
0.0
 11
108.1320503318353
 21
475.9986637625381
 31
0.0
  0
SOLID
  5
DBA
330
987
100
AcDbEntity
  8
BEM
 62
     0
100
AcDbTrace
 10
106.9653836651686
 20
531.9986637625381
 30
0.0
 11
109.298716998502
 21
531.9986637625381
 31
0.0
 12
108.1320503318353
 22
538.9986637625382
 32
0.0
 13
108.1320503318353
 23
538.9986637625382
 33
0.0
  0
SOLID
  5
DBB
330
987
100
AcDbEntity
  8
BEM
 62
     0
100
AcDbTrace
 10
106.9653836651686
 20
475.9986637625381
 30
0.0
 11
109.2987169985019
 21
475.9986637625381
 31
0.0
 12
108.1320503318353
 22
468.9986637625381
 32
0.0
 13
108.1320503318353
 23
468.9986637625381
 33
0.0
  0
MTEXT
  5
DBC
330
987
100
AcDbEntity
  8
BEM
 62
     1
100
AcDbMText
 10
101.6320503318352
 20
503.9986637625381
 30
0.0
 40
7.0
 41
0.0
 71
     5
 72
     1
  1
\A1;70
 11
0.0000000000000001
 21
1.0
 31
0.0
 73
     1
 44
1.0
  0
POINT
  5
DBD
330
987
100
AcDbEntity
  8
DEFPOINTS
 62
     0
100
AcDbPoint
 10
122.2196131405522
 20
538.9986637625382
 30
0.0
  0
POINT
  5
DBE
330
987
100
AcDbEntity
  8
DEFPOINTS
 62
     0
100
AcDbPoint
 10
123.4352069034388
 20
468.9986637625381
 30
0.0
  0
POINT
  5
DBF
330
987
100
AcDbEntity
  8
DEFPOINTS
 62
     0
100
AcDbPoint
 10
108.1320503318353
 20
468.9986637625381
 30
0.0
  0
ENDBLK
  5
992
330
987
100
AcDbEntity
  8
0
100
AcDbBlockEnd
  0
BLOCK
  5
9C2
330
9B8
100
AcDbEntity
  8
0
100
AcDbBlockBegin
  2
*D3
 70
     1
 10
0.0
 20
0.0
 30
0.0
  3
*D3
  1

  0
LINE
  5
DAE
330
9B8
100
AcDbEntity
  8
BEM
 62
     0
370
    -2
100
AcDbLine
 10
120.2196131405522
 20
538.9986637625382
 30
0.0
 11
89.67373806688874
 21
538.9986637625382
 31
0.0
  0
LINE
  5
DAF
330
9B8
100
AcDbEntity
  8
BEM
 62
     0
370
    -2
100
AcDbLine
 10
124.3696131405522
 20
178.9949148024592
 30
0.0
 11
89.67373806688867
 21
178.9949148024592
 31
0.0
  0
LINE
  5
DB0
330
9B8
100
AcDbEntity
  8
BEM
 62
     0
370
    -2
100
AcDbLine
 10
91.67373806688873
 20
531.9986637625381
 30
0.0
 11
91.67373806688866
 21
185.9949148024592
 31
0.0
  0
SOLID
  5
DB1
330
9B8
100
AcDbEntity
  8
BEM
 62
     0
100
AcDbTrace
 10
90.50707140022206
 20
531.9986637625381
 30
0.0
 11
92.8404047335554
 21
531.9986637625381
 31
0.0
 12
91.67373806688873
 22
538.9986637625382
 32
0.0
 13
91.67373806688873
 23
538.9986637625382
 33
0.0
  0
SOLID
  5
DB2
330
9B8
100
AcDbEntity
  8
BEM
 62
     0
100
AcDbTrace
 10
90.50707140022199
 20
185.9949148024592
 30
0.0
 11
92.84040473355533
 21
185.9949148024592
 31
0.0
 12
91.67373806688866
 22
178.9949148024592
 32
0.0
 13
91.67373806688866
 23
178.9949148024592
 33
0.0
  0
MTEXT
  5
DB3
330
9B8
100
AcDbEntity
  8
BEM
 62
     1
100
AcDbMText
 10
85.17373806688864
 20
358.9967892824987
 30
0.0
 40
7.0
 41
0.0
 71
     5
 72
     1
  1
\A1;360
 11
0.0000000000000001
 21
1.0
 31
0.0
 73
     1
 44
1.0
  0
POINT
  5
DB4
330
9B8
100
AcDbEntity
  8
DEFPOINTS
 62
     0
100
AcDbPoint
 10
122.2196131405522
 20
538.9986637625382
 30
0.0
  0
POINT
  5
DB5
330
9B8
100
AcDbEntity
  8
DEFPOINTS
 62
     0
100
AcDbPoint
 10
126.3696131405522
 20
178.9949148024592
 30
0.0
  0
POINT
  5
DB6
330
9B8
100
AcDbEntity
  8
DEFPOINTS
 62
     0
100
AcDbPoint
 10
91.67373806688866
 20
178.9949148024592
 30
0.0
  0
ENDBLK
  5
9C3
330
9B8
100
AcDbEntity
  8
0
100
AcDbBlockEnd
  0
BLOCK
  5
B3C
330
B32
100
AcDbEntity
  8
0
100
AcDbBlockBegin
  2
*D4
 70
     1
 10
0.0
 20
0.0
 30
0.0
  3
*D4
  1

  0
LINE
  5
E7F
330
B32
100
AcDbEntity
  8
BEM
 62
     0
370
    -2
100
AcDbLine
 10
373.4450501560524
 20
414.4606750714129
 30
0.0
 11
390.191886521067
 21
397.7138387063981
 31
0.0
  0
LINE
  5
E80
330
B32
100
AcDbEntity
  8
BEM
 62
     0
370
    -2
100
AcDbLine
 10
177.7838267029252
 20
297.5807012400861
 30
0.0
 11
233.921287878839
 21
241.4432400641718
 31
0.0
  0
LINE
  5
E81
330
B32
100
AcDbEntity
  8
BEM
 62
     0
370
    -2
100
AcDbLine
 10
383.827925490388
 20
394.1783048004654
 30
0.0
 11
237.4568217847717
 21
247.8072010948507
 31
0.0
  0
SOLID
  5
E82
330
B32
100
AcDbEntity
  8
BEM
 62
     0
100
AcDbTrace
 10
383.0029675790037
 20
395.0032627118497
 30
0.0
 11
384.6528834017723
 21
393.3533468890811
 31
0.0
 12
388.7776729586939
 22
399.1280522687712
 32
0.0
 13
388.7776729586939
 23
399.1280522687712
 33
0.0
  0
SOLID
  5
E83
330
B32
100
AcDbEntity
  8
BEM
 62
     0
100
AcDbTrace
 10
236.6318638733874
 20
248.632159006235
 30
0.0
 11
238.281779696156
 21
246.9822431834664
 31
0.0
 12
232.5070743164659
 22
242.8574536265449
 32
0.0
 13
232.5070743164659
 23
242.8574536265449
 33
0.0
  0
MTEXT
  5
E84
330
B32
100
AcDbEntity
  8
BEM
 62
     1
100
AcDbMText
 10
306.0461795598673
 20
325.5889470253706
 30
0.0
 40
7.0
 41
0.0
 71
     5
 72
     1
  1
\A1;221
 11
0.7071067811865511
 21
0.7071067811865439
 31
0.0
 73
     1
 44
1.0
  0
POINT
  5
E85
330
B32
100
AcDbEntity
  8
DEFPOINTS
 62
     0
100
AcDbPoint
 10
372.0308365936792
 20
415.874888633786
 30
0.0
  0
POINT
  5
E86
330
B32
100
AcDbEntity
  8
DEFPOINTS
 62
     0
100
AcDbPoint
 10
176.3696131405521
 20
298.9949148024592
 30
0.0
  0
POINT
  5
E87
330
B32
100
AcDbEntity
  8
DEFPOINTS
 62
     0
100
AcDbPoint
 10
232.5070743164659
 20
242.8574536265449
 30
0.0
  0
ENDBLK
  5
B3D
330
B32
100
AcDbEntity
  8
0
100
AcDbBlockEnd
  0
BLOCK
  5
BEC
330
BE2
100
AcDbEntity
  8
0
100
AcDbBlockBegin
  2
*D5
 70
     1
 10
0.0
 20
0.0
 30
0.0
  3
*D5
  1

  0
LINE
  5
DDF
330
BE2
100
AcDbEntity
  8
SCHRAFF
 62
     0
370
    -2
100
AcDbLine
 10
124.3696131405522
 20
178.9949148024592
 30
0.0
 11
106.1320503318352
 21
178.9949148024592
 31
0.0
  0
LINE
  5
DE0
330
BE2
100
AcDbEntity
  8
SCHRAFF
 62
     0
370
    -2
100
AcDbLine
 10
174.3696131405521
 20
298.9949148024592
 30
0.0
 11
106.1320503318352
 21
298.9949148024593
 31
0.0
  0
LINE
  5
DE1
330
BE2
100
AcDbEntity
  8
SCHRAFF
 62
     0
370
    -2
100
AcDbLine
 10
108.1320503318352
 20
185.9949148024592
 30
0.0
 11
108.1320503318352
 21
291.9949148024593
 31
0.0
  0
SOLID
  5
DE2
330
BE2
100
AcDbEntity
  8
SCHRAFF
 62
     0
100
AcDbTrace
 10
106.9653836651685
 20
185.9949148024592
 30
0.0
 11
109.2987169985018
 21
185.9949148024592
 31
0.0
 12
108.1320503318352
 22
178.9949148024592
 32
0.0
 13
108.1320503318352
 23
178.9949148024592
 33
0.0
  0
SOLID
  5
DE3
330
BE2
100
AcDbEntity
  8
SCHRAFF
 62
     0
100
AcDbTrace
 10
106.9653836651685
 20
291.9949148024593
 30
0.0
 11
109.2987169985019
 21
291.9949148024593
 31
0.0
 12
108.1320503318352
 22
298.9949148024593
 32
0.0
 13
108.1320503318352
 23
298.9949148024593
 33
0.0
  0
MTEXT
  5
DE4
330
BE2
100
AcDbEntity
  8
SCHRAFF
 62
     1
100
AcDbMText
 10
101.6320503318351
 20
238.9949148024593
 30
0.0
 40
7.0
 41
0.0
 71
     5
 72
     1
  1
\A1;120
 11
0.0000000000000001
 21
1.0
 31
0.0
 73
     1
 44
1.0
  0
POINT
  5
DE5
330
BE2
100
AcDbEntity
  8
DEFPOINTS
 62
     0
100
AcDbPoint
 10
126.3696131405522
 20
178.9949148024592
 30
0.0
  0
POINT
  5
DE6
330
BE2
100
AcDbEntity
  8
DEFPOINTS
 62
     0
100
AcDbPoint
 10
176.3696131405521
 20
298.9949148024592
 30
0.0
  0
POINT
  5
DE7
330
BE2
100
AcDbEntity
  8
DEFPOINTS
 62
     0
100
AcDbPoint
 10
108.1320503318352
 20
298.9949148024593
 30
0.0
  0
ENDBLK
  5
BED
330
BE2
100
AcDbEntity
  8
0
100
AcDbBlockEnd
  0
BLOCK
  5
E95
330
E89
100
AcDbEntity
  8
0
100
AcDbBlockBegin
  2
*D6
 70
     1
 10
0.0
 20
0.0
 30
0.0
  3
*D6
  1

  0
LINE
  5
E8A
330
E89
100
AcDbEntity
  8
BEM
 62
     0
370
    -2
100
AcDbLine
 10
337.589959251085
 20
460.2152609129919
 30
0.0
 11
362.3013556789859
 21
484.9266573408928
 31
0.0
  0
LINE
  5
E8B
330
E89
100
AcDbEntity
  8
BEM
 62
     0
370
    -2
100
AcDbLine
 10
176.3696131405523
 20
545.9986637625381
 30
0.0
 11
176.3696131405524
 21
561.9421067759746
 31
0.0
  0
ARC
  5
E8C
330
E89
100
AcDbEntity
  8
BEM
 62
     0
370
    -2
100
AcDbCircle
 10
176.3696131405522
 20
298.9949148024592
 30
0.0
 40
260.9471919735153
100
AcDbArc
 50
46.53702547995204
 51
88.46297452004789
  0
SOLID
  5
E8D
330
E89
100
AcDbEntity
  8
BEM
 62
     0
100
AcDbTrace
 10
356.685269351742
 20
489.2313052367949
 30
0.0
 11
355.0576317309431
 21
487.5594080450382
 31
0.0
 12
360.8871421166128
 22
483.5124437785196
 32
0.0
 13
360.8871421166128
 23
483.5124437785196
 33
0.0
  0
SOLID
  5
E8E
330
E89
100
AcDbEntity
  8
BEM
 62
     0
100
AcDbTrace
 10
183.3533353413319
 20
558.681656327345
 30
0.0
 11
183.3846315840886
 21
561.0147797680642
 31
0.0
 12
176.3696131405524
 22
559.9421067759744
 32
0.0
 13
176.3696131405524
 23
559.9421067759744
 33
0.0
  0
MTEXT
  5
E8F
330
E89
100
AcDbEntity
  8
BEM
 62
     1
100
AcDbMText
 10
278.7172225413823
 20
546.0839014944067
 30
0.0
 40
7.0
 41
0.0
 71
     5
 72
     1
  1
\A1;45°
 11
0.9238795325112864
 21
-0.3826834323650904
 31
0.0
 73
     1
 44
1.0
  0
POINT
  5
E90
330
E89
100
AcDbEntity
  8
DEFPOINTS
 62
     0
100
AcDbPoint
 10
306.8432091273101
 20
524.981812097738
 30
0.0
  0
POINT
  5
E91
330
E89
100
AcDbEntity
  8
DEFPOINTS
 62
     0
100
AcDbPoint
 10
176.3696131405523
 20
543.9986637625382
 30
0.0
  0
POINT
  5
E92
330
E89
100
AcDbEntity
  8
DEFPOINTS
 62
     0
100
AcDbPoint
 10
336.1757456887119
 20
458.8010473506188
 30
0.0
  0
POINT
  5
E93
330
E89
100
AcDbEntity
  8
DEFPOINTS
 62
     0
100
AcDbPoint
 10
176.3696131405522
 20
298.9949148024593
 30
0.0
  0
POINT
  5
E94
330
E89
100
AcDbEntity
  8
DEFPOINTS
 62
     0
100
AcDbPoint
 10
176.3696131405522
 20
173.9949148024592
 30
0.0
  0
ENDBLK
  5
E96
330
E89
100
AcDbEntity
  8
0
100
AcDbBlockEnd
  0
ENDSEC
  0
SECTION
  2
ENTITIES
  0
LINE
  5
57
330
1E
100
AcDbEntity
  8
STEMPEL
100
AcDbLine
 10
410.0
 20
110.0
 30
0.0
 11
39.99999999999997
 21
110.0
 31
0.0
  0
LINE
  5
58
330
1E
100
AcDbEntity
  8
STEMPEL
100
AcDbLine
 10
136.0000000000001
 20
109.9999999999999
 30
0.0
 11
136.0
 21
9.999999999999971
 31
0.0
  0
LINE
  5
59
330
1E
100
AcDbEntity
  8
STEMPEL
100
AcDbLine
 10
220.0
 20
110.0
 30
0.0
 11
220.0
 21
9.999999999999971
 31
0.0
  0
LINE
  5
5A
330
1E
100
AcDbEntity
  8
STEMPEL
100
AcDbLine
 10
332.0
 20
109.9999999999997
 30
0.0
 11
332.0
 21
40.0
 31
0.0
  0
LINE
  5
5B
330
1E
100
AcDbEntity
  8
STEMPEL
100
AcDbLine
 10
135.9999999999999
 20
29.99999999999997
 30
0.0
 11
39.99999999999997
 21
29.99999999999997
 31
0.0
  0
LINE
  5
5C
330
1E
100
AcDbEntity
  8
STEMPEL
100
AcDbLine
 10
410.0
 20
40.0
 30
0.0
 11
136.0000000000001
 21
39.99999999999997
 31
0.0
  0
LINE
  5
5D
330
1E
100
AcDbEntity
  8
STEMPEL
100
AcDbLine
 10
410.0
 20
80.0
 30
0.0
 11
136.0000000000001
 21
79.99999999999994
 31
0.0
  0
LINE
  5
5E
330
1E
100
AcDbEntity
  8
VOLL
100
AcDbLine
 10
54.00000000000009
 20
110.0
 30
0.0
 11
53.99999999999997
 21
9.999999999999971
 31
0.0
  0
LINE
  5
5F
330
1E
100
AcDbEntity
  8
VOLL
100
AcDbLine
 10
94.00000000000011
 20
109.9999999999999
 30
0.0
 11
94.0
 21
9.999999999999971
 31
0.0
  0
LINE
  5
60
330
1E
100
AcDbEntity
  8
VOLL
100
AcDbLine
 10
114.0000000000001
 20
109.9999999999999
 30
0.0
 11
114.0
 21
9.999999999999971
 31
0.0
  0
LINE
  5
61
330
1E
100
AcDbEntity
  8
VOLL
100
AcDbLine
 10
154.0000000000001
 20
79.99999999999994
 30
0.0
 11
154.0000000000001
 21
39.99999999999997
 31
0.0
  0
LINE
  5
62
330
1E
100
AcDbEntity
  8
VOLL
100
AcDbLine
 10
180.0000000000001
 20
109.9999999999998
 30
0.0
 11
180.0
 21
39.99999999999997
 31
0.0
  0
LINE
  5
63
330
1E
100
AcDbEntity
  8
HILF
100
AcDbLine
 10
40.00000000000008
 20
100.0
 30
0.0
 11
136.0000000000001
 21
100.0
 31
0.0
  0
LINE
  5
64
330
1E
100
AcDbEntity
  8
HILF
100
AcDbLine
 10
40.00000000000008
 20
90.00000000000005
 30
0.0
 11
136.0000000000001
 21
90.00000000000005
 31
0.0
  0
LINE
  5
65
330
1E
100
AcDbEntity
  8
HILF
100
AcDbLine
 10
40.00000000000008
 20
79.99999999999994
 30
0.0
 11
136.0000000000001
 21
79.99999999999994
 31
0.0
  0
LINE
  5
66
330
1E
100
AcDbEntity
  8
HILF
100
AcDbLine
 10
40.00000000000008
 20
69.99999999999994
 30
0.0
 11
136.0000000000001
 21
69.99999999999994
 31
0.0
  0
LINE
  5
67
330
1E
100
AcDbEntity
  8
HILF
100
AcDbLine
 10
40.00000000000008
 20
59.99999999999997
 30
0.0
 11
136.0000000000001
 21
59.99999999999997
 31
0.0
  0
LINE
  5
68
330
1E
100
AcDbEntity
  8
HILF
100
AcDbLine
 10
40.00000000000008
 20
49.99999999999997
 30
0.0
 11
136.0000000000001
 21
49.99999999999997
 31
0.0
  0
LINE
  5
69
330
1E
100
AcDbEntity
  8
HILF
100
AcDbLine
 10
40.00000000000008
 20
39.99999999999997
 30
0.0
 11
136.0000000000001
 21
39.99999999999997
 31
0.0
  0
LINE
  5
6A
330
1E
100
AcDbEntity
  8
HILF
100
AcDbLine
 10
136.0000000000001
 20
69.99999999999994
 30
0.0
 11
220.0
 21
69.99999999999994
 31
0.0
  0
LINE
  5
6B
330
1E
100
AcDbEntity
  8
HILF
100
AcDbLine
 10
136.0000000000001
 20
59.99999999999997
 30
0.0
 11
220.0
 21
59.99999999999997
 31
0.0
  0
LINE
  5
6C
330
1E
100
AcDbEntity
  8
HILF
100
AcDbLine
 10
136.0000000000001
 20
49.99999999999997
 30
0.0
 11
220.0
 21
49.99999999999997
 31
0.0
  0
LINE
  5
6D
330
1E
100
AcDbEntity
  8
HILF
100
AcDbLine
 10
224.7736801096948
 20
84.03758247564139
 30
0.0
 11
324.8353916556311
 21
84.03758247564139
 31
0.0
  0
LINE
  5
6E
330
1E
100
AcDbEntity
  8
HILF
100
AcDbLine
 10
224.7736801096948
 20
69.99999999999994
 30
0.0
 11
324.835391655631
 21
69.99999999999994
 31
0.0
  0
LINE
  5
6F
330
1E
100
AcDbEntity
  8
HILF
100
AcDbLine
 10
224.7736801096948
 20
59.99999999999997
 30
0.0
 11
324.835391655631
 21
59.99999999999997
 31
0.0
  0
LINE
  5
70
330
1E
100
AcDbEntity
  8
HILF
100
AcDbLine
 10
224.7736801096948
 20
49.99999999999997
 30
0.0
 11
324.835391655631
 21
49.99999999999997
 31
0.0
  0
LINE
  5
71
330
1E
100
AcDbEntity
  8
VOLL
100
AcDbLine
 10
332.0
 20
60.0
 30
0.0
 11
410.0
 21
60.0
 31
0.0
  0
LINE
  5
72
330
1E
100
AcDbEntity
  8
HILF
100
AcDbLine
 10
336.7238616296993
 20
83.77983636955827
 30
0.0
 11
404.8588839326728
 21
83.77983636955827
 31
0.0
  0
LINE
  5
73
330
1E
100
AcDbEntity
  8
HILF
100
AcDbLine
 10
223.4909699289885
 20
14.89398258028314
 30
0.0
 11
404.8588839326728
 21
14.89398258028314
 31
0.0
  0
TEXT
  5
74
330
1E
100
AcDbEntity
  8
TEXT
100
AcDbText
 10
63.86165979631819
 20
18.67381894984132
 30
0.0
 40
4.0
  1
Änderung
 41
0.8
  7
GREEKS
 72
     1
 11
74.60451693917534
 21
18.67381894984132
 31
0.0
100
AcDbText
  0
TEXT
  5
75
330
1E
100
AcDbEntity
  8
TEXT
100
AcDbText
 10
143.5163572150377
 20
102.4620895087088
 30
0.0
 40
5.0
  1
Maßstab
 41
0.8
  7
GREEKS
100
AcDbText
  0
TEXT
  5
76
330
1E
100
AcDbEntity
  8
TEXT
100
AcDbText
 10
184.2858954734051
 20
102.4184168434819
 30
0.0
 40
5.0
  1
Zul. Abw.
 41
0.8
  7
GREEKS
100
AcDbText
  0
TEXT
  5
77
330
1E
100
AcDbEntity
  8
TEXT
100
AcDbText
 10
224.877940380901
 20
102.5489328011779
 30
0.0
 40
5.0
  1
Benennung
 41
0.8
  7
GREEKS
100
AcDbText
  0
TEXT
  5
78
330
1E
100
AcDbEntity
  8
TEXT
100
AcDbText
 10
336.178754957634
 20
102.3132034537136
 30
0.0
 40
5.0
  1
Zeichnungs Nr.
 41
0.8
  7
GREEKS
100
AcDbText
  0
TEXT
  5
79
330
1E
100
AcDbEntity
  8
TEXT
100
AcDbText
 10
224.742238391136
 20
30.84560570193057
 30
0.0
 40
5.0
  1
Bauvorhaben
 41
0.8
  7
GREEKS
100
AcDbText
  0
TEXT
  5
7A
330
1E
100
AcDbEntity
  8
TEXT
100
AcDbText
 10
336.7238616296993
 20
73.1811823709997
 30
0.0
 40
5.0
  1
Ersatz für:
 41
0.8
  7
GREEKS
100
AcDbText
  0
TEXT
  5
7B
330
1E
100
AcDbEntity
  8
TEXT
100
AcDbText
 10
48.26641107045756
 20
13.65465846027192
 30
0.0
 40
4.0
  1
Index
 50
90.0
 41
0.8
  7
GREEKS
100
AcDbText
  0
TEXT
  5
7C
330
1E
100
AcDbEntity
  8
TEXT
100
AcDbText
 10
100.0934676075481
 20
18.6715626933981
 30
0.0
 40
4.0
  1
Tag
 41
0.8
  7
GREEKS
 72
     1
 11
103.8268009408814
 21
18.6715626933981
 31
0.0
100
AcDbText
  0
TEXT
  5
7D
330
1E
100
AcDbEntity
  8
TEXT
100
AcDbText
 10
119.0122744386592
 20
18.59324216966408
 30
0.0
 40
4.0
  1
Name
 41
0.8
  7
GREEKS
 72
     1
 11
125.3360839624688
 21
18.59324216966408
 31
0.0
100
AcDbText
  0
TEXT
  5
7E
330
1E
100
AcDbEntity
  8
TEXT
100
AcDbText
 10
162.3311673153651
 20
73.31880501229926
 30
0.0
 40
4.0
  1
Tag
 41
0.8
  7
GREEKS
100
AcDbText
  0
TEXT
  5
7F
330
1E
100
AcDbEntity
  8
TEXT
100
AcDbText
 10
192.4626584226295
 20
73.30961091915225
 30
0.0
 40
4.0
  1
Name
 41
0.8
  7
GREEKS
100
AcDbText
  0
TEXT
  5
80
330
1E
100
AcDbEntity
  8
TEXT
100
AcDbText
 10
137.5836127167615
 20
63.62990369617964
 30
0.0
 40
4.0
  1
Gez.
 41
0.8
  7
GREEKS
100
AcDbText
  0
TEXT
  5
81
330
1E
100
AcDbEntity
  8
TEXT
100
AcDbText
 10
137.5515086571672
 20
53.68926291428377
 30
0.0
 40
4.0
  1
Gepr.
 41
0.8
  7
GREEKS
100
AcDbText
  0
TEXT
  5
82
330
1E
100
AcDbEntity
  8
TEXT
100
AcDbText
 10
137.6006777387304
 20
43.52946389649807
 30
0.0
 40
4.0
  1
Norm.
 41
0.8
  7
GREEKS
100
AcDbText
  0
LINE
  5
83
330
1E
100
AcDbEntity
  8
STEMPEL
100
AcDbLine
 10
49.99999999999989
 20
10.0
 30
0.0
 11
410.0
 21
10.0
 31
0.0
  0
TEXT
  5
84
330
1E
100
AcDbEntity
  8
TEXT
100
AcDbText
 10
337.2400861497006
 20
52.07416177878602
 30
0.0
 40
5.0
  1
ersetzt durch:
 41
0.8
  7
GREEKS
100
AcDbText
  0
LINE
  5
85
330
1E
100
AcDbEntity
  8
STEMPEL
100
AcDbLine
 10
410.0
 20
10.0
 30
0.0
 11
39.99999999999989
 21
10.0
 31
0.0
  0
LINE
  5
86
330
1E
100
AcDbEntity
  8
STEMPEL
100
AcDbLine
 10
410.0
 20
10.0
 30
0.0
 11
410.0
 21
584.0
 31
0.0
  0
LINE
  5
87
330
1E
100
AcDbEntity
  8
STEMPEL
100
AcDbLine
 10
40.0
 20
10.0
 30
0.0
 11
39.99999999999989
 21
584.0
 31
0.0
  0
LINE
  5
88
330
1E
100
AcDbEntity
  8
STEMPEL
100
AcDbLine
 10
410.0
 20
584.0
 30
0.0
 11
39.99999999999989
 21
584.0
 31
0.0
  0
LINE
  5
89
330
1E
100
AcDbEntity
  8
HILF
100
AcDbLine
 10
0.0
 20
0.0
 30
0.0
 11
-0.0000000000001137
 21
594.0
 31
0.0
  0
LINE
  5
8A
330
1E
100
AcDbEntity
  8
HILF
100
AcDbLine
 10
419.9999999999999
 20
594.0000000000002
 30
0.0
 11
0.0
 21
594.0
 31
0.0
  0
LINE
  5
8B
330
1E
100
AcDbEntity
  8
HILF
100
AcDbLine
 10
420.0
 20
0.0
 30
0.0
 11
0.0
 21
0.0
 31
0.0
  0
LINE
  5
8C
330
1E
100
AcDbEntity
  8
HILF
100
AcDbLine
 10
31.08767135713856
 20
297.0
 30
0.0
 11
0.0000000000001137
 21
297.0
 31
0.0
  0
TEXT
  5
8D
330
1E
100
AcDbEntity
  8
TEXT
100
AcDbText
 10
138.622109822104
 20
73.14025471151666
 30
0.0
 40
4.0
  1
2009
 41
0.8
  7
GREEKS
100
AcDbText
  0
LINE
  5
8E
330
1E
100
AcDbEntity
  8
HILF
100
AcDbLine
 10
420.0
 20
-0.0000000000001137
 30
0.0
 11
419.9999999999999
 21
594.0
 31
0.0
  0
TEXT
  5
8F
330
1E
100
AcDbEntity
  8
VOLL
100
AcDbText
 10
78.07675471698113
 20
31.02594776470585
 30
0.0
 40
1.8
  1

  7
GREEKS
100
AcDbText
  0
TEXT
  5
90
330
1E
100
AcDbEntity
  8
TEXT
100
AcDbText
 10
41.85509950977674
 20
111.6719999999999
 30
0.0
 40
5.0
  1
Erstellt mit AUTOCAD 2004
 41
0.8
  7
GREEKS
100
AcDbText
  0
TEXT
  5
91
330
1E
100
AcDbEntity
  8
TEXT
100
AcDbText
 10
194.4216048581257
 20
63.0896391972351
 30
0.0
 40
4.0
  1
Koeh
 41
0.8
  7
GREEKS
 72
     1
 11
199.6787477152685
 21
63.0896391972351
 31
0.0
100
AcDbText
  0
TEXT
  5
92
330
1E
100
AcDbEntity
  8
TEXT
 62
     1
100
AcDbText
 10
346.0818850786881
 20
88.14901428913959
 30
0.0
 40
7.0
  1
55695DD0W
 41
0.8
  7
GREEKS
 72
     1
 11
370.3485517453547
 21
88.14901428913959
 31
0.0
100
AcDbText
  0
TEXT
  5
93
330
1E
100
AcDbEntity
  8
TEXT
 62
     1
100
AcDbText
 10
150.5006306481887
 20
88.14901428913959
 30
0.0
 40
7.0
  1
1:2
 41
0.8
  7
GREEKS
100
AcDbText
  0
TEXT
  5
94
330
1E
100
AcDbEntity
  8
TEXT
100
AcDbText
 10
161.0085209177598
 20
63.10765040825732
 30
0.0
 40
4.0
  1
05.11.
 41
0.8
  7
GREEKS
 72
     1
 11
167.4085209177598
 21
63.10765040825732
 31
0.0
100
AcDbText
  0
TEXT
  5
95
330
1E
100
AcDbEntity
  8
TEXT
 62
     1
100
AcDbText
 10
224.6728317021104
 20
87.41748789253779
 30
0.0
 40
7.0
  1
Abzweig quadratisch DN100
 41
0.6800000000000001
  7
GREEKS
100
AcDbText
  0
TEXT
  5
96
330
1E
100
AcDbEntity
  8
TEXT
100
AcDbText
 10
225.1296391125315
 20
71.50334417585288
 30
0.0
 40
5.0
  1
mit LX-Muffe DN100 45°
 41
0.8
  7
GREEKS
100
AcDbText
  0
TEXT
  5
97
330
1E
100
AcDbEntity
  8
TEXT
100
AcDbText
 10
225.1296391125315
 20
62.11580706774856
 30
0.0
 40
5.0
  1

 41
0.8
  7
GREEKS
100
AcDbText
  0
TEXT
  5
98
330
1E
100
AcDbEntity
  8
TEXT
100
AcDbText
 10
225.1296391125315
 20
51.64011943042158
 30
0.0
 40
5.0
  1
EDV-Art.Nr. 55695.DD0X
 41
0.8
  7
GREEKS
100
AcDbText
  0
TEXT
  5
99
330
1E
100
AcDbEntity
  8
TEXT
100
AcDbText
 10
224.9837501577827
 20
42.62974153022632
 30
0.0
 40
4.0
  1
55695DD0W.DWG
 41
0.8
  7
GREEKS
100
AcDbText
  0
TEXT
  5
9A
330
1E
100
AcDbEntity
  8
TEXT
100
AcDbText
 10
182.626132208084
 20
90.76363841023022
 30
0.0
 40
4.0
  1
DIN EN1123-2
 41
0.8
  7
GREEKS
 72
     1
 11
199.6166083985602
 21
90.76363841023022
 31
0.0
100
AcDbText
  0
INSERT
  5
9B
330
1E
100
AcDbEntity
  8
STEMPEL
100
AcDbBlockReference
  2
LOGO
 10
140.9955485457794
 20
45.02105276448322
 30
0.0
 41
2.0
 42
2.0
 43
2.0
  0
TEXT
  5
118
330
1E
100
AcDbEntity
  8
BEM
100
AcDbText
 10
417.3022923857165
 20
10.16790107998849
 30
0.0
 40
4.0
  1
Diese Zeichnung ist urheberrechtlich geschützt und bleibt unser Eigentum. Sie darf weder ganz noch teilweise verfielfältigt und nicht an Dritte weitergegeben werden.
 50
90.0
 41
0.8
  7
GREEKS
100
AcDbText
  0
LINE
  5
6DA
330
1E
100
AcDbEntity
  8
MITTEL
100
AcDbLine
 10
176.3696131405523
 20
543.998663762538
 30
0.0
 11
176.3696131405521
 21
173.9949148024592
 31
0.0
  0
LINE
  5
6EE
330
1E
100
AcDbEntity
  8
STEMPEL
100
AcDbLine
 10
226.3696131405521
 20
178.9949148024591
 30
0.0
 11
126.3696131405522
 21
178.9949148024592
 31
0.0
  0
DIMENSION
  5
6F2
330
1E
100
AcDbEntity
  8
BEM
100
AcDbDimension
  2
*D1
 10
226.3696131405521
 20
158.6144970043885
 30
0.0
 11
179.7967061722687
 21
158.6144970043885
 31
0.0
 70
   160
 71
     5
 42
99.99999999999985
  3
Standard
100
AcDbAlignedDimension
 13
126.3696131405522
 23
178.9949148024592
 33
0.0
 14
226.3696131405521
 24
178.9949148024591
 34
0.0
100
AcDbRotatedDimension
1001
ACAD
1000
DSTYLE
1002
{
1070
    40
1040
2.0
1070
    41
1040
3.5
1070
    42
1040
1.0
1070
    43
1040
7.0
1070
    44
1040
1.0
1070
    73
1070
     0
1070
    74
1070
     0
1070
    77
1070
     1
1070
    78
1070
     8
1070
    79
1070
     2
1070
   140
1040
3.5
1070
   141
1040
1.5
1070
   146
1040
0.5
1070
   147
1040
1.5
1070
   172
1070
     1
1070
   178
1070
     1
1070
   179
1070
     2
1070
   271
1070
     2
1070
   272
1070
     2
1070
   284
1070
     8
1070
   285
1070
     8
1070
   286
1070
     8
1002
}
  0
LWPOLYLINE
  5
700
330
1E
100
AcDbEntity
  8
BEM
 62
     1
100
AcDbPolyline
 90
        4
 70
     1
 43
0.0
 10
162.6146138293242
 20
168.6684597813691
 10
162.6146138293242
 20
161.6684597813691
 10
169.6146138293242
 20
161.6684597813691
 10
169.6146138293242
 20
168.6684597813691
  0
TEXT
  5
7C7
330
1E
100
AcDbEntity
  8
TEXT
 62
     1
100
AcDbText
 10
234.6057658946468
 20
129.0783465745483
 30
0.0
 40
7.0
  1
feuerverzinkt und innen beschichtet
 41
0.8
  7
GREEKS
100
AcDbText
  0
TEXT
  5
7C8
330
1E
100
AcDbEntity
  8
TEXT
 62
     1
100
AcDbText
 10
186.6560484572489
 20
139.8004583895517
 30
0.0
 40
7.0
  1
Werkstoff: S235 JRH, E195 EN10305
 41
0.8
  7
GREEKS
100
AcDbText
  0
TEXT
  5
7D4
330
1E
100
AcDbEntity
  8
TEXT
 62
     1
100
AcDbText
 10
164.9521252480145
 20
380.9023508386239
 30
0.0
 40
7.0
  1
DN100
 50
89.99999999999998
 41
0.8
  7
GREEKS
100
AcDbText
  0
LINE
  5
928
330
1E
100
AcDbEntity
  8
STEMPEL
100
AcDbLine
 10
230.5196131405522
 20
538.9986637625383
 30
0.0
 11
230.5196131405523
 21
475.4071045639078
 31
0.0
  0
ARC
  5
929
330
1E
100
AcDbEntity
  8
STEMPEL
100
AcDbCircle
 10
241.3696131405522
 20
459.5159906948298
 30
0.0
 40
15.0
100
AcDbArc
 50
150.7279257826982
 51
179.9999999999999
  0
ARC
  5
92D
330
1E
100
AcDbEntity
  8
STEMPEL
100
AcDbCircle
 10
213.0196131405523
 20
475.4071045639078
 30
0.0
 40
17.5
100
AcDbArc
 50
330.7279257826982
 51
0.0
  0
LINE
  5
92E
102
{ACAD_REACTORS
330
E5A
330
E66
102
}
330
1E
100
AcDbEntity
  8
STEMPEL
100
AcDbLine
 10
226.3696131405522
 20
459.5159906948299
 30
0.0
 11
226.3696131405521
 21
178.9949148024591
 31
0.0
  0
ARC
  5
931
330
1E
100
AcDbEntity
  8
STEMPEL
100
AcDbCircle
 10
111.3696131405522
 20
459.5159906948299
 30
0.0
 40
15.0
100
AcDbArc
 50
0.0
 51
29.27207421730174
  0
ARC
  5
933
330
1E
100
AcDbEntity
  8
STEMPEL
100
AcDbCircle
 10
139.7196131405523
 20
475.4071045639078
 30
0.0
 40
17.5
100
AcDbArc
 50
179.9999999999999
 51
209.2720742173017
  0
LINE
  5
935
330
1E
100
AcDbEntity
  8
STEMPEL
100
AcDbLine
 10
122.2196131405522
 20
538.9986637625382
 30
0.0
 11
122.2196131405522
 21
475.4071045639078
 31
0.0
  0
LINE
  5
937
330
1E
100
AcDbEntity
  8
STEMPEL
100
AcDbLine
 10
126.3696131405523
 20
459.5159906948299
 30
0.0
 11
126.3696131405522
 21
178.9949148024592
 31
0.0
  0
LINE
  5
938
330
1E
100
AcDbEntity
  8
STEMPEL
100
AcDbLine
 10
122.2196131405522
 20
538.9986637625382
 30
0.0
 11
230.5196131405522
 21
538.9986637625383
 31
0.0
  0
LINE
  5
93A
330
1E
100
AcDbEntity
  8
HILF
100
AcDbLine
 10
227.049094462178
 20
471.7432740757227
 30
0.0
 11
125.6901318189265
 21
471.743274075723
 31
0.0
  0
LINE
  5
93B
330
1E
100
AcDbEntity
  8
HILF
100
AcDbLine
 10
223.9537052930168
 20
464.0641940594734
 30
0.0
 11
128.7855209880877
 21
464.0641940594734
 31
0.0
  0
DIMENSION
  5
986
330
1E
100
AcDbEntity
  8
BEM
100
AcDbDimension
  2
*D2
 10
108.1320503318353
 20
468.9986637625381
 30
0.0
 11
101.6320503318352
 21
503.9986637625381
 31
0.0
 70
    32
 71
     5
 42
70.00000000000006
  3
Standard
100
AcDbAlignedDimension
 13
122.2196131405522
 23
538.9986637625382
 33
0.0
 14
123.4352069034388
 24
468.9986637625381
 34
0.0
 50
90.0
100
AcDbRotatedDimension
1001
ACAD
1000
DSTYLE
1002
{
1070
    40
1040
2.0
1070
    41
1040
3.5
1070
    42
1040
1.0
1070
    43
1040
7.0
1070
    44
1040
1.0
1070
    73
1070
     0
1070
    74
1070
     0
1070
    77
1070
     1
1070
    78
1070
     8
1070
    79
1070
     2
1070
   140
1040
3.5
1070
   141
1040
1.5
1070
   146
1040
0.5
1070
   147
1040
1.5
1070
   172
1070
     1
1070
   178
1070
     1
1070
   179
1070
     2
1070
   271
1070
     2
1070
   272
1070
     2
1070
   284
1070
     8
1070
   285
1070
     8
1070
   286
1070
     8
1002
}
  0
DIMENSION
  5
9B7
330
1E
100
AcDbEntity
  8
BEM
100
AcDbDimension
  2
*D3
 10
91.67373806688866
 20
178.9949148024592
 30
0.0
 11
85.17373806688864
 21
358.9967892824987
 31
0.0
 70
    32
 71
     5
 42
360.003748960079
  3
Standard
100
AcDbAlignedDimension
 13
122.2196131405522
 23
538.9986637625382
 33
0.0
 14
126.3696131405522
 24
178.9949148024592
 34
0.0
 50
90.0
100
AcDbRotatedDimension
1001
ACAD
1000
DSTYLE
1002
{
1070
    40
1040
2.0
1070
    41
1040
3.5
1070
    42
1040
1.0
1070
    43
1040
7.0
1070
    44
1040
1.0
1070
    73
1070
     0
1070
    74
1070
     0
1070
    77
1070
     1
1070
    78
1070
     8
1070
    79
1070
     2
1070
   140
1040
3.5
1070
   141
1040
1.5
1070
   146
1040
0.5
1070
   147
1040
1.5
1070
   172
1070
     1
1070
   178
1070
     1
1070
   179
1070
     2
1070
   271
1070
     2
1070
   272
1070
     2
1070
   284
1070
     8
1070
   285
1070
     8
1070
   286
1070
     8
1002
}
  0
TEXT
  5
B05
330
1E
100
AcDbEntity
  8
VOLL
100
AcDbText
 10
341.8960188762916
 20
352.9686687966988
 30
0.0
 40
1.8
  1

  7
GREEKS
100
AcDbText
  0
LINE
  5
B07
330
1E
100
AcDbEntity
  8
STEMPEL
100
AcDbLine
 10
293.2495869718792
 20
494.6561382555861
 30
0.0
 11
372.0308365936792
 21
415.874888633786
 31
0.0
  0
LINE
  5
B09
102
{ACAD_REACTORS
330
E66
102
}
330
1E
100
AcDbEntity
  8
STEMPEL
100
AcDbLine
 10
314.938505911807
 20
365.4389158926862
 30
0.0
 11
226.369613140552
 21
276.8700231214308
 31
0.0
  0
LINE
  5
B0B
330
1E
100
AcDbEntity
  8
STEMPEL
100
AcDbLine
 10
339.3577262040515
 20
384.201281935438
 30
0.0
 11
326.9320844264649
 21
371.7756401578516
 31
0.0
  0
LINE
  5
B0D
330
1E
100
AcDbEntity
  8
STEMPEL
100
AcDbLine
 10
365.4466066384304
 20
404.6333081203245
 30
0.0
 11
354.0183128949969
 21
393.2050143768911
 31
0.0
  0
LINE
  5
B0F
330
1E
100
AcDbEntity
  8
STEMPEL
100
AcDbLine
 10
372.0308365936793
 20
415.874888633786
 30
0.0
 11
371.2612526284141
 21
413.7604740668463
 31
0.0
  0
ARC
  5
B10
330
1E
100
AcDbEntity
  8
STEMPEL
100
AcDbCircle
 10
320.5953601612995
 20
359.7820616431937
 30
0.0
 40
8.0
100
AcDbArc
 50
100.6988472432102
 51
134.9999999999999
  0
ARC
  5
B13
330
1E
100
AcDbEntity
  8
STEMPEL
100
AcDbCircle
 10
316.3254827086667
 20
382.3822418756498
 30
0.0
 40
15.0
100
AcDbArc
 50
280.6988472432103
 51
315.0
  0
ARC
  5
B14
330
1E
100
AcDbEntity
  8
STEMPEL
100
AcDbCircle
 10
347.8430075782899
 20
375.7160005611996
 30
0.0
 40
12.0
100
AcDbArc
 50
108.1119523822753
 51
134.9999999999999
  0
ARC
  5
B17
330
1E
100
AcDbEntity
  8
STEMPEL
100
AcDbCircle
 10
336.3406433653332
 20
410.8826839065548
 30
0.0
 40
25.0
100
AcDbArc
 50
288.1119523822754
 51
315.0
  0
ARC
  5
B18
330
1E
100
AcDbEntity
  8
STEMPEL
100
AcDbCircle
 10
347.7689371087667
 20
422.3109776499883
 30
0.0
 40
25.0
100
AcDbArc
 50
315.0
 51
339.9999999999994
  0
ARC
  5
B1B
330
1E
100
AcDbEntity
  8
STEMPEL
100
AcDbCircle
 10
299.6856759880815
 20
470.3942387706735
 30
0.0
 40
25.0
100
AcDbArc
 50
110.0000000000006
 51
134.9999999999999
  0
ARC
  5
B1C
330
1E
100
AcDbEntity
  8
STEMPEL
100
AcDbCircle
 10
288.2573822446478
 20
458.96594502724
 30
0.0
 40
25.0
100
AcDbArc
 50
134.9999999999999
 51
161.8880476177245
  0
ARC
  5
B1F
330
1E
100
AcDbEntity
  8
STEMPEL
100
AcDbCircle
 10
253.0906988992926
 20
470.4683092401968
 30
0.0
 40
12.0
100
AcDbArc
 50
315.0
 51
341.8880476177246
  0
ARC
  5
B20
330
1E
100
AcDbEntity
  8
STEMPEL
100
AcDbCircle
 10
259.756940213743
 20
438.9507843705736
 30
0.0
 40
15.0
100
AcDbArc
 50
134.9999999999999
 51
169.3011527567897
  0
ARC
  5
B23
330
1E
100
AcDbEntity
  8
STEMPEL
100
AcDbCircle
 10
237.1567599812869
 20
443.2206618232064
 30
0.0
 40
8.0
100
AcDbArc
 50
315.0
 51
349.3011527567897
  0
LINE
  5
B24
330
1E
100
AcDbEntity
  8
STEMPEL
100
AcDbLine
 10
293.2495869718792
 20
494.6561382555862
 30
0.0
 11
291.1351724049394
 21
493.8865542903212
 31
0.0
  0
LINE
  5
B26
330
1E
100
AcDbEntity
  8
STEMPEL
100
AcDbLine
 10
282.0080064584177
 20
488.0719083003371
 30
0.0
 11
270.5797127149843
 21
476.6436145569038
 31
0.0
  0
LINE
  5
B28
330
1E
100
AcDbEntity
  8
STEMPEL
100
AcDbLine
 10
261.5759802735311
 20
461.9830278659583
 30
0.0
 11
249.1503384959447
 21
449.5573860883719
 31
0.0
  0
LINE
  5
B2A
102
{ACAD_REACTORS
330
E5A
102
}
330
1E
100
AcDbEntity
  8
STEMPEL
100
AcDbLine
 10
242.8136142307792
 20
437.5638075737141
 30
0.0
 11
226.3696131405522
 21
421.119806483487
 31
0.0
  0
LINE
  5
B2D
330
1E
100
AcDbEntity
  8
HILF
100
AcDbLine
 10
340.1148909001501
 20
387.3896929346677
 30
0.0
 11
264.7643912727608
 21
462.7401925620572
 31
0.0
  0
LINE
  5
B2E
330
1E
100
AcDbEntity
  8
HILF
100
AcDbLine
 10
321.8416887154355
 20
370.610603447169
 30
0.0
 11
247.9853017852621
 21
444.4669903773424
 31
0.0
  0
LINE
  5
B2F
330
1E
100
AcDbEntity
  8
HILF
100
AcDbLine
 10
315.3919842742892
 20
368.3216681551169
 30
0.0
 11
245.6963664932101
 21
438.0172859361963
 31
0.0
  0
LINE
  5
B30
330
1E
100
AcDbEntity
  8
MITTEL
100
AcDbLine
 10
336.1757456887119
 20
458.8010473506188
 30
0.0
 11
176.3696131405522
 21
298.9949148024592
 31
0.0
  0
DIMENSION
  5
B31
330
1E
100
AcDbEntity
  8
BEM
100
AcDbDimension
  2
*D4
 10
232.5070743164659
 20
242.8574536265449
 30
0.0
 11
306.0461795598673
 21
325.5889470253706
 31
0.0
 70
    32
 71
     5
 42
221.0000000000002
  3
Standard
100
AcDbAlignedDimension
 13
372.0308365936792
 23
415.874888633786
 33
0.0
 14
176.3696131405521
 24
298.9949148024592
 34
0.0
 50
44.99999999999971
100
AcDbRotatedDimension
1001
ACAD
1000
DSTYLE
1002
{
1070
    40
1040
2.0
1070
    41
1040
3.5
1070
    42
1040
1.0
1070
    43
1040
7.0
1070
    44
1040
1.0
1070
    73
1070
     0
1070
    74
1070
     0
1070
    77
1070
     1
1070
    78
1070
     8
1070
    79
1070
     2
1070
   140
1040
3.5
1070
   141
1040
1.5
1070
   146
1040
0.5
1070
   147
1040
1.5
1070
   172
1070
     1
1070
   178
1070
     1
1070
   179
1070
     2
1070
   271
1070
     2
1070
   272
1070
     2
1070
   284
1070
     8
1070
   285
1070
     8
1070
   286
1070
     8
1002
}
  0
DIMENSION
  5
BE1
330
1E
100
AcDbEntity
  8
SCHRAFF
100
AcDbDimension
  2
*D5
 10
108.1320503318352
 20
298.9949148024593
 30
0.0
 11
101.6320503318351
 21
238.9949148024593
 31
0.0
 70
    32
 71
     5
 42
120.0
  3
Standard
100
AcDbAlignedDimension
 13
126.3696131405522
 23
178.9949148024592
 33
0.0
 14
176.3696131405521
 24
298.9949148024592
 34
0.0
 50
90.0
100
AcDbRotatedDimension
1001
ACAD
1000
DSTYLE
1002
{
1070
    40
1040
2.0
1070
    41
1040
3.5
1070
    42
1040
1.0
1070
    43
1040
7.0
1070
    44
1040
1.0
1070
    73
1070
     0
1070
    74
1070
     0
1070
    77
1070
     1
1070
    78
1070
     8
1070
    79
1070
     2
1070
   140
1040
3.5
1070
   141
1040
1.5
1070
   146
1040
0.5
1070
   147
1040
1.5
1070
   172
1070
     1
1070
   178
1070
     1
1070
   179
1070
     2
1070
   271
1070
     2
1070
   272
1070
     2
1070
   284
1070
     8
1070
   285
1070
     8
1070
   286
1070
     8
1002
}
  0
ARC
  5
C11
330
1E
100
AcDbEntity
  8
SCHRAFF
100
AcDbCircle
 10
228.3696131405522
 20
383.4014545826087
 30
0.0
 40
5.0
100
AcDbArc
 50
246.4218215217981
 51
293.5781784782019
  0
ARC
  5
C16
330
1E
100
AcDbEntity
  8
SCHRAFF
100
AcDbCircle
 10
228.3696131405522
 20
378.4014545826087
 30
0.0
 40
5.0
100
AcDbArc
 50
246.4218215217981
 51
293.5781784782019
  0
ARC
  5
C17
330
1E
100
AcDbEntity
  8
SCHRAFF
100
AcDbCircle
 10
228.3696131405522
 20
373.4014545826087
 30
0.0
 40
5.0
100
AcDbArc
 50
246.4218215217981
 51
293.5781784782019
  0
ARC
  5
C18
330
1E
100
AcDbEntity
  8
SCHRAFF
100
AcDbCircle
 10
228.3696131405522
 20
368.4014545826087
 30
0.0
 40
5.0
100
AcDbArc
 50
246.4218215217981
 51
293.5781784782019
  0
ARC
  5
C19
330
1E
100
AcDbEntity
  8
SCHRAFF
100
AcDbCircle
 10
228.3696131405522
 20
363.4014545826087
 30
0.0
 40
5.0
100
AcDbArc
 50
246.4218215217981
 51
293.5781784782019
  0
ARC
  5
C1A
330
1E
100
AcDbEntity
  8
SCHRAFF
100
AcDbCircle
 10
228.3696131405521
 20
358.4014545826087
 30
0.0
 40
5.0
100
AcDbArc
 50
246.4218215217981
 51
293.5781784782019
  0
ARC
  5
C1B
330
1E
100
AcDbEntity
  8
SCHRAFF
100
AcDbCircle
 10
228.3696131405521
 20
353.4014545826088
 30
0.0
 40
5.0
100
AcDbArc
 50
246.4218215217981
 51
293.5781784782019
  0
ARC
  5
C1C
330
1E
100
AcDbEntity
  8
SCHRAFF
100
AcDbCircle
 10
228.3696131405522
 20
348.4014545826088
 30
0.0
 40
5.0
100
AcDbArc
 50
246.4218215217981
 51
293.5781784782019
  0
ARC
  5
C1D
330
1E
100
AcDbEntity
  8
SCHRAFF
100
AcDbCircle
 10
228.3696131405521
 20
343.4014545826087
 30
0.0
 40
5.0
100
AcDbArc
 50
246.4218215217981
 51
293.5781784782019
  0
ARC
  5
C1E
330
1E
100
AcDbEntity
  8
SCHRAFF
100
AcDbCircle
 10
228.3696131405521
 20
338.4014545826087
 30
0.0
 40
5.0
100
AcDbArc
 50
246.4218215217981
 51
293.5781784782019
  0
ARC
  5
C1F
330
1E
100
AcDbEntity
  8
SCHRAFF
100
AcDbCircle
 10
228.3696131405522
 20
333.4014545826088
 30
0.0
 40
5.0
100
AcDbArc
 50
246.4218215217981
 51
293.5781784782019
  0
ARC
  5
C20
330
1E
100
AcDbEntity
  8
SCHRAFF
100
AcDbCircle
 10
228.3696131405521
 20
328.4014545826086
 30
0.0
 40
5.0
100
AcDbArc
 50
246.4218215217981
 51
293.5781784782019
  0
ARC
  5
C21
330
1E
100
AcDbEntity
  8
SCHRAFF
100
AcDbCircle
 10
228.3696131405521
 20
323.4014545826087
 30
0.0
 40
5.0
100
AcDbArc
 50
246.4218215217981
 51
293.5781784782019
  0
ARC
  5
C22
330
1E
100
AcDbEntity
  8
SCHRAFF
100
AcDbCircle
 10
228.3696131405521
 20
318.4014545826088
 30
0.0
 40
5.0
100
AcDbArc
 50
246.4218215217981
 51
293.5781784782019
  0
ARC
  5
C23
330
1E
100
AcDbEntity
  8
SCHRAFF
100
AcDbCircle
 10
228.3696131405521
 20
313.4014545826087
 30
0.0
 40
5.0
100
AcDbArc
 50
246.4218215217981
 51
293.5781784782019
  0
ARC
  5
C24
330
1E
100
AcDbEntity
  8
SCHRAFF
100
AcDbCircle
 10
228.3696131405521
 20
308.4014545826086
 30
0.0
 40
5.0
100
AcDbArc
 50
246.4218215217981
 51
293.5781784782019
  0
ARC
  5
C25
330
1E
100
AcDbEntity
  8
SCHRAFF
100
AcDbCircle
 10
228.3696131405521
 20
303.4014545826088
 30
0.0
 40
5.0
100
AcDbArc
 50
246.4218215217981
 51
293.5781784782019
  0
ARC
  5
C26
330
1E
100
AcDbEntity
  8
SCHRAFF
100
AcDbCircle
 10
228.3696131405521
 20
298.4014545826087
 30
0.0
 40
5.0
100
AcDbArc
 50
246.4218215217981
 51
293.5781784782019
  0
ARC
  5
C27
330
1E
100
AcDbEntity
  8
SCHRAFF
100
AcDbCircle
 10
228.3696131405521
 20
293.4014545826088
 30
0.0
 40
5.0
100
AcDbArc
 50
246.4218215217981
 51
293.5781784782019
  0
ARC
  5
C28
330
1E
100
AcDbEntity
  8
SCHRAFF
100
AcDbCircle
 10
228.3696131405521
 20
288.4014545826087
 30
0.0
 40
5.0
100
AcDbArc
 50
246.4218215217981
 51
293.5781784782019
  0
TEXT
  5
C3C
330
1E
100
AcDbEntity
  8
TEXT
 62
     1
100
AcDbText
 10
299.3926093596948
 20
441.0595590321467
 30
0.0
 40
7.0
  1
DN100
 50
44.99999999999999
 41
0.8
  7
GREEKS
100
AcDbText
  0
ARC
  5
E44
330
1E
100
AcDbEntity
  8
SCHRAFF
100
AcDbCircle
 10
228.3696131405522
 20
388.4014545826088
 30
0.0
 40
5.0
100
AcDbArc
 50
246.4218215217981
 51
293.5781784782019
  0
ARC
  5
E45
330
1E
100
AcDbEntity
  8
SCHRAFF
100
AcDbCircle
 10
228.3696131405522
 20
393.4014545826087
 30
0.0
 40
5.0
100
AcDbArc
 50
246.4218215217981
 51
293.5781784782019
  0
ARC
  5
E46
330
1E
100
AcDbEntity
  8
SCHRAFF
100
AcDbCircle
 10
228.3696131405522
 20
398.4014545826086
 30
0.0
 40
5.0
100
AcDbArc
 50
246.4218215217981
 51
293.5781784782019
  0
ARC
  5
E47
330
1E
100
AcDbEntity
  8
SCHRAFF
100
AcDbCircle
 10
228.3696131405522
 20
403.4014545826086
 30
0.0
 40
5.0
100
AcDbArc
 50
246.4218215217981
 51
293.5781784782019
  0
ARC
  5
E48
330
1E
100
AcDbEntity
  8
SCHRAFF
100
AcDbCircle
 10
228.3696131405522
 20
408.4014545826086
 30
0.0
 40
5.0
100
AcDbArc
 50
246.4218215217981
 51
293.5781784782019
  0
ARC
  5
E49
330
1E
100
AcDbEntity
  8
SCHRAFF
100
AcDbCircle
 10
228.3696131405522
 20
413.4014545826086
 30
0.0
 40
5.0
100
AcDbArc
 50
246.4218215217981
 51
293.5781784782019
  0
ARC
  5
E4A
330
1E
100
AcDbEntity
  8
SCHRAFF
100
AcDbCircle
 10
228.3696131405522
 20
418.4014545826086
 30
0.0
 40
5.0
100
AcDbArc
 50
246.4218215217981
 51
293.5781784782019
  0
ARC
  5
E4B
330
1E
100
AcDbEntity
  8
SCHRAFF
100
AcDbCircle
 10
228.3696131405522
 20
423.4014545826085
 30
0.0
 40
5.0
100
AcDbArc
 50
246.4218215217981
 51
293.5781784782019
  0
ARC
  5
E4D
102
{ACAD_REACTORS
330
E5A
102
}
330
1E
100
AcDbEntity
  8
SCHRAFF
100
AcDbCircle
 10
226.3696131405522
 20
421.119806483487
 30
0.0
 40
5.65685424949238
100
AcDbArc
 50
45.0000000000002
 51
89.99999999999971
  0
HATCH
  5
E5A
330
1E
100
AcDbEntity
  8
SCHRAFF
100
AcDbHatch
 10
0.0
 20
0.0
 30
0.0
210
0.0
220
0.0
230
1.0
  2
_USER
 70
     0
 71
     1
 91
        1
 92
        7
 72
     1
 73
     1
 93
        3
 10
230.3696131405521
 20
425.119806483487
 42
0.1989123673796548
 10
226.3696131405522
 20
426.7766607329793
 42
0.0
 10
226.3696131405522
 20
421.1198064834871
 42
0.0
 97
        3
330
E4D
330
92E
330
B2A
 75
     0
 76
     0
 52
0.0
 41
0.1
 77
     0
 78
     1
 53
0.0
 43
0.0
 44
0.0
 45
0.0
 46
0.1
 79
     0
 47
0.2423126445178953
 98
        1
 10
228.834898230411
 20
424.8940036736581
  0
ARC
  5
E5C
102
{ACAD_REACTORS
330
E66
102
}
330
1E
100
AcDbEntity
  8
SCHRAFF
100
AcDbCircle
 10
219.1510298122249
 20
279.8600582371443
 30
0.0
 40
11.26395316761009
100
AcDbArc
 50
309.8557541705474
 51
5.14424582945292
  0
HATCH
  5
E66
330
1E
100
AcDbEntity
  8
SCHRAFF
100
AcDbHatch
 10
0.0
 20
0.0
 30
0.0
210
0.0
220
0.0
230
1.0
  2
_USER
 70
     0
 71
     1
 91
        1
 92
        7
 72
     1
 73
     1
 93
        3
 10
230.3696131405521
 20
280.8700231214309
 42
0.0
 10
226.3696131405521
 20
276.8700231214309
 42
0.0
 10
226.3696131405521
 20
271.2131688719385
 42
0.2460330098605082
 97
        3
330
B09
330
92E
330
E5C
 75
     0
 76
     0
 52
0.0
 41
0.1
 77
     0
 78
     1
 53
0.0
 43
0.0
 44
0.0
 45
0.0
 46
0.1
 79
     0
 47
0.0583188193196078
 98
        1
 10
228.2635478825205
 20
276.8088558107224
  0
DIMENSION
  5
E88
330
1E
100
AcDbEntity
  8
BEM
100
AcDbDimension
  2
*D6
 10
176.3696131405521
 20
173.9949148024592
 30
0.0
 11
278.7172225413824
 21
546.0839014944067
 31
0.0
 70
    34
 71
     5
 42
0.7853981633974483
  3
Standard
100
AcDb2LineAngularDimension
 13
336.1757456887119
 23
458.8010473506188
 33
0.0
 14
176.3696131405522
 24
298.9949148024592
 34
0.0
 15
176.3696131405523
 25
543.998663762538
 35
0.0
 16
306.8432091273101
 26
524.981812097738
 36
0.0
1001
ACAD
1000
DSTYLE
1002
{
1070
    40
1040
2.0
1070
    41
1040
3.5
1070
    42
1040
1.0
1070
    43
1040
7.0
1070
    44
1040
1.0
1070
    73
1070
     0
1070
    74
1070
     0
1070
    77
1070
     1
1070
    78
1070
     8
1070
    79
1070
     2
1070
   140
1040
3.5
1070
   141
1040
1.5
1070
   146
1040
0.5
1070
   147
1040
1.5
1070
   172
1070
     1
1070
   178
1070
     1
1070
   179
1070
     2
1070
   271
1070
     2
1070
   272
1070
     2
1070
   284
1070
     8
1070
   285
1070
     8
1070
   286
1070
     8
1002
}
  0
ENDSEC
  0
SECTION
  2
OBJECTS
  0
DICTIONARY
  5
C
330
0
100
AcDbDictionary
281
     1
  3
ACAD_COLOR
350
DF
  3
ACAD_GROUP
350
D
  3
ACAD_LAYOUT
350
19
  3
ACAD_MATERIAL
350
DE
  3
ACAD_MLINESTYLE
350
16
  3
ACAD_PLOTSETTINGS
350
18
  3
ACAD_PLOTSTYLENAME
350
E
  3
AcDbVariableDictionary
350
EA
  0
DICTIONARY
  5
A0
330
1E
100
AcDbDictionary
280
     1
281
     1
  3
ACAD_LAYOUTSELFREF
360
D4
  0
DICTIONARY
  5
A2
330
1A
100
AcDbDictionary
280
     1
281
     1
  3
ACAD_LAYOUTSELFREF
360
D3
  0
DICTIONARY
  5
DF
102
{ACAD_REACTORS
330
C
102
}
330
C
100
AcDbDictionary
281
     1
  0
DICTIONARY
  5
D
102
{ACAD_REACTORS
330
C
102
}
330
C
100
AcDbDictionary
281
     1
  0
DICTIONARY
  5
19
102
{ACAD_REACTORS
330
C
102
}
330
C
100
AcDbDictionary
281
     1
  3
Layout1
350
1D
  3
Model
350
21
  0
DICTIONARY
  5
DE
102
{ACAD_REACTORS
330
C
102
}
330
C
100
AcDbDictionary
281
     1
  0
DICTIONARY
  5
16
102
{ACAD_REACTORS
330
C
102
}
330
C
100
AcDbDictionary
281
     1
  3
Standard
350
17
  0
DICTIONARY
  5
18
102
{ACAD_REACTORS
330
C
102
}
330
C
100
AcDbDictionary
281
     1
  0
ACDBDICTIONARYWDFLT
  5
E
102
{ACAD_REACTORS
330
C
102
}
330
C
100
AcDbDictionary
281
     1
  3
Normal
350
F
100
AcDbDictionaryWithDefault
340
F
  0
DICTIONARY
  5
EA
102
{ACAD_REACTORS
330
C
102
}
330
C
100
AcDbDictionary
281
     1
  3
DIMASSOC
350
EB
  3
PROJECTNAME
350
EC
  0
XRECORD
  5
D4
102
{ACAD_REACTORS
330
A0
102
}
330
A0
100
AcDbXrecord
280
     1
340
1E
  0
XRECORD
  5
D3
102
{ACAD_REACTORS
330
A2
102
}
330
A2
100
AcDbXrecord
280
     1
340
1A
  0
LAYOUT
  5
1D
102
{ACAD_REACTORS
330
19
102
}
330
19
100
AcDbPlotSettings
  1

  2
\\NT_WORK01\HP LaserJet 5000 PCL 6
  4

  6

 40
0.0
 41
0.0
 42
0.0
 43
0.0
 44
0.0
 45
0.0
 46
0.0
 47
0.0
 48
0.0
 49
0.0
140
0.0
141
0.0
142
1.0
143
1.0
 70
   688
 72
     0
 73
     0
 74
     5
  7

 75
    16
147
1.0
 76
     0
 77
     2
 78
   300
148
0.0
149
0.0
100
AcDbLayout
  1
Layout1
 70
     0
 71
     1
 10
0.0
 20
0.0
 11
12.0
 21
9.0
 12
0.0
 22
0.0
 32
0.0
 14
1.000000000000000E+20
 24
1.000000000000000E+20
 34
1.000000000000000E+20
 15
-1.000000000000000E+20
 25
-1.000000000000000E+20
 35
-1.000000000000000E+20
146
0.0
 13
0.0
 23
0.0
 33
0.0
 16
1.0
 26
0.0
 36
0.0
 17
0.0
 27
1.0
 37
0.0
 76
     0
330
1A
  0
LAYOUT
  5
21
102
{ACAD_REACTORS
330
19
102
}
330
19
100
AcDbPlotSettings
  1

  2
none_device
  4
Letter_(8.50_x_11.00_Inches)
  6

 40
6.349999904632568
 41
6.349999904632568
 42
6.350006103515625
 43
6.350006103515625
 44
215.8999938964844
 45
279.3999938964844
 46
0.0
 47
0.0
 48
0.0
 49
0.0
140
0.0
141
0.0
142
1.0
143
1.0
 70
 11952
 72
     0
 73
     1
 74
     0
  7

 75
     0
147
1.0
 76
     0
 77
     2
 78
   300
148
2271.705623028196
149
62.07408360217847
100
AcDbLayout
  1
Model
 70
     1
 71
     0
 10
0.0
 20
0.0
 11
12.0
 21
9.0
 12
0.0
 22
0.0
 32
0.0
 14
0.0
 24
0.0
 34
0.0
 15
0.0
 25
0.0
 35
0.0
146
0.0
 13
0.0
 23
0.0
 33
0.0
 16
1.0
 26
0.0
 36
0.0
 17
0.0
 27
1.0
 37
0.0
 76
     0
330
1E
  0
MLINESTYLE
  5
17
102
{ACAD_REACTORS
330
16
102
}
330
16
100
AcDbMlineStyle
  2
STANDARD
 70
     0
  3

 62
   256
 51
90.0
 52
90.0
 71
     2
 49
0.5
 62
   256
  6
BYLAYER
 49
-0.5
 62
   256
  6
BYLAYER
  0
ACDBPLACEHOLDER
  5
F
102
{ACAD_REACTORS
330
E
102
}
330
E
  0
DICTIONARYVAR
  5
EB
102
{ACAD_REACTORS
330
EA
102
}
330
EA
100
DictionaryVariables
280
     0
  1
1
  0
DICTIONARYVAR
  5
EC
102
{ACAD_REACTORS
330
EA
102
}
330
EA
100
DictionaryVariables
280
     0
  1

  0
ENDSEC
  0
EOF
