  0
SECTION
  2
HEADER
  9
$ACADVER
  1
AC1018
  9
$ACADMAINTVER
 70
     2
  9
$DWGCODEPAGE
  3
ANSI_1252
  9
$INSBASE
 10
0.0
 20
0.0
 30
0.0
  9
$EXTMIN
 10
-0.0320258532665321
 20
-0.0452937067634594
 30
-0.0000000000000129
  9
$EXTMAX
 10
420.0000078240054
 20
594.0000110653779
 30
0.0000000000000023
  9
$LIMMIN
 10
0.0
 20
0.0
  9
$LIMMAX
 10
419.9999999999999
 20
594.0
  9
$ORTHOMODE
 70
     1
  9
$REGENMODE
 70
     1
  9
$FILLMODE
 70
     1
  9
$QTEXTMODE
 70
     0
  9
$MIRRTEXT
 70
     1
  9
$LTSCALE
 40
20.0
  9
$ATTMODE
 70
     1
  9
$TEXTSIZE
 40
3.5
  9
$TRACEWID
 40
0.5
  9
$TEXTSTYLE
  7
STANDARD
  9
$CLAYER
  8
BEM
  9
$CELTYPE
  6
ByLayer
  9
$CECOLOR
 62
   256
  9
$CELTSCALE
 40
1.0
  9
$DISPSILH
 70
     0
  9
$DIMSCALE
 40
2.0
  9
$DIMASZ
 40
3.5
  9
$DIMEXO
 40
1.0
  9
$DIMDLI
 40
7.0
  9
$DIMRND
 40
0.0
  9
$DIMDLE
 40
0.0
  9
$DIMEXE
 40
1.0
  9
$DIMTP
 40
0.0
  9
$DIMTM
 40
0.0
  9
$DIMTXT
 40
3.5
  9
$DIMCEN
 40
1.5
  9
$DIMTSZ
 40
0.0
  9
$DIMTOL
 70
     0
  9
$DIMLIM
 70
     0
  9
$DIMTIH
 70
     0
  9
$DIMTOH
 70
     0
  9
$DIMSE1
 70
     0
  9
$DIMSE2
 70
     0
  9
$DIMTAD
 70
     1
  9
$DIMZIN
 70
     8
  9
$DIMBLK
  1

  9
$DIMASO
 70
     1
  9
$DIMSHO
 70
     0
  9
$DIMPOST
  1

  9
$DIMAPOST
  1

  9
$DIMALT
 70
     0
  9
$DIMALTD
 70
     2
  9
$DIMALTF
 40
25.4
  9
$DIMLFAC
 40
1.0
  9
$DIMTOFL
 70
     1
  9
$DIMTVP
 40
0.0
  9
$DIMTIX
 70
     0
  9
$DIMSOXD
 70
     0
  9
$DIMSAH
 70
     0
  9
$DIMBLK1
  1

  9
$DIMBLK2
  1

  9
$DIMSTYLE
  2
Standard
  9
$DIMCLRD
 70
     0
  9
$DIMCLRE
 70
     0
  9
$DIMCLRT
 70
     1
  9
$DIMTFAC
 40
0.5
  9
$DIMGAP
 40
1.5
  9
$DIMJUST
 70
     0
  9
$DIMSD1
 70
     0
  9
$DIMSD2
 70
     0
  9
$DIMTOLJ
 70
     1
  9
$DIMTZIN
 70
     8
  9
$DIMALTZ
 70
     8
  9
$DIMALTTZ
 70
     8
  9
$DIMUPT
 70
     0
  9
$DIMDEC
 70
     2
  9
$DIMTDEC
 70
     2
  9
$DIMALTU
 70
     2
  9
$DIMALTTD
 70
     2
  9
$DIMTXSTY
  7
STANDARD
  9
$DIMAUNIT
 70
     0
  9
$DIMADEC
 70
     2
  9
$DIMALTRND
 40
0.0
  9
$DIMAZIN
 70
     2
  9
$DIMDSEP
 70
    46
  9
$DIMATFIT
 70
     3
  9
$DIMFRAC
 70
     0
  9
$DIMLDRBLK
  1

  9
$DIMLUNIT
 70
     2
  9
$DIMLWD
 70
    -2
  9
$DIMLWE
 70
    -2
  9
$DIMTMOVE
 70
     0
  9
$LUNITS
 70
     2
  9
$LUPREC
 70
     2
  9
$SKETCHINC
 40
1.0
  9
$FILLETRAD
 40
0.0
  9
$AUNITS
 70
     0
  9
$AUPREC
 70
     0
  9
$MENU
  1
ACAD
  9
$ELEVATION
 40
0.0
  9
$PELEVATION
 40
0.0
  9
$THICKNESS
 40
0.0
  9
$LIMCHECK
 70
     0
  9
$CHAMFERA
 40
0.0
  9
$CHAMFERB
 40
0.0
  9
$CHAMFERC
 40
0.0
  9
$CHAMFERD
 40
0.0
  9
$SKPOLY
 70
     0
  9
$TDCREATE
 40
2455397.823042361
  9
$TDUCREATE
 40
2455397.781375695
  9
$TDUPDATE
 40
2455531.613186574
  9
$TDUUPDATE
 40
2455531.571519908
  9
$TDINDWG
 40
0.1212543981
  9
$TDUSRTIMER
 40
0.1212543981
  9
$USRTIMER
 70
     1
  9
$ANGBASE
 50
0.0
  9
$ANGDIR
 70
     0
  9
$PDMODE
 70
     0
  9
$PDSIZE
 40
0.0
  9
$PLINEWID
 40
0.0
  9
$SPLFRAME
 70
     0
  9
$SPLINETYPE
 70
     6
  9
$SPLINESEGS
 70
     8
  9
$HANDSEED
  5
C72
  9
$SURFTAB1
 70
     6
  9
$SURFTAB2
 70
     6
  9
$SURFTYPE
 70
     6
  9
$SURFU
 70
     6
  9
$SURFV
 70
     6
  9
$UCSBASE
  2

  9
$UCSNAME
  2

  9
$UCSORG
 10
0.0
 20
0.0
 30
0.0
  9
$UCSXDIR
 10
1.0
 20
0.0
 30
0.0
  9
$UCSYDIR
 10
0.0
 20
1.0
 30
0.0
  9
$UCSORTHOREF
  2

  9
$UCSORTHOVIEW
 70
     0
  9
$UCSORGTOP
 10
0.0
 20
0.0
 30
0.0
  9
$UCSORGBOTTOM
 10
0.0
 20
0.0
 30
0.0
  9
$UCSORGLEFT
 10
0.0
 20
0.0
 30
0.0
  9
$UCSORGRIGHT
 10
0.0
 20
0.0
 30
0.0
  9
$UCSORGFRONT
 10
0.0
 20
0.0
 30
0.0
  9
$UCSORGBACK
 10
0.0
 20
0.0
 30
0.0
  9
$PUCSBASE
  2

  9
$PUCSNAME
  2

  9
$PUCSORG
 10
0.0
 20
0.0
 30
0.0
  9
$PUCSXDIR
 10
1.0
 20
0.0
 30
0.0
  9
$PUCSYDIR
 10
0.0
 20
1.0
 30
0.0
  9
$PUCSORTHOREF
  2

  9
$PUCSORTHOVIEW
 70
     0
  9
$PUCSORGTOP
 10
0.0
 20
0.0
 30
0.0
  9
$PUCSORGBOTTOM
 10
0.0
 20
0.0
 30
0.0
  9
$PUCSORGLEFT
 10
0.0
 20
0.0
 30
0.0
  9
$PUCSORGRIGHT
 10
0.0
 20
0.0
 30
0.0
  9
$PUCSORGFRONT
 10
0.0
 20
0.0
 30
0.0
  9
$PUCSORGBACK
 10
0.0
 20
0.0
 30
0.0
  9
$USERI1
 70
     0
  9
$USERI2
 70
     0
  9
$USERI3
 70
     0
  9
$USERI4
 70
     0
  9
$USERI5
 70
     0
  9
$USERR1
 40
0.0
  9
$USERR2
 40
0.0
  9
$USERR3
 40
0.0
  9
$USERR4
 40
0.0
  9
$USERR5
 40
0.0
  9
$WORLDVIEW
 70
     1
  9
$SHADEDGE
 70
     3
  9
$SHADEDIF
 70
    70
  9
$TILEMODE
 70
     1
  9
$MAXACTVP
 70
    16
  9
$PINSBASE
 10
0.0
 20
0.0
 30
0.0
  9
$PLIMCHECK
 70
     0
  9
$PEXTMIN
 10
1.000000000000000E+20
 20
1.000000000000000E+20
 30
1.000000000000000E+20
  9
$PEXTMAX
 10
-1.000000000000000E+20
 20
-1.000000000000000E+20
 30
-1.000000000000000E+20
  9
$PLIMMIN
 10
0.0
 20
0.0
  9
$PLIMMAX
 10
12.0
 20
9.0
  9
$UNITMODE
 70
     0
  9
$VISRETAIN
 70
     0
  9
$PLINEGEN
 70
     0
  9
$PSLTSCALE
 70
     0
  9
$TREEDEPTH
 70
  3020
  9
$CMLSTYLE
  2
Standard
  9
$CMLJUST
 70
     0
  9
$CMLSCALE
 40
1.0
  9
$PROXYGRAPHICS
 70
     1
  9
$MEASUREMENT
 70
     0
  9
$CELWEIGHT
370
    -1
  9
$ENDCAPS
280
     0
  9
$JOINSTYLE
280
     0
  9
$LWDISPLAY
290
     0
  9
$INSUNITS
 70
     0
  9
$HYPERLINKBASE
  1

  9
$STYLESHEET
  1
monochrome 1.ctb
  9
$XEDIT
290
     1
  9
$CEPSNTYPE
380
     0
  9
$PSTYLEMODE
290
     1
  9
$FINGERPRINTGUID
  2
{D68B0D02-A558-11D7-B632-000102183313}
  9
$VERSIONGUID
  2
{F6FFD7AE-444F-4F10-A57E-C9EEE9E9C12C}
  9
$EXTNAMES
290
     1
  9
$PSVPSCALE
 40
0.0
  9
$OLESTARTUP
290
     0
  9
$SORTENTS
280
   127
  9
$INDEXCTL
280
     0
  9
$HIDETEXT
280
     0
  9
$XCLIPFRAME
290
     0
  9
$HALOGAP
280
     0
  9
$OBSCOLOR
 70
   257
  9
$OBSLTYPE
280
     0
  9
$INTERSECTIONDISPLAY
280
     0
  9
$INTERSECTIONCOLOR
 70
   257
  9
$DIMASSOC
280
     1
  9
$PROJECTNAME
  1

  0
ENDSEC
  0
SECTION
  2
CLASSES
  0
CLASS
  1
ACDBDICTIONARYWDFLT
  2
AcDbDictionaryWithDefault
  3
ObjectDBX Classes
 90
        0
 91
        1
280
     0
281
     0
  0
CLASS
  1
DICTIONARYVAR
  2
AcDbDictionaryVar
  3
ObjectDBX Classes
 90
        0
 91
        2
280
     0
281
     0
  0
ENDSEC
  0
SECTION
  2
TABLES
  0
TABLE
  2
VPORT
  5
8
330
0
100
AcDbSymbolTable
 70
     2
  0
VPORT
  5
C71
330
8
100
AcDbSymbolTableRecord
100
AcDbViewportTableRecord
  2
*Active
 70
     0
 10
0.0
 20
0.0
 11
1.0
 21
1.0
 12
209.9839909853695
 22
296.9773586793072
 13
0.0
 23
0.0
 14
1.0
 24
1.0
 15
10.0
 25
10.0
 16
0.0
 26
0.0
 36
1.0
 17
0.0
 27
0.0
 37
0.0
 40
598.8424404768961
 41
1.336927223719676
 42
50.0
 43
0.0
 44
0.0
 50
0.0
 51
0.0
 71
     0
 72
  1500
 73
     1
 74
     0
 75
     0
 76
     0
 77
     0
 78
     0
281
     0
 65
     1
110
0.0
120
0.0
130
0.0
111
1.0
121
0.0
131
0.0
112
0.0
122
1.0
132
0.0
 79
     0
146
0.0
  0
ENDTAB
  0
TABLE
  2
LTYPE
  5
5
330
0
100
AcDbSymbolTable
 70
     2
  0
LTYPE
  5
13
330
5
100
AcDbSymbolTableRecord
100
AcDbLinetypeTableRecord
  2
ByBlock
 70
     0
  3

 72
    65
 73
     0
 40
0.0
  0
LTYPE
  5
14
330
5
100
AcDbSymbolTableRecord
100
AcDbLinetypeTableRecord
  2
ByLayer
 70
     0
  3

 72
    65
 73
     0
 40
0.0
  0
LTYPE
  5
15
330
5
100
AcDbSymbolTableRecord
100
AcDbLinetypeTableRecord
  2
Continuous
 70
     0
  3
Solid line
 72
    65
 73
     0
 40
0.0
  0
LTYPE
  5
25
330
5
100
AcDbSymbolTableRecord
100
AcDbLinetypeTableRecord
  2
STRICHPUNKT
 70
     0
  3
__ . __ . __ . __ . __ . __ . __ . __ . __ . __
 72
    65
 73
     4
 40
1.0
 49
0.5
 74
     0
 49
-0.25
 74
     0
 49
0.0
 74
     0
 49
-0.25
 74
     0
  0
ENDTAB
  0
TABLE
  2
LAYER
  5
2
330
0
100
AcDbSymbolTable
 70
     9
  0
LAYER
  5
10
330
2
100
AcDbSymbolTableRecord
100
AcDbLayerTableRecord
  2
0
 70
     0
 62
     7
  6
Continuous
370
    -3
390
F
  0
LAYER
  5
2A
330
2
100
AcDbSymbolTableRecord
100
AcDbLayerTableRecord
  2
VOLL
 70
     0
 62
     1
  6
Continuous
370
    -3
390
F
  0
LAYER
  5
2B
330
2
100
AcDbSymbolTableRecord
100
AcDbLayerTableRecord
  2
HILF
 70
     0
 62
     2
  6
Continuous
370
    -3
390
F
  0
LAYER
  5
2C
330
2
100
AcDbSymbolTableRecord
100
AcDbLayerTableRecord
  2
MITTEL
 70
     0
 62
     2
  6
STRICHPUNKT
370
    -3
390
F
  0
LAYER
  5
2F
330
2
100
AcDbSymbolTableRecord
100
AcDbLayerTableRecord
  2
BEM
 70
     0
 62
     7
  6
Continuous
370
    -3
390
F
  0
LAYER
  5
30
330
2
100
AcDbSymbolTableRecord
100
AcDbLayerTableRecord
  2
STEMPEL
 70
     0
 62
     3
  6
Continuous
370
    -3
390
F
  0
LAYER
  5
31
330
2
100
AcDbSymbolTableRecord
100
AcDbLayerTableRecord
  2
TEXT
 70
     0
 62
     7
  6
Continuous
370
    -3
390
F
  0
LAYER
  5
390
330
2
100
AcDbSymbolTableRecord
100
AcDbLayerTableRecord
  2
DEFPOINTS
 70
     0
 62
     7
  6
Continuous
290
     0
370
    -3
390
F
  0
LAYER
  5
391
330
2
100
AcDbSymbolTableRecord
100
AcDbLayerTableRecord
  2
SCHRAFF
 70
     0
 62
     7
  6
Continuous
370
    -3
390
F
  0
ENDTAB
  0
TABLE
  2
STYLE
  5
3
330
0
100
AcDbSymbolTable
 70
     2
  0
STYLE
  5
11
330
3
100
AcDbSymbolTableRecord
100
AcDbTextStyleTableRecord
  2
STANDARD
 70
     0
 40
0.0
 41
0.8
 50
0.0
 71
     0
 42
3.5
  3
simplex.shx
  4

  0
STYLE
  5
24
330
3
100
AcDbSymbolTableRecord
100
AcDbTextStyleTableRecord
  2
GREEKS
 70
     0
 40
0.0
 41
0.8
 50
0.0
 71
     0
 42
2.5
  3
SIMPLEX.shx
  4

  0
ENDTAB
  0
TABLE
  2
VIEW
  5
6
330
0
100
AcDbSymbolTable
 70
     0
  0
ENDTAB
  0
TABLE
  2
UCS
  5
7
330
0
100
AcDbSymbolTable
 70
     0
  0
ENDTAB
  0
TABLE
  2
APPID
  5
9
330
0
100
AcDbSymbolTable
 70
     1
  0
APPID
  5
12
330
9
100
AcDbSymbolTableRecord
100
AcDbRegAppTableRecord
  2
ACAD
 70
     0
  0
ENDTAB
  0
TABLE
  2
DIMSTYLE
  5
A
330
0
100
AcDbSymbolTable
 70
     1
100
AcDbDimStyleTable
 71
     1
340
9D
  0
DIMSTYLE
105
9D
102
{ACAD_REACTORS
330
6F2
330
9B7
330
986
330
B31
330
BE1
330
C55
102
}
330
A
100
AcDbSymbolTableRecord
100
AcDbDimStyleTableRecord
  2
Standard
 70
     0
340
11
  0
ENDTAB
  0
TABLE
  2
BLOCK_RECORD
  5
1
330
0
100
AcDbSymbolTable
 70
     7
  0
BLOCK_RECORD
  5
1E
102
{ACAD_XDICTIONARY
360
A0
102
}
330
1
100
AcDbSymbolTableRecord
100
AcDbBlockTableRecord
  2
*Model_Space
340
21
  0
BLOCK_RECORD
  5
1A
102
{ACAD_XDICTIONARY
360
A2
102
}
330
1
100
AcDbSymbolTableRecord
100
AcDbBlockTableRecord
  2
*Paper_Space
340
1D
  0
BLOCK_RECORD
  5
22
330
1
100
AcDbSymbolTableRecord
100
AcDbBlockTableRecord
  2
LOGO
340
0
102
{BLKREFS
331
9B
102
}
  0
BLOCK_RECORD
  5
6F3
330
1
100
AcDbSymbolTableRecord
100
AcDbBlockTableRecord
  2
*D1
340
0
  0
BLOCK_RECORD
  5
987
330
1
100
AcDbSymbolTableRecord
100
AcDbBlockTableRecord
  2
*D2
340
0
  0
BLOCK_RECORD
  5
9B8
330
1
100
AcDbSymbolTableRecord
100
AcDbBlockTableRecord
  2
*D3
340
0
  0
BLOCK_RECORD
  5
B32
330
1
100
AcDbSymbolTableRecord
100
AcDbBlockTableRecord
  2
*D4
340
0
  0
BLOCK_RECORD
  5
BE2
330
1
100
AcDbSymbolTableRecord
100
AcDbBlockTableRecord
  2
*D5
340
0
  0
BLOCK_RECORD
  5
C56
330
1
100
AcDbSymbolTableRecord
100
AcDbBlockTableRecord
  2
*D6
340
0
  0
ENDTAB
  0
ENDSEC
  0
SECTION
  2
BLOCKS
  0
BLOCK
  5
35
330
1E
100
AcDbEntity
  8
0
100
AcDbBlockBegin
  2
*Model_Space
 70
     0
 10
0.0
 20
0.0
 30
0.0
  3
*Model_Space
  1

  0
ENDBLK
  5
36
330
1E
100
AcDbEntity
  8
0
100
AcDbBlockEnd
  0
BLOCK
  5
33
330
1A
100
AcDbEntity
 67
     1
  8
0
100
AcDbBlockBegin
  2
*Paper_Space
 70
     0
 10
0.0
 20
0.0
 30
0.0
  3
*Paper_Space
  1

  0
ENDBLK
  5
34
330
1A
100
AcDbEntity
 67
     1
  8
0
100
AcDbBlockEnd
  0
BLOCK
  5
37
330
22
100
AcDbEntity
  8
0
100
AcDbBlockBegin
  2
LOGO
 70
     0
 10
0.0
 20
0.0
 30
0.0
  3
LOGO
  1

  0
ARC
  5
38
330
22
100
AcDbEntity
  8
0
100
AcDbCircle
 10
11.59973089678112
 20
-9.271599258481501
 30
0.0
 40
4.5
100
AcDbArc
 50
270.0
 51
231.0575587310159
  0
LINE
  5
39
330
22
100
AcDbEntity
  8
0
100
AcDbLine
 10
3.599730896781125
 20
-4.771599258481529
 30
0.0
 11
3.599730896781153
 21
-11.77159925848133
 31
0.0
  0
LINE
  5
3A
330
22
100
AcDbEntity
  8
0
100
AcDbLine
 10
2.599730896781125
 20
-4.771599258481529
 30
0.0
 11
2.599730896781153
 21
-11.77159925848133
 31
0.0
  0
CIRCLE
  5
3B
330
22
100
AcDbEntity
  8
0
100
AcDbCircle
 10
11.59973089678112
 20
-9.271599258481501
 30
0.0
 40
3.5
  0
ARC
  5
3C
330
22
100
AcDbEntity
  8
0
100
AcDbCircle
 10
31.59973089678115
 20
-9.271599258481472
 30
0.0
 40
4.5
100
AcDbArc
 50
270.0
 51
231.0575587310182
  0
LINE
  5
3D
330
22
100
AcDbEntity
  8
0
100
AcDbLine
 10
17.59973089678112
 20
-4.771599258481472
 30
0.0
 11
17.59973089678115
 21
-13.77159925848147
 31
0.0
  0
ARC
  5
3E
330
22
100
AcDbEntity
  8
0
100
AcDbCircle
 10
22.59973089678116
 20
-7.271599258481472
 30
0.0
 40
2.5
100
AcDbArc
 50
293.1161887722295
 51
90.0
  0
CIRCLE
  5
3F
330
22
100
AcDbEntity
  8
0
100
AcDbCircle
 10
31.59973089678115
 20
-9.271599258481472
 30
0.0
 40
3.5
  0
ARC
  5
40
330
22
100
AcDbEntity
  8
0
100
AcDbCircle
 10
4.599730896781153
 20
-11.77159925848133
 30
0.0
 40
1.0
100
AcDbArc
 50
180.0
 51
270.0
  0
ARC
  5
41
330
22
100
AcDbEntity
  8
0
100
AcDbCircle
 10
4.599730896781153
 20
-11.77159925848133
 30
0.0
 40
2.0
100
AcDbArc
 50
179.9999999999992
 51
270.0
  0
LINE
  5
42
330
22
100
AcDbEntity
  8
0
100
AcDbLine
 10
11.59973089678115
 20
-13.77159925848144
 30
0.0
 11
4.599730896781153
 21
-13.77159925848147
 31
0.0
  0
LINE
  5
43
330
22
100
AcDbEntity
  8
0
100
AcDbLine
 10
8.771303772034769
 20
-12.77159925848136
 30
0.0
 11
4.599730896781153
 21
-12.77159925848133
 31
0.0
  0
LINE
  5
44
330
22
100
AcDbEntity
  8
0
100
AcDbLine
 10
31.59973089678115
 20
-13.77159925848147
 30
0.0
 11
23.6715276665056
 21
-13.77159925848144
 31
0.0
  0
LINE
  5
45
330
22
100
AcDbEntity
  8
0
100
AcDbLine
 10
23.56565672307022
 20
-9.51278021337896
 30
0.0
 11
24.4388546544846
 21
-12.77159925848144
 31
0.0
  0
LINE
  5
46
330
22
100
AcDbEntity
  8
0
100
AcDbLine
 10
22.59973089678116
 20
-9.771599258481472
 30
0.0
 11
18.59973089678112
 21
-9.771599258481472
 31
0.0
  0
LINE
  5
47
330
22
100
AcDbEntity
  8
0
100
AcDbLine
 10
18.59973089678115
 20
-13.77159925848144
 30
0.0
 11
17.59973089678115
 21
-13.77159925848144
 31
0.0
  0
LINE
  5
48
330
22
100
AcDbEntity
  8
0
100
AcDbLine
 10
18.59973089678115
 20
-9.771599258481472
 30
0.0
 11
18.59973089678115
 21
-13.77159925848144
 31
0.0
  0
LINE
  5
49
330
22
100
AcDbEntity
  8
0
100
AcDbLine
 10
22.59973089678116
 20
-9.771599258481472
 30
0.0
 11
23.67152766650562
 21
-13.77159925848147
 31
0.0
  0
ARC
  5
4A
330
22
100
AcDbEntity
  8
0
100
AcDbCircle
 10
22.59973089678116
 20
-7.271599258481472
 30
0.0
 40
2.5
100
AcDbArc
 50
270.0
 51
270.0000000000007
  0
LINE
  5
4B
330
22
100
AcDbEntity
  8
0
100
AcDbLine
 10
28.77130377203494
 20
-12.77159925848147
 30
0.0
 11
24.43885465448463
 21
-12.77159925848144
 31
0.0
  0
LINE
  5
4C
330
22
100
AcDbEntity
  8
0
100
AcDbLine
 10
3.599730896781125
 20
-4.771599258481472
 30
0.0
 11
2.599730896781125
 21
-4.771599258481472
 31
0.0
  0
LINE
  5
4D
330
22
100
AcDbEntity
  8
0
100
AcDbLine
 10
22.59973089678116
 20
-8.771599258481472
 30
0.0
 11
18.59973089678115
 21
-8.771599258481472
 31
0.0
  0
LINE
  5
4E
330
22
100
AcDbEntity
  8
0
100
AcDbLine
 10
22.59973089678116
 20
-5.771599258481472
 30
0.0
 11
18.59973089678115
 21
-5.771599258481472
 31
0.0
  0
LINE
  5
4F
330
22
100
AcDbEntity
  8
0
100
AcDbLine
 10
22.59973089678116
 20
-4.771599258481472
 30
0.0
 11
17.59973089678115
 21
-4.771599258481472
 31
0.0
  0
LINE
  5
50
330
22
100
AcDbEntity
  8
0
100
AcDbLine
 10
18.59973089678115
 20
-5.771599258481472
 30
0.0
 11
18.59973089678115
 21
-8.771599258481472
 31
0.0
  0
ARC
  5
51
330
22
100
AcDbEntity
  8
0
100
AcDbCircle
 10
22.59973089678116
 20
-7.271599258481472
 30
0.0
 40
1.5
100
AcDbArc
 50
270.0
 51
90.0
  0
ENDBLK
  5
52
330
22
100
AcDbEntity
  8
0
100
AcDbBlockEnd
  0
BLOCK
  5
6FD
330
6F3
100
AcDbEntity
  8
0
100
AcDbBlockBegin
  2
*D1
 70
     1
 10
0.0
 20
0.0
 30
0.0
  3
*D1
  1

  0
LINE
  5
B6D
330
6F3
100
AcDbEntity
  8
BEM
 62
     0
370
    -2
100
AcDbLine
 10
126.3696131405523
 20
201.1581255199605
 30
0.0
 11
126.3696131405523
 21
180.7777077218898
 31
0.0
  0
LINE
  5
B6E
330
6F3
100
AcDbEntity
  8
BEM
 62
     0
370
    -2
100
AcDbLine
 10
226.3696131405521
 20
201.1581255199605
 30
0.0
 11
226.3696131405521
 21
180.7777077218898
 31
0.0
  0
LINE
  5
B6F
330
6F3
100
AcDbEntity
  8
BEM
 62
     0
370
    -2
100
AcDbLine
 10
133.3696131405522
 20
182.7777077218898
 30
0.0
 11
219.3696131405521
 21
182.7777077218898
 31
0.0
  0
SOLID
  5
B70
330
6F3
100
AcDbEntity
  8
BEM
 62
     0
100
AcDbTrace
 10
133.3696131405522
 20
183.9443743885564
 30
0.0
 11
133.3696131405522
 21
181.6110410552231
 31
0.0
 12
126.3696131405523
 22
182.7777077218898
 32
0.0
 13
126.3696131405523
 23
182.7777077218898
 33
0.0
  0
SOLID
  5
B71
330
6F3
100
AcDbEntity
  8
BEM
 62
     0
100
AcDbTrace
 10
219.3696131405521
 20
183.9443743885564
 30
0.0
 11
219.3696131405521
 21
181.6110410552231
 31
0.0
 12
226.3696131405521
 22
182.7777077218898
 32
0.0
 13
226.3696131405521
 23
182.7777077218898
 33
0.0
  0
MTEXT
  5
B72
330
6F3
100
AcDbEntity
  8
BEM
 62
     1
100
AcDbMText
 10
179.7967061722688
 20
189.2777077218898
 30
0.0
 40
7.0
 41
0.0
 71
     5
 72
     1
  1
\A1;100
 73
     1
 44
1.0
  0
POINT
  5
B73
330
6F3
100
AcDbEntity
  8
DEFPOINTS
 62
     0
100
AcDbPoint
 10
126.3696131405523
 20
203.1581255199605
 30
0.0
  0
POINT
  5
B74
330
6F3
100
AcDbEntity
  8
DEFPOINTS
 62
     0
100
AcDbPoint
 10
226.3696131405521
 20
203.1581255199605
 30
0.0
  0
POINT
  5
B75
330
6F3
100
AcDbEntity
  8
DEFPOINTS
 62
     0
100
AcDbPoint
 10
226.3696131405521
 20
182.7777077218898
 30
0.0
  0
ENDBLK
  5
6FE
330
6F3
100
AcDbEntity
  8
0
100
AcDbBlockEnd
  0
BLOCK
  5
991
330
987
100
AcDbEntity
  8
0
100
AcDbBlockBegin
  2
*D2
 70
     1
 10
0.0
 20
0.0
 30
0.0
  3
*D2
  1

  0
LINE
  5
B5B
330
987
100
AcDbEntity
  8
BEM
 62
     0
370
    -2
100
AcDbLine
 10
120.2196131405522
 20
518.1618744800394
 30
0.0
 11
106.1320503318352
 21
518.1618744800394
 31
0.0
  0
LINE
  5
B5C
330
987
100
AcDbEntity
  8
BEM
 62
     0
370
    -2
100
AcDbLine
 10
121.4352069034387
 20
448.1618744800393
 30
0.0
 11
106.1320503318352
 21
448.1618744800393
 31
0.0
  0
LINE
  5
B5D
330
987
100
AcDbEntity
  8
BEM
 62
     0
370
    -2
100
AcDbLine
 10
108.1320503318352
 20
511.1618744800393
 30
0.0
 11
108.1320503318352
 21
455.1618744800394
 31
0.0
  0
SOLID
  5
B5E
330
987
100
AcDbEntity
  8
BEM
 62
     0
100
AcDbTrace
 10
106.9653836651685
 20
511.1618744800393
 30
0.0
 11
109.2987169985019
 21
511.1618744800393
 31
0.0
 12
108.1320503318352
 22
518.1618744800394
 32
0.0
 13
108.1320503318352
 23
518.1618744800394
 33
0.0
  0
SOLID
  5
B5F
330
987
100
AcDbEntity
  8
BEM
 62
     0
100
AcDbTrace
 10
106.9653836651685
 20
455.1618744800394
 30
0.0
 11
109.2987169985019
 21
455.1618744800394
 31
0.0
 12
108.1320503318352
 22
448.1618744800393
 32
0.0
 13
108.1320503318352
 23
448.1618744800393
 33
0.0
  0
MTEXT
  5
B60
330
987
100
AcDbEntity
  8
BEM
 62
     1
100
AcDbMText
 10
101.6320503318351
 20
483.1618744800393
 30
0.0
 40
7.0
 41
0.0
 71
     5
 72
     1
  1
\A1;70
 11
0.0000000000000001
 21
1.0
 31
0.0
 73
     1
 44
1.0
  0
POINT
  5
B61
330
987
100
AcDbEntity
  8
DEFPOINTS
 62
     0
100
AcDbPoint
 10
122.2196131405522
 20
518.1618744800394
 30
0.0
  0
POINT
  5
B62
330
987
100
AcDbEntity
  8
DEFPOINTS
 62
     0
100
AcDbPoint
 10
123.4352069034387
 20
448.1618744800393
 30
0.0
  0
POINT
  5
B63
330
987
100
AcDbEntity
  8
DEFPOINTS
 62
     0
100
AcDbPoint
 10
108.1320503318352
 20
448.1618744800393
 30
0.0
  0
ENDBLK
  5
992
330
987
100
AcDbEntity
  8
0
100
AcDbBlockEnd
  0
BLOCK
  5
9C2
330
9B8
100
AcDbEntity
  8
0
100
AcDbBlockBegin
  2
*D3
 70
     1
 10
0.0
 20
0.0
 30
0.0
  3
*D3
  1

  0
LINE
  5
B52
330
9B8
100
AcDbEntity
  8
BEM
 62
     0
370
    -2
100
AcDbLine
 10
120.2196131405522
 20
518.1618744800394
 30
0.0
 11
89.67373806688881
 21
518.1618744800394
 31
0.0
  0
LINE
  5
B53
330
9B8
100
AcDbEntity
  8
BEM
 62
     0
370
    -2
100
AcDbLine
 10
124.3696131405523
 20
203.1581255199604
 30
0.0
 11
89.67373806688874
 21
203.1581255199604
 31
0.0
  0
LINE
  5
B54
330
9B8
100
AcDbEntity
  8
BEM
 62
     0
370
    -2
100
AcDbLine
 10
91.67373806688882
 20
511.1618744800393
 30
0.0
 11
91.67373806688875
 21
210.1581255199604
 31
0.0
  0
SOLID
  5
B55
330
9B8
100
AcDbEntity
  8
BEM
 62
     0
100
AcDbTrace
 10
90.50707140022215
 20
511.1618744800393
 30
0.0
 11
92.84040473355549
 21
511.1618744800393
 31
0.0
 12
91.67373806688882
 22
518.1618744800394
 32
0.0
 13
91.67373806688882
 23
518.1618744800394
 33
0.0
  0
SOLID
  5
B56
330
9B8
100
AcDbEntity
  8
BEM
 62
     0
100
AcDbTrace
 10
90.50707140022208
 20
210.1581255199604
 30
0.0
 11
92.84040473355542
 21
210.1581255199604
 31
0.0
 12
91.67373806688875
 22
203.1581255199604
 32
0.0
 13
91.67373806688875
 23
203.1581255199604
 33
0.0
  0
MTEXT
  5
B57
330
9B8
100
AcDbEntity
  8
BEM
 62
     1
100
AcDbMText
 10
85.17373806688873
 20
360.6599999999999
 30
0.0
 40
7.0
 41
0.0
 71
     5
 72
     1
  1
\A1;315
 11
0.0000000000000001
 21
1.0
 31
0.0
 73
     1
 44
1.0
  0
POINT
  5
B58
330
9B8
100
AcDbEntity
  8
DEFPOINTS
 62
     0
100
AcDbPoint
 10
122.2196131405522
 20
518.1618744800394
 30
0.0
  0
POINT
  5
B59
330
9B8
100
AcDbEntity
  8
DEFPOINTS
 62
     0
100
AcDbPoint
 10
126.3696131405523
 20
203.1581255199604
 30
0.0
  0
POINT
  5
B5A
330
9B8
100
AcDbEntity
  8
DEFPOINTS
 62
     0
100
AcDbPoint
 10
91.67373806688875
 20
203.1581255199604
 30
0.0
  0
ENDBLK
  5
9C3
330
9B8
100
AcDbEntity
  8
0
100
AcDbBlockEnd
  0
BLOCK
  5
B3C
330
B32
100
AcDbEntity
  8
0
100
AcDbBlockBegin
  2
*D4
 70
     1
 10
0.0
 20
0.0
 30
0.0
  3
*D4
  1

  0
LINE
  5
C64
330
B32
100
AcDbEntity
  8
BEM
 62
     0
370
    -2
100
AcDbLine
 10
334.1773292759668
 20
303.6425280029939
 30
0.0
 11
335.3120346788593
 21
281.991059110097
 31
0.0
  0
LINE
  5
C65
330
B32
100
AcDbEntity
  8
BEM
 62
     0
370
    -2
100
AcDbLine
 10
176.4742850530379
 20
351.1608664504513
 30
0.0
 11
180.5244567919004
 21
273.878985892441
 31
0.0
  0
LINE
  5
C66
330
B32
100
AcDbEntity
  8
BEM
 62
     0
370
    -2
100
AcDbLine
 10
328.2169560230914
 20
283.6219664859056
 30
0.0
 11
187.4101916226965
 21
276.2425966556508
 31
0.0
  0
SOLID
  5
C67
330
B32
100
AcDbEntity
  8
BEM
 62
     0
100
AcDbTrace
 10
328.1558974074747
 20
284.7870342764526
 30
0.0
 11
328.2780146387082
 21
282.4568986953586
 31
0.0
 12
335.2073627663734
 22
283.9883181796062
 32
0.0
 13
335.2073627663734
 23
283.9883181796062
 33
0.0
  0
SOLID
  5
C68
330
B32
100
AcDbEntity
  8
BEM
 62
     0
100
AcDbTrace
 10
187.3491330070797
 20
277.4076644461977
 30
0.0
 11
187.4712502383133
 21
275.0775288651038
 31
0.0
 12
180.4197848794145
 22
275.8762449619502
 32
0.0
 13
180.4197848794145
 23
275.8762449619502
 33
0.0
  0
MTEXT
  5
C69
330
B32
100
AcDbEntity
  8
BEM
 62
     1
100
AcDbMText
 10
257.4733901073149
 20
286.4233735466829
 30
0.0
 40
7.0
 41
0.0
 71
     5
 72
     1
  1
\A1;155
 11
0.9986295347545741
 21
0.0523359562429422
 31
0.0
 73
     1
 44
1.0
  0
POINT
  5
C6A
330
B32
100
AcDbEntity
  8
DEFPOINTS
 62
     0
100
AcDbPoint
 10
334.0726573634809
 20
305.6397870725031
 30
0.0
  0
POINT
  5
C6B
330
B32
100
AcDbEntity
  8
DEFPOINTS
 62
     0
100
AcDbPoint
 10
176.3696131405521
 20
353.1581255199605
 30
0.0
  0
POINT
  5
C6C
330
B32
100
AcDbEntity
  8
DEFPOINTS
 62
     0
100
AcDbPoint
 10
180.4197848794145
 20
275.8762449619502
 30
0.0
  0
ENDBLK
  5
B3D
330
B32
100
AcDbEntity
  8
0
100
AcDbBlockEnd
  0
BLOCK
  5
BEC
330
BE2
100
AcDbEntity
  8
0
100
AcDbBlockBegin
  2
*D5
 70
     1
 10
0.0
 20
0.0
 30
0.0
  3
*D5
  1

  0
LINE
  5
BE3
330
BE2
100
AcDbEntity
  8
SCHRAFF
 62
     0
370
    -2
100
AcDbLine
 10
124.3696131405523
 20
203.1581255199604
 30
0.0
 11
106.1320503318351
 21
203.1581255199604
 31
0.0
  0
LINE
  5
BE4
330
BE2
100
AcDbEntity
  8
SCHRAFF
 62
     0
370
    -2
100
AcDbLine
 10
174.3696131405521
 20
353.1581255199605
 30
0.0
 11
106.1320503318352
 21
353.1581255199605
 31
0.0
  0
LINE
  5
BE5
330
BE2
100
AcDbEntity
  8
SCHRAFF
 62
     0
370
    -2
100
AcDbLine
 10
108.1320503318351
 20
210.1581255199604
 30
0.0
 11
108.1320503318352
 21
346.1581255199605
 31
0.0
  0
SOLID
  5
BE6
330
BE2
100
AcDbEntity
  8
SCHRAFF
 62
     0
100
AcDbTrace
 10
106.9653836651685
 20
210.1581255199604
 30
0.0
 11
109.2987169985018
 21
210.1581255199604
 31
0.0
 12
108.1320503318351
 22
203.1581255199604
 32
0.0
 13
108.1320503318351
 23
203.1581255199604
 33
0.0
  0
SOLID
  5
BE7
330
BE2
100
AcDbEntity
  8
SCHRAFF
 62
     0
100
AcDbTrace
 10
106.9653836651685
 20
346.1581255199605
 30
0.0
 11
109.2987169985018
 21
346.1581255199605
 31
0.0
 12
108.1320503318352
 22
353.1581255199605
 32
0.0
 13
108.1320503318352
 23
353.1581255199605
 33
0.0
  0
MTEXT
  5
BE8
330
BE2
100
AcDbEntity
  8
SCHRAFF
 62
     1
100
AcDbMText
 10
101.6320503318351
 20
278.1581255199605
 30
0.0
 40
7.0
 41
0.0
 71
     5
 72
     1
  1
\A1;150
 11
0.0000000000000001
 21
1.0
 31
0.0
 73
     1
 44
1.0
  0
POINT
  5
BE9
330
BE2
100
AcDbEntity
  8
DEFPOINTS
 62
     0
100
AcDbPoint
 10
126.3696131405523
 20
203.1581255199604
 30
0.0
  0
POINT
  5
BEA
330
BE2
100
AcDbEntity
  8
DEFPOINTS
 62
     0
100
AcDbPoint
 10
176.3696131405521
 20
353.1581255199605
 30
0.0
  0
POINT
  5
BEB
330
BE2
100
AcDbEntity
  8
DEFPOINTS
 62
     0
100
AcDbPoint
 10
108.1320503318352
 20
353.1581255199605
 30
0.0
  0
ENDBLK
  5
BED
330
BE2
100
AcDbEntity
  8
0
100
AcDbBlockEnd
  0
BLOCK
  5
C62
330
C56
100
AcDbEntity
  8
0
100
AcDbBlockBegin
  2
*D6
 70
     1
 10
0.0
 20
0.0
 30
0.0
  3
*D6
  1

  0
LINE
  5
C57
330
C56
100
AcDbEntity
  8
BEM
 62
     0
370
    -2
100
AcDbLine
 10
338.147597770793
 20
361.6365504313173
 30
0.0
 11
369.7445140336421
 21
363.2924746448455
 31
0.0
  0
LINE
  5
C58
330
C56
100
AcDbEntity
  8
BEM
 62
     0
370
    -2
100
AcDbLine
 10
176.3696131405521
 20
525.1618744800395
 30
0.0
 11
176.3696131405521
 21
546.7984036843893
 31
0.0
  0
ARC
  5
C59
330
C56
100
AcDbEntity
  8
BEM
 62
     0
370
    -2
100
AcDbCircle
 10
176.3696131405522
 20
353.1581255199605
 30
0.0
 40
191.6402781644288
100
AcDbArc
 50
5.092946013415168
 51
87.90705398658486
  0
SOLID
  5
C5A
330
C56
100
AcDbEntity
  8
BEM
 62
     0
100
AcDbTrace
 10
368.4170542235339
 20
370.2526792396467
 30
0.0
 11
366.0895375585001
 21
370.0880262152747
 31
0.0
 12
367.747254964133
 22
363.1878027323596
 32
0.0
 13
367.747254964133
 23
363.1878027323596
 33
0.0
  0
SOLID
  5
C5B
330
C56
100
AcDbEntity
  8
BEM
 62
     0
100
AcDbTrace
 10
183.3471383326026
 20
543.504087917116
 30
0.0
 11
183.3897528953913
 21
545.837032074931
 31
0.0
 12
176.3696131405521
 22
544.7984036843893
 32
0.0
 13
176.3696131405521
 23
544.7984036843893
 33
0.0
  0
MTEXT
  5
C5C
330
C56
100
AcDbEntity
  8
BEM
 62
     1
100
AcDbMText
 10
312.76038024427
 20
496.8840051656829
 30
0.0
 40
7.0
 41
0.0
 71
     5
 72
     1
  1
\A1;87°
 11
0.7253743710122878
 21
-0.6883545756937539
 31
0.0
 73
     1
 44
1.0
  0
POINT
  5
C5D
330
C56
100
AcDbEntity
  8
DEFPOINTS
 62
     0
100
AcDbPoint
 10
338.889786184784
 20
454.7120007223013
 30
0.0
  0
POINT
  5
C5E
330
C56
100
AcDbEntity
  8
DEFPOINTS
 62
     0
100
AcDbPoint
 10
176.3696131405521
 20
523.1618744800394
 30
0.0
  0
POINT
  5
C5F
330
C56
100
AcDbEntity
  8
DEFPOINTS
 62
     0
100
AcDbPoint
 10
336.1503387012839
 20
361.5318785188315
 30
0.0
  0
POINT
  5
C60
330
C56
100
AcDbEntity
  8
DEFPOINTS
 62
     0
100
AcDbPoint
 10
214.3759332272168
 20
355.149952354423
 30
0.0
  0
POINT
  5
C61
330
C56
100
AcDbEntity
  8
DEFPOINTS
 62
     0
100
AcDbPoint
 10
176.3696131405522
 20
198.1581255199605
 30
0.0
  0
ENDBLK
  5
C63
330
C56
100
AcDbEntity
  8
0
100
AcDbBlockEnd
  0
ENDSEC
  0
SECTION
  2
ENTITIES
  0
LINE
  5
57
330
1E
100
AcDbEntity
  8
STEMPEL
100
AcDbLine
 10
410.0
 20
110.0
 30
0.0
 11
39.99999999999997
 21
110.0
 31
0.0
  0
LINE
  5
58
330
1E
100
AcDbEntity
  8
STEMPEL
100
AcDbLine
 10
136.0000000000001
 20
109.9999999999999
 30
0.0
 11
136.0
 21
9.999999999999971
 31
0.0
  0
LINE
  5
59
330
1E
100
AcDbEntity
  8
STEMPEL
100
AcDbLine
 10
220.0
 20
110.0
 30
0.0
 11
220.0
 21
9.999999999999971
 31
0.0
  0
LINE
  5
5A
330
1E
100
AcDbEntity
  8
STEMPEL
100
AcDbLine
 10
332.0
 20
109.9999999999997
 30
0.0
 11
332.0
 21
40.0
 31
0.0
  0
LINE
  5
5B
330
1E
100
AcDbEntity
  8
STEMPEL
100
AcDbLine
 10
135.9999999999999
 20
29.99999999999997
 30
0.0
 11
39.99999999999997
 21
29.99999999999997
 31
0.0
  0
LINE
  5
5C
330
1E
100
AcDbEntity
  8
STEMPEL
100
AcDbLine
 10
410.0
 20
40.0
 30
0.0
 11
136.0000000000001
 21
39.99999999999997
 31
0.0
  0
LINE
  5
5D
330
1E
100
AcDbEntity
  8
STEMPEL
100
AcDbLine
 10
410.0
 20
80.0
 30
0.0
 11
136.0000000000001
 21
79.99999999999994
 31
0.0
  0
LINE
  5
5E
330
1E
100
AcDbEntity
  8
VOLL
100
AcDbLine
 10
54.00000000000009
 20
110.0
 30
0.0
 11
53.99999999999997
 21
9.999999999999971
 31
0.0
  0
LINE
  5
5F
330
1E
100
AcDbEntity
  8
VOLL
100
AcDbLine
 10
94.00000000000011
 20
109.9999999999999
 30
0.0
 11
94.0
 21
9.999999999999971
 31
0.0
  0
LINE
  5
60
330
1E
100
AcDbEntity
  8
VOLL
100
AcDbLine
 10
114.0000000000001
 20
109.9999999999999
 30
0.0
 11
114.0
 21
9.999999999999971
 31
0.0
  0
LINE
  5
61
330
1E
100
AcDbEntity
  8
VOLL
100
AcDbLine
 10
154.0000000000001
 20
79.99999999999994
 30
0.0
 11
154.0000000000001
 21
39.99999999999997
 31
0.0
  0
LINE
  5
62
330
1E
100
AcDbEntity
  8
VOLL
100
AcDbLine
 10
180.0000000000001
 20
109.9999999999998
 30
0.0
 11
180.0
 21
39.99999999999997
 31
0.0
  0
LINE
  5
63
330
1E
100
AcDbEntity
  8
HILF
100
AcDbLine
 10
40.00000000000008
 20
100.0
 30
0.0
 11
136.0000000000001
 21
100.0
 31
0.0
  0
LINE
  5
64
330
1E
100
AcDbEntity
  8
HILF
100
AcDbLine
 10
40.00000000000008
 20
90.00000000000005
 30
0.0
 11
136.0000000000001
 21
90.00000000000005
 31
0.0
  0
LINE
  5
65
330
1E
100
AcDbEntity
  8
HILF
100
AcDbLine
 10
40.00000000000008
 20
79.99999999999994
 30
0.0
 11
136.0000000000001
 21
79.99999999999994
 31
0.0
  0
LINE
  5
66
330
1E
100
AcDbEntity
  8
HILF
100
AcDbLine
 10
40.00000000000008
 20
69.99999999999994
 30
0.0
 11
136.0000000000001
 21
69.99999999999994
 31
0.0
  0
LINE
  5
67
330
1E
100
AcDbEntity
  8
HILF
100
AcDbLine
 10
40.00000000000008
 20
59.99999999999997
 30
0.0
 11
136.0000000000001
 21
59.99999999999997
 31
0.0
  0
LINE
  5
68
330
1E
100
AcDbEntity
  8
HILF
100
AcDbLine
 10
40.00000000000008
 20
49.99999999999997
 30
0.0
 11
136.0000000000001
 21
49.99999999999997
 31
0.0
  0
LINE
  5
69
330
1E
100
AcDbEntity
  8
HILF
100
AcDbLine
 10
40.00000000000008
 20
39.99999999999997
 30
0.0
 11
136.0000000000001
 21
39.99999999999997
 31
0.0
  0
LINE
  5
6A
330
1E
100
AcDbEntity
  8
HILF
100
AcDbLine
 10
136.0000000000001
 20
69.99999999999994
 30
0.0
 11
220.0
 21
69.99999999999994
 31
0.0
  0
LINE
  5
6B
330
1E
100
AcDbEntity
  8
HILF
100
AcDbLine
 10
136.0000000000001
 20
59.99999999999997
 30
0.0
 11
220.0
 21
59.99999999999997
 31
0.0
  0
LINE
  5
6C
330
1E
100
AcDbEntity
  8
HILF
100
AcDbLine
 10
136.0000000000001
 20
49.99999999999997
 30
0.0
 11
220.0
 21
49.99999999999997
 31
0.0
  0
LINE
  5
6D
330
1E
100
AcDbEntity
  8
HILF
100
AcDbLine
 10
224.7736801096948
 20
84.03758247564139
 30
0.0
 11
324.8353916556311
 21
84.03758247564139
 31
0.0
  0
LINE
  5
6E
330
1E
100
AcDbEntity
  8
HILF
100
AcDbLine
 10
224.7736801096948
 20
69.99999999999994
 30
0.0
 11
324.835391655631
 21
69.99999999999994
 31
0.0
  0
LINE
  5
6F
330
1E
100
AcDbEntity
  8
HILF
100
AcDbLine
 10
224.7736801096948
 20
59.99999999999997
 30
0.0
 11
324.835391655631
 21
59.99999999999997
 31
0.0
  0
LINE
  5
70
330
1E
100
AcDbEntity
  8
HILF
100
AcDbLine
 10
224.7736801096948
 20
49.99999999999997
 30
0.0
 11
324.835391655631
 21
49.99999999999997
 31
0.0
  0
LINE
  5
71
330
1E
100
AcDbEntity
  8
VOLL
100
AcDbLine
 10
332.0
 20
60.0
 30
0.0
 11
410.0
 21
60.0
 31
0.0
  0
LINE
  5
72
330
1E
100
AcDbEntity
  8
HILF
100
AcDbLine
 10
336.7238616296993
 20
83.77983636955827
 30
0.0
 11
404.8588839326728
 21
83.77983636955827
 31
0.0
  0
LINE
  5
73
330
1E
100
AcDbEntity
  8
HILF
100
AcDbLine
 10
223.4909699289885
 20
14.89398258028314
 30
0.0
 11
404.8588839326728
 21
14.89398258028314
 31
0.0
  0
TEXT
  5
74
330
1E
100
AcDbEntity
  8
TEXT
100
AcDbText
 10
63.86165979631819
 20
18.67381894984132
 30
0.0
 40
4.0
  1
Änderung
 41
0.8
  7
GREEKS
 72
     1
 11
74.60451693917534
 21
18.67381894984132
 31
0.0
100
AcDbText
  0
TEXT
  5
75
330
1E
100
AcDbEntity
  8
TEXT
100
AcDbText
 10
143.5163572150377
 20
102.4620895087088
 30
0.0
 40
5.0
  1
Maßstab
 41
0.8
  7
GREEKS
100
AcDbText
  0
TEXT
  5
76
330
1E
100
AcDbEntity
  8
TEXT
100
AcDbText
 10
184.2858954734051
 20
102.4184168434819
 30
0.0
 40
5.0
  1
Zul. Abw.
 41
0.8
  7
GREEKS
100
AcDbText
  0
TEXT
  5
77
330
1E
100
AcDbEntity
  8
TEXT
100
AcDbText
 10
224.877940380901
 20
102.5489328011779
 30
0.0
 40
5.0
  1
Benennung
 41
0.8
  7
GREEKS
100
AcDbText
  0
TEXT
  5
78
330
1E
100
AcDbEntity
  8
TEXT
100
AcDbText
 10
336.178754957634
 20
102.3132034537136
 30
0.0
 40
5.0
  1
Zeichnungs Nr.
 41
0.8
  7
GREEKS
100
AcDbText
  0
TEXT
  5
79
330
1E
100
AcDbEntity
  8
TEXT
100
AcDbText
 10
224.742238391136
 20
30.84560570193057
 30
0.0
 40
5.0
  1
Bauvorhaben
 41
0.8
  7
GREEKS
100
AcDbText
  0
TEXT
  5
7A
330
1E
100
AcDbEntity
  8
TEXT
100
AcDbText
 10
336.7238616296993
 20
73.1811823709997
 30
0.0
 40
5.0
  1
Ersatz für:
 41
0.8
  7
GREEKS
100
AcDbText
  0
TEXT
  5
7B
330
1E
100
AcDbEntity
  8
TEXT
100
AcDbText
 10
48.26641107045756
 20
13.65465846027192
 30
0.0
 40
4.0
  1
Index
 50
90.0
 41
0.8
  7
GREEKS
100
AcDbText
  0
TEXT
  5
7C
330
1E
100
AcDbEntity
  8
TEXT
100
AcDbText
 10
100.0934676075481
 20
18.6715626933981
 30
0.0
 40
4.0
  1
Tag
 41
0.8
  7
GREEKS
 72
     1
 11
103.8268009408814
 21
18.6715626933981
 31
0.0
100
AcDbText
  0
TEXT
  5
7D
330
1E
100
AcDbEntity
  8
TEXT
100
AcDbText
 10
119.0122744386592
 20
18.59324216966408
 30
0.0
 40
4.0
  1
Name
 41
0.8
  7
GREEKS
 72
     1
 11
125.3360839624688
 21
18.59324216966408
 31
0.0
100
AcDbText
  0
TEXT
  5
7E
330
1E
100
AcDbEntity
  8
TEXT
100
AcDbText
 10
162.3311673153651
 20
73.31880501229926
 30
0.0
 40
4.0
  1
Tag
 41
0.8
  7
GREEKS
100
AcDbText
  0
TEXT
  5
7F
330
1E
100
AcDbEntity
  8
TEXT
100
AcDbText
 10
192.4626584226295
 20
73.30961091915225
 30
0.0
 40
4.0
  1
Name
 41
0.8
  7
GREEKS
100
AcDbText
  0
TEXT
  5
80
330
1E
100
AcDbEntity
  8
TEXT
100
AcDbText
 10
137.5836127167615
 20
63.62990369617964
 30
0.0
 40
4.0
  1
Gez.
 41
0.8
  7
GREEKS
100
AcDbText
  0
TEXT
  5
81
330
1E
100
AcDbEntity
  8
TEXT
100
AcDbText
 10
137.5515086571672
 20
53.68926291428377
 30
0.0
 40
4.0
  1
Gepr.
 41
0.8
  7
GREEKS
100
AcDbText
  0
TEXT
  5
82
330
1E
100
AcDbEntity
  8
TEXT
100
AcDbText
 10
137.6006777387304
 20
43.52946389649807
 30
0.0
 40
4.0
  1
Norm.
 41
0.8
  7
GREEKS
100
AcDbText
  0
LINE
  5
83
330
1E
100
AcDbEntity
  8
STEMPEL
100
AcDbLine
 10
49.99999999999989
 20
10.0
 30
0.0
 11
410.0
 21
10.0
 31
0.0
  0
TEXT
  5
84
330
1E
100
AcDbEntity
  8
TEXT
100
AcDbText
 10
337.2400861497006
 20
52.07416177878602
 30
0.0
 40
5.0
  1
ersetzt durch:
 41
0.8
  7
GREEKS
100
AcDbText
  0
LINE
  5
85
330
1E
100
AcDbEntity
  8
STEMPEL
100
AcDbLine
 10
410.0
 20
10.0
 30
0.0
 11
39.99999999999989
 21
10.0
 31
0.0
  0
LINE
  5
86
330
1E
100
AcDbEntity
  8
STEMPEL
100
AcDbLine
 10
410.0
 20
10.0
 30
0.0
 11
410.0
 21
584.0
 31
0.0
  0
LINE
  5
87
330
1E
100
AcDbEntity
  8
STEMPEL
100
AcDbLine
 10
40.0
 20
10.0
 30
0.0
 11
39.99999999999989
 21
584.0
 31
0.0
  0
LINE
  5
88
330
1E
100
AcDbEntity
  8
STEMPEL
100
AcDbLine
 10
410.0
 20
584.0
 30
0.0
 11
39.99999999999989
 21
584.0
 31
0.0
  0
LINE
  5
89
330
1E
100
AcDbEntity
  8
HILF
100
AcDbLine
 10
0.0
 20
0.0
 30
0.0
 11
-0.0000000000001137
 21
594.0
 31
0.0
  0
LINE
  5
8A
330
1E
100
AcDbEntity
  8
HILF
100
AcDbLine
 10
419.9999999999999
 20
594.0000000000002
 30
0.0
 11
0.0
 21
594.0
 31
0.0
  0
LINE
  5
8B
330
1E
100
AcDbEntity
  8
HILF
100
AcDbLine
 10
420.0
 20
0.0
 30
0.0
 11
0.0
 21
0.0
 31
0.0
  0
LINE
  5
8C
330
1E
100
AcDbEntity
  8
HILF
100
AcDbLine
 10
31.08767135713856
 20
297.0
 30
0.0
 11
0.0000000000001137
 21
297.0
 31
0.0
  0
TEXT
  5
8D
330
1E
100
AcDbEntity
  8
TEXT
100
AcDbText
 10
138.622109822104
 20
73.14025471151666
 30
0.0
 40
4.0
  1
2009
 41
0.8
  7
GREEKS
100
AcDbText
  0
LINE
  5
8E
330
1E
100
AcDbEntity
  8
HILF
100
AcDbLine
 10
420.0
 20
-0.0000000000001137
 30
0.0
 11
419.9999999999999
 21
594.0
 31
0.0
  0
TEXT
  5
8F
330
1E
100
AcDbEntity
  8
VOLL
100
AcDbText
 10
78.07675471698113
 20
31.02594776470585
 30
0.0
 40
1.8
  1

  7
GREEKS
100
AcDbText
  0
TEXT
  5
90
330
1E
100
AcDbEntity
  8
TEXT
100
AcDbText
 10
41.85509950977674
 20
111.6719999999999
 30
0.0
 40
5.0
  1
Erstellt mit AUTOCAD 2004
 41
0.8
  7
GREEKS
100
AcDbText
  0
TEXT
  5
91
330
1E
100
AcDbEntity
  8
TEXT
100
AcDbText
 10
194.4216048581257
 20
63.0896391972351
 30
0.0
 40
4.0
  1
Koeh
 41
0.8
  7
GREEKS
 72
     1
 11
199.6787477152685
 21
63.0896391972351
 31
0.0
100
AcDbText
  0
TEXT
  5
92
330
1E
100
AcDbEntity
  8
TEXT
 62
     1
100
AcDbText
 10
346.0818850786881
 20
88.14901428913959
 30
0.0
 40
7.0
  1
55694DD0W
 41
0.8
  7
GREEKS
 72
     1
 11
370.3485517453547
 21
88.14901428913959
 31
0.0
100
AcDbText
  0
TEXT
  5
93
330
1E
100
AcDbEntity
  8
TEXT
 62
     1
100
AcDbText
 10
150.5006306481887
 20
88.14901428913959
 30
0.0
 40
7.0
  1
1:2
 41
0.8
  7
GREEKS
100
AcDbText
  0
TEXT
  5
94
330
1E
100
AcDbEntity
  8
TEXT
100
AcDbText
 10
161.998997108236
 20
63.10765040825732
 30
0.0
 40
4.0
  1
05.11
 41
0.8
  7
GREEKS
 72
     1
 11
167.4085209177598
 21
63.10765040825732
 31
0.0
100
AcDbText
  0
TEXT
  5
95
330
1E
100
AcDbEntity
  8
TEXT
 62
     1
100
AcDbText
 10
224.6728317021104
 20
87.41748789253779
 30
0.0
 40
7.0
  1
Abzweig quadratisch DN100
 41
0.6800000000000001
  7
GREEKS
100
AcDbText
  0
TEXT
  5
96
330
1E
100
AcDbEntity
  8
TEXT
100
AcDbText
 10
225.1296391125315
 20
71.50334417585288
 30
0.0
 40
5.0
  1
mit LX-Muffe DN100 87°
 41
0.8
  7
GREEKS
100
AcDbText
  0
TEXT
  5
97
330
1E
100
AcDbEntity
  8
TEXT
100
AcDbText
 10
225.1296391125315
 20
62.11580706774856
 30
0.0
 40
5.0
  1

 41
0.8
  7
GREEKS
100
AcDbText
  0
TEXT
  5
98
330
1E
100
AcDbEntity
  8
TEXT
100
AcDbText
 10
225.1296391125315
 20
51.64011943042158
 30
0.0
 40
5.0
  1
EDV-Art.Nr. 55694.DD0X
 41
0.8
  7
GREEKS
100
AcDbText
  0
TEXT
  5
99
330
1E
100
AcDbEntity
  8
TEXT
100
AcDbText
 10
224.9837501577827
 20
42.62974153022632
 30
0.0
 40
4.0
  1
55694DD0W.DWG
 41
0.8
  7
GREEKS
100
AcDbText
  0
TEXT
  5
9A
330
1E
100
AcDbEntity
  8
TEXT
100
AcDbText
 10
182.626132208084
 20
90.76363841023022
 30
0.0
 40
4.0
  1
DIN EN1123-2
 41
0.8
  7
GREEKS
 72
     1
 11
199.6166083985602
 21
90.76363841023022
 31
0.0
100
AcDbText
  0
INSERT
  5
9B
330
1E
100
AcDbEntity
  8
STEMPEL
100
AcDbBlockReference
  2
LOGO
 10
140.9955485457794
 20
45.02105276448322
 30
0.0
 41
2.0
 42
2.0
 43
2.0
  0
TEXT
  5
118
330
1E
100
AcDbEntity
  8
BEM
100
AcDbText
 10
417.3022923857165
 20
10.16790107998849
 30
0.0
 40
4.0
  1
Diese Zeichnung ist urheberrechtlich geschützt und bleibt unser Eigentum. Sie darf weder ganz noch teilweise verfielfältigt und nicht an Dritte weitergegeben werden.
 50
90.0
 41
0.8
  7
GREEKS
100
AcDbText
  0
LINE
  5
6DA
330
1E
100
AcDbEntity
  8
MITTEL
100
AcDbLine
 10
176.3696131405521
 20
523.1618744800394
 30
0.0
 11
176.3696131405522
 21
198.1581255199605
 31
0.0
  0
LINE
  5
6EE
330
1E
100
AcDbEntity
  8
STEMPEL
100
AcDbLine
 10
226.3696131405521
 20
203.1581255199604
 30
0.0
 11
126.3696131405523
 21
203.1581255199604
 31
0.0
  0
DIMENSION
  5
6F2
330
1E
100
AcDbEntity
  8
BEM
100
AcDbDimension
  2
*D1
 10
226.3696131405521
 20
182.7777077218898
 30
0.0
 11
179.7967061722688
 21
182.7777077218898
 31
0.0
 70
   160
 71
     5
 42
99.99999999999985
  3
Standard
100
AcDbAlignedDimension
 13
126.3696131405523
 23
203.1581255199605
 33
0.0
 14
226.3696131405521
 24
203.1581255199605
 34
0.0
100
AcDbRotatedDimension
1001
ACAD
1000
DSTYLE
1002
{
1070
    40
1040
2.0
1070
    41
1040
3.5
1070
    42
1040
1.0
1070
    43
1040
7.0
1070
    44
1040
1.0
1070
    73
1070
     0
1070
    74
1070
     0
1070
    77
1070
     1
1070
    78
1070
     8
1070
    79
1070
     2
1070
   140
1040
3.5
1070
   141
1040
1.5
1070
   146
1040
0.5
1070
   147
1040
1.5
1070
   172
1070
     1
1070
   178
1070
     1
1070
   179
1070
     2
1070
   271
1070
     2
1070
   272
1070
     2
1070
   284
1070
     8
1070
   285
1070
     8
1070
   286
1070
     8
1002
}
  0
LWPOLYLINE
  5
700
330
1E
100
AcDbEntity
  8
BEM
 62
     1
100
AcDbPolyline
 90
        4
 70
     1
 43
0.0
 10
162.6146138293243
 20
192.8316704988704
 10
162.6146138293243
 20
185.8316704988704
 10
169.6146138293243
 20
185.8316704988704
 10
169.6146138293243
 20
192.8316704988704
  0
TEXT
  5
7C7
330
1E
100
AcDbEntity
  8
TEXT
 62
     1
100
AcDbText
 10
234.6057658946468
 20
129.0783465745483
 30
0.0
 40
7.0
  1
feuerverzinkt und innen beschichtet
 41
0.8
  7
GREEKS
100
AcDbText
  0
TEXT
  5
7C8
330
1E
100
AcDbEntity
  8
TEXT
 62
     1
100
AcDbText
 10
186.6560484572489
 20
139.8004583895517
 30
0.0
 40
7.0
  1
Werkstoff: S235 JRH, E195 EN10305
 41
0.8
  7
GREEKS
100
AcDbText
  0
TEXT
  5
7D4
330
1E
100
AcDbEntity
  8
TEXT
 62
     1
100
AcDbText
 10
164.9521252480145
 20
404.6022994482041
 30
0.0
 40
7.0
  1
DN100
 50
90.0
 41
0.8
  7
GREEKS
100
AcDbText
  0
LINE
  5
928
330
1E
100
AcDbEntity
  8
STEMPEL
100
AcDbLine
 10
230.5196131405521
 20
518.1618744800394
 30
0.0
 11
230.5196131405522
 21
454.570315281409
 31
0.0
  0
ARC
  5
929
330
1E
100
AcDbEntity
  8
STEMPEL
100
AcDbCircle
 10
241.3696131405521
 20
438.6792014123312
 30
0.0
 40
15.0
100
AcDbArc
 50
150.7279257826982
 51
180.0
  0
ARC
  5
92D
330
1E
100
AcDbEntity
  8
STEMPEL
100
AcDbCircle
 10
213.0196131405522
 20
454.570315281409
 30
0.0
 40
17.5
100
AcDbArc
 50
330.7279257826982
 51
0.0
  0
LINE
  5
92E
102
{ACAD_REACTORS
330
C33
330
C3B
102
}
330
1E
100
AcDbEntity
  8
STEMPEL
100
AcDbLine
 10
226.3696131405521
 20
438.6792014123312
 30
0.0
 11
226.3696131405521
 21
203.1581255199604
 31
0.0
  0
ARC
  5
931
330
1E
100
AcDbEntity
  8
STEMPEL
100
AcDbCircle
 10
111.3696131405522
 20
438.6792014123312
 30
0.0
 40
15.0
100
AcDbArc
 50
0.0
 51
29.27207421730177
  0
ARC
  5
933
330
1E
100
AcDbEntity
  8
STEMPEL
100
AcDbCircle
 10
139.7196131405522
 20
454.570315281409
 30
0.0
 40
17.5
100
AcDbArc
 50
180.0
 51
209.2720742173018
  0
LINE
  5
935
330
1E
100
AcDbEntity
  8
STEMPEL
100
AcDbLine
 10
122.2196131405522
 20
518.1618744800394
 30
0.0
 11
122.2196131405522
 21
454.570315281409
 31
0.0
  0
LINE
  5
937
330
1E
100
AcDbEntity
  8
STEMPEL
100
AcDbLine
 10
126.3696131405523
 20
438.6792014123312
 30
0.0
 11
126.3696131405523
 21
203.1581255199604
 31
0.0
  0
LINE
  5
938
330
1E
100
AcDbEntity
  8
STEMPEL
100
AcDbLine
 10
122.2196131405522
 20
518.1618744800394
 30
0.0
 11
230.5196131405521
 21
518.1618744800394
 31
0.0
  0
LINE
  5
93A
330
1E
100
AcDbEntity
  8
HILF
100
AcDbLine
 10
227.049094462178
 20
450.9064847932241
 30
0.0
 11
125.6901318189264
 21
450.9064847932241
 31
0.0
  0
LINE
  5
93B
330
1E
100
AcDbEntity
  8
HILF
100
AcDbLine
 10
223.9537052930168
 20
443.2274047769746
 30
0.0
 11
128.7855209880876
 21
443.2274047769746
 31
0.0
  0
DIMENSION
  5
986
330
1E
100
AcDbEntity
  8
BEM
100
AcDbDimension
  2
*D2
 10
108.1320503318352
 20
448.1618744800393
 30
0.0
 11
101.6320503318351
 21
483.1618744800393
 31
0.0
 70
    32
 71
     5
 42
70.0
  3
Standard
100
AcDbAlignedDimension
 13
122.2196131405522
 23
518.1618744800394
 33
0.0
 14
123.4352069034387
 24
448.1618744800393
 34
0.0
 50
90.0
100
AcDbRotatedDimension
1001
ACAD
1000
DSTYLE
1002
{
1070
    40
1040
2.0
1070
    41
1040
3.5
1070
    42
1040
1.0
1070
    43
1040
7.0
1070
    44
1040
1.0
1070
    73
1070
     0
1070
    74
1070
     0
1070
    77
1070
     1
1070
    78
1070
     8
1070
    79
1070
     2
1070
   140
1040
3.5
1070
   141
1040
1.5
1070
   146
1040
0.5
1070
   147
1040
1.5
1070
   172
1070
     1
1070
   178
1070
     1
1070
   179
1070
     2
1070
   271
1070
     2
1070
   272
1070
     2
1070
   284
1070
     8
1070
   285
1070
     8
1070
   286
1070
     8
1002
}
  0
DIMENSION
  5
9B7
330
1E
100
AcDbEntity
  8
BEM
100
AcDbDimension
  2
*D3
 10
91.67373806688875
 20
203.1581255199604
 30
0.0
 11
85.17373806688873
 21
360.6599999999999
 31
0.0
 70
    32
 71
     5
 42
315.0037489600789
  3
Standard
100
AcDbAlignedDimension
 13
122.2196131405522
 23
518.1618744800394
 33
0.0
 14
126.3696131405523
 24
203.1581255199604
 34
0.0
 50
90.0
100
AcDbRotatedDimension
1001
ACAD
1000
DSTYLE
1002
{
1070
    40
1040
2.0
1070
    41
1040
3.5
1070
    42
1040
1.0
1070
    43
1040
7.0
1070
    44
1040
1.0
1070
    73
1070
     0
1070
    74
1070
     0
1070
    77
1070
     1
1070
    78
1070
     8
1070
    79
1070
     2
1070
   140
1040
3.5
1070
   141
1040
1.5
1070
   146
1040
0.5
1070
   147
1040
1.5
1070
   172
1070
     1
1070
   178
1070
     1
1070
   179
1070
     2
1070
   271
1070
     2
1070
   272
1070
     2
1070
   284
1070
     8
1070
   285
1070
     8
1070
   286
1070
     8
1002
}
  0
TEXT
  5
B05
330
1E
100
AcDbEntity
  8
VOLL
100
AcDbText
 10
341.8960188762916
 20
352.9686687966988
 30
0.0
 40
1.8
  1

  7
GREEKS
100
AcDbText
  0
LINE
  5
B07
330
1E
100
AcDbEntity
  8
STEMPEL
100
AcDbLine
 10
328.241724691541
 20
416.9006104027304
 30
0.0
 11
334.072657363481
 21
305.6397870725031
 31
0.0
  0
LINE
  5
B09
102
{ACAD_REACTORS
330
C33
102
}
330
1E
100
AcDbEntity
  8
STEMPEL
100
AcDbLine
 10
257.8965342202526
 20
306.3607807596373
 30
0.0
 11
226.3696131405521
 21
304.7085248382185
 31
0.0
  0
LINE
  5
B0B
330
1E
100
AcDbEntity
  8
STEMPEL
100
AcDbLine
 10
288.5980247895399
 20
303.9642883170612
 30
0.0
 11
271.0495961822563
 21
303.0446141438466
 31
0.0
  0
LINE
  5
B0D
330
1E
100
AcDbEntity
  8
STEMPEL
100
AcDbLine
 10
321.6575353570803
 20
301.6913744660986
 30
0.0
 11
305.5176368754212
 21
300.8455182288211
 31
0.0
  0
LINE
  5
B0F
330
1E
100
AcDbEntity
  8
STEMPEL
100
AcDbLine
 10
334.0726573634811
 20
305.6397870725031
 30
0.0
 11
332.0859255206536
 21
304.5834230134897
 31
0.0
  0
ARC
  5
B10
330
1E
100
AcDbEntity
  8
STEMPEL
100
AcDbCircle
 10
258.3152218701961
 20
298.3717444816008
 30
0.0
 40
8.0
100
AcDbArc
 50
58.69884724321028
 51
92.99999999999998
  0
ARC
  5
B13
330
1E
100
AcDbEntity
  8
STEMPEL
100
AcDbCircle
 10
270.2645568386122
 20
318.0240571651651
 30
0.0
 40
15.0
100
AcDbArc
 50
238.6988472432103
 51
273.0
  0
ARC
  5
B14
330
1E
100
AcDbEntity
  8
STEMPEL
100
AcDbCircle
 10
289.2260562644552
 20
291.9807339000064
 30
0.0
 40
12.0
100
AcDbArc
 50
66.11195238227536
 51
92.99999999999998
  0
ARC
  5
B17
330
1E
100
AcDbEntity
  8
STEMPEL
100
AcDbCircle
 10
304.2092379693476
 20
325.8112565976854
 30
0.0
 40
25.0
100
AcDbArc
 50
246.1119523822754
 51
273.0
  0
ARC
  5
B18
330
1E
100
AcDbEntity
  8
STEMPEL
100
AcDbCircle
 10
320.3491364510067
 20
326.6571128349629
 30
0.0
 40
25.0
100
AcDbArc
 50
273.0
 51
297.9999999999994
  0
ARC
  5
B1B
330
1E
100
AcDbEntity
  8
STEMPEL
100
AcDbCircle
 10
316.7902914264865
 20
394.5639211982739
 30
0.0
 40
25.0
100
AcDbArc
 50
68.00000000000062
 51
92.99999999999998
  0
ARC
  5
B1C
330
1E
100
AcDbEntity
  8
STEMPEL
100
AcDbCircle
 10
300.6503929448273
 20
393.7180649609965
 30
0.0
 40
25.0
100
AcDbArc
 50
92.99999999999998
 51
119.8880476177246
  0
ARC
  5
B1F
330
1E
100
AcDbEntity
  8
STEMPEL
100
AcDbCircle
 10
282.2130381279007
 20
425.7970915571192
 30
0.0
 40
12.0
100
AcDbArc
 50
273.0
 51
299.8880476177246
  0
ARC
  5
B20
330
1E
100
AcDbEntity
  8
STEMPEL
100
AcDbCircle
 10
266.0776803391767
 20
397.9144199455311
 30
0.0
 40
15.0
100
AcDbArc
 50
92.99999999999998
 51
127.3011527567897
  0
ARC
  5
B23
330
1E
100
AcDbEntity
  8
STEMPEL
100
AcDbCircle
 10
252.1395790335287
 20
416.2100295826404
 30
0.0
 40
8.0
100
AcDbArc
 50
273.0
 51
307.3011527567897
  0
LINE
  5
B24
330
1E
100
AcDbEntity
  8
STEMPEL
100
AcDbLine
 10
328.2417246915411
 20
416.9006104027304
 30
0.0
 11
326.155456261884
 21
417.7435175624438
 31
0.0
  0
LINE
  5
B26
330
1E
100
AcDbEntity
  8
STEMPEL
100
AcDbLine
 10
315.4818925204129
 20
419.5296595671383
 30
0.0
 11
299.3419940387538
 21
418.6838033298608
 31
0.0
  0
LINE
  5
B28
330
1E
100
AcDbEntity
  8
STEMPEL
100
AcDbLine
 10
282.841069602816
 20
413.8135371400643
 30
0.0
 11
265.2926409955326
 21
412.8938629668496
 31
0.0
  0
LINE
  5
B2A
102
{ACAD_REACTORS
330
C3B
102
}
330
1E
100
AcDbEntity
  8
STEMPEL
100
AcDbLine
 10
252.5582666834722
 20
408.2209933046039
 30
0.0
 11
226.3696131405521
 21
406.8485041300064
 31
0.0
  0
LINE
  5
B2D
330
1E
100
AcDbEntity
  8
HILF
100
AcDbLine
 10
291.2941712007156
 20
305.8270973804199
 30
0.0
 11
285.7171628106029
 21
412.2427567807686
 31
0.0
  0
LINE
  5
B2E
330
1E
100
AcDbEntity
  8
HILF
100
AcDbLine
 10
266.487133229323
 20
305.5849627095392
 30
0.0
 11
261.0207104237698
 21
409.8905234552152
 31
0.0
  0
LINE
  5
B2F
330
1E
100
AcDbEntity
  8
HILF
100
AcDbLine
 10
260.1624720881398
 20
308.1996469349377
 30
0.0
 11
255.0040053620894
 21
406.6290556338057
 31
0.0
  0
LINE
  5
B30
330
1E
100
AcDbEntity
  8
MITTEL
100
AcDbLine
 10
336.1503387012839
 20
361.5318785188315
 30
0.0
 11
176.3696131405521
 21
353.1581255199605
 31
0.0
  0
DIMENSION
  5
B31
330
1E
100
AcDbEntity
  8
BEM
100
AcDbDimension
  2
*D4
 10
180.4197848794145
 20
275.8762449619502
 30
0.0
 11
257.4733901073149
 21
286.4233735466829
 31
0.0
 70
    32
 71
     5
 42
155.0
  3
Standard
100
AcDbAlignedDimension
 13
334.072657363481
 23
305.6397870725031
 33
0.0
 14
176.3696131405521
 24
353.1581255199605
 34
0.0
 50
2.999999999999903
100
AcDbRotatedDimension
1001
ACAD
1000
DSTYLE
1002
{
1070
    40
1040
2.0
1070
    41
1040
3.5
1070
    42
1040
1.0
1070
    43
1040
7.0
1070
    44
1040
1.0
1070
    73
1070
     0
1070
    74
1070
     0
1070
    77
1070
     1
1070
    78
1070
     8
1070
    79
1070
     2
1070
   140
1040
3.5
1070
   141
1040
1.5
1070
   146
1040
0.5
1070
   147
1040
1.5
1070
   172
1070
     1
1070
   178
1070
     1
1070
   179
1070
     2
1070
   271
1070
     2
1070
   272
1070
     2
1070
   284
1070
     8
1070
   285
1070
     8
1070
   286
1070
     8
1002
}
  0
DIMENSION
  5
BE1
330
1E
100
AcDbEntity
  8
SCHRAFF
100
AcDbDimension
  2
*D5
 10
108.1320503318352
 20
353.1581255199605
 30
0.0
 11
101.6320503318351
 21
278.1581255199605
 31
0.0
 70
    32
 71
     5
 42
150.0
  3
Standard
100
AcDbAlignedDimension
 13
126.3696131405523
 23
203.1581255199604
 33
0.0
 14
176.3696131405521
 24
353.1581255199605
 34
0.0
 50
90.0
100
AcDbRotatedDimension
1001
ACAD
1000
DSTYLE
1002
{
1070
    40
1040
2.0
1070
    41
1040
3.5
1070
    42
1040
1.0
1070
    43
1040
7.0
1070
    44
1040
1.0
1070
    73
1070
     0
1070
    74
1070
     0
1070
    77
1070
     1
1070
    78
1070
     8
1070
    79
1070
     2
1070
   140
1040
3.5
1070
   141
1040
1.5
1070
   146
1040
0.5
1070
   147
1040
1.5
1070
   172
1070
     1
1070
   178
1070
     1
1070
   179
1070
     2
1070
   271
1070
     2
1070
   272
1070
     2
1070
   284
1070
     8
1070
   285
1070
     8
1070
   286
1070
     8
1002
}
  0
ARC
  5
C11
330
1E
100
AcDbEntity
  8
SCHRAFF
100
AcDbCircle
 10
228.3696131405521
 20
406.9533196885726
 30
0.0
 40
5.0
100
AcDbArc
 50
246.4218215217981
 51
293.5781784782019
  0
ARC
  5
C16
330
1E
100
AcDbEntity
  8
SCHRAFF
100
AcDbCircle
 10
228.3696131405521
 20
401.9533196885726
 30
0.0
 40
5.0
100
AcDbArc
 50
246.4218215217981
 51
293.5781784782019
  0
ARC
  5
C17
330
1E
100
AcDbEntity
  8
SCHRAFF
100
AcDbCircle
 10
228.3696131405521
 20
396.9533196885726
 30
0.0
 40
5.0
100
AcDbArc
 50
246.4218215217981
 51
293.5781784782019
  0
ARC
  5
C18
330
1E
100
AcDbEntity
  8
SCHRAFF
100
AcDbCircle
 10
228.3696131405521
 20
391.9533196885726
 30
0.0
 40
5.0
100
AcDbArc
 50
246.4218215217981
 51
293.5781784782019
  0
ARC
  5
C19
330
1E
100
AcDbEntity
  8
SCHRAFF
100
AcDbCircle
 10
228.3696131405521
 20
386.9533196885726
 30
0.0
 40
5.0
100
AcDbArc
 50
246.4218215217981
 51
293.5781784782019
  0
ARC
  5
C1A
330
1E
100
AcDbEntity
  8
SCHRAFF
100
AcDbCircle
 10
228.3696131405521
 20
381.9533196885726
 30
0.0
 40
5.0
100
AcDbArc
 50
246.4218215217981
 51
293.5781784782019
  0
ARC
  5
C1B
330
1E
100
AcDbEntity
  8
SCHRAFF
100
AcDbCircle
 10
228.3696131405521
 20
376.9533196885726
 30
0.0
 40
5.0
100
AcDbArc
 50
246.4218215217981
 51
293.5781784782019
  0
ARC
  5
C1C
330
1E
100
AcDbEntity
  8
SCHRAFF
100
AcDbCircle
 10
228.3696131405521
 20
371.9533196885726
 30
0.0
 40
5.0
100
AcDbArc
 50
246.4218215217981
 51
293.5781784782019
  0
ARC
  5
C1D
330
1E
100
AcDbEntity
  8
SCHRAFF
100
AcDbCircle
 10
228.3696131405521
 20
366.9533196885726
 30
0.0
 40
5.0
100
AcDbArc
 50
246.4218215217981
 51
293.5781784782019
  0
ARC
  5
C1E
330
1E
100
AcDbEntity
  8
SCHRAFF
100
AcDbCircle
 10
228.3696131405521
 20
361.9533196885726
 30
0.0
 40
5.0
100
AcDbArc
 50
246.4218215217981
 51
293.5781784782019
  0
ARC
  5
C1F
330
1E
100
AcDbEntity
  8
SCHRAFF
100
AcDbCircle
 10
228.3696131405521
 20
356.9533196885726
 30
0.0
 40
5.0
100
AcDbArc
 50
246.4218215217981
 51
293.5781784782019
  0
ARC
  5
C20
330
1E
100
AcDbEntity
  8
SCHRAFF
100
AcDbCircle
 10
228.3696131405521
 20
351.9533196885726
 30
0.0
 40
5.0
100
AcDbArc
 50
246.4218215217981
 51
293.5781784782019
  0
ARC
  5
C21
330
1E
100
AcDbEntity
  8
SCHRAFF
100
AcDbCircle
 10
228.3696131405521
 20
346.9533196885726
 30
0.0
 40
5.0
100
AcDbArc
 50
246.4218215217981
 51
293.5781784782019
  0
ARC
  5
C22
330
1E
100
AcDbEntity
  8
SCHRAFF
100
AcDbCircle
 10
228.3696131405521
 20
341.9533196885726
 30
0.0
 40
5.0
100
AcDbArc
 50
246.4218215217981
 51
293.5781784782019
  0
ARC
  5
C23
330
1E
100
AcDbEntity
  8
SCHRAFF
100
AcDbCircle
 10
228.3696131405521
 20
336.9533196885726
 30
0.0
 40
5.0
100
AcDbArc
 50
246.4218215217981
 51
293.5781784782019
  0
ARC
  5
C24
330
1E
100
AcDbEntity
  8
SCHRAFF
100
AcDbCircle
 10
228.3696131405521
 20
331.9533196885726
 30
0.0
 40
5.0
100
AcDbArc
 50
246.4218215217981
 51
293.5781784782019
  0
ARC
  5
C25
330
1E
100
AcDbEntity
  8
SCHRAFF
100
AcDbCircle
 10
228.3696131405521
 20
326.9533196885726
 30
0.0
 40
5.0
100
AcDbArc
 50
246.4218215217981
 51
293.5781784782019
  0
ARC
  5
C26
330
1E
100
AcDbEntity
  8
SCHRAFF
100
AcDbCircle
 10
228.3696131405521
 20
321.9533196885726
 30
0.0
 40
5.0
100
AcDbArc
 50
246.4218215217981
 51
293.5781784782019
  0
ARC
  5
C27
330
1E
100
AcDbEntity
  8
SCHRAFF
100
AcDbCircle
 10
228.3696131405521
 20
316.9533196885726
 30
0.0
 40
5.0
100
AcDbArc
 50
246.4218215217981
 51
293.5781784782019
  0
ARC
  5
C28
330
1E
100
AcDbEntity
  8
SCHRAFF
100
AcDbCircle
 10
228.3696131405521
 20
311.9533196885726
 30
0.0
 40
5.0
100
AcDbArc
 50
246.4218215217981
 51
293.5781784782019
  0
ARC
  5
C2D
102
{ACAD_REACTORS
330
C33
102
}
330
1E
100
AcDbEntity
  8
SCHRAFF
100
AcDbCircle
 10
226.3696131405521
 20
304.7085248382185
 30
0.0
 40
4.0
100
AcDbArc
 50
270.0
 51
2.999999999999903
  0
HATCH
  5
C33
330
1E
100
AcDbEntity
  8
SCHRAFF
100
AcDbHatch
 10
0.0
 20
0.0
 30
0.0
210
0.0
220
0.0
230
1.0
  2
_USER
 70
     0
 71
     1
 91
        1
 92
        7
 72
     1
 73
     1
 93
        3
 10
230.3641312795704
 20
304.9178686631903
 42
0.0
 10
226.3696131405521
 20
304.7085248382186
 42
0.0
 10
226.3696131405521
 20
300.7085248382185
 42
0.4296339059668334
 97
        3
330
B09
330
92E
330
C2D
 75
     0
 76
     0
 52
0.0
 41
0.1
 77
     0
 78
     1
 53
0.0
 43
0.0
 44
0.0
 45
0.0
 46
0.1
 79
     0
 47
0.0690252507333147
 98
        1
 10
227.6423414437104
 20
303.5428025619335
  0
ARC
  5
C35
102
{ACAD_REACTORS
330
C3B
102
}
330
1E
100
AcDbEntity
  8
SCHRAFF
100
AcDbCircle
 10
226.3696131405521
 20
406.8485041300064
 30
0.0
 40
4.0
100
AcDbArc
 50
2.999999999999903
 51
90.0
  0
HATCH
  5
C3B
330
1E
100
AcDbEntity
  8
SCHRAFF
100
AcDbHatch
 10
0.0
 20
0.0
 30
0.0
210
0.0
220
0.0
230
1.0
  2
_USER
 70
     0
 71
     1
 91
        1
 92
        7
 72
     1
 73
     1
 93
        3
 10
226.3696131405521
 20
410.8485041300064
 42
0.0
 10
226.3696131405521
 20
406.8485041300064
 42
0.0
 10
230.3641312795704
 20
407.0578479549782
 42
0.3989595459737199
 97
        3
330
92E
330
B2A
330
C35
 75
     0
 76
     0
 52
0.0
 41
0.1
 77
     0
 78
     1
 53
0.0
 43
0.0
 44
0.0
 45
0.0
 46
0.1
 79
     0
 47
0.0767784287332743
 98
        1
 10
227.6660157086826
 20
409.5007927568181
  0
TEXT
  5
C3C
330
1E
100
AcDbEntity
  8
TEXT
 62
     1
100
AcDbText
 10
296.9437684372975
 20
372.960105594307
 30
0.0
 40
7.0
  1
DN100
 50
3.000000000000004
 41
0.8
  7
GREEKS
100
AcDbText
  0
DIMENSION
  5
C55
330
1E
100
AcDbEntity
  8
BEM
100
AcDbDimension
  2
*D6
 10
176.3696131405522
 20
198.1581255199605
 30
0.0
 11
312.76038024427
 21
496.8840051656827
 31
0.0
 70
    34
 71
     5
 42
1.518436449235067
  3
Standard
100
AcDb2LineAngularDimension
 13
336.1503387012839
 23
361.5318785188315
 33
0.0
 14
214.3759332272169
 24
355.149952354423
 34
0.0
 15
176.3696131405521
 25
523.1618744800394
 35
0.0
 16
338.889786184784
 26
454.7120007223013
 36
0.0
1001
ACAD
1000
DSTYLE
1002
{
1070
    40
1040
2.0
1070
    41
1040
3.5
1070
    42
1040
1.0
1070
    43
1040
7.0
1070
    44
1040
1.0
1070
    73
1070
     0
1070
    74
1070
     0
1070
    77
1070
     1
1070
    78
1070
     8
1070
    79
1070
     2
1070
   140
1040
3.5
1070
   141
1040
1.5
1070
   146
1040
0.5
1070
   147
1040
1.5
1070
   172
1070
     1
1070
   178
1070
     1
1070
   179
1070
     2
1070
   271
1070
     2
1070
   272
1070
     2
1070
   284
1070
     8
1070
   285
1070
     8
1070
   286
1070
     8
1002
}
  0
ENDSEC
  0
SECTION
  2
OBJECTS
  0
DICTIONARY
  5
C
330
0
100
AcDbDictionary
281
     1
  3
ACAD_COLOR
350
DF
  3
ACAD_GROUP
350
D
  3
ACAD_LAYOUT
350
19
  3
ACAD_MATERIAL
350
DE
  3
ACAD_MLINESTYLE
350
16
  3
ACAD_PLOTSETTINGS
350
18
  3
ACAD_PLOTSTYLENAME
350
E
  3
AcDbVariableDictionary
350
EA
  0
DICTIONARY
  5
A0
330
1E
100
AcDbDictionary
280
     1
281
     1
  3
ACAD_LAYOUTSELFREF
360
D4
  0
DICTIONARY
  5
A2
330
1A
100
AcDbDictionary
280
     1
281
     1
  3
ACAD_LAYOUTSELFREF
360
D3
  0
DICTIONARY
  5
DF
102
{ACAD_REACTORS
330
C
102
}
330
C
100
AcDbDictionary
281
     1
  0
DICTIONARY
  5
D
102
{ACAD_REACTORS
330
C
102
}
330
C
100
AcDbDictionary
281
     1
  0
DICTIONARY
  5
19
102
{ACAD_REACTORS
330
C
102
}
330
C
100
AcDbDictionary
281
     1
  3
Layout1
350
1D
  3
Model
350
21
  0
DICTIONARY
  5
DE
102
{ACAD_REACTORS
330
C
102
}
330
C
100
AcDbDictionary
281
     1
  0
DICTIONARY
  5
16
102
{ACAD_REACTORS
330
C
102
}
330
C
100
AcDbDictionary
281
     1
  3
Standard
350
17
  0
DICTIONARY
  5
18
102
{ACAD_REACTORS
330
C
102
}
330
C
100
AcDbDictionary
281
     1
  0
ACDBDICTIONARYWDFLT
  5
E
102
{ACAD_REACTORS
330
C
102
}
330
C
100
AcDbDictionary
281
     1
  3
Normal
350
F
100
AcDbDictionaryWithDefault
340
F
  0
DICTIONARY
  5
EA
102
{ACAD_REACTORS
330
C
102
}
330
C
100
AcDbDictionary
281
     1
  3
DIMASSOC
350
EB
  3
PROJECTNAME
350
EC
  0
XRECORD
  5
D4
102
{ACAD_REACTORS
330
A0
102
}
330
A0
100
AcDbXrecord
280
     1
340
1E
  0
XRECORD
  5
D3
102
{ACAD_REACTORS
330
A2
102
}
330
A2
100
AcDbXrecord
280
     1
340
1A
  0
LAYOUT
  5
1D
102
{ACAD_REACTORS
330
19
102
}
330
19
100
AcDbPlotSettings
  1

  2
\\NT_WORK01\HP LaserJet 5000 PCL 6
  4

  6

 40
0.0
 41
0.0
 42
0.0
 43
0.0
 44
0.0
 45
0.0
 46
0.0
 47
0.0
 48
0.0
 49
0.0
140
0.0
141
0.0
142
1.0
143
1.0
 70
   688
 72
     0
 73
     0
 74
     5
  7

 75
    16
147
1.0
 76
     0
 77
     2
 78
   300
148
0.0
149
0.0
100
AcDbLayout
  1
Layout1
 70
     0
 71
     1
 10
0.0
 20
0.0
 11
12.0
 21
9.0
 12
0.0
 22
0.0
 32
0.0
 14
1.000000000000000E+20
 24
1.000000000000000E+20
 34
1.000000000000000E+20
 15
-1.000000000000000E+20
 25
-1.000000000000000E+20
 35
-1.000000000000000E+20
146
0.0
 13
0.0
 23
0.0
 33
0.0
 16
1.0
 26
0.0
 36
0.0
 17
0.0
 27
1.0
 37
0.0
 76
     0
330
1A
  0
LAYOUT
  5
21
102
{ACAD_REACTORS
330
19
102
}
330
19
100
AcDbPlotSettings
  1

  2
none_device
  4
Letter_(8.50_x_11.00_Inches)
  6

 40
6.349999904632568
 41
6.349999904632568
 42
6.350006103515625
 43
6.350006103515625
 44
215.8999938964844
 45
279.3999938964844
 46
0.0
 47
0.0
 48
0.0
 49
0.0
140
0.0
141
0.0
142
1.0
143
1.0
 70
 11952
 72
     0
 73
     1
 74
     0
  7

 75
     0
147
1.0
 76
     0
 77
     2
 78
   300
148
2271.705623028196
149
62.07408360217847
100
AcDbLayout
  1
Model
 70
     1
 71
     0
 10
0.0
 20
0.0
 11
12.0
 21
9.0
 12
0.0
 22
0.0
 32
0.0
 14
0.0
 24
0.0
 34
0.0
 15
0.0
 25
0.0
 35
0.0
146
0.0
 13
0.0
 23
0.0
 33
0.0
 16
1.0
 26
0.0
 36
0.0
 17
0.0
 27
1.0
 37
0.0
 76
     0
330
1E
  0
MLINESTYLE
  5
17
102
{ACAD_REACTORS
330
16
102
}
330
16
100
AcDbMlineStyle
  2
STANDARD
 70
     0
  3

 62
   256
 51
90.0
 52
90.0
 71
     2
 49
0.5
 62
   256
  6
BYLAYER
 49
-0.5
 62
   256
  6
BYLAYER
  0
ACDBPLACEHOLDER
  5
F
102
{ACAD_REACTORS
330
E
102
}
330
E
  0
DICTIONARYVAR
  5
EB
102
{ACAD_REACTORS
330
EA
102
}
330
EA
100
DictionaryVariables
280
     0
  1
1
  0
DICTIONARYVAR
  5
EC
102
{ACAD_REACTORS
330
EA
102
}
330
EA
100
DictionaryVariables
280
     0
  1

  0
ENDSEC
  0
EOF
