  0
SECTION
  2
HEADER
  9
$ACADVER
  1
AC1018
  9
$ACADMAINTVER
 70
     2
  9
$DWGCODEPAGE
  3
ANSI_1252
  9
$INSBASE
 10
0.0
 20
0.0
 30
0.0
  9
$EXTMIN
 10
-0.0320258532665321
 20
-0.0452937067634594
 30
-0.0000000000000129
  9
$EXTMAX
 10
420.0000078240054
 20
594.0000110653779
 30
0.0000000000000023
  9
$LIMMIN
 10
0.0
 20
0.0
  9
$LIMMAX
 10
419.9999999999999
 20
594.0
  9
$ORTHOMODE
 70
     0
  9
$REGENMODE
 70
     1
  9
$FILLMODE
 70
     1
  9
$QTEXTMODE
 70
     0
  9
$MIRRTEXT
 70
     1
  9
$LTSCALE
 40
20.0
  9
$ATTMODE
 70
     1
  9
$TEXTSIZE
 40
3.5
  9
$TRACEWID
 40
0.5
  9
$TEXTSTYLE
  7
STANDARD
  9
$CLAYER
  8
BEM
  9
$CELTYPE
  6
ByLayer
  9
$CECOLOR
 62
   256
  9
$CELTSCALE
 40
1.0
  9
$DISPSILH
 70
     0
  9
$DIMSCALE
 40
2.0
  9
$DIMASZ
 40
3.5
  9
$DIMEXO
 40
1.0
  9
$DIMDLI
 40
7.0
  9
$DIMRND
 40
0.0
  9
$DIMDLE
 40
0.0
  9
$DIMEXE
 40
1.0
  9
$DIMTP
 40
0.0
  9
$DIMTM
 40
0.0
  9
$DIMTXT
 40
3.5
  9
$DIMCEN
 40
1.5
  9
$DIMTSZ
 40
0.0
  9
$DIMTOL
 70
     0
  9
$DIMLIM
 70
     0
  9
$DIMTIH
 70
     0
  9
$DIMTOH
 70
     0
  9
$DIMSE1
 70
     0
  9
$DIMSE2
 70
     0
  9
$DIMTAD
 70
     1
  9
$DIMZIN
 70
     8
  9
$DIMBLK
  1

  9
$DIMASO
 70
     1
  9
$DIMSHO
 70
     0
  9
$DIMPOST
  1

  9
$DIMAPOST
  1

  9
$DIMALT
 70
     0
  9
$DIMALTD
 70
     2
  9
$DIMALTF
 40
25.4
  9
$DIMLFAC
 40
1.0
  9
$DIMTOFL
 70
     1
  9
$DIMTVP
 40
0.0
  9
$DIMTIX
 70
     0
  9
$DIMSOXD
 70
     0
  9
$DIMSAH
 70
     0
  9
$DIMBLK1
  1

  9
$DIMBLK2
  1

  9
$DIMSTYLE
  2
Standard
  9
$DIMCLRD
 70
     0
  9
$DIMCLRE
 70
     0
  9
$DIMCLRT
 70
     1
  9
$DIMTFAC
 40
0.5
  9
$DIMGAP
 40
1.5
  9
$DIMJUST
 70
     0
  9
$DIMSD1
 70
     0
  9
$DIMSD2
 70
     0
  9
$DIMTOLJ
 70
     1
  9
$DIMTZIN
 70
     8
  9
$DIMALTZ
 70
     8
  9
$DIMALTTZ
 70
     8
  9
$DIMUPT
 70
     0
  9
$DIMDEC
 70
     2
  9
$DIMTDEC
 70
     2
  9
$DIMALTU
 70
     2
  9
$DIMALTTD
 70
     2
  9
$DIMTXSTY
  7
STANDARD
  9
$DIMAUNIT
 70
     0
  9
$DIMADEC
 70
     2
  9
$DIMALTRND
 40
0.0
  9
$DIMAZIN
 70
     2
  9
$DIMDSEP
 70
    46
  9
$DIMATFIT
 70
     3
  9
$DIMFRAC
 70
     0
  9
$DIMLDRBLK
  1

  9
$DIMLUNIT
 70
     2
  9
$DIMLWD
 70
    -2
  9
$DIMLWE
 70
    -2
  9
$DIMTMOVE
 70
     0
  9
$LUNITS
 70
     2
  9
$LUPREC
 70
     2
  9
$SKETCHINC
 40
1.0
  9
$FILLETRAD
 40
0.0
  9
$AUNITS
 70
     0
  9
$AUPREC
 70
     0
  9
$MENU
  1
ACAD
  9
$ELEVATION
 40
0.0
  9
$PELEVATION
 40
0.0
  9
$THICKNESS
 40
0.0
  9
$LIMCHECK
 70
     0
  9
$CHAMFERA
 40
0.0
  9
$CHAMFERB
 40
0.0
  9
$CHAMFERC
 40
0.0
  9
$CHAMFERD
 40
0.0
  9
$SKPOLY
 70
     0
  9
$TDCREATE
 40
2455397.823042361
  9
$TDUCREATE
 40
2455397.781375695
  9
$TDUPDATE
 40
2455531.611188310
  9
$TDUUPDATE
 40
2455531.569521644
  9
$TDINDWG
 40
0.1104459722
  9
$TDUSRTIMER
 40
0.1104459722
  9
$USRTIMER
 70
     1
  9
$ANGBASE
 50
0.0
  9
$ANGDIR
 70
     0
  9
$PDMODE
 70
     0
  9
$PDSIZE
 40
0.0
  9
$PLINEWID
 40
0.0
  9
$SPLFRAME
 70
     0
  9
$SPLINETYPE
 70
     6
  9
$SPLINESEGS
 70
     8
  9
$HANDSEED
  5
E72
  9
$SURFTAB1
 70
     6
  9
$SURFTAB2
 70
     6
  9
$SURFTYPE
 70
     6
  9
$SURFU
 70
     6
  9
$SURFV
 70
     6
  9
$UCSBASE
  2

  9
$UCSNAME
  2

  9
$UCSORG
 10
0.0
 20
0.0
 30
0.0
  9
$UCSXDIR
 10
1.0
 20
0.0
 30
0.0
  9
$UCSYDIR
 10
0.0
 20
1.0
 30
0.0
  9
$UCSORTHOREF
  2

  9
$UCSORTHOVIEW
 70
     0
  9
$UCSORGTOP
 10
0.0
 20
0.0
 30
0.0
  9
$UCSORGBOTTOM
 10
0.0
 20
0.0
 30
0.0
  9
$UCSORGLEFT
 10
0.0
 20
0.0
 30
0.0
  9
$UCSORGRIGHT
 10
0.0
 20
0.0
 30
0.0
  9
$UCSORGFRONT
 10
0.0
 20
0.0
 30
0.0
  9
$UCSORGBACK
 10
0.0
 20
0.0
 30
0.0
  9
$PUCSBASE
  2

  9
$PUCSNAME
  2

  9
$PUCSORG
 10
0.0
 20
0.0
 30
0.0
  9
$PUCSXDIR
 10
1.0
 20
0.0
 30
0.0
  9
$PUCSYDIR
 10
0.0
 20
1.0
 30
0.0
  9
$PUCSORTHOREF
  2

  9
$PUCSORTHOVIEW
 70
     0
  9
$PUCSORGTOP
 10
0.0
 20
0.0
 30
0.0
  9
$PUCSORGBOTTOM
 10
0.0
 20
0.0
 30
0.0
  9
$PUCSORGLEFT
 10
0.0
 20
0.0
 30
0.0
  9
$PUCSORGRIGHT
 10
0.0
 20
0.0
 30
0.0
  9
$PUCSORGFRONT
 10
0.0
 20
0.0
 30
0.0
  9
$PUCSORGBACK
 10
0.0
 20
0.0
 30
0.0
  9
$USERI1
 70
     0
  9
$USERI2
 70
     0
  9
$USERI3
 70
     0
  9
$USERI4
 70
     0
  9
$USERI5
 70
     0
  9
$USERR1
 40
0.0
  9
$USERR2
 40
0.0
  9
$USERR3
 40
0.0
  9
$USERR4
 40
0.0
  9
$USERR5
 40
0.0
  9
$WORLDVIEW
 70
     1
  9
$SHADEDGE
 70
     3
  9
$SHADEDIF
 70
    70
  9
$TILEMODE
 70
     1
  9
$MAXACTVP
 70
    16
  9
$PINSBASE
 10
0.0
 20
0.0
 30
0.0
  9
$PLIMCHECK
 70
     0
  9
$PEXTMIN
 10
1.000000000000000E+20
 20
1.000000000000000E+20
 30
1.000000000000000E+20
  9
$PEXTMAX
 10
-1.000000000000000E+20
 20
-1.000000000000000E+20
 30
-1.000000000000000E+20
  9
$PLIMMIN
 10
0.0
 20
0.0
  9
$PLIMMAX
 10
12.0
 20
9.0
  9
$UNITMODE
 70
     0
  9
$VISRETAIN
 70
     0
  9
$PLINEGEN
 70
     0
  9
$PSLTSCALE
 70
     0
  9
$TREEDEPTH
 70
  3020
  9
$CMLSTYLE
  2
Standard
  9
$CMLJUST
 70
     0
  9
$CMLSCALE
 40
1.0
  9
$PROXYGRAPHICS
 70
     1
  9
$MEASUREMENT
 70
     0
  9
$CELWEIGHT
370
    -1
  9
$ENDCAPS
280
     0
  9
$JOINSTYLE
280
     0
  9
$LWDISPLAY
290
     0
  9
$INSUNITS
 70
     0
  9
$HYPERLINKBASE
  1

  9
$STYLESHEET
  1
monochrome 1.ctb
  9
$XEDIT
290
     1
  9
$CEPSNTYPE
380
     0
  9
$PSTYLEMODE
290
     1
  9
$FINGERPRINTGUID
  2
{D68B0D02-A558-11D7-B632-000102183313}
  9
$VERSIONGUID
  2
{F28DDC4B-5327-459D-BC15-9E140FEB656B}
  9
$EXTNAMES
290
     1
  9
$PSVPSCALE
 40
0.0
  9
$OLESTARTUP
290
     0
  9
$SORTENTS
280
   127
  9
$INDEXCTL
280
     0
  9
$HIDETEXT
280
     0
  9
$XCLIPFRAME
290
     0
  9
$HALOGAP
280
     0
  9
$OBSCOLOR
 70
   257
  9
$OBSLTYPE
280
     0
  9
$INTERSECTIONDISPLAY
280
     0
  9
$INTERSECTIONCOLOR
 70
   257
  9
$DIMASSOC
280
     1
  9
$PROJECTNAME
  1

  0
ENDSEC
  0
SECTION
  2
CLASSES
  0
CLASS
  1
ACDBDICTIONARYWDFLT
  2
AcDbDictionaryWithDefault
  3
ObjectDBX Classes
 90
        0
 91
        1
280
     0
281
     0
  0
CLASS
  1
DICTIONARYVAR
  2
AcDbDictionaryVar
  3
ObjectDBX Classes
 90
        0
 91
        2
280
     0
281
     0
  0
ENDSEC
  0
SECTION
  2
TABLES
  0
TABLE
  2
VPORT
  5
8
330
0
100
AcDbSymbolTable
 70
     2
  0
VPORT
  5
E71
330
8
100
AcDbSymbolTableRecord
100
AcDbViewportTableRecord
  2
*Active
 70
     0
 10
0.0
 20
0.0
 11
1.0
 21
1.0
 12
209.9839909853695
 22
296.9773586793072
 13
0.0
 23
0.0
 14
1.0
 24
1.0
 15
10.0
 25
10.0
 16
0.0
 26
0.0
 36
1.0
 17
0.0
 27
0.0
 37
0.0
 40
598.8424404768961
 41
1.336927223719676
 42
50.0
 43
0.0
 44
0.0
 50
0.0
 51
0.0
 71
     0
 72
  1500
 73
     1
 74
     0
 75
     0
 76
     0
 77
     0
 78
     0
281
     0
 65
     1
110
0.0
120
0.0
130
0.0
111
1.0
121
0.0
131
0.0
112
0.0
122
1.0
132
0.0
 79
     0
146
0.0
  0
ENDTAB
  0
TABLE
  2
LTYPE
  5
5
330
0
100
AcDbSymbolTable
 70
     2
  0
LTYPE
  5
13
330
5
100
AcDbSymbolTableRecord
100
AcDbLinetypeTableRecord
  2
ByBlock
 70
     0
  3

 72
    65
 73
     0
 40
0.0
  0
LTYPE
  5
14
330
5
100
AcDbSymbolTableRecord
100
AcDbLinetypeTableRecord
  2
ByLayer
 70
     0
  3

 72
    65
 73
     0
 40
0.0
  0
LTYPE
  5
15
330
5
100
AcDbSymbolTableRecord
100
AcDbLinetypeTableRecord
  2
Continuous
 70
     0
  3
Solid line
 72
    65
 73
     0
 40
0.0
  0
LTYPE
  5
25
330
5
100
AcDbSymbolTableRecord
100
AcDbLinetypeTableRecord
  2
STRICHPUNKT
 70
     0
  3
__ . __ . __ . __ . __ . __ . __ . __ . __ . __
 72
    65
 73
     4
 40
1.0
 49
0.5
 74
     0
 49
-0.25
 74
     0
 49
0.0
 74
     0
 49
-0.25
 74
     0
  0
ENDTAB
  0
TABLE
  2
LAYER
  5
2
330
0
100
AcDbSymbolTable
 70
     9
  0
LAYER
  5
10
330
2
100
AcDbSymbolTableRecord
100
AcDbLayerTableRecord
  2
0
 70
     0
 62
     7
  6
Continuous
370
    -3
390
F
  0
LAYER
  5
2A
330
2
100
AcDbSymbolTableRecord
100
AcDbLayerTableRecord
  2
VOLL
 70
     0
 62
     1
  6
Continuous
370
    -3
390
F
  0
LAYER
  5
2B
330
2
100
AcDbSymbolTableRecord
100
AcDbLayerTableRecord
  2
HILF
 70
     0
 62
     2
  6
Continuous
370
    -3
390
F
  0
LAYER
  5
2C
330
2
100
AcDbSymbolTableRecord
100
AcDbLayerTableRecord
  2
MITTEL
 70
     0
 62
     2
  6
STRICHPUNKT
370
    -3
390
F
  0
LAYER
  5
2F
330
2
100
AcDbSymbolTableRecord
100
AcDbLayerTableRecord
  2
BEM
 70
     0
 62
     7
  6
Continuous
370
    -3
390
F
  0
LAYER
  5
30
330
2
100
AcDbSymbolTableRecord
100
AcDbLayerTableRecord
  2
STEMPEL
 70
     0
 62
     3
  6
Continuous
370
    -3
390
F
  0
LAYER
  5
31
330
2
100
AcDbSymbolTableRecord
100
AcDbLayerTableRecord
  2
TEXT
 70
     0
 62
     7
  6
Continuous
370
    -3
390
F
  0
LAYER
  5
390
330
2
100
AcDbSymbolTableRecord
100
AcDbLayerTableRecord
  2
DEFPOINTS
 70
     0
 62
     7
  6
Continuous
290
     0
370
    -3
390
F
  0
LAYER
  5
391
330
2
100
AcDbSymbolTableRecord
100
AcDbLayerTableRecord
  2
SCHRAFF
 70
     0
 62
     7
  6
Continuous
370
    -3
390
F
  0
ENDTAB
  0
TABLE
  2
STYLE
  5
3
330
0
100
AcDbSymbolTable
 70
     2
  0
STYLE
  5
11
330
3
100
AcDbSymbolTableRecord
100
AcDbTextStyleTableRecord
  2
STANDARD
 70
     0
 40
0.0
 41
0.8
 50
0.0
 71
     0
 42
3.5
  3
simplex.shx
  4

  0
STYLE
  5
24
330
3
100
AcDbSymbolTableRecord
100
AcDbTextStyleTableRecord
  2
GREEKS
 70
     0
 40
0.0
 41
0.8
 50
0.0
 71
     0
 42
2.5
  3
SIMPLEX.shx
  4

  0
ENDTAB
  0
TABLE
  2
VIEW
  5
6
330
0
100
AcDbSymbolTable
 70
     0
  0
ENDTAB
  0
TABLE
  2
UCS
  5
7
330
0
100
AcDbSymbolTable
 70
     0
  0
ENDTAB
  0
TABLE
  2
APPID
  5
9
330
0
100
AcDbSymbolTable
 70
     1
  0
APPID
  5
12
330
9
100
AcDbSymbolTableRecord
100
AcDbRegAppTableRecord
  2
ACAD
 70
     0
  0
ENDTAB
  0
TABLE
  2
DIMSTYLE
  5
A
330
0
100
AcDbSymbolTable
 70
     1
100
AcDbDimStyleTable
 71
     1
340
9D
  0
DIMSTYLE
105
9D
102
{ACAD_REACTORS
330
6F2
330
72A
330
8AD
330
A05
330
B8E
330
E5E
102
}
330
A
100
AcDbSymbolTableRecord
100
AcDbDimStyleTableRecord
  2
Standard
 70
     0
340
11
  0
ENDTAB
  0
TABLE
  2
BLOCK_RECORD
  5
1
330
0
100
AcDbSymbolTable
 70
     7
  0
BLOCK_RECORD
  5
1E
102
{ACAD_XDICTIONARY
360
A0
102
}
330
1
100
AcDbSymbolTableRecord
100
AcDbBlockTableRecord
  2
*Model_Space
340
21
  0
BLOCK_RECORD
  5
1A
102
{ACAD_XDICTIONARY
360
A2
102
}
330
1
100
AcDbSymbolTableRecord
100
AcDbBlockTableRecord
  2
*Paper_Space
340
1D
  0
BLOCK_RECORD
  5
22
330
1
100
AcDbSymbolTableRecord
100
AcDbBlockTableRecord
  2
LOGO
340
0
102
{BLKREFS
331
9B
102
}
  0
BLOCK_RECORD
  5
6F3
330
1
100
AcDbSymbolTableRecord
100
AcDbBlockTableRecord
  2
*D1
340
0
  0
BLOCK_RECORD
  5
72B
330
1
100
AcDbSymbolTableRecord
100
AcDbBlockTableRecord
  2
*D2
340
0
  0
BLOCK_RECORD
  5
8AE
330
1
100
AcDbSymbolTableRecord
100
AcDbBlockTableRecord
  2
*D3
340
0
  0
BLOCK_RECORD
  5
A06
330
1
100
AcDbSymbolTableRecord
100
AcDbBlockTableRecord
  2
*D4
340
0
  0
BLOCK_RECORD
  5
B8F
330
1
100
AcDbSymbolTableRecord
100
AcDbBlockTableRecord
  2
*D5
340
0
  0
BLOCK_RECORD
  5
E5F
330
1
100
AcDbSymbolTableRecord
100
AcDbBlockTableRecord
  2
*D6
340
0
  0
ENDTAB
  0
ENDSEC
  0
SECTION
  2
BLOCKS
  0
BLOCK
  5
35
330
1E
100
AcDbEntity
  8
0
100
AcDbBlockBegin
  2
*Model_Space
 70
     0
 10
0.0
 20
0.0
 30
0.0
  3
*Model_Space
  1

  0
ENDBLK
  5
36
330
1E
100
AcDbEntity
  8
0
100
AcDbBlockEnd
  0
BLOCK
  5
33
330
1A
100
AcDbEntity
 67
     1
  8
0
100
AcDbBlockBegin
  2
*Paper_Space
 70
     0
 10
0.0
 20
0.0
 30
0.0
  3
*Paper_Space
  1

  0
ENDBLK
  5
34
330
1A
100
AcDbEntity
 67
     1
  8
0
100
AcDbBlockEnd
  0
BLOCK
  5
37
330
22
100
AcDbEntity
  8
0
100
AcDbBlockBegin
  2
LOGO
 70
     0
 10
0.0
 20
0.0
 30
0.0
  3
LOGO
  1

  0
ARC
  5
38
330
22
100
AcDbEntity
  8
0
100
AcDbCircle
 10
11.59973089678112
 20
-9.271599258481501
 30
0.0
 40
4.5
100
AcDbArc
 50
270.0
 51
231.0575587310159
  0
LINE
  5
39
330
22
100
AcDbEntity
  8
0
100
AcDbLine
 10
3.599730896781125
 20
-4.771599258481529
 30
0.0
 11
3.599730896781153
 21
-11.77159925848133
 31
0.0
  0
LINE
  5
3A
330
22
100
AcDbEntity
  8
0
100
AcDbLine
 10
2.599730896781125
 20
-4.771599258481529
 30
0.0
 11
2.599730896781153
 21
-11.77159925848133
 31
0.0
  0
CIRCLE
  5
3B
330
22
100
AcDbEntity
  8
0
100
AcDbCircle
 10
11.59973089678112
 20
-9.271599258481501
 30
0.0
 40
3.5
  0
ARC
  5
3C
330
22
100
AcDbEntity
  8
0
100
AcDbCircle
 10
31.59973089678115
 20
-9.271599258481472
 30
0.0
 40
4.5
100
AcDbArc
 50
270.0
 51
231.0575587310182
  0
LINE
  5
3D
330
22
100
AcDbEntity
  8
0
100
AcDbLine
 10
17.59973089678112
 20
-4.771599258481472
 30
0.0
 11
17.59973089678115
 21
-13.77159925848147
 31
0.0
  0
ARC
  5
3E
330
22
100
AcDbEntity
  8
0
100
AcDbCircle
 10
22.59973089678116
 20
-7.271599258481472
 30
0.0
 40
2.5
100
AcDbArc
 50
293.1161887722295
 51
90.0
  0
CIRCLE
  5
3F
330
22
100
AcDbEntity
  8
0
100
AcDbCircle
 10
31.59973089678115
 20
-9.271599258481472
 30
0.0
 40
3.5
  0
ARC
  5
40
330
22
100
AcDbEntity
  8
0
100
AcDbCircle
 10
4.599730896781153
 20
-11.77159925848133
 30
0.0
 40
1.0
100
AcDbArc
 50
180.0
 51
270.0
  0
ARC
  5
41
330
22
100
AcDbEntity
  8
0
100
AcDbCircle
 10
4.599730896781153
 20
-11.77159925848133
 30
0.0
 40
2.0
100
AcDbArc
 50
179.9999999999992
 51
270.0
  0
LINE
  5
42
330
22
100
AcDbEntity
  8
0
100
AcDbLine
 10
11.59973089678115
 20
-13.77159925848144
 30
0.0
 11
4.599730896781153
 21
-13.77159925848147
 31
0.0
  0
LINE
  5
43
330
22
100
AcDbEntity
  8
0
100
AcDbLine
 10
8.771303772034769
 20
-12.77159925848136
 30
0.0
 11
4.599730896781153
 21
-12.77159925848133
 31
0.0
  0
LINE
  5
44
330
22
100
AcDbEntity
  8
0
100
AcDbLine
 10
31.59973089678115
 20
-13.77159925848147
 30
0.0
 11
23.6715276665056
 21
-13.77159925848144
 31
0.0
  0
LINE
  5
45
330
22
100
AcDbEntity
  8
0
100
AcDbLine
 10
23.56565672307022
 20
-9.51278021337896
 30
0.0
 11
24.4388546544846
 21
-12.77159925848144
 31
0.0
  0
LINE
  5
46
330
22
100
AcDbEntity
  8
0
100
AcDbLine
 10
22.59973089678116
 20
-9.771599258481472
 30
0.0
 11
18.59973089678112
 21
-9.771599258481472
 31
0.0
  0
LINE
  5
47
330
22
100
AcDbEntity
  8
0
100
AcDbLine
 10
18.59973089678115
 20
-13.77159925848144
 30
0.0
 11
17.59973089678115
 21
-13.77159925848144
 31
0.0
  0
LINE
  5
48
330
22
100
AcDbEntity
  8
0
100
AcDbLine
 10
18.59973089678115
 20
-9.771599258481472
 30
0.0
 11
18.59973089678115
 21
-13.77159925848144
 31
0.0
  0
LINE
  5
49
330
22
100
AcDbEntity
  8
0
100
AcDbLine
 10
22.59973089678116
 20
-9.771599258481472
 30
0.0
 11
23.67152766650562
 21
-13.77159925848147
 31
0.0
  0
ARC
  5
4A
330
22
100
AcDbEntity
  8
0
100
AcDbCircle
 10
22.59973089678116
 20
-7.271599258481472
 30
0.0
 40
2.5
100
AcDbArc
 50
270.0
 51
270.0000000000007
  0
LINE
  5
4B
330
22
100
AcDbEntity
  8
0
100
AcDbLine
 10
28.77130377203494
 20
-12.77159925848147
 30
0.0
 11
24.43885465448463
 21
-12.77159925848144
 31
0.0
  0
LINE
  5
4C
330
22
100
AcDbEntity
  8
0
100
AcDbLine
 10
3.599730896781125
 20
-4.771599258481472
 30
0.0
 11
2.599730896781125
 21
-4.771599258481472
 31
0.0
  0
LINE
  5
4D
330
22
100
AcDbEntity
  8
0
100
AcDbLine
 10
22.59973089678116
 20
-8.771599258481472
 30
0.0
 11
18.59973089678115
 21
-8.771599258481472
 31
0.0
  0
LINE
  5
4E
330
22
100
AcDbEntity
  8
0
100
AcDbLine
 10
22.59973089678116
 20
-5.771599258481472
 30
0.0
 11
18.59973089678115
 21
-5.771599258481472
 31
0.0
  0
LINE
  5
4F
330
22
100
AcDbEntity
  8
0
100
AcDbLine
 10
22.59973089678116
 20
-4.771599258481472
 30
0.0
 11
17.59973089678115
 21
-4.771599258481472
 31
0.0
  0
LINE
  5
50
330
22
100
AcDbEntity
  8
0
100
AcDbLine
 10
18.59973089678115
 20
-5.771599258481472
 30
0.0
 11
18.59973089678115
 21
-8.771599258481472
 31
0.0
  0
ARC
  5
51
330
22
100
AcDbEntity
  8
0
100
AcDbCircle
 10
22.59973089678116
 20
-7.271599258481472
 30
0.0
 40
1.5
100
AcDbArc
 50
270.0
 51
90.0
  0
ENDBLK
  5
52
330
22
100
AcDbEntity
  8
0
100
AcDbBlockEnd
  0
BLOCK
  5
6FD
330
6F3
100
AcDbEntity
  8
0
100
AcDbBlockBegin
  2
*D1
 70
     1
 10
0.0
 20
0.0
 30
0.0
  3
*D1
  1

  0
LINE
  5
CAC
330
6F3
100
AcDbEntity
  8
BEM
 62
     0
370
    -2
100
AcDbLine
 10
142.7986968075333
 20
212.9047821398643
 30
0.0
 11
142.7986968075333
 21
192.4804704154703
 31
0.0
  0
LINE
  5
CAD
330
6F3
100
AcDbEntity
  8
BEM
 62
     0
370
    -2
100
AcDbLine
 10
222.7986968075331
 20
212.9047821398642
 30
0.0
 11
222.7986968075331
 21
192.4804704154703
 31
0.0
  0
LINE
  5
CAE
330
6F3
100
AcDbEntity
  8
BEM
 62
     0
370
    -2
100
AcDbLine
 10
149.7986968075333
 20
194.4804704154703
 30
0.0
 11
215.7986968075331
 21
194.4804704154703
 31
0.0
  0
SOLID
  5
CAF
330
6F3
100
AcDbEntity
  8
BEM
 62
     0
100
AcDbTrace
 10
149.7986968075333
 20
195.6471370821369
 30
0.0
 11
149.7986968075333
 21
193.3138037488036
 31
0.0
 12
142.7986968075333
 22
194.4804704154703
 32
0.0
 13
142.7986968075333
 23
194.4804704154703
 33
0.0
  0
SOLID
  5
CB0
330
6F3
100
AcDbEntity
  8
BEM
 62
     0
100
AcDbTrace
 10
215.7986968075331
 20
195.6471370821369
 30
0.0
 11
215.7986968075331
 21
193.3138037488036
 31
0.0
 12
222.7986968075331
 22
194.4804704154703
 32
0.0
 13
222.7986968075331
 23
194.4804704154703
 33
0.0
  0
MTEXT
  5
CB1
330
6F3
100
AcDbEntity
  8
BEM
 62
     1
100
AcDbMText
 10
185.3983066225361
 20
200.9804704154703
 30
0.0
 40
7.0
 41
0.0
 71
     5
 72
     1
  1
\A1;80
 73
     1
 44
1.0
  0
POINT
  5
CB2
330
6F3
100
AcDbEntity
  8
DEFPOINTS
 62
     0
100
AcDbPoint
 10
142.7986968075333
 20
214.9047821398643
 30
0.0
  0
POINT
  5
CB3
330
6F3
100
AcDbEntity
  8
DEFPOINTS
 62
     0
100
AcDbPoint
 10
222.7986968075331
 20
214.9047821398642
 30
0.0
  0
POINT
  5
CB4
330
6F3
100
AcDbEntity
  8
DEFPOINTS
 62
     0
100
AcDbPoint
 10
222.7986968075331
 20
194.4804704154703
 30
0.0
  0
ENDBLK
  5
6FE
330
6F3
100
AcDbEntity
  8
0
100
AcDbBlockEnd
  0
BLOCK
  5
735
330
72B
100
AcDbEntity
  8
0
100
AcDbBlockBegin
  2
*D2
 70
     1
 10
0.0
 20
0.0
 30
0.0
  3
*D2
  1

  0
LINE
  5
CA3
330
72B
100
AcDbEntity
  8
BEM
 62
     0
370
    -2
100
AcDbLine
 10
136.7986968075332
 20
519.9085310999432
 30
0.0
 11
109.9519591089963
 21
519.9085310999432
 31
0.0
  0
LINE
  5
CA4
330
72B
100
AcDbEntity
  8
BEM
 62
     0
370
    -2
100
AcDbLine
 10
140.7986968075333
 20
214.9047821398643
 30
0.0
 11
109.9519591089963
 21
214.9047821398643
 31
0.0
  0
LINE
  5
CA5
330
72B
100
AcDbEntity
  8
BEM
 62
     0
370
    -2
100
AcDbLine
 10
111.9519591089963
 20
512.9085310999433
 30
0.0
 11
111.9519591089963
 21
221.9047821398643
 31
0.0
  0
SOLID
  5
CA6
330
72B
100
AcDbEntity
  8
BEM
 62
     0
100
AcDbTrace
 10
110.7852924423297
 20
512.9085310999433
 30
0.0
 11
113.118625775663
 21
512.9085310999433
 31
0.0
 12
111.9519591089963
 22
519.9085310999432
 32
0.0
 13
111.9519591089963
 23
519.9085310999432
 33
0.0
  0
SOLID
  5
CA7
330
72B
100
AcDbEntity
  8
BEM
 62
     0
100
AcDbTrace
 10
110.7852924423296
 20
221.9047821398643
 30
0.0
 11
113.1186257756629
 21
221.9047821398643
 31
0.0
 12
111.9519591089963
 22
214.9047821398643
 32
0.0
 13
111.9519591089963
 23
214.9047821398643
 33
0.0
  0
MTEXT
  5
CA8
330
72B
100
AcDbEntity
  8
BEM
 62
     1
100
AcDbMText
 10
105.4519591089962
 20
367.4066566199038
 30
0.0
 40
7.0
 41
0.0
 71
     5
 72
     1
  1
\A1;305
 11
0.0000000000000001
 21
1.0
 31
0.0
 73
     1
 44
1.0
  0
POINT
  5
CA9
330
72B
100
AcDbEntity
  8
DEFPOINTS
 62
     0
100
AcDbPoint
 10
138.7986968075332
 20
519.9085310999432
 30
0.0
  0
POINT
  5
CAA
330
72B
100
AcDbEntity
  8
DEFPOINTS
 62
     0
100
AcDbPoint
 10
142.7986968075333
 20
214.9047821398643
 30
0.0
  0
POINT
  5
CAB
330
72B
100
AcDbEntity
  8
DEFPOINTS
 62
     0
100
AcDbPoint
 10
111.9519591089963
 20
214.9047821398643
 30
0.0
  0
ENDBLK
  5
736
330
72B
100
AcDbEntity
  8
0
100
AcDbBlockEnd
  0
BLOCK
  5
8B8
330
8AE
100
AcDbEntity
  8
0
100
AcDbBlockBegin
  2
*D3
 70
     1
 10
0.0
 20
0.0
 30
0.0
  3
*D3
  1

  0
LINE
  5
C91
330
8AE
100
AcDbEntity
  8
BEM
 62
     0
370
    -2
100
AcDbLine
 10
136.7986968075332
 20
519.9085310999432
 30
0.0
 11
124.4394198513891
 21
519.9085310999432
 31
0.0
  0
LINE
  5
C92
330
8AE
100
AcDbEntity
  8
BEM
 62
     0
370
    -2
100
AcDbLine
 10
137.6231327702154
 20
459.9085310999432
 30
0.0
 11
124.439419851389
 21
459.9085310999432
 31
0.0
  0
LINE
  5
C93
330
8AE
100
AcDbEntity
  8
BEM
 62
     0
370
    -2
100
AcDbLine
 10
126.439419851389
 20
512.9085310999433
 30
0.0
 11
126.439419851389
 21
466.9085310999433
 31
0.0
  0
SOLID
  5
C94
330
8AE
100
AcDbEntity
  8
BEM
 62
     0
100
AcDbTrace
 10
125.2727531847224
 20
512.9085310999433
 30
0.0
 11
127.6060865180557
 21
512.9085310999433
 31
0.0
 12
126.439419851389
 22
519.9085310999432
 32
0.0
 13
126.439419851389
 23
519.9085310999432
 33
0.0
  0
SOLID
  5
C95
330
8AE
100
AcDbEntity
  8
BEM
 62
     0
100
AcDbTrace
 10
125.2727531847224
 20
466.9085310999433
 30
0.0
 11
127.6060865180557
 21
466.9085310999433
 31
0.0
 12
126.439419851389
 22
459.9085310999432
 32
0.0
 13
126.439419851389
 23
459.9085310999432
 33
0.0
  0
MTEXT
  5
C96
330
8AE
100
AcDbEntity
  8
BEM
 62
     1
100
AcDbMText
 10
119.939419851389
 20
489.9085310999432
 30
0.0
 40
7.0
 41
0.0
 71
     5
 72
     1
  1
\A1;60
 11
0.0000000000000001
 21
1.0
 31
0.0
 73
     1
 44
1.0
  0
POINT
  5
C97
330
8AE
100
AcDbEntity
  8
DEFPOINTS
 62
     0
100
AcDbPoint
 10
138.7986968075332
 20
519.9085310999432
 30
0.0
  0
POINT
  5
C98
330
8AE
100
AcDbEntity
  8
DEFPOINTS
 62
     0
100
AcDbPoint
 10
139.6231327702154
 20
459.9085310999432
 30
0.0
  0
POINT
  5
C99
330
8AE
100
AcDbEntity
  8
DEFPOINTS
 62
     0
100
AcDbPoint
 10
126.439419851389
 20
459.9085310999432
 30
0.0
  0
ENDBLK
  5
8B9
330
8AE
100
AcDbEntity
  8
0
100
AcDbBlockEnd
  0
BLOCK
  5
A10
330
A06
100
AcDbEntity
  8
0
100
AcDbBlockBegin
  2
*D4
 70
     1
 10
0.0
 20
0.0
 30
0.0
  3
*D4
  1

  0
LINE
  5
E55
330
A06
100
AcDbEntity
  8
BEM
 62
     0
370
    -2
100
AcDbLine
 10
356.7469649794239
 20
423.7992264425925
 30
0.0
 11
373.7795468345288
 21
406.7666445874873
 31
0.0
  0
LINE
  5
E56
330
A06
100
AcDbEntity
  8
BEM
 62
     0
370
    -2
100
AcDbLine
 10
184.2129103699062
 20
313.490568577491
 30
0.0
 11
232.3581905972185
 21
265.3452883501783
 31
0.0
  0
LINE
  5
E57
330
A06
100
AcDbEntity
  8
BEM
 62
     0
370
    -2
100
AcDbLine
 10
367.4155858038499
 20
403.2311106815546
 30
0.0
 11
235.8937245031512
 21
271.7092493808573
 31
0.0
  0
SOLID
  5
E58
330
A06
100
AcDbEntity
  8
BEM
 62
     0
100
AcDbTrace
 10
366.5906278924656
 20
404.056068592939
 30
0.0
 11
368.2405437152342
 21
402.4061527701704
 31
0.0
 12
372.3653332721558
 22
408.1808581498605
 32
0.0
 13
372.3653332721558
 23
408.1808581498605
 33
0.0
  0
SOLID
  5
E59
330
A06
100
AcDbEntity
  8
BEM
 62
     0
100
AcDbTrace
 10
235.0687665917669
 20
272.5342072922416
 30
0.0
 11
236.7186824145355
 21
270.8842914694729
 31
0.0
 12
230.9439770348454
 22
266.7595019125514
 32
0.0
 13
230.9439770348454
 23
266.7595019125514
 33
0.0
  0
MTEXT
  5
E5A
330
A06
100
AcDbEntity
  8
BEM
 62
     1
100
AcDbMText
 10
297.058461075788
 20
342.0663741089186
 30
0.0
 40
7.0
 41
0.0
 71
     5
 72
     1
  1
\A1;200
 11
0.7071067811865508
 21
0.7071067811865443
 31
0.0
 73
     1
 44
1.0
  0
POINT
  5
E5B
330
A06
100
AcDbEntity
  8
DEFPOINTS
 62
     0
100
AcDbPoint
 10
355.3327514170508
 20
425.2134400049656
 30
0.0
  0
POINT
  5
E5C
330
A06
100
AcDbEntity
  8
DEFPOINTS
 62
     0
100
AcDbPoint
 10
182.7986968075331
 20
314.9047821398641
 30
0.0
  0
POINT
  5
E5D
330
A06
100
AcDbEntity
  8
DEFPOINTS
 62
     0
100
AcDbPoint
 10
230.9439770348454
 20
266.7595019125514
 30
0.0
  0
ENDBLK
  5
A11
330
A06
100
AcDbEntity
  8
0
100
AcDbBlockEnd
  0
BLOCK
  5
B99
330
B8F
100
AcDbEntity
  8
0
100
AcDbBlockBegin
  2
*D5
 70
     1
 10
0.0
 20
0.0
 30
0.0
  3
*D5
  1

  0
LINE
  5
D71
330
B8F
100
AcDbEntity
  8
SCHRAFF
 62
     0
370
    -2
100
AcDbLine
 10
140.7986968075333
 20
214.9047821398642
 30
0.0
 11
124.4394198513889
 21
214.9047821398642
 31
0.0
  0
LINE
  5
D72
330
B8F
100
AcDbEntity
  8
SCHRAFF
 62
     0
370
    -2
100
AcDbLine
 10
180.7986968075331
 20
314.9047821398641
 30
0.0
 11
124.4394198513889
 21
314.9047821398641
 31
0.0
  0
LINE
  5
D73
330
B8F
100
AcDbEntity
  8
SCHRAFF
 62
     0
370
    -2
100
AcDbLine
 10
126.4394198513889
 20
221.9047821398642
 30
0.0
 11
126.4394198513889
 21
307.9047821398642
 31
0.0
  0
SOLID
  5
D74
330
B8F
100
AcDbEntity
  8
SCHRAFF
 62
     0
100
AcDbTrace
 10
125.2727531847222
 20
221.9047821398642
 30
0.0
 11
127.6060865180556
 21
221.9047821398642
 31
0.0
 12
126.4394198513889
 22
214.9047821398642
 32
0.0
 13
126.4394198513889
 23
214.9047821398642
 33
0.0
  0
SOLID
  5
D75
330
B8F
100
AcDbEntity
  8
SCHRAFF
 62
     0
100
AcDbTrace
 10
125.2727531847223
 20
307.9047821398642
 30
0.0
 11
127.6060865180556
 21
307.9047821398642
 31
0.0
 12
126.4394198513889
 22
314.9047821398641
 32
0.0
 13
126.4394198513889
 23
314.9047821398641
 33
0.0
  0
MTEXT
  5
D76
330
B8F
100
AcDbEntity
  8
SCHRAFF
 62
     1
100
AcDbMText
 10
119.9394198513889
 20
264.9047821398642
 30
0.0
 40
7.0
 41
0.0
 71
     5
 72
     1
  1
\A1;100
 11
0.0000000000000001
 21
1.0
 31
0.0
 73
     1
 44
1.0
  0
POINT
  5
D77
330
B8F
100
AcDbEntity
  8
DEFPOINTS
 62
     0
100
AcDbPoint
 10
142.7986968075333
 20
214.9047821398642
 30
0.0
  0
POINT
  5
D78
330
B8F
100
AcDbEntity
  8
DEFPOINTS
 62
     0
100
AcDbPoint
 10
182.7986968075331
 20
314.9047821398641
 30
0.0
  0
POINT
  5
D79
330
B8F
100
AcDbEntity
  8
DEFPOINTS
 62
     0
100
AcDbPoint
 10
126.4394198513889
 20
314.9047821398641
 30
0.0
  0
ENDBLK
  5
B9A
330
B8F
100
AcDbEntity
  8
0
100
AcDbBlockEnd
  0
BLOCK
  5
E6B
330
E5F
100
AcDbEntity
  8
0
100
AcDbBlockBegin
  2
*D6
 70
     1
 10
0.0
 20
0.0
 30
0.0
  3
*D6
  1

  0
LINE
  5
E60
330
E5F
100
AcDbEntity
  8
BEM
 62
     0
370
    -2
100
AcDbLine
 10
329.1698005131485
 20
461.2758858454795
 30
0.0
 11
345.1415127514704
 21
477.2475980838015
 31
0.0
  0
LINE
  5
E61
330
E5F
100
AcDbEntity
  8
BEM
 62
     0
370
    -2
100
AcDbLine
 10
182.7986968075332
 20
526.9085310999433
 30
0.0
 11
182.7986968075331
 21
544.4921942016194
 31
0.0
  0
ARC
  5
E62
330
E5F
100
AcDbEntity
  8
BEM
 62
     0
370
    -2
100
AcDbCircle
 10
182.7986968075331
 20
314.9047821398641
 30
0.0
 40
227.5874120617553
100
AcDbArc
 50
46.76233941855395
 51
88.23766058144604
  0
SOLID
  5
E63
330
E5F
100
AcDbEntity
  8
BEM
 62
     0
100
AcDbTrace
 10
339.5141899280719
 20
481.5439730607798
 30
0.0
 11
337.8898427942836
 21
479.8688787848067
 31
0.0
 12
343.7272991890973
 22
475.8333845214282
 32
0.0
 13
343.7272991890973
 23
475.8333845214282
 33
0.0
  0
SOLID
  5
E64
330
E5F
100
AcDbEntity
  8
BEM
 62
     0
100
AcDbTrace
 10
189.7799271682609
 20
541.21801455904
 30
0.0
 11
189.8158108166256
 21
543.5510719540101
 31
0.0
 12
182.7986968075331
 22
542.4921942016193
 32
0.0
 13
182.7986968075331
 23
542.4921942016193
 33
0.0
  0
MTEXT
  5
E65
330
E5F
100
AcDbEntity
  8
BEM
 62
     1
100
AcDbMText
 10
272.3800711287868
 20
531.1733509622554
 30
0.0
 40
7.0
 41
0.0
 71
     5
 72
     1
  1
\A1;45°
 11
0.9238795325112867
 21
-0.3826834323650898
 31
0.0
 73
     1
 44
1.0
  0
POINT
  5
E66
330
E5F
100
AcDbEntity
  8
DEFPOINTS
 62
     0
100
AcDbPoint
 10
296.5924028384108
 20
512.0012625669011
 30
0.0
  0
POINT
  5
E67
330
E5F
100
AcDbEntity
  8
DEFPOINTS
 62
     0
100
AcDbPoint
 10
182.7986968075332
 20
524.9085310999434
 30
0.0
  0
POINT
  5
E68
330
E5F
100
AcDbEntity
  8
DEFPOINTS
 62
     0
100
AcDbPoint
 10
327.7555869507754
 20
459.8616722831064
 30
0.0
  0
POINT
  5
E69
330
E5F
100
AcDbEntity
  8
DEFPOINTS
 62
     0
100
AcDbPoint
 10
182.7986968075331
 20
314.9047821398641
 30
0.0
  0
POINT
  5
E6A
330
E5F
100
AcDbEntity
  8
DEFPOINTS
 62
     0
100
AcDbPoint
 10
182.798696807533
 20
209.9047821398642
 30
0.0
  0
ENDBLK
  5
E6C
330
E5F
100
AcDbEntity
  8
0
100
AcDbBlockEnd
  0
ENDSEC
  0
SECTION
  2
ENTITIES
  0
LINE
  5
57
330
1E
100
AcDbEntity
  8
STEMPEL
100
AcDbLine
 10
410.0
 20
110.0
 30
0.0
 11
39.99999999999997
 21
110.0
 31
0.0
  0
LINE
  5
58
330
1E
100
AcDbEntity
  8
STEMPEL
100
AcDbLine
 10
136.0000000000001
 20
109.9999999999999
 30
0.0
 11
136.0
 21
9.999999999999971
 31
0.0
  0
LINE
  5
59
330
1E
100
AcDbEntity
  8
STEMPEL
100
AcDbLine
 10
220.0
 20
110.0
 30
0.0
 11
220.0
 21
9.999999999999971
 31
0.0
  0
LINE
  5
5A
330
1E
100
AcDbEntity
  8
STEMPEL
100
AcDbLine
 10
332.0
 20
109.9999999999997
 30
0.0
 11
332.0
 21
40.0
 31
0.0
  0
LINE
  5
5B
330
1E
100
AcDbEntity
  8
STEMPEL
100
AcDbLine
 10
135.9999999999999
 20
29.99999999999997
 30
0.0
 11
39.99999999999997
 21
29.99999999999997
 31
0.0
  0
LINE
  5
5C
330
1E
100
AcDbEntity
  8
STEMPEL
100
AcDbLine
 10
410.0
 20
40.0
 30
0.0
 11
136.0000000000001
 21
39.99999999999997
 31
0.0
  0
LINE
  5
5D
330
1E
100
AcDbEntity
  8
STEMPEL
100
AcDbLine
 10
410.0
 20
80.0
 30
0.0
 11
136.0000000000001
 21
79.99999999999994
 31
0.0
  0
LINE
  5
5E
330
1E
100
AcDbEntity
  8
VOLL
100
AcDbLine
 10
54.00000000000009
 20
110.0
 30
0.0
 11
53.99999999999997
 21
9.999999999999971
 31
0.0
  0
LINE
  5
5F
330
1E
100
AcDbEntity
  8
VOLL
100
AcDbLine
 10
94.00000000000011
 20
109.9999999999999
 30
0.0
 11
94.0
 21
9.999999999999971
 31
0.0
  0
LINE
  5
60
330
1E
100
AcDbEntity
  8
VOLL
100
AcDbLine
 10
114.0000000000001
 20
109.9999999999999
 30
0.0
 11
114.0
 21
9.999999999999971
 31
0.0
  0
LINE
  5
61
330
1E
100
AcDbEntity
  8
VOLL
100
AcDbLine
 10
154.0000000000001
 20
79.99999999999994
 30
0.0
 11
154.0000000000001
 21
39.99999999999997
 31
0.0
  0
LINE
  5
62
330
1E
100
AcDbEntity
  8
VOLL
100
AcDbLine
 10
180.0000000000001
 20
109.9999999999998
 30
0.0
 11
180.0
 21
39.99999999999997
 31
0.0
  0
LINE
  5
63
330
1E
100
AcDbEntity
  8
HILF
100
AcDbLine
 10
40.00000000000008
 20
100.0
 30
0.0
 11
136.0000000000001
 21
100.0
 31
0.0
  0
LINE
  5
64
330
1E
100
AcDbEntity
  8
HILF
100
AcDbLine
 10
40.00000000000008
 20
90.00000000000005
 30
0.0
 11
136.0000000000001
 21
90.00000000000005
 31
0.0
  0
LINE
  5
65
330
1E
100
AcDbEntity
  8
HILF
100
AcDbLine
 10
40.00000000000008
 20
79.99999999999994
 30
0.0
 11
136.0000000000001
 21
79.99999999999994
 31
0.0
  0
LINE
  5
66
330
1E
100
AcDbEntity
  8
HILF
100
AcDbLine
 10
40.00000000000008
 20
69.99999999999994
 30
0.0
 11
136.0000000000001
 21
69.99999999999994
 31
0.0
  0
LINE
  5
67
330
1E
100
AcDbEntity
  8
HILF
100
AcDbLine
 10
40.00000000000008
 20
59.99999999999997
 30
0.0
 11
136.0000000000001
 21
59.99999999999997
 31
0.0
  0
LINE
  5
68
330
1E
100
AcDbEntity
  8
HILF
100
AcDbLine
 10
40.00000000000008
 20
49.99999999999997
 30
0.0
 11
136.0000000000001
 21
49.99999999999997
 31
0.0
  0
LINE
  5
69
330
1E
100
AcDbEntity
  8
HILF
100
AcDbLine
 10
40.00000000000008
 20
39.99999999999997
 30
0.0
 11
136.0000000000001
 21
39.99999999999997
 31
0.0
  0
LINE
  5
6A
330
1E
100
AcDbEntity
  8
HILF
100
AcDbLine
 10
136.0000000000001
 20
69.99999999999994
 30
0.0
 11
220.0
 21
69.99999999999994
 31
0.0
  0
LINE
  5
6B
330
1E
100
AcDbEntity
  8
HILF
100
AcDbLine
 10
136.0000000000001
 20
59.99999999999997
 30
0.0
 11
220.0
 21
59.99999999999997
 31
0.0
  0
LINE
  5
6C
330
1E
100
AcDbEntity
  8
HILF
100
AcDbLine
 10
136.0000000000001
 20
49.99999999999997
 30
0.0
 11
220.0
 21
49.99999999999997
 31
0.0
  0
LINE
  5
6D
330
1E
100
AcDbEntity
  8
HILF
100
AcDbLine
 10
224.7736801096948
 20
84.03758247564139
 30
0.0
 11
324.8353916556311
 21
84.03758247564139
 31
0.0
  0
LINE
  5
6E
330
1E
100
AcDbEntity
  8
HILF
100
AcDbLine
 10
224.7736801096948
 20
69.99999999999994
 30
0.0
 11
324.835391655631
 21
69.99999999999994
 31
0.0
  0
LINE
  5
6F
330
1E
100
AcDbEntity
  8
HILF
100
AcDbLine
 10
224.7736801096948
 20
59.99999999999997
 30
0.0
 11
324.835391655631
 21
59.99999999999997
 31
0.0
  0
LINE
  5
70
330
1E
100
AcDbEntity
  8
HILF
100
AcDbLine
 10
224.7736801096948
 20
49.99999999999997
 30
0.0
 11
324.835391655631
 21
49.99999999999997
 31
0.0
  0
LINE
  5
71
330
1E
100
AcDbEntity
  8
VOLL
100
AcDbLine
 10
332.0
 20
60.0
 30
0.0
 11
410.0
 21
60.0
 31
0.0
  0
LINE
  5
72
330
1E
100
AcDbEntity
  8
HILF
100
AcDbLine
 10
336.7238616296993
 20
83.77983636955827
 30
0.0
 11
404.8588839326728
 21
83.77983636955827
 31
0.0
  0
LINE
  5
73
330
1E
100
AcDbEntity
  8
HILF
100
AcDbLine
 10
223.4909699289885
 20
14.89398258028314
 30
0.0
 11
404.8588839326728
 21
14.89398258028314
 31
0.0
  0
TEXT
  5
74
330
1E
100
AcDbEntity
  8
TEXT
100
AcDbText
 10
63.86165979631819
 20
18.67381894984132
 30
0.0
 40
4.0
  1
Änderung
 41
0.8
  7
GREEKS
 72
     1
 11
74.60451693917534
 21
18.67381894984132
 31
0.0
100
AcDbText
  0
TEXT
  5
75
330
1E
100
AcDbEntity
  8
TEXT
100
AcDbText
 10
143.5163572150377
 20
102.4620895087088
 30
0.0
 40
5.0
  1
Maßstab
 41
0.8
  7
GREEKS
100
AcDbText
  0
TEXT
  5
76
330
1E
100
AcDbEntity
  8
TEXT
100
AcDbText
 10
184.2858954734051
 20
102.4184168434819
 30
0.0
 40
5.0
  1
Zul. Abw.
 41
0.8
  7
GREEKS
100
AcDbText
  0
TEXT
  5
77
330
1E
100
AcDbEntity
  8
TEXT
100
AcDbText
 10
224.877940380901
 20
102.5489328011779
 30
0.0
 40
5.0
  1
Benennung
 41
0.8
  7
GREEKS
100
AcDbText
  0
TEXT
  5
78
330
1E
100
AcDbEntity
  8
TEXT
100
AcDbText
 10
336.178754957634
 20
102.3132034537136
 30
0.0
 40
5.0
  1
Zeichnungs Nr.
 41
0.8
  7
GREEKS
100
AcDbText
  0
TEXT
  5
79
330
1E
100
AcDbEntity
  8
TEXT
100
AcDbText
 10
224.742238391136
 20
30.84560570193057
 30
0.0
 40
5.0
  1
Bauvorhaben
 41
0.8
  7
GREEKS
100
AcDbText
  0
TEXT
  5
7A
330
1E
100
AcDbEntity
  8
TEXT
100
AcDbText
 10
336.7238616296993
 20
73.1811823709997
 30
0.0
 40
5.0
  1
Ersatz für:
 41
0.8
  7
GREEKS
100
AcDbText
  0
TEXT
  5
7B
330
1E
100
AcDbEntity
  8
TEXT
100
AcDbText
 10
48.26641107045756
 20
13.65465846027192
 30
0.0
 40
4.0
  1
Index
 50
90.0
 41
0.8
  7
GREEKS
100
AcDbText
  0
TEXT
  5
7C
330
1E
100
AcDbEntity
  8
TEXT
100
AcDbText
 10
100.0934676075481
 20
18.6715626933981
 30
0.0
 40
4.0
  1
Tag
 41
0.8
  7
GREEKS
 72
     1
 11
103.8268009408814
 21
18.6715626933981
 31
0.0
100
AcDbText
  0
TEXT
  5
7D
330
1E
100
AcDbEntity
  8
TEXT
100
AcDbText
 10
119.0122744386592
 20
18.59324216966408
 30
0.0
 40
4.0
  1
Name
 41
0.8
  7
GREEKS
 72
     1
 11
125.3360839624688
 21
18.59324216966408
 31
0.0
100
AcDbText
  0
TEXT
  5
7E
330
1E
100
AcDbEntity
  8
TEXT
100
AcDbText
 10
162.3311673153651
 20
73.31880501229926
 30
0.0
 40
4.0
  1
Tag
 41
0.8
  7
GREEKS
100
AcDbText
  0
TEXT
  5
7F
330
1E
100
AcDbEntity
  8
TEXT
100
AcDbText
 10
192.4626584226295
 20
73.30961091915225
 30
0.0
 40
4.0
  1
Name
 41
0.8
  7
GREEKS
100
AcDbText
  0
TEXT
  5
80
330
1E
100
AcDbEntity
  8
TEXT
100
AcDbText
 10
137.5836127167615
 20
63.62990369617964
 30
0.0
 40
4.0
  1
Gez.
 41
0.8
  7
GREEKS
100
AcDbText
  0
TEXT
  5
81
330
1E
100
AcDbEntity
  8
TEXT
100
AcDbText
 10
137.5515086571672
 20
53.68926291428377
 30
0.0
 40
4.0
  1
Gepr.
 41
0.8
  7
GREEKS
100
AcDbText
  0
TEXT
  5
82
330
1E
100
AcDbEntity
  8
TEXT
100
AcDbText
 10
137.6006777387304
 20
43.52946389649807
 30
0.0
 40
4.0
  1
Norm.
 41
0.8
  7
GREEKS
100
AcDbText
  0
LINE
  5
83
330
1E
100
AcDbEntity
  8
STEMPEL
100
AcDbLine
 10
49.99999999999989
 20
10.0
 30
0.0
 11
410.0
 21
10.0
 31
0.0
  0
TEXT
  5
84
330
1E
100
AcDbEntity
  8
TEXT
100
AcDbText
 10
337.2400861497006
 20
52.07416177878602
 30
0.0
 40
5.0
  1
ersetzt durch:
 41
0.8
  7
GREEKS
100
AcDbText
  0
LINE
  5
85
330
1E
100
AcDbEntity
  8
STEMPEL
100
AcDbLine
 10
410.0
 20
10.0
 30
0.0
 11
39.99999999999989
 21
10.0
 31
0.0
  0
LINE
  5
86
330
1E
100
AcDbEntity
  8
STEMPEL
100
AcDbLine
 10
410.0
 20
10.0
 30
0.0
 11
410.0
 21
584.0
 31
0.0
  0
LINE
  5
87
330
1E
100
AcDbEntity
  8
STEMPEL
100
AcDbLine
 10
40.0
 20
10.0
 30
0.0
 11
39.99999999999989
 21
584.0
 31
0.0
  0
LINE
  5
88
330
1E
100
AcDbEntity
  8
STEMPEL
100
AcDbLine
 10
410.0
 20
584.0
 30
0.0
 11
39.99999999999989
 21
584.0
 31
0.0
  0
LINE
  5
89
330
1E
100
AcDbEntity
  8
HILF
100
AcDbLine
 10
0.0
 20
0.0
 30
0.0
 11
-0.0000000000001137
 21
594.0
 31
0.0
  0
LINE
  5
8A
330
1E
100
AcDbEntity
  8
HILF
100
AcDbLine
 10
419.9999999999999
 20
594.0000000000002
 30
0.0
 11
0.0
 21
594.0
 31
0.0
  0
LINE
  5
8B
330
1E
100
AcDbEntity
  8
HILF
100
AcDbLine
 10
420.0
 20
0.0
 30
0.0
 11
0.0
 21
0.0
 31
0.0
  0
LINE
  5
8C
330
1E
100
AcDbEntity
  8
HILF
100
AcDbLine
 10
31.08767135713856
 20
297.0
 30
0.0
 11
0.0000000000001137
 21
297.0
 31
0.0
  0
TEXT
  5
8D
330
1E
100
AcDbEntity
  8
TEXT
100
AcDbText
 10
138.622109822104
 20
73.14025471151666
 30
0.0
 40
4.0
  1
2009
 41
0.8
  7
GREEKS
100
AcDbText
  0
LINE
  5
8E
330
1E
100
AcDbEntity
  8
HILF
100
AcDbLine
 10
420.0
 20
-0.0000000000001137
 30
0.0
 11
419.9999999999999
 21
594.0
 31
0.0
  0
TEXT
  5
8F
330
1E
100
AcDbEntity
  8
VOLL
100
AcDbText
 10
78.07675471698113
 20
31.02594776470585
 30
0.0
 40
1.8
  1

  7
GREEKS
100
AcDbText
  0
TEXT
  5
90
330
1E
100
AcDbEntity
  8
TEXT
100
AcDbText
 10
41.85509950977674
 20
111.6719999999999
 30
0.0
 40
5.0
  1
Erstellt mit AUTOCAD 2004
 41
0.8
  7
GREEKS
100
AcDbText
  0
TEXT
  5
91
330
1E
100
AcDbEntity
  8
TEXT
100
AcDbText
 10
194.4216048581257
 20
63.0896391972351
 30
0.0
 40
4.0
  1
Koeh
 41
0.8
  7
GREEKS
 72
     1
 11
199.6787477152685
 21
63.0896391972351
 31
0.0
100
AcDbText
  0
TEXT
  5
92
330
1E
100
AcDbEntity
  8
TEXT
 62
     1
100
AcDbText
 10
345.8152184120213
 20
88.14901428913959
 30
0.0
 40
7.0
  1
55691MM0W
 41
0.8
  7
GREEKS
 72
     1
 11
370.3485517453547
 21
88.14901428913959
 31
0.0
100
AcDbText
  0
TEXT
  5
93
330
1E
100
AcDbEntity
  8
TEXT
 62
     1
100
AcDbText
 10
150.5006306481887
 20
88.14901428913959
 30
0.0
 40
7.0
  1
1:2
 41
0.8
  7
GREEKS
100
AcDbText
  0
TEXT
  5
94
330
1E
100
AcDbEntity
  8
TEXT
100
AcDbText
 10
161.0085209177598
 20
63.10765040825732
 30
0.0
 40
4.0
  1
05.11.
 41
0.8
  7
GREEKS
 72
     1
 11
167.4085209177598
 21
63.10765040825732
 31
0.0
100
AcDbText
  0
TEXT
  5
95
330
1E
100
AcDbEntity
  8
TEXT
 62
     1
100
AcDbText
 10
225.354031386242
 20
87.41748789253779
 30
0.0
 40
7.0
  1
Abzweig quadratisch 45°
 41
0.8
  7
GREEKS
100
AcDbText
  0
TEXT
  5
96
330
1E
100
AcDbEntity
  8
TEXT
100
AcDbText
 10
225.1296391125315
 20
71.50334417585288
 30
0.0
 40
5.0
  1
DN80/DN80 mit Muffe
 41
0.8
  7
GREEKS
100
AcDbText
  0
TEXT
  5
98
330
1E
100
AcDbEntity
  8
TEXT
100
AcDbText
 10
225.1296391125315
 20
51.64011943042158
 30
0.0
 40
5.0
  1
EDV-Art.Nr. 55691.MM0X
 41
0.8
  7
GREEKS
100
AcDbText
  0
TEXT
  5
99
330
1E
100
AcDbEntity
  8
TEXT
100
AcDbText
 10
224.9837501577827
 20
42.62974153022632
 30
0.0
 40
4.0
  1
55691MM0W.DWG
 41
0.8
  7
GREEKS
100
AcDbText
  0
TEXT
  5
9A
330
1E
100
AcDbEntity
  8
TEXT
100
AcDbText
 10
182.626132208084
 20
90.76363841023022
 30
0.0
 40
4.0
  1
DIN EN1123-2
 41
0.8
  7
GREEKS
 72
     1
 11
199.6166083985602
 21
90.76363841023022
 31
0.0
100
AcDbText
  0
INSERT
  5
9B
330
1E
100
AcDbEntity
  8
STEMPEL
100
AcDbBlockReference
  2
LOGO
 10
140.9955485457794
 20
45.02105276448322
 30
0.0
 41
2.0
 42
2.0
 43
2.0
  0
TEXT
  5
118
330
1E
100
AcDbEntity
  8
BEM
100
AcDbText
 10
417.3022923857165
 20
10.16790107998849
 30
0.0
 40
4.0
  1
Diese Zeichnung ist urheberrechtlich geschützt und bleibt unser Eigentum. Sie darf weder ganz noch teilweise verfielfältigt und nicht an Dritte weitergegeben werden.
 50
90.0
 41
0.8
  7
GREEKS
100
AcDbText
  0
LINE
  5
6DA
330
1E
100
AcDbEntity
  8
MITTEL
100
AcDbLine
 10
182.7986968075332
 20
524.9085310999432
 30
0.0
 11
182.798696807533
 21
209.9047821398642
 31
0.0
  0
LINE
  5
6EE
330
1E
100
AcDbEntity
  8
STEMPEL
100
AcDbLine
 10
222.7986968075331
 20
214.9047821398642
 30
0.0
 11
142.7986968075333
 21
214.9047821398642
 31
0.0
  0
DIMENSION
  5
6F2
330
1E
100
AcDbEntity
  8
BEM
100
AcDbDimension
  2
*D1
 10
222.7986968075331
 20
194.4804704154703
 30
0.0
 11
185.3983066225361
 21
194.4804704154703
 31
0.0
 70
   160
 71
     5
 42
79.99999999999971
  3
Standard
100
AcDbAlignedDimension
 13
142.7986968075333
 23
214.9047821398643
 33
0.0
 14
222.7986968075331
 24
214.9047821398642
 34
0.0
100
AcDbRotatedDimension
1001
ACAD
1000
DSTYLE
1002
{
1070
    40
1040
2.0
1070
    41
1040
3.5
1070
    42
1040
1.0
1070
    43
1040
7.0
1070
    44
1040
1.0
1070
    73
1070
     0
1070
    74
1070
     0
1070
    77
1070
     1
1070
    78
1070
     8
1070
    79
1070
     2
1070
   140
1040
3.5
1070
   141
1040
1.5
1070
   146
1040
0.5
1070
   147
1040
1.5
1070
   172
1070
     1
1070
   178
1070
     1
1070
   179
1070
     2
1070
   271
1070
     2
1070
   272
1070
     2
1070
   284
1070
     8
1070
   285
1070
     8
1070
   286
1070
     8
1002
}
  0
LWPOLYLINE
  5
700
330
1E
100
AcDbEntity
  8
BEM
 62
     1
100
AcDbPolyline
 90
        4
 70
     1
 43
0.0
 10
171.8389729533726
 20
204.5783271187742
 10
171.8389729533726
 20
197.5783271187742
 10
178.8389729533726
 20
197.5783271187742
 10
178.8389729533726
 20
204.5783271187742
  0
DIMENSION
  5
72A
330
1E
100
AcDbEntity
  8
BEM
100
AcDbDimension
  2
*D2
 10
111.9519591089963
 20
214.9047821398643
 30
0.0
 11
105.4519591089962
 21
367.4066566199038
 31
0.0
 70
    32
 71
     5
 42
305.003748960079
  3
Standard
100
AcDbAlignedDimension
 13
138.7986968075332
 23
519.9085310999432
 33
0.0
 14
142.7986968075333
 24
214.9047821398643
 34
0.0
 50
90.0
100
AcDbRotatedDimension
1001
ACAD
1000
DSTYLE
1002
{
1070
    40
1040
2.0
1070
    41
1040
3.5
1070
    42
1040
1.0
1070
    43
1040
7.0
1070
    44
1040
1.0
1070
    73
1070
     0
1070
    74
1070
     0
1070
    77
1070
     1
1070
    78
1070
     8
1070
    79
1070
     2
1070
   140
1040
3.5
1070
   141
1040
1.5
1070
   146
1040
0.5
1070
   147
1040
1.5
1070
   172
1070
     1
1070
   178
1070
     1
1070
   179
1070
     2
1070
   271
1070
     2
1070
   272
1070
     2
1070
   284
1070
     8
1070
   285
1070
     8
1070
   286
1070
     8
1002
}
  0
TEXT
  5
7C7
330
1E
100
AcDbEntity
  8
TEXT
 62
     1
100
AcDbText
 10
234.6057658946468
 20
129.0783465745483
 30
0.0
 40
7.0
  1
und innen beschichtet
 41
0.8
  7
GREEKS
100
AcDbText
  0
TEXT
  5
7C8
330
1E
100
AcDbEntity
  8
TEXT
 62
     1
100
AcDbText
 10
186.6560484572489
 20
139.8004583895517
 30
0.0
 40
7.0
  1
Werkstoff: S235 JRH EN10305 feuerverzinkt
 41
0.8
  7
GREEKS
100
AcDbText
  0
TEXT
  5
7D4
330
1E
100
AcDbEntity
  8
TEXT
 62
     1
100
AcDbText
 10
171.3812089149954
 20
391.367855400449
 30
0.0
 40
7.0
  1
DN80
 50
89.99999999999998
 41
0.8
  7
GREEKS
100
AcDbText
  0
ARC
  5
83F
330
1E
100
AcDbEntity
  8
STEMPEL
100
AcDbCircle
 10
237.7986968075331
 20
449.5456801590539
 30
0.0
 40
15.0
100
AcDbArc
 50
151.496489882917
 51
179.9999999999999
  0
ARC
  5
840
330
1E
100
AcDbEntity
  8
STEMPEL
100
AcDbCircle
 10
208.7986968075332
 20
465.2936959070776
 30
0.0
 40
18.0
100
AcDbArc
 50
331.496489882917
 51
0.0
  0
LINE
  5
843
330
1E
100
AcDbEntity
  8
STEMPEL
100
AcDbLine
 10
226.7986968075331
 20
465.2936959070776
 30
0.0
 11
226.7986968075331
 21
519.9085310999432
 31
0.0
  0
ARC
  5
845
330
1E
100
AcDbEntity
  8
STEMPEL
100
AcDbCircle
 10
127.7986968075332
 20
449.5456801590539
 30
0.0
 40
15.0
100
AcDbArc
 50
0.0
 51
28.50351011708293
  0
ARC
  5
846
330
1E
100
AcDbEntity
  8
STEMPEL
100
AcDbCircle
 10
156.7986968075331
 20
465.2936959070776
 30
0.0
 40
18.0
100
AcDbArc
 50
179.9999999999999
 51
208.5035101170829
  0
LINE
  5
848
330
1E
100
AcDbEntity
  8
STEMPEL
100
AcDbLine
 10
138.7986968075331
 20
465.2936959070777
 30
0.0
 11
138.7986968075332
 21
519.9085310999432
 31
0.0
  0
LINE
  5
84A
330
1E
100
AcDbEntity
  8
HILF
100
AcDbLine
 10
145.2447174530453
 20
453.9769738343099
 30
0.0
 11
220.352676162021
 21
453.9769738343099
 31
0.0
  0
LINE
  5
84B
330
1E
100
AcDbEntity
  8
HILF
100
AcDbLine
 10
223.3370473454599
 20
461.6009511776976
 30
0.0
 11
142.2603462696064
 21
461.6009511776976
 31
0.0
  0
LINE
  5
84C
330
1E
100
AcDbEntity
  8
STEMPEL
100
AcDbLine
 10
226.7986968075331
 20
519.9085310999432
 30
0.0
 11
138.7986968075332
 21
519.9085310999432
 31
0.0
  0
DIMENSION
  5
8AD
330
1E
100
AcDbEntity
  8
BEM
100
AcDbDimension
  2
*D3
 10
126.439419851389
 20
459.9085310999432
 30
0.0
 11
119.939419851389
 21
489.9085310999432
 31
0.0
 70
    32
 71
     5
 42
60.0
  3
Standard
100
AcDbAlignedDimension
 13
138.7986968075332
 23
519.9085310999432
 33
0.0
 14
139.6231327702154
 24
459.9085310999432
 34
0.0
 50
90.0
100
AcDbRotatedDimension
1001
ACAD
1000
DSTYLE
1002
{
1070
    40
1040
2.0
1070
    41
1040
3.5
1070
    42
1040
1.0
1070
    43
1040
7.0
1070
    44
1040
1.0
1070
    73
1070
     0
1070
    74
1070
     0
1070
    77
1070
     1
1070
    78
1070
     8
1070
    79
1070
     2
1070
   140
1040
3.5
1070
   141
1040
1.5
1070
   146
1040
0.5
1070
   147
1040
1.5
1070
   172
1070
     1
1070
   178
1070
     1
1070
   179
1070
     2
1070
   271
1070
     2
1070
   272
1070
     2
1070
   284
1070
     8
1070
   285
1070
     8
1070
   286
1070
     8
1002
}
  0
LINE
  5
8C9
330
1E
100
AcDbEntity
  8
STEMPEL
100
AcDbLine
 10
222.798696807533
 20
214.9047821398642
 30
0.0
 11
222.7986968075331
 21
449.5456801590539
 31
0.0
  0
LINE
  5
8CA
330
1E
100
AcDbEntity
  8
STEMPEL
100
AcDbLine
 10
142.7986968075333
 20
214.9047821398642
 30
0.0
 11
142.7986968075332
 21
449.5456801590539
 31
0.0
  0
LINE
  5
9DE
330
1E
100
AcDbEntity
  8
MITTEL
100
AcDbLine
 10
327.7555869507754
 20
459.8616722831064
 30
0.0
 11
182.7986968075331
 21
314.9047821398641
 31
0.0
  0
DIMENSION
  5
A05
330
1E
100
AcDbEntity
  8
BEM
100
AcDbDimension
  2
*D4
 10
230.9439770348454
 20
266.7595019125514
 30
0.0
 11
297.058461075788
 21
342.0663741089186
 31
0.0
 70
    32
 71
     5
 42
200.0000000000003
  3
Standard
100
AcDbAlignedDimension
 13
355.3327514170508
 23
425.2134400049656
 33
0.0
 14
182.7986968075331
 24
314.9047821398642
 34
0.0
 50
44.99999999999972
100
AcDbRotatedDimension
1001
ACAD
1000
DSTYLE
1002
{
1070
    40
1040
2.0
1070
    41
1040
3.5
1070
    42
1040
1.0
1070
    43
1040
7.0
1070
    44
1040
1.0
1070
    73
1070
     0
1070
    74
1070
     0
1070
    77
1070
     1
1070
    78
1070
     8
1070
    79
1070
     2
1070
   140
1040
3.5
1070
   141
1040
1.5
1070
   146
1040
0.5
1070
   147
1040
1.5
1070
   172
1070
     1
1070
   178
1070
     1
1070
   179
1070
     2
1070
   271
1070
     2
1070
   272
1070
     2
1070
   284
1070
     8
1070
   285
1070
     8
1070
   286
1070
     8
1002
}
  0
ARC
  5
AC2
330
1E
100
AcDbEntity
  8
SCHRAFF
100
AcDbCircle
 10
224.7986968075331
 20
383.8184210254265
 30
0.0
 40
5.0
100
AcDbArc
 50
246.4218215217987
 51
293.5781784782022
  0
ARC
  5
AC7
330
1E
100
AcDbEntity
  8
SCHRAFF
100
AcDbCircle
 10
224.7986968075331
 20
378.8184210254266
 30
0.0
 40
5.0
100
AcDbArc
 50
246.4218215217987
 51
293.5781784782022
  0
ARC
  5
AC8
330
1E
100
AcDbEntity
  8
SCHRAFF
100
AcDbCircle
 10
224.7986968075331
 20
373.8184210254266
 30
0.0
 40
5.0
100
AcDbArc
 50
246.4218215217987
 51
293.5781784782022
  0
ARC
  5
AC9
330
1E
100
AcDbEntity
  8
SCHRAFF
100
AcDbCircle
 10
224.7986968075331
 20
368.8184210254265
 30
0.0
 40
5.0
100
AcDbArc
 50
246.4218215217987
 51
293.5781784782022
  0
ARC
  5
ACA
330
1E
100
AcDbEntity
  8
SCHRAFF
100
AcDbCircle
 10
224.7986968075331
 20
363.8184210254266
 30
0.0
 40
5.0
100
AcDbArc
 50
246.4218215217987
 51
293.5781784782022
  0
ARC
  5
ACB
330
1E
100
AcDbEntity
  8
SCHRAFF
100
AcDbCircle
 10
224.7986968075331
 20
358.8184210254266
 30
0.0
 40
5.0
100
AcDbArc
 50
246.4218215217987
 51
293.5781784782022
  0
ARC
  5
ACC
330
1E
100
AcDbEntity
  8
SCHRAFF
100
AcDbCircle
 10
224.7986968075331
 20
353.8184210254266
 30
0.0
 40
5.0
100
AcDbArc
 50
246.4218215217987
 51
293.5781784782022
  0
ARC
  5
ACD
330
1E
100
AcDbEntity
  8
SCHRAFF
100
AcDbCircle
 10
224.7986968075331
 20
348.8184210254265
 30
0.0
 40
5.0
100
AcDbArc
 50
246.4218215217987
 51
293.5781784782022
  0
ARC
  5
ACE
330
1E
100
AcDbEntity
  8
SCHRAFF
100
AcDbCircle
 10
224.7986968075331
 20
343.8184210254266
 30
0.0
 40
5.0
100
AcDbArc
 50
246.4218215217987
 51
293.5781784782022
  0
ARC
  5
ACF
330
1E
100
AcDbEntity
  8
SCHRAFF
100
AcDbCircle
 10
224.7986968075331
 20
338.8184210254266
 30
0.0
 40
5.0
100
AcDbArc
 50
246.4218215217987
 51
293.5781784782022
  0
ARC
  5
AD0
330
1E
100
AcDbEntity
  8
SCHRAFF
100
AcDbCircle
 10
224.7986968075331
 20
333.8184210254265
 30
0.0
 40
5.0
100
AcDbArc
 50
246.4218215217987
 51
293.5781784782022
  0
ARC
  5
AD1
330
1E
100
AcDbEntity
  8
SCHRAFF
100
AcDbCircle
 10
224.7986968075331
 20
328.8184210254266
 30
0.0
 40
5.0
100
AcDbArc
 50
246.4218215217987
 51
293.5781784782022
  0
ARC
  5
AD2
330
1E
100
AcDbEntity
  8
SCHRAFF
100
AcDbCircle
 10
224.7986968075331
 20
323.8184210254266
 30
0.0
 40
5.0
100
AcDbArc
 50
246.4218215217987
 51
293.5781784782022
  0
ARC
  5
AD3
330
1E
100
AcDbEntity
  8
SCHRAFF
100
AcDbCircle
 10
224.7986968075331
 20
318.8184210254266
 30
0.0
 40
5.0
100
AcDbArc
 50
246.4218215217987
 51
293.5781784782022
  0
ARC
  5
AD4
330
1E
100
AcDbEntity
  8
SCHRAFF
100
AcDbCircle
 10
224.7986968075331
 20
313.8184210254265
 30
0.0
 40
5.0
100
AcDbArc
 50
246.4218215217987
 51
293.5781784782022
  0
ARC
  5
AD5
330
1E
100
AcDbEntity
  8
SCHRAFF
100
AcDbCircle
 10
224.7986968075331
 20
308.8184210254266
 30
0.0
 40
5.0
100
AcDbArc
 50
246.4218215217987
 51
293.5781784782022
  0
DIMENSION
  5
B8E
330
1E
100
AcDbEntity
  8
SCHRAFF
100
AcDbDimension
  2
*D5
 10
126.4394198513889
 20
314.9047821398641
 30
0.0
 11
119.9394198513889
 21
264.9047821398642
 31
0.0
 70
    32
 71
     5
 42
99.99999999999992
  3
Standard
100
AcDbAlignedDimension
 13
142.7986968075333
 23
214.9047821398642
 33
0.0
 14
182.7986968075331
 24
314.9047821398641
 34
0.0
 50
90.0
100
AcDbRotatedDimension
1001
ACAD
1000
DSTYLE
1002
{
1070
    40
1040
2.0
1070
    41
1040
3.5
1070
    42
1040
1.0
1070
    43
1040
7.0
1070
    44
1040
1.0
1070
    73
1070
     0
1070
    74
1070
     0
1070
    77
1070
     1
1070
    78
1070
     8
1070
    79
1070
     2
1070
   140
1040
3.5
1070
   141
1040
1.5
1070
   146
1040
0.5
1070
   147
1040
1.5
1070
   172
1070
     1
1070
   178
1070
     1
1070
   179
1070
     2
1070
   271
1070
     2
1070
   272
1070
     2
1070
   284
1070
     8
1070
   285
1070
     8
1070
   286
1070
     8
1002
}
  0
TEXT
  5
C61
330
1E
100
AcDbEntity
  8
TEXT
 62
     1
100
AcDbText
 10
290.9475346690414
 20
433.5159362103841
 30
0.0
 40
7.0
  1
DN80
 50
45.0
 41
0.8
  7
GREEKS
100
AcDbText
  0
ARC
  5
D32
330
1E
100
AcDbEntity
  8
SCHRAFF
100
AcDbCircle
 10
224.7986968075331
 20
388.8184210254265
 30
0.0
 40
5.0
100
AcDbArc
 50
246.4218215217987
 51
293.5781784782022
  0
ARC
  5
D33
330
1E
100
AcDbEntity
  8
SCHRAFF
100
AcDbCircle
 10
224.7986968075331
 20
393.8184210254265
 30
0.0
 40
5.0
100
AcDbArc
 50
246.4218215217987
 51
293.5781784782022
  0
ARC
  5
D34
330
1E
100
AcDbEntity
  8
SCHRAFF
100
AcDbCircle
 10
224.7986968075331
 20
398.8184210254265
 30
0.0
 40
5.0
100
AcDbArc
 50
246.4218215217987
 51
293.5781784782022
  0
ARC
  5
D35
330
1E
100
AcDbEntity
  8
SCHRAFF
100
AcDbCircle
 10
224.7986968075331
 20
403.8184210254264
 30
0.0
 40
5.0
100
AcDbArc
 50
246.4218215217987
 51
293.5781784782022
  0
ARC
  5
D36
330
1E
100
AcDbEntity
  8
SCHRAFF
100
AcDbCircle
 10
224.7986968075331
 20
408.8184210254265
 30
0.0
 40
5.0
100
AcDbArc
 50
246.4218215217987
 51
293.5781784782022
  0
ARC
  5
D37
330
1E
100
AcDbEntity
  8
SCHRAFF
100
AcDbCircle
 10
224.7986968075331
 20
413.8184210254264
 30
0.0
 40
5.0
100
AcDbArc
 50
246.4218215217987
 51
293.5781784782022
  0
ARC
  5
D3A
330
1E
100
AcDbEntity
  8
SCHRAFF
100
AcDbCircle
 10
222.7986968075331
 20
411.473324634788
 30
0.0
 40
5.65685424949232
100
AcDbArc
 50
45.0
 51
90.00000000000028
  0
HATCH
  5
D44
330
1E
100
AcDbEntity
  8
SCHRAFF
100
AcDbHatch
 10
0.0
 20
0.0
 30
0.0
210
0.0
220
0.0
230
1.0
  2
_USER
 70
     0
 71
     0
 91
        1
 92
        7
 72
     1
 73
     1
 93
        3
 10
226.7986968075331
 20
415.4733246347879
 42
0.1989123673796579
 10
222.7986968075331
 20
417.1301788842803
 42
0.0
 10
222.7986968075331
 20
411.4733246347879
 42
0.0
 97
        0
 75
     0
 76
     0
 52
0.0
 41
0.1
 77
     0
 78
     1
 53
0.0
 43
0.0
 44
3.636038969321191
 45
0.0
 46
0.1
 79
     0
 47
0.1908225040255362
 98
        1
 10
223.5485855415845
 20
414.3776174566806
  0
ARC
  5
D46
330
1E
100
AcDbEntity
  8
SCHRAFF
100
AcDbCircle
 10
214.1631959853884
 20
301.9131812033569
 30
0.0
 40
12.64258120288
100
AcDbArc
 50
313.0823544767574
 51
1.917645523242468
  0
HATCH
  5
D54
330
1E
100
AcDbEntity
  8
SCHRAFF
100
AcDbHatch
 10
0.0
 20
0.0
 30
0.0
210
0.0
220
0.0
230
1.0
  2
_USER
 70
     0
 71
     0
 91
        1
 92
        7
 72
     1
 73
     1
 93
        3
 10
226.7986968075331
 20
302.3362396449406
 42
0.0
 10
222.7986968075331
 20
298.3362396449405
 42
0.0
 10
222.7986968075331
 20
292.6793853954482
 42
0.2163688427549732
 97
        0
 75
     0
 76
     0
 52
0.0
 41
0.1
 77
     0
 78
     1
 53
0.0
 43
0.0000000000000568
 44
16.36396103067943
 45
0.0
 46
0.1
 79
     0
 47
0.3481815757545499
 98
        1
 10
225.0516037060907
 20
298.1077568755394
  0
LINE
  5
DAE
330
1E
100
AcDbEntity
  8
STEMPEL
100
AcDbLine
 10
355.3327514170508
 20
425.2134400049656
 30
0.0
 11
293.1073546726346
 21
487.4388367493818
 31
0.0
  0
LINE
  5
DAF
330
1E
100
AcDbEntity
  8
HILF
100
AcDbLine
 10
311.6553104507316
 20
386.431510656092
 30
0.0
 11
254.3254253237609
 21
443.7613957830627
 31
0.0
  0
LINE
  5
DB0
330
1E
100
AcDbEntity
  8
HILF
100
AcDbLine
 10
251.0447283460262
 20
436.2601606025531
 30
0.0
 11
304.1540752702222
 21
383.1508136783573
 31
0.0
  0
LINE
  5
DB2
330
1E
100
AcDbEntity
  8
STEMPEL
100
AcDbLine
 10
254.4888343543738
 20
448.8203164311209
 30
0.0
 11
293.1073546726346
 21
487.4388367493818
 31
0.0
  0
ARC
  5
DB4
330
1E
100
AcDbEntity
  8
STEMPEL
100
AcDbCircle
 10
267.2167564157315
 20
436.092394369763
 30
0.0
 40
18.0
100
AcDbArc
 50
134.9999999999999
 51
163.5035101170829
  0
ARC
  5
DB5
330
1E
100
AcDbEntity
  8
STEMPEL
100
AcDbCircle
 10
235.5751310356616
 20
445.4629622985128
 30
0.0
 40
15.0
100
AcDbArc
 50
315.0
 51
343.5035101170829
  0
LINE
  5
DB7
330
1E
100
AcDbEntity
  8
STEMPEL
100
AcDbLine
 10
316.7142310987898
 20
386.5949196867047
 30
0.0
 11
355.3327514170508
 21
425.2134400049656
 31
0.0
  0
ARC
  5
DBA
330
1E
100
AcDbEntity
  8
STEMPEL
100
AcDbCircle
 10
303.9863090374319
 20
399.3228417480626
 30
0.0
 40
18.0
100
AcDbArc
 50
286.4964898829171
 51
315.0
  0
ARC
  5
DBB
330
1E
100
AcDbEntity
  8
STEMPEL
100
AcDbCircle
 10
313.3568769661817
 20
367.6812163679926
 30
0.0
 40
15.0
100
AcDbArc
 50
106.496489882917
 51
134.9999999999999
  0
LINE
  5
DBF
330
1E
100
AcDbEntity
  8
STEMPEL
100
AcDbLine
 10
222.7986968075331
 20
298.3362396449405
 30
0.0
 11
302.7502752483834
 21
378.2878180857907
 31
0.0
  0
LINE
  5
DC0
330
1E
100
AcDbEntity
  8
STEMPEL
100
AcDbLine
 10
222.7986968075331
 20
411.473324634788
 30
0.0
 11
246.1817327534597
 21
434.8563605807145
 31
0.0
  0
DIMENSION
  5
E5E
330
1E
100
AcDbEntity
  8
BEM
100
AcDbDimension
  2
*D6
 10
182.798696807533
 20
209.9047821398642
 30
0.0
 11
272.3800711287867
 21
531.1733509622553
 31
0.0
 70
    34
 71
     5
 42
0.7853981633974483
  3
Standard
100
AcDb2LineAngularDimension
 13
327.7555869507754
 23
459.8616722831064
 33
0.0
 14
182.7986968075331
 24
314.9047821398641
 34
0.0
 15
182.7986968075332
 25
524.9085310999432
 35
0.0
 16
296.5924028384108
 26
512.0012625669011
 36
0.0
1001
ACAD
1000
DSTYLE
1002
{
1070
    40
1040
2.0
1070
    41
1040
3.5
1070
    42
1040
1.0
1070
    43
1040
7.0
1070
    44
1040
1.0
1070
    73
1070
     0
1070
    74
1070
     0
1070
    77
1070
     1
1070
    78
1070
     8
1070
    79
1070
     2
1070
   140
1040
3.5
1070
   141
1040
1.5
1070
   146
1040
0.5
1070
   147
1040
1.5
1070
   172
1070
     1
1070
   178
1070
     1
1070
   179
1070
     2
1070
   271
1070
     2
1070
   272
1070
     2
1070
   284
1070
     8
1070
   285
1070
     8
1070
   286
1070
     8
1002
}
  0
ENDSEC
  0
SECTION
  2
OBJECTS
  0
DICTIONARY
  5
C
330
0
100
AcDbDictionary
281
     1
  3
ACAD_COLOR
350
DF
  3
ACAD_GROUP
350
D
  3
ACAD_LAYOUT
350
19
  3
ACAD_MATERIAL
350
DE
  3
ACAD_MLINESTYLE
350
16
  3
ACAD_PLOTSETTINGS
350
18
  3
ACAD_PLOTSTYLENAME
350
E
  3
AcDbVariableDictionary
350
EA
  0
DICTIONARY
  5
A0
330
1E
100
AcDbDictionary
280
     1
281
     1
  3
ACAD_LAYOUTSELFREF
360
D4
  0
DICTIONARY
  5
A2
330
1A
100
AcDbDictionary
280
     1
281
     1
  3
ACAD_LAYOUTSELFREF
360
D3
  0
DICTIONARY
  5
DF
102
{ACAD_REACTORS
330
C
102
}
330
C
100
AcDbDictionary
281
     1
  0
DICTIONARY
  5
D
102
{ACAD_REACTORS
330
C
102
}
330
C
100
AcDbDictionary
281
     1
  0
DICTIONARY
  5
19
102
{ACAD_REACTORS
330
C
102
}
330
C
100
AcDbDictionary
281
     1
  3
Layout1
350
1D
  3
Model
350
21
  0
DICTIONARY
  5
DE
102
{ACAD_REACTORS
330
C
102
}
330
C
100
AcDbDictionary
281
     1
  0
DICTIONARY
  5
16
102
{ACAD_REACTORS
330
C
102
}
330
C
100
AcDbDictionary
281
     1
  3
Standard
350
17
  0
DICTIONARY
  5
18
102
{ACAD_REACTORS
330
C
102
}
330
C
100
AcDbDictionary
281
     1
  0
ACDBDICTIONARYWDFLT
  5
E
102
{ACAD_REACTORS
330
C
102
}
330
C
100
AcDbDictionary
281
     1
  3
Normal
350
F
100
AcDbDictionaryWithDefault
340
F
  0
DICTIONARY
  5
EA
102
{ACAD_REACTORS
330
C
102
}
330
C
100
AcDbDictionary
281
     1
  3
DIMASSOC
350
EB
  3
PROJECTNAME
350
EC
  0
XRECORD
  5
D4
102
{ACAD_REACTORS
330
A0
102
}
330
A0
100
AcDbXrecord
280
     1
340
1E
  0
XRECORD
  5
D3
102
{ACAD_REACTORS
330
A2
102
}
330
A2
100
AcDbXrecord
280
     1
340
1A
  0
LAYOUT
  5
1D
102
{ACAD_REACTORS
330
19
102
}
330
19
100
AcDbPlotSettings
  1

  2
\\NT_WORK01\HP LaserJet 5000 PCL 6
  4

  6

 40
0.0
 41
0.0
 42
0.0
 43
0.0
 44
0.0
 45
0.0
 46
0.0
 47
0.0
 48
0.0
 49
0.0
140
0.0
141
0.0
142
1.0
143
1.0
 70
   688
 72
     0
 73
     0
 74
     5
  7

 75
    16
147
1.0
 76
     0
 77
     2
 78
   300
148
0.0
149
0.0
100
AcDbLayout
  1
Layout1
 70
     0
 71
     1
 10
0.0
 20
0.0
 11
12.0
 21
9.0
 12
0.0
 22
0.0
 32
0.0
 14
1.000000000000000E+20
 24
1.000000000000000E+20
 34
1.000000000000000E+20
 15
-1.000000000000000E+20
 25
-1.000000000000000E+20
 35
-1.000000000000000E+20
146
0.0
 13
0.0
 23
0.0
 33
0.0
 16
1.0
 26
0.0
 36
0.0
 17
0.0
 27
1.0
 37
0.0
 76
     0
330
1A
  0
LAYOUT
  5
21
102
{ACAD_REACTORS
330
19
102
}
330
19
100
AcDbPlotSettings
  1

  2
none_device
  4
Letter_(8.50_x_11.00_Inches)
  6

 40
6.349999904632568
 41
6.349999904632568
 42
6.350006103515625
 43
6.350006103515625
 44
215.8999938964844
 45
279.3999938964844
 46
0.0
 47
0.0
 48
0.0
 49
0.0
140
0.0
141
0.0
142
1.0
143
1.0
 70
 11952
 72
     0
 73
     1
 74
     0
  7

 75
     0
147
1.0
 76
     0
 77
     2
 78
   300
148
2271.705623028196
149
62.07408360217847
100
AcDbLayout
  1
Model
 70
     1
 71
     0
 10
0.0
 20
0.0
 11
12.0
 21
9.0
 12
0.0
 22
0.0
 32
0.0
 14
0.0
 24
0.0
 34
0.0
 15
0.0
 25
0.0
 35
0.0
146
0.0
 13
0.0
 23
0.0
 33
0.0
 16
1.0
 26
0.0
 36
0.0
 17
0.0
 27
1.0
 37
0.0
 76
     0
330
1E
  0
MLINESTYLE
  5
17
102
{ACAD_REACTORS
330
16
102
}
330
16
100
AcDbMlineStyle
  2
STANDARD
 70
     0
  3

 62
   256
 51
90.0
 52
90.0
 71
     2
 49
0.5
 62
   256
  6
BYLAYER
 49
-0.5
 62
   256
  6
BYLAYER
  0
ACDBPLACEHOLDER
  5
F
102
{ACAD_REACTORS
330
E
102
}
330
E
  0
DICTIONARYVAR
  5
EB
102
{ACAD_REACTORS
330
EA
102
}
330
EA
100
DictionaryVariables
280
     0
  1
1
  0
DICTIONARYVAR
  5
EC
102
{ACAD_REACTORS
330
EA
102
}
330
EA
100
DictionaryVariables
280
     0
  1

  0
ENDSEC
  0
EOF
