  0
SECTION
  2
HEADER
  9
$ACADVER
  1
AC1018
  9
$ACADMAINTVER
 70
     2
  9
$DWGCODEPAGE
  3
ANSI_1252
  9
$INSBASE
 10
0.0
 20
0.0
 30
0.0
  9
$EXTMIN
 10
-0.0320194963560425
 20
-0.0452847162757735
 30
-0.0000000000000053
  9
$EXTMAX
 10
420.0000107579995
 20
594.0000152148841
 30
0.0000000000000099
  9
$LIMMIN
 10
0.0
 20
0.0
  9
$LIMMAX
 10
419.9999999999999
 20
594.0
  9
$ORTHOMODE
 70
     1
  9
$REGENMODE
 70
     1
  9
$FILLMODE
 70
     1
  9
$QTEXTMODE
 70
     0
  9
$MIRRTEXT
 70
     1
  9
$LTSCALE
 40
20.0
  9
$ATTMODE
 70
     1
  9
$TEXTSIZE
 40
3.5
  9
$TRACEWID
 40
0.5
  9
$TEXTSTYLE
  7
STANDARD
  9
$CLAYER
  8
SCHRAFF
  9
$CELTYPE
  6
ByLayer
  9
$CECOLOR
 62
   256
  9
$CELTSCALE
 40
1.0
  9
$DISPSILH
 70
     0
  9
$DIMSCALE
 40
2.0
  9
$DIMASZ
 40
3.5
  9
$DIMEXO
 40
1.0
  9
$DIMDLI
 40
7.0
  9
$DIMRND
 40
0.0
  9
$DIMDLE
 40
0.0
  9
$DIMEXE
 40
1.0
  9
$DIMTP
 40
0.0
  9
$DIMTM
 40
0.0
  9
$DIMTXT
 40
3.5
  9
$DIMCEN
 40
1.5
  9
$DIMTSZ
 40
0.0
  9
$DIMTOL
 70
     0
  9
$DIMLIM
 70
     0
  9
$DIMTIH
 70
     0
  9
$DIMTOH
 70
     0
  9
$DIMSE1
 70
     0
  9
$DIMSE2
 70
     0
  9
$DIMTAD
 70
     1
  9
$DIMZIN
 70
     8
  9
$DIMBLK
  1

  9
$DIMASO
 70
     1
  9
$DIMSHO
 70
     0
  9
$DIMPOST
  1

  9
$DIMAPOST
  1

  9
$DIMALT
 70
     0
  9
$DIMALTD
 70
     2
  9
$DIMALTF
 40
25.4
  9
$DIMLFAC
 40
1.0
  9
$DIMTOFL
 70
     1
  9
$DIMTVP
 40
0.0
  9
$DIMTIX
 70
     0
  9
$DIMSOXD
 70
     0
  9
$DIMSAH
 70
     0
  9
$DIMBLK1
  1

  9
$DIMBLK2
  1

  9
$DIMSTYLE
  2
Standard
  9
$DIMCLRD
 70
     0
  9
$DIMCLRE
 70
     0
  9
$DIMCLRT
 70
     1
  9
$DIMTFAC
 40
0.5
  9
$DIMGAP
 40
1.5
  9
$DIMJUST
 70
     0
  9
$DIMSD1
 70
     0
  9
$DIMSD2
 70
     0
  9
$DIMTOLJ
 70
     1
  9
$DIMTZIN
 70
     8
  9
$DIMALTZ
 70
     8
  9
$DIMALTTZ
 70
     8
  9
$DIMUPT
 70
     0
  9
$DIMDEC
 70
     2
  9
$DIMTDEC
 70
     2
  9
$DIMALTU
 70
     2
  9
$DIMALTTD
 70
     2
  9
$DIMTXSTY
  7
STANDARD
  9
$DIMAUNIT
 70
     0
  9
$DIMADEC
 70
     2
  9
$DIMALTRND
 40
0.0
  9
$DIMAZIN
 70
     2
  9
$DIMDSEP
 70
    46
  9
$DIMATFIT
 70
     3
  9
$DIMFRAC
 70
     0
  9
$DIMLDRBLK
  1

  9
$DIMLUNIT
 70
     2
  9
$DIMLWD
 70
    -2
  9
$DIMLWE
 70
    -2
  9
$DIMTMOVE
 70
     0
  9
$LUNITS
 70
     2
  9
$LUPREC
 70
     2
  9
$SKETCHINC
 40
1.0
  9
$FILLETRAD
 40
0.0
  9
$AUNITS
 70
     0
  9
$AUPREC
 70
     0
  9
$MENU
  1
ACAD
  9
$ELEVATION
 40
0.0
  9
$PELEVATION
 40
0.0
  9
$THICKNESS
 40
0.0
  9
$LIMCHECK
 70
     0
  9
$CHAMFERA
 40
0.0
  9
$CHAMFERB
 40
0.0
  9
$CHAMFERC
 40
0.0
  9
$CHAMFERD
 40
0.0
  9
$SKPOLY
 70
     0
  9
$TDCREATE
 40
2455397.823042361
  9
$TDUCREATE
 40
2455397.781375695
  9
$TDUPDATE
 40
2455531.578745833
  9
$TDUUPDATE
 40
2455531.537079167
  9
$TDINDWG
 40
0.1874756366
  9
$TDUSRTIMER
 40
0.1874756366
  9
$USRTIMER
 70
     1
  9
$ANGBASE
 50
0.0
  9
$ANGDIR
 70
     0
  9
$PDMODE
 70
     0
  9
$PDSIZE
 40
0.0
  9
$PLINEWID
 40
0.0
  9
$SPLFRAME
 70
     0
  9
$SPLINETYPE
 70
     6
  9
$SPLINESEGS
 70
     8
  9
$HANDSEED
  5
11EF
  9
$SURFTAB1
 70
     6
  9
$SURFTAB2
 70
     6
  9
$SURFTYPE
 70
     6
  9
$SURFU
 70
     6
  9
$SURFV
 70
     6
  9
$UCSBASE
  2

  9
$UCSNAME
  2

  9
$UCSORG
 10
0.0
 20
0.0
 30
0.0
  9
$UCSXDIR
 10
1.0
 20
0.0
 30
0.0
  9
$UCSYDIR
 10
0.0
 20
1.0
 30
0.0
  9
$UCSORTHOREF
  2

  9
$UCSORTHOVIEW
 70
     0
  9
$UCSORGTOP
 10
0.0
 20
0.0
 30
0.0
  9
$UCSORGBOTTOM
 10
0.0
 20
0.0
 30
0.0
  9
$UCSORGLEFT
 10
0.0
 20
0.0
 30
0.0
  9
$UCSORGRIGHT
 10
0.0
 20
0.0
 30
0.0
  9
$UCSORGFRONT
 10
0.0
 20
0.0
 30
0.0
  9
$UCSORGBACK
 10
0.0
 20
0.0
 30
0.0
  9
$PUCSBASE
  2

  9
$PUCSNAME
  2

  9
$PUCSORG
 10
0.0
 20
0.0
 30
0.0
  9
$PUCSXDIR
 10
1.0
 20
0.0
 30
0.0
  9
$PUCSYDIR
 10
0.0
 20
1.0
 30
0.0
  9
$PUCSORTHOREF
  2

  9
$PUCSORTHOVIEW
 70
     0
  9
$PUCSORGTOP
 10
0.0
 20
0.0
 30
0.0
  9
$PUCSORGBOTTOM
 10
0.0
 20
0.0
 30
0.0
  9
$PUCSORGLEFT
 10
0.0
 20
0.0
 30
0.0
  9
$PUCSORGRIGHT
 10
0.0
 20
0.0
 30
0.0
  9
$PUCSORGFRONT
 10
0.0
 20
0.0
 30
0.0
  9
$PUCSORGBACK
 10
0.0
 20
0.0
 30
0.0
  9
$USERI1
 70
     0
  9
$USERI2
 70
     0
  9
$USERI3
 70
     0
  9
$USERI4
 70
     0
  9
$USERI5
 70
     0
  9
$USERR1
 40
0.0
  9
$USERR2
 40
0.0
  9
$USERR3
 40
0.0
  9
$USERR4
 40
0.0
  9
$USERR5
 40
0.0
  9
$WORLDVIEW
 70
     1
  9
$SHADEDGE
 70
     3
  9
$SHADEDIF
 70
    70
  9
$TILEMODE
 70
     1
  9
$MAXACTVP
 70
    16
  9
$PINSBASE
 10
0.0
 20
0.0
 30
0.0
  9
$PLIMCHECK
 70
     0
  9
$PEXTMIN
 10
1.000000000000000E+20
 20
1.000000000000000E+20
 30
1.000000000000000E+20
  9
$PEXTMAX
 10
-1.000000000000000E+20
 20
-1.000000000000000E+20
 30
-1.000000000000000E+20
  9
$PLIMMIN
 10
0.0
 20
0.0
  9
$PLIMMAX
 10
12.0
 20
9.0
  9
$UNITMODE
 70
     0
  9
$VISRETAIN
 70
     0
  9
$PLINEGEN
 70
     0
  9
$PSLTSCALE
 70
     0
  9
$TREEDEPTH
 70
  3020
  9
$CMLSTYLE
  2
Standard
  9
$CMLJUST
 70
     0
  9
$CMLSCALE
 40
1.0
  9
$PROXYGRAPHICS
 70
     1
  9
$MEASUREMENT
 70
     0
  9
$CELWEIGHT
370
    -1
  9
$ENDCAPS
280
     0
  9
$JOINSTYLE
280
     0
  9
$LWDISPLAY
290
     0
  9
$INSUNITS
 70
     0
  9
$HYPERLINKBASE
  1

  9
$STYLESHEET
  1
monochrome 1.ctb
  9
$XEDIT
290
     1
  9
$CEPSNTYPE
380
     0
  9
$PSTYLEMODE
290
     1
  9
$FINGERPRINTGUID
  2
{D68B0D02-A558-11D7-B632-000102183313}
  9
$VERSIONGUID
  2
{6E142237-15EB-49C7-886C-D91D1C2AABE7}
  9
$EXTNAMES
290
     1
  9
$PSVPSCALE
 40
0.0
  9
$OLESTARTUP
290
     0
  9
$SORTENTS
280
   127
  9
$INDEXCTL
280
     0
  9
$HIDETEXT
280
     0
  9
$XCLIPFRAME
290
     0
  9
$HALOGAP
280
     0
  9
$OBSCOLOR
 70
   257
  9
$OBSLTYPE
280
     0
  9
$INTERSECTIONDISPLAY
280
     0
  9
$INTERSECTIONCOLOR
 70
   257
  9
$DIMASSOC
280
     1
  9
$PROJECTNAME
  1

  0
ENDSEC
  0
SECTION
  2
CLASSES
  0
CLASS
  1
ACDBDICTIONARYWDFLT
  2
AcDbDictionaryWithDefault
  3
ObjectDBX Classes
 90
        0
 91
        1
280
     0
281
     0
  0
CLASS
  1
DICTIONARYVAR
  2
AcDbDictionaryVar
  3
ObjectDBX Classes
 90
        0
 91
        2
280
     0
281
     0
  0
ENDSEC
  0
SECTION
  2
TABLES
  0
TABLE
  2
VPORT
  5
8
330
0
100
AcDbSymbolTable
 70
     2
  0
VPORT
  5
11EE
330
8
100
AcDbSymbolTableRecord
100
AcDbViewportTableRecord
  2
*Active
 70
     0
 10
0.0
 20
0.0
 11
1.0
 21
1.0
 12
209.9839956308218
 22
296.9773652493042
 13
0.0
 23
0.0
 14
1.0
 24
1.0
 15
10.0
 25
10.0
 16
0.0
 26
0.0
 36
1.0
 17
0.0
 27
0.0
 37
0.0
 40
598.842435596822
 41
1.336927223719676
 42
50.0
 43
0.0
 44
0.0
 50
0.0
 51
0.0
 71
     0
 72
  1500
 73
     1
 74
     0
 75
     0
 76
     0
 77
     0
 78
     0
281
     0
 65
     1
110
0.0
120
0.0
130
0.0
111
1.0
121
0.0
131
0.0
112
0.0
122
1.0
132
0.0
 79
     0
146
0.0
  0
ENDTAB
  0
TABLE
  2
LTYPE
  5
5
330
0
100
AcDbSymbolTable
 70
     2
  0
LTYPE
  5
13
330
5
100
AcDbSymbolTableRecord
100
AcDbLinetypeTableRecord
  2
ByBlock
 70
     0
  3

 72
    65
 73
     0
 40
0.0
  0
LTYPE
  5
14
330
5
100
AcDbSymbolTableRecord
100
AcDbLinetypeTableRecord
  2
ByLayer
 70
     0
  3

 72
    65
 73
     0
 40
0.0
  0
LTYPE
  5
15
330
5
100
AcDbSymbolTableRecord
100
AcDbLinetypeTableRecord
  2
Continuous
 70
     0
  3
Solid line
 72
    65
 73
     0
 40
0.0
  0
LTYPE
  5
25
330
5
100
AcDbSymbolTableRecord
100
AcDbLinetypeTableRecord
  2
STRICHPUNKT
 70
     0
  3
__ . __ . __ . __ . __ . __ . __ . __ . __ . __
 72
    65
 73
     4
 40
1.0
 49
0.5
 74
     0
 49
-0.25
 74
     0
 49
0.0
 74
     0
 49
-0.25
 74
     0
  0
ENDTAB
  0
TABLE
  2
LAYER
  5
2
330
0
100
AcDbSymbolTable
 70
     9
  0
LAYER
  5
10
330
2
100
AcDbSymbolTableRecord
100
AcDbLayerTableRecord
  2
0
 70
     0
 62
     7
  6
Continuous
370
    -3
390
F
  0
LAYER
  5
2A
330
2
100
AcDbSymbolTableRecord
100
AcDbLayerTableRecord
  2
VOLL
 70
     0
 62
     1
  6
Continuous
370
    -3
390
F
  0
LAYER
  5
2B
330
2
100
AcDbSymbolTableRecord
100
AcDbLayerTableRecord
  2
HILF
 70
     0
 62
     2
  6
Continuous
370
    -3
390
F
  0
LAYER
  5
2C
330
2
100
AcDbSymbolTableRecord
100
AcDbLayerTableRecord
  2
MITTEL
 70
     0
 62
     2
  6
STRICHPUNKT
370
    -3
390
F
  0
LAYER
  5
2F
330
2
100
AcDbSymbolTableRecord
100
AcDbLayerTableRecord
  2
BEM
 70
     0
 62
     7
  6
Continuous
370
    -3
390
F
  0
LAYER
  5
30
330
2
100
AcDbSymbolTableRecord
100
AcDbLayerTableRecord
  2
STEMPEL
 70
     0
 62
     3
  6
Continuous
370
    -3
390
F
  0
LAYER
  5
31
330
2
100
AcDbSymbolTableRecord
100
AcDbLayerTableRecord
  2
TEXT
 70
     0
 62
     7
  6
Continuous
370
    -3
390
F
  0
LAYER
  5
390
330
2
100
AcDbSymbolTableRecord
100
AcDbLayerTableRecord
  2
DEFPOINTS
 70
     0
 62
     7
  6
Continuous
290
     0
370
    -3
390
F
  0
LAYER
  5
391
330
2
100
AcDbSymbolTableRecord
100
AcDbLayerTableRecord
  2
SCHRAFF
 70
     0
 62
     7
  6
Continuous
370
    -3
390
F
  0
ENDTAB
  0
TABLE
  2
STYLE
  5
3
330
0
100
AcDbSymbolTable
 70
     2
  0
STYLE
  5
11
330
3
100
AcDbSymbolTableRecord
100
AcDbTextStyleTableRecord
  2
STANDARD
 70
     0
 40
0.0
 41
0.8
 50
0.0
 71
     0
 42
3.5
  3
simplex.shx
  4

  0
STYLE
  5
24
330
3
100
AcDbSymbolTableRecord
100
AcDbTextStyleTableRecord
  2
GREEKS
 70
     0
 40
0.0
 41
0.8
 50
0.0
 71
     0
 42
2.5
  3
SIMPLEX.shx
  4

  0
ENDTAB
  0
TABLE
  2
VIEW
  5
6
330
0
100
AcDbSymbolTable
 70
     0
  0
ENDTAB
  0
TABLE
  2
UCS
  5
7
330
0
100
AcDbSymbolTable
 70
     0
  0
ENDTAB
  0
TABLE
  2
APPID
  5
9
330
0
100
AcDbSymbolTable
 70
     1
  0
APPID
  5
12
330
9
100
AcDbSymbolTableRecord
100
AcDbRegAppTableRecord
  2
ACAD
 70
     0
  0
ENDTAB
  0
TABLE
  2
DIMSTYLE
  5
A
330
0
100
AcDbSymbolTable
 70
     1
100
AcDbDimStyleTable
 71
     1
340
9D
  0
DIMSTYLE
105
9D
102
{ACAD_REACTORS
330
EE7
330
F4D
330
F84
330
1036
330
1037
102
}
330
A
100
AcDbSymbolTableRecord
100
AcDbDimStyleTableRecord
  2
Standard
 70
     0
340
11
  0
ENDTAB
  0
TABLE
  2
BLOCK_RECORD
  5
1
330
0
100
AcDbSymbolTable
 70
     6
  0
BLOCK_RECORD
  5
1E
102
{ACAD_XDICTIONARY
360
A0
102
}
330
1
100
AcDbSymbolTableRecord
100
AcDbBlockTableRecord
  2
*Model_Space
340
21
  0
BLOCK_RECORD
  5
1A
102
{ACAD_XDICTIONARY
360
A2
102
}
330
1
100
AcDbSymbolTableRecord
100
AcDbBlockTableRecord
  2
*Paper_Space
340
1D
  0
BLOCK_RECORD
  5
22
330
1
100
AcDbSymbolTableRecord
100
AcDbBlockTableRecord
  2
LOGO
340
0
102
{BLKREFS
331
9B
102
}
  0
BLOCK_RECORD
  5
EEA
330
1
100
AcDbSymbolTableRecord
100
AcDbBlockTableRecord
  2
*D1
340
0
  0
BLOCK_RECORD
  5
F4E
330
1
100
AcDbSymbolTableRecord
100
AcDbBlockTableRecord
  2
*D2
340
0
  0
BLOCK_RECORD
  5
F85
330
1
100
AcDbSymbolTableRecord
100
AcDbBlockTableRecord
  2
*D3
340
0
  0
BLOCK_RECORD
  5
1038
330
1
100
AcDbSymbolTableRecord
100
AcDbBlockTableRecord
  2
*D4
340
0
  0
BLOCK_RECORD
  5
1044
330
1
100
AcDbSymbolTableRecord
100
AcDbBlockTableRecord
  2
*D5
340
0
  0
ENDTAB
  0
ENDSEC
  0
SECTION
  2
BLOCKS
  0
BLOCK
  5
35
330
1E
100
AcDbEntity
  8
0
100
AcDbBlockBegin
  2
*Model_Space
 70
     0
 10
0.0
 20
0.0
 30
0.0
  3
*Model_Space
  1

  0
ENDBLK
  5
36
330
1E
100
AcDbEntity
  8
0
100
AcDbBlockEnd
  0
BLOCK
  5
33
330
1A
100
AcDbEntity
 67
     1
  8
0
100
AcDbBlockBegin
  2
*Paper_Space
 70
     0
 10
0.0
 20
0.0
 30
0.0
  3
*Paper_Space
  1

  0
ENDBLK
  5
34
330
1A
100
AcDbEntity
 67
     1
  8
0
100
AcDbBlockEnd
  0
BLOCK
  5
37
330
22
100
AcDbEntity
  8
0
100
AcDbBlockBegin
  2
LOGO
 70
     0
 10
0.0
 20
0.0
 30
0.0
  3
LOGO
  1

  0
ARC
  5
38
330
22
100
AcDbEntity
  8
0
100
AcDbCircle
 10
11.59973089678112
 20
-9.271599258481501
 30
0.0
 40
4.5
100
AcDbArc
 50
270.0
 51
231.0575587310159
  0
LINE
  5
39
330
22
100
AcDbEntity
  8
0
100
AcDbLine
 10
3.599730896781125
 20
-4.771599258481529
 30
0.0
 11
3.599730896781153
 21
-11.77159925848133
 31
0.0
  0
LINE
  5
3A
330
22
100
AcDbEntity
  8
0
100
AcDbLine
 10
2.599730896781125
 20
-4.771599258481529
 30
0.0
 11
2.599730896781153
 21
-11.77159925848133
 31
0.0
  0
CIRCLE
  5
3B
330
22
100
AcDbEntity
  8
0
100
AcDbCircle
 10
11.59973089678112
 20
-9.271599258481501
 30
0.0
 40
3.5
  0
ARC
  5
3C
330
22
100
AcDbEntity
  8
0
100
AcDbCircle
 10
31.59973089678115
 20
-9.271599258481472
 30
0.0
 40
4.5
100
AcDbArc
 50
270.0
 51
231.0575587310182
  0
LINE
  5
3D
330
22
100
AcDbEntity
  8
0
100
AcDbLine
 10
17.59973089678112
 20
-4.771599258481472
 30
0.0
 11
17.59973089678115
 21
-13.77159925848147
 31
0.0
  0
ARC
  5
3E
330
22
100
AcDbEntity
  8
0
100
AcDbCircle
 10
22.59973089678116
 20
-7.271599258481472
 30
0.0
 40
2.5
100
AcDbArc
 50
293.1161887722295
 51
90.0
  0
CIRCLE
  5
3F
330
22
100
AcDbEntity
  8
0
100
AcDbCircle
 10
31.59973089678115
 20
-9.271599258481472
 30
0.0
 40
3.5
  0
ARC
  5
40
330
22
100
AcDbEntity
  8
0
100
AcDbCircle
 10
4.599730896781153
 20
-11.77159925848133
 30
0.0
 40
1.0
100
AcDbArc
 50
180.0
 51
270.0
  0
ARC
  5
41
330
22
100
AcDbEntity
  8
0
100
AcDbCircle
 10
4.599730896781153
 20
-11.77159925848133
 30
0.0
 40
2.0
100
AcDbArc
 50
179.9999999999992
 51
270.0
  0
LINE
  5
42
330
22
100
AcDbEntity
  8
0
100
AcDbLine
 10
11.59973089678115
 20
-13.77159925848144
 30
0.0
 11
4.599730896781153
 21
-13.77159925848147
 31
0.0
  0
LINE
  5
43
330
22
100
AcDbEntity
  8
0
100
AcDbLine
 10
8.771303772034769
 20
-12.77159925848136
 30
0.0
 11
4.599730896781153
 21
-12.77159925848133
 31
0.0
  0
LINE
  5
44
330
22
100
AcDbEntity
  8
0
100
AcDbLine
 10
31.59973089678115
 20
-13.77159925848147
 30
0.0
 11
23.6715276665056
 21
-13.77159925848144
 31
0.0
  0
LINE
  5
45
330
22
100
AcDbEntity
  8
0
100
AcDbLine
 10
23.56565672307022
 20
-9.51278021337896
 30
0.0
 11
24.4388546544846
 21
-12.77159925848144
 31
0.0
  0
LINE
  5
46
330
22
100
AcDbEntity
  8
0
100
AcDbLine
 10
22.59973089678116
 20
-9.771599258481472
 30
0.0
 11
18.59973089678112
 21
-9.771599258481472
 31
0.0
  0
LINE
  5
47
330
22
100
AcDbEntity
  8
0
100
AcDbLine
 10
18.59973089678115
 20
-13.77159925848144
 30
0.0
 11
17.59973089678115
 21
-13.77159925848144
 31
0.0
  0
LINE
  5
48
330
22
100
AcDbEntity
  8
0
100
AcDbLine
 10
18.59973089678115
 20
-9.771599258481472
 30
0.0
 11
18.59973089678115
 21
-13.77159925848144
 31
0.0
  0
LINE
  5
49
330
22
100
AcDbEntity
  8
0
100
AcDbLine
 10
22.59973089678116
 20
-9.771599258481472
 30
0.0
 11
23.67152766650562
 21
-13.77159925848147
 31
0.0
  0
ARC
  5
4A
330
22
100
AcDbEntity
  8
0
100
AcDbCircle
 10
22.59973089678116
 20
-7.271599258481472
 30
0.0
 40
2.5
100
AcDbArc
 50
270.0
 51
270.0000000000007
  0
LINE
  5
4B
330
22
100
AcDbEntity
  8
0
100
AcDbLine
 10
28.77130377203494
 20
-12.77159925848147
 30
0.0
 11
24.43885465448463
 21
-12.77159925848144
 31
0.0
  0
LINE
  5
4C
330
22
100
AcDbEntity
  8
0
100
AcDbLine
 10
3.599730896781125
 20
-4.771599258481472
 30
0.0
 11
2.599730896781125
 21
-4.771599258481472
 31
0.0
  0
LINE
  5
4D
330
22
100
AcDbEntity
  8
0
100
AcDbLine
 10
22.59973089678116
 20
-8.771599258481472
 30
0.0
 11
18.59973089678115
 21
-8.771599258481472
 31
0.0
  0
LINE
  5
4E
330
22
100
AcDbEntity
  8
0
100
AcDbLine
 10
22.59973089678116
 20
-5.771599258481472
 30
0.0
 11
18.59973089678115
 21
-5.771599258481472
 31
0.0
  0
LINE
  5
4F
330
22
100
AcDbEntity
  8
0
100
AcDbLine
 10
22.59973089678116
 20
-4.771599258481472
 30
0.0
 11
17.59973089678115
 21
-4.771599258481472
 31
0.0
  0
LINE
  5
50
330
22
100
AcDbEntity
  8
0
100
AcDbLine
 10
18.59973089678115
 20
-5.771599258481472
 30
0.0
 11
18.59973089678115
 21
-8.771599258481472
 31
0.0
  0
ARC
  5
51
330
22
100
AcDbEntity
  8
0
100
AcDbCircle
 10
22.59973089678116
 20
-7.271599258481472
 30
0.0
 40
1.5
100
AcDbArc
 50
270.0
 51
90.0
  0
ENDBLK
  5
52
330
22
100
AcDbEntity
  8
0
100
AcDbBlockEnd
  0
BLOCK
  5
EF4
330
EEA
100
AcDbEntity
  8
0
100
AcDbBlockBegin
  2
*D1
 70
     1
 10
0.0
 20
0.0
 30
0.0
  3
*D1
  1

  0
LINE
  5
119A
330
EEA
100
AcDbEntity
  8
BEM
 62
     0
370
    -2
100
AcDbLine
 10
175.0
 20
368.3661028831002
 30
0.0
 11
175.0
 21
347.9856850850296
 31
0.0
  0
LINE
  5
119B
330
EEA
100
AcDbEntity
  8
BEM
 62
     0
370
    -2
100
AcDbLine
 10
274.9999999999999
 20
368.3661028831002
 30
0.0
 11
274.9999999999999
 21
347.9856850850296
 31
0.0
  0
LINE
  5
119C
330
EEA
100
AcDbEntity
  8
BEM
 62
     0
370
    -2
100
AcDbLine
 10
182.0
 20
349.9856850850296
 30
0.0
 11
267.9999999999999
 21
349.9856850850296
 31
0.0
  0
SOLID
  5
119D
330
EEA
100
AcDbEntity
  8
BEM
 62
     0
100
AcDbTrace
 10
182.0
 20
351.1523517516963
 30
0.0
 11
182.0
 21
348.8190184183629
 31
0.0
 12
175.0
 22
349.9856850850296
 32
0.0
 13
175.0
 23
349.9856850850296
 33
0.0
  0
SOLID
  5
119E
330
EEA
100
AcDbEntity
  8
BEM
 62
     0
100
AcDbTrace
 10
267.9999999999999
 20
351.1523517516963
 30
0.0
 11
267.9999999999999
 21
348.8190184183629
 31
0.0
 12
274.9999999999999
 22
349.9856850850296
 32
0.0
 13
274.9999999999999
 23
349.9856850850296
 33
0.0
  0
MTEXT
  5
119F
330
EEA
100
AcDbEntity
  8
BEM
 62
     1
100
AcDbMText
 10
228.4270930317166
 20
356.4856850850296
 30
0.0
 40
7.0
 41
0.0
 71
     5
 72
     1
  1
\A1;100
 73
     1
 44
1.0
  0
POINT
  5
11A0
330
EEA
100
AcDbEntity
  8
DEFPOINTS
 62
     0
100
AcDbPoint
 10
175.0
 20
370.3661028831002
 30
0.0
  0
POINT
  5
11A1
330
EEA
100
AcDbEntity
  8
DEFPOINTS
 62
     0
100
AcDbPoint
 10
274.9999999999999
 20
370.3661028831002
 30
0.0
  0
POINT
  5
11A2
330
EEA
100
AcDbEntity
  8
DEFPOINTS
 62
     0
100
AcDbPoint
 10
274.9999999999999
 20
349.9856850850296
 30
0.0
  0
ENDBLK
  5
EF5
330
EEA
100
AcDbEntity
  8
0
100
AcDbBlockEnd
  0
BLOCK
  5
F58
330
F4E
100
AcDbEntity
  8
0
100
AcDbBlockBegin
  2
*D2
 70
     1
 10
0.0
 20
0.0
 30
0.0
  3
*D2
  1

  0
LINE
  5
11E1
330
F4E
100
AcDbEntity
  8
BEM
 62
     0
370
    -2
100
AcDbLine
 10
172.699909308207
 20
230.3661028831002
 30
0.0
 11
137.3553048658414
 21
230.3661028831002
 31
0.0
  0
LINE
  5
11E2
330
F4E
100
AcDbEntity
  8
BEM
 62
     0
370
    -2
100
AcDbLine
 10
168.8500000000001
 20
470.3661028831001
 30
0.0
 11
137.3553048658414
 21
470.3661028831001
 31
0.0
  0
LINE
  5
11E3
330
F4E
100
AcDbEntity
  8
BEM
 62
     0
370
    -2
100
AcDbLine
 10
139.3553048658414
 20
237.3661028831002
 30
0.0
 11
139.3553048658414
 21
463.3661028831002
 31
0.0
  0
SOLID
  5
11E4
330
F4E
100
AcDbEntity
  8
BEM
 62
     0
100
AcDbTrace
 10
138.1886381991747
 20
237.3661028831002
 30
0.0
 11
140.521971532508
 21
237.3661028831002
 31
0.0
 12
139.3553048658414
 22
230.3661028831002
 32
0.0
 13
139.3553048658414
 23
230.3661028831002
 33
0.0
  0
SOLID
  5
11E5
330
F4E
100
AcDbEntity
  8
BEM
 62
     0
100
AcDbTrace
 10
138.1886381991748
 20
463.3661028831002
 30
0.0
 11
140.5219715325081
 21
463.3661028831002
 31
0.0
 12
139.3553048658414
 22
470.3661028831001
 32
0.0
 13
139.3553048658414
 23
470.3661028831001
 33
0.0
  0
MTEXT
  5
11E6
330
F4E
100
AcDbEntity
  8
BEM
 62
     1
100
AcDbMText
 10
132.8553048658413
 20
350.3661028831002
 30
0.0
 40
7.0
 41
0.0
 71
     5
 72
     1
  1
\A1;240
 11
0.0000000000000001
 21
1.0
 31
0.0
 73
     1
 44
1.0
  0
POINT
  5
11E7
330
F4E
100
AcDbEntity
  8
DEFPOINTS
 62
     0
100
AcDbPoint
 10
174.699909308207
 20
230.3661028831002
 30
0.0
  0
POINT
  5
11E8
330
F4E
100
AcDbEntity
  8
DEFPOINTS
 62
     0
100
AcDbPoint
 10
170.8500000000001
 20
470.3661028831001
 30
0.0
  0
POINT
  5
11E9
330
F4E
100
AcDbEntity
  8
DEFPOINTS
 62
     0
100
AcDbPoint
 10
139.3553048658414
 20
470.3661028831001
 30
0.0
  0
ENDBLK
  5
F59
330
F4E
100
AcDbEntity
  8
0
100
AcDbBlockEnd
  0
BLOCK
  5
F8F
330
F85
100
AcDbEntity
  8
0
100
AcDbBlockBegin
  2
*D3
 70
     1
 10
0.0
 20
0.0
 30
0.0
  3
*D3
  1

  0
LINE
  5
1176
330
F85
100
AcDbEntity
  8
SCHRAFF
 62
     0
370
    -2
100
AcDbLine
 10
173.9999999999997
 20
236.3661028831002
 30
0.0
 11
173.9999999999997
 21
208.645572479377
 31
0.0
  0
LINE
  5
1177
330
F85
100
AcDbEntity
  8
SCHRAFF
 62
     0
370
    -2
100
AcDbLine
 10
275.9999999999998
 20
236.3661028831002
 30
0.0
 11
275.9999999999998
 21
208.645572479377
 31
0.0
  0
LINE
  5
1178
330
F85
100
AcDbEntity
  8
SCHRAFF
 62
     0
370
    -2
100
AcDbLine
 10
180.9999999999997
 20
210.645572479377
 30
0.0
 11
268.9999999999998
 21
210.645572479377
 31
0.0
  0
SOLID
  5
1179
330
F85
100
AcDbEntity
  8
SCHRAFF
 62
     0
100
AcDbTrace
 10
180.9999999999997
 20
211.8122391460436
 30
0.0
 11
180.9999999999997
 21
209.4789058127103
 31
0.0
 12
173.9999999999997
 22
210.645572479377
 32
0.0
 13
173.9999999999997
 23
210.645572479377
 33
0.0
  0
SOLID
  5
117A
330
F85
100
AcDbEntity
  8
SCHRAFF
 62
     0
100
AcDbTrace
 10
268.9999999999998
 20
211.8122391460436
 30
0.0
 11
268.9999999999998
 21
209.4789058127103
 31
0.0
 12
275.9999999999998
 22
210.645572479377
 32
0.0
 13
275.9999999999998
 23
210.645572479377
 33
0.0
  0
MTEXT
  5
117B
330
F85
100
AcDbEntity
  8
SCHRAFF
 62
     1
100
AcDbMText
 10
224.9999999999998
 20
217.145572479377
 30
0.0
 40
7.0
 41
0.0
 71
     5
 72
     1
  1
\A1;%%c102
 73
     1
 44
1.0
  0
POINT
  5
117C
330
F85
100
AcDbEntity
  8
DEFPOINTS
 62
     0
100
AcDbPoint
 10
173.9999999999997
 20
238.3661028831002
 30
0.0
  0
POINT
  5
117D
330
F85
100
AcDbEntity
  8
DEFPOINTS
 62
     0
100
AcDbPoint
 10
275.9999999999998
 20
238.3661028831002
 30
0.0
  0
POINT
  5
117E
330
F85
100
AcDbEntity
  8
DEFPOINTS
 62
     0
100
AcDbPoint
 10
275.9999999999998
 20
210.645572479377
 30
0.0
  0
ENDBLK
  5
F90
330
F85
100
AcDbEntity
  8
0
100
AcDbBlockEnd
  0
BLOCK
  5
1042
330
1038
100
AcDbEntity
  8
0
100
AcDbBlockBegin
  2
*D4
 70
     1
 10
0.0
 20
0.0
 30
0.0
  3
*D4
  1

  0
LINE
  5
116D
330
1038
100
AcDbEntity
  8
BEM
 62
     0
370
    -2
100
AcDbLine
 10
173.85
 20
472.3661028831002
 30
0.0
 11
173.85
 21
484.5108311738011
 31
0.0
  0
LINE
  5
116E
330
1038
100
AcDbEntity
  8
BEM
 62
     0
370
    -2
100
AcDbLine
 10
276.15
 20
472.3661028831002
 30
0.0
 11
276.15
 21
484.5108311738011
 31
0.0
  0
LINE
  5
116F
330
1038
100
AcDbEntity
  8
BEM
 62
     0
370
    -2
100
AcDbLine
 10
180.85
 20
482.510831173801
 30
0.0
 11
269.15
 21
482.510831173801
 31
0.0
  0
SOLID
  5
1170
330
1038
100
AcDbEntity
  8
BEM
 62
     0
100
AcDbTrace
 10
180.85
 20
483.6774978404677
 30
0.0
 11
180.85
 21
481.3441645071343
 31
0.0
 12
173.85
 22
482.510831173801
 32
0.0
 13
173.85
 23
482.510831173801
 33
0.0
  0
SOLID
  5
1171
330
1038
100
AcDbEntity
  8
BEM
 62
     0
100
AcDbTrace
 10
269.15
 20
483.6774978404677
 30
0.0
 11
269.15
 21
481.3441645071343
 31
0.0
 12
276.15
 22
482.510831173801
 32
0.0
 13
276.15
 23
482.510831173801
 33
0.0
  0
MTEXT
  5
1172
330
1038
100
AcDbEntity
  8
BEM
 62
     1
100
AcDbMText
 10
227.3824856608582
 20
489.0108311738011
 30
0.0
 40
7.0
 41
0.0
 71
     5
 72
     1
  1
\A1;102.3
 73
     1
 44
1.0
  0
POINT
  5
1173
330
1038
100
AcDbEntity
  8
DEFPOINTS
 62
     0
100
AcDbPoint
 10
173.85
 20
470.3661028831001
 30
0.0
  0
POINT
  5
1174
330
1038
100
AcDbEntity
  8
DEFPOINTS
 62
     0
100
AcDbPoint
 10
276.15
 20
470.3661028831001
 30
0.0
  0
POINT
  5
1175
330
1038
100
AcDbEntity
  8
DEFPOINTS
 62
     0
100
AcDbPoint
 10
276.15
 20
482.510831173801
 30
0.0
  0
ENDBLK
  5
1043
330
1038
100
AcDbEntity
  8
0
100
AcDbBlockEnd
  0
BLOCK
  5
104E
330
1044
100
AcDbEntity
  8
0
100
AcDbBlockBegin
  2
*D5
 70
     1
 10
0.0
 20
0.0
 30
0.0
  3
*D5
  1

  0
LINE
  5
1164
330
1044
100
AcDbEntity
  8
BEM
 62
     0
370
    -2
100
AcDbLine
 10
168.85
 20
470.3661028831001
 30
0.0
 11
154.7624371912831
 21
470.3661028831001
 31
0.0
  0
LINE
  5
1165
330
1044
100
AcDbEntity
  8
BEM
 62
     0
370
    -2
100
AcDbLine
 10
170.0655937628866
 20
400.3661028831002
 30
0.0
 11
154.7624371912831
 21
400.3661028831002
 31
0.0
  0
LINE
  5
1166
330
1044
100
AcDbEntity
  8
BEM
 62
     0
370
    -2
100
AcDbLine
 10
156.7624371912831
 20
463.3661028831002
 30
0.0
 11
156.7624371912831
 21
407.3661028831002
 31
0.0
  0
SOLID
  5
1167
330
1044
100
AcDbEntity
  8
BEM
 62
     0
100
AcDbTrace
 10
155.5957705246164
 20
463.3661028831002
 30
0.0
 11
157.9291038579498
 21
463.3661028831002
 31
0.0
 12
156.7624371912831
 22
470.3661028831001
 32
0.0
 13
156.7624371912831
 23
470.3661028831001
 33
0.0
  0
SOLID
  5
1168
330
1044
100
AcDbEntity
  8
BEM
 62
     0
100
AcDbTrace
 10
155.5957705246164
 20
407.3661028831002
 30
0.0
 11
157.9291038579497
 21
407.3661028831002
 31
0.0
 12
156.7624371912831
 22
400.3661028831002
 32
0.0
 13
156.7624371912831
 23
400.3661028831002
 33
0.0
  0
MTEXT
  5
1169
330
1044
100
AcDbEntity
  8
BEM
 62
     1
100
AcDbMText
 10
150.262437191283
 20
435.3661028831003
 30
0.0
 40
7.0
 41
0.0
 71
     5
 72
     1
  1
\A1;70
 11
0.0000000000000001
 21
1.0
 31
0.0
 73
     1
 44
1.0
  0
POINT
  5
116A
330
1044
100
AcDbEntity
  8
DEFPOINTS
 62
     0
100
AcDbPoint
 10
170.85
 20
470.3661028831001
 30
0.0
  0
POINT
  5
116B
330
1044
100
AcDbEntity
  8
DEFPOINTS
 62
     0
100
AcDbPoint
 10
172.0655937628866
 20
400.3661028831002
 30
0.0
  0
POINT
  5
116C
330
1044
100
AcDbEntity
  8
DEFPOINTS
 62
     0
100
AcDbPoint
 10
156.7624371912831
 20
400.3661028831002
 30
0.0
  0
ENDBLK
  5
104F
330
1044
100
AcDbEntity
  8
0
100
AcDbBlockEnd
  0
ENDSEC
  0
SECTION
  2
ENTITIES
  0
LINE
  5
57
330
1E
100
AcDbEntity
  8
STEMPEL
100
AcDbLine
 10
410.0
 20
110.0
 30
0.0
 11
39.99999999999997
 21
110.0
 31
0.0
  0
LINE
  5
58
330
1E
100
AcDbEntity
  8
STEMPEL
100
AcDbLine
 10
136.0000000000001
 20
109.9999999999999
 30
0.0
 11
136.0
 21
9.999999999999971
 31
0.0
  0
LINE
  5
59
330
1E
100
AcDbEntity
  8
STEMPEL
100
AcDbLine
 10
220.0
 20
110.0
 30
0.0
 11
220.0
 21
9.999999999999971
 31
0.0
  0
LINE
  5
5A
330
1E
100
AcDbEntity
  8
STEMPEL
100
AcDbLine
 10
332.0
 20
109.9999999999997
 30
0.0
 11
332.0
 21
40.0
 31
0.0
  0
LINE
  5
5B
330
1E
100
AcDbEntity
  8
STEMPEL
100
AcDbLine
 10
135.9999999999999
 20
29.99999999999997
 30
0.0
 11
39.99999999999997
 21
29.99999999999997
 31
0.0
  0
LINE
  5
5C
330
1E
100
AcDbEntity
  8
STEMPEL
100
AcDbLine
 10
410.0
 20
40.0
 30
0.0
 11
136.0000000000001
 21
39.99999999999997
 31
0.0
  0
LINE
  5
5D
330
1E
100
AcDbEntity
  8
STEMPEL
100
AcDbLine
 10
410.0
 20
80.0
 30
0.0
 11
136.0000000000001
 21
79.99999999999994
 31
0.0
  0
LINE
  5
5E
330
1E
100
AcDbEntity
  8
VOLL
100
AcDbLine
 10
54.00000000000009
 20
110.0
 30
0.0
 11
53.99999999999997
 21
9.999999999999971
 31
0.0
  0
LINE
  5
5F
330
1E
100
AcDbEntity
  8
VOLL
100
AcDbLine
 10
94.00000000000011
 20
109.9999999999999
 30
0.0
 11
94.0
 21
9.999999999999971
 31
0.0
  0
LINE
  5
60
330
1E
100
AcDbEntity
  8
VOLL
100
AcDbLine
 10
114.0000000000001
 20
109.9999999999999
 30
0.0
 11
114.0
 21
9.999999999999971
 31
0.0
  0
LINE
  5
61
330
1E
100
AcDbEntity
  8
VOLL
100
AcDbLine
 10
154.0000000000001
 20
79.99999999999994
 30
0.0
 11
154.0000000000001
 21
39.99999999999997
 31
0.0
  0
LINE
  5
62
330
1E
100
AcDbEntity
  8
VOLL
100
AcDbLine
 10
180.0000000000001
 20
109.9999999999998
 30
0.0
 11
180.0
 21
39.99999999999997
 31
0.0
  0
LINE
  5
63
330
1E
100
AcDbEntity
  8
HILF
100
AcDbLine
 10
40.00000000000008
 20
100.0
 30
0.0
 11
136.0000000000001
 21
100.0
 31
0.0
  0
LINE
  5
64
330
1E
100
AcDbEntity
  8
HILF
100
AcDbLine
 10
40.00000000000008
 20
90.00000000000005
 30
0.0
 11
136.0000000000001
 21
90.00000000000005
 31
0.0
  0
LINE
  5
65
330
1E
100
AcDbEntity
  8
HILF
100
AcDbLine
 10
40.00000000000008
 20
79.99999999999994
 30
0.0
 11
136.0000000000001
 21
79.99999999999994
 31
0.0
  0
LINE
  5
66
330
1E
100
AcDbEntity
  8
HILF
100
AcDbLine
 10
40.00000000000008
 20
69.99999999999994
 30
0.0
 11
136.0000000000001
 21
69.99999999999994
 31
0.0
  0
LINE
  5
67
330
1E
100
AcDbEntity
  8
HILF
100
AcDbLine
 10
40.00000000000008
 20
59.99999999999997
 30
0.0
 11
136.0000000000001
 21
59.99999999999997
 31
0.0
  0
LINE
  5
68
330
1E
100
AcDbEntity
  8
HILF
100
AcDbLine
 10
40.00000000000008
 20
49.99999999999997
 30
0.0
 11
136.0000000000001
 21
49.99999999999997
 31
0.0
  0
LINE
  5
69
330
1E
100
AcDbEntity
  8
HILF
100
AcDbLine
 10
40.00000000000008
 20
39.99999999999997
 30
0.0
 11
136.0000000000001
 21
39.99999999999997
 31
0.0
  0
LINE
  5
6A
330
1E
100
AcDbEntity
  8
HILF
100
AcDbLine
 10
136.0000000000001
 20
69.99999999999994
 30
0.0
 11
220.0
 21
69.99999999999994
 31
0.0
  0
LINE
  5
6B
330
1E
100
AcDbEntity
  8
HILF
100
AcDbLine
 10
136.0000000000001
 20
59.99999999999997
 30
0.0
 11
220.0
 21
59.99999999999997
 31
0.0
  0
LINE
  5
6C
330
1E
100
AcDbEntity
  8
HILF
100
AcDbLine
 10
136.0000000000001
 20
49.99999999999997
 30
0.0
 11
220.0
 21
49.99999999999997
 31
0.0
  0
LINE
  5
6D
330
1E
100
AcDbEntity
  8
HILF
100
AcDbLine
 10
224.7736801096948
 20
84.03758247564139
 30
0.0
 11
324.8353916556311
 21
84.03758247564139
 31
0.0
  0
LINE
  5
6E
330
1E
100
AcDbEntity
  8
HILF
100
AcDbLine
 10
224.7736801096948
 20
69.99999999999994
 30
0.0
 11
324.835391655631
 21
69.99999999999994
 31
0.0
  0
LINE
  5
6F
330
1E
100
AcDbEntity
  8
HILF
100
AcDbLine
 10
224.7736801096948
 20
59.99999999999997
 30
0.0
 11
324.835391655631
 21
59.99999999999997
 31
0.0
  0
LINE
  5
70
330
1E
100
AcDbEntity
  8
HILF
100
AcDbLine
 10
224.7736801096948
 20
49.99999999999997
 30
0.0
 11
324.835391655631
 21
49.99999999999997
 31
0.0
  0
LINE
  5
71
330
1E
100
AcDbEntity
  8
VOLL
100
AcDbLine
 10
332.0
 20
60.0
 30
0.0
 11
410.0
 21
60.0
 31
0.0
  0
LINE
  5
72
330
1E
100
AcDbEntity
  8
HILF
100
AcDbLine
 10
336.7238616296993
 20
83.77983636955827
 30
0.0
 11
404.8588839326728
 21
83.77983636955827
 31
0.0
  0
LINE
  5
73
330
1E
100
AcDbEntity
  8
HILF
100
AcDbLine
 10
223.4909699289885
 20
14.89398258028314
 30
0.0
 11
404.8588839326728
 21
14.89398258028314
 31
0.0
  0
TEXT
  5
74
330
1E
100
AcDbEntity
  8
TEXT
100
AcDbText
 10
63.86165979631819
 20
18.67381894984132
 30
0.0
 40
4.0
  1
Änderung
 41
0.8
  7
GREEKS
 72
     1
 11
74.60451693917534
 21
18.67381894984132
 31
0.0
100
AcDbText
  0
TEXT
  5
75
330
1E
100
AcDbEntity
  8
TEXT
100
AcDbText
 10
143.5163572150377
 20
102.4620895087088
 30
0.0
 40
5.0
  1
Maßstab
 41
0.8
  7
GREEKS
100
AcDbText
  0
TEXT
  5
76
330
1E
100
AcDbEntity
  8
TEXT
100
AcDbText
 10
184.2858954734051
 20
102.4184168434819
 30
0.0
 40
5.0
  1
Zul. Abw.
 41
0.8
  7
GREEKS
100
AcDbText
  0
TEXT
  5
77
330
1E
100
AcDbEntity
  8
TEXT
100
AcDbText
 10
224.877940380901
 20
102.5489328011779
 30
0.0
 40
5.0
  1
Benennung
 41
0.8
  7
GREEKS
100
AcDbText
  0
TEXT
  5
78
330
1E
100
AcDbEntity
  8
TEXT
100
AcDbText
 10
336.178754957634
 20
102.3132034537136
 30
0.0
 40
5.0
  1
Zeichnungs Nr.
 41
0.8
  7
GREEKS
100
AcDbText
  0
TEXT
  5
79
330
1E
100
AcDbEntity
  8
TEXT
100
AcDbText
 10
224.742238391136
 20
30.84560570193057
 30
0.0
 40
5.0
  1
Bauvorhaben
 41
0.8
  7
GREEKS
100
AcDbText
  0
TEXT
  5
7A
330
1E
100
AcDbEntity
  8
TEXT
100
AcDbText
 10
336.7238616296993
 20
73.1811823709997
 30
0.0
 40
5.0
  1
Ersatz für:
 41
0.8
  7
GREEKS
100
AcDbText
  0
TEXT
  5
7B
330
1E
100
AcDbEntity
  8
TEXT
100
AcDbText
 10
48.26641107045756
 20
13.65465846027192
 30
0.0
 40
4.0
  1
Index
 50
90.0
 41
0.8
  7
GREEKS
100
AcDbText
  0
TEXT
  5
7C
330
1E
100
AcDbEntity
  8
TEXT
100
AcDbText
 10
100.0934676075481
 20
18.6715626933981
 30
0.0
 40
4.0
  1
Tag
 41
0.8
  7
GREEKS
 72
     1
 11
103.8268009408814
 21
18.6715626933981
 31
0.0
100
AcDbText
  0
TEXT
  5
7D
330
1E
100
AcDbEntity
  8
TEXT
100
AcDbText
 10
119.0122744386592
 20
18.59324216966408
 30
0.0
 40
4.0
  1
Name
 41
0.8
  7
GREEKS
 72
     1
 11
125.3360839624688
 21
18.59324216966408
 31
0.0
100
AcDbText
  0
TEXT
  5
7E
330
1E
100
AcDbEntity
  8
TEXT
100
AcDbText
 10
162.3311673153651
 20
73.31880501229926
 30
0.0
 40
4.0
  1
Tag
 41
0.8
  7
GREEKS
100
AcDbText
  0
TEXT
  5
7F
330
1E
100
AcDbEntity
  8
TEXT
100
AcDbText
 10
192.4626584226295
 20
73.30961091915225
 30
0.0
 40
4.0
  1
Name
 41
0.8
  7
GREEKS
100
AcDbText
  0
TEXT
  5
80
330
1E
100
AcDbEntity
  8
TEXT
100
AcDbText
 10
137.5836127167615
 20
63.62990369617964
 30
0.0
 40
4.0
  1
Gez.
 41
0.8
  7
GREEKS
100
AcDbText
  0
TEXT
  5
81
330
1E
100
AcDbEntity
  8
TEXT
100
AcDbText
 10
137.5515086571672
 20
53.68926291428377
 30
0.0
 40
4.0
  1
Gepr.
 41
0.8
  7
GREEKS
100
AcDbText
  0
TEXT
  5
82
330
1E
100
AcDbEntity
  8
TEXT
100
AcDbText
 10
137.6006777387304
 20
43.52946389649807
 30
0.0
 40
4.0
  1
Norm.
 41
0.8
  7
GREEKS
100
AcDbText
  0
LINE
  5
83
330
1E
100
AcDbEntity
  8
STEMPEL
100
AcDbLine
 10
49.99999999999989
 20
10.0
 30
0.0
 11
410.0
 21
10.0
 31
0.0
  0
TEXT
  5
84
330
1E
100
AcDbEntity
  8
TEXT
100
AcDbText
 10
337.2400861497006
 20
52.07416177878602
 30
0.0
 40
5.0
  1
ersetzt durch:
 41
0.8
  7
GREEKS
100
AcDbText
  0
LINE
  5
85
330
1E
100
AcDbEntity
  8
STEMPEL
100
AcDbLine
 10
410.0
 20
10.0
 30
0.0
 11
39.99999999999989
 21
10.0
 31
0.0
  0
LINE
  5
86
330
1E
100
AcDbEntity
  8
STEMPEL
100
AcDbLine
 10
410.0
 20
10.0
 30
0.0
 11
410.0
 21
584.0
 31
0.0
  0
LINE
  5
87
330
1E
100
AcDbEntity
  8
STEMPEL
100
AcDbLine
 10
40.0
 20
10.0
 30
0.0
 11
39.99999999999989
 21
584.0
 31
0.0
  0
LINE
  5
88
330
1E
100
AcDbEntity
  8
STEMPEL
100
AcDbLine
 10
410.0
 20
584.0
 30
0.0
 11
39.99999999999989
 21
584.0
 31
0.0
  0
LINE
  5
89
330
1E
100
AcDbEntity
  8
HILF
100
AcDbLine
 10
0.0
 20
0.0
 30
0.0
 11
-0.0000000000001137
 21
594.0
 31
0.0
  0
LINE
  5
8A
330
1E
100
AcDbEntity
  8
HILF
100
AcDbLine
 10
419.9999999999999
 20
594.0000000000002
 30
0.0
 11
0.0
 21
594.0
 31
0.0
  0
LINE
  5
8B
330
1E
100
AcDbEntity
  8
HILF
100
AcDbLine
 10
420.0
 20
0.0
 30
0.0
 11
0.0
 21
0.0
 31
0.0
  0
LINE
  5
8C
330
1E
100
AcDbEntity
  8
HILF
100
AcDbLine
 10
31.08767135713856
 20
297.0
 30
0.0
 11
0.0000000000001137
 21
297.0
 31
0.0
  0
TEXT
  5
8D
330
1E
100
AcDbEntity
  8
TEXT
100
AcDbText
 10
138.622109822104
 20
73.14025471151666
 30
0.0
 40
4.0
  1
2009
 41
0.8
  7
GREEKS
100
AcDbText
  0
LINE
  5
8E
330
1E
100
AcDbEntity
  8
HILF
100
AcDbLine
 10
420.0
 20
-0.0000000000001137
 30
0.0
 11
419.9999999999999
 21
594.0
 31
0.0
  0
TEXT
  5
8F
330
1E
100
AcDbEntity
  8
VOLL
100
AcDbText
 10
78.07675471698113
 20
31.02594776470585
 30
0.0
 40
1.8
  1

  7
GREEKS
100
AcDbText
  0
TEXT
  5
90
330
1E
100
AcDbEntity
  8
TEXT
100
AcDbText
 10
41.85509950977674
 20
111.6719999999999
 30
0.0
 40
5.0
  1
Erstellt mit AUTOCAD 2004
 41
0.8
  7
GREEKS
100
AcDbText
  0
TEXT
  5
91
330
1E
100
AcDbEntity
  8
TEXT
100
AcDbText
 10
194.4216048581257
 20
63.0896391972351
 30
0.0
 40
4.0
  1
Koeh
 41
0.8
  7
GREEKS
 72
     1
 11
199.6787477152685
 21
63.0896391972351
 31
0.0
100
AcDbText
  0
TEXT
  5
92
330
1E
100
AcDbEntity
  8
TEXT
 62
     1
100
AcDbText
 10
346.881885078688
 20
88.14901428913959
 30
0.0
 40
7.0
  1
55688100W
 41
0.8
  7
GREEKS
 72
     1
 11
370.3485517453547
 21
88.14901428913959
 31
0.0
100
AcDbText
  0
TEXT
  5
93
330
1E
100
AcDbEntity
  8
TEXT
 62
     1
100
AcDbText
 10
150.5006306481887
 20
88.14901428913959
 30
0.0
 40
7.0
  1
1:2
 41
0.8
  7
GREEKS
100
AcDbText
  0
TEXT
  5
94
330
1E
100
AcDbEntity
  8
TEXT
100
AcDbText
 10
161.0085209177598
 20
63.10765040825732
 30
0.0
 40
4.0
  1
05.11.
 41
0.8
  7
GREEKS
 72
     1
 11
167.4085209177598
 21
63.10765040825732
 31
0.0
100
AcDbText
  0
TEXT
  5
95
330
1E
100
AcDbEntity
  8
TEXT
 62
     1
100
AcDbText
 10
224.6728317021104
 20
87.41748789253779
 30
0.0
 40
7.0
  1
Übergangsrohr DN100
 41
0.8
  7
GREEKS
100
AcDbText
  0
TEXT
  5
96
330
1E
100
AcDbEntity
  8
TEXT
100
AcDbText
 10
225.1296391125315
 20
71.50334417585288
 30
0.0
 40
5.0
  1
quadratisches Rohr auf LX-Rohr
 41
0.8
  7
GREEKS
100
AcDbText
  0
TEXT
  5
97
330
1E
100
AcDbEntity
  8
TEXT
100
AcDbText
 10
225.1296391125315
 20
62.11580706774856
 30
0.0
 40
5.0
  1

 41
0.8
  7
GREEKS
100
AcDbText
  0
TEXT
  5
98
330
1E
100
AcDbEntity
  8
TEXT
100
AcDbText
 10
225.1296391125315
 20
51.64011943042158
 30
0.0
 40
5.0
  1
EDV-Art.Nr. 55688.100X
 41
0.8
  7
GREEKS
100
AcDbText
  0
TEXT
  5
99
330
1E
100
AcDbEntity
  8
TEXT
100
AcDbText
 10
224.9837501577827
 20
42.62974153022632
 30
0.0
 40
4.0
  1
55688100W.DWG
 41
0.8
  7
GREEKS
100
AcDbText
  0
TEXT
  5
9A
330
1E
100
AcDbEntity
  8
TEXT
100
AcDbText
 10
182.626132208084
 20
90.76363841023022
 30
0.0
 40
4.0
  1
DIN EN1123-2
 41
0.8
  7
GREEKS
 72
     1
 11
199.6166083985602
 21
90.76363841023022
 31
0.0
100
AcDbText
  0
INSERT
  5
9B
330
1E
100
AcDbEntity
  8
STEMPEL
100
AcDbBlockReference
  2
LOGO
 10
140.9955485457794
 20
45.02105276448322
 30
0.0
 41
2.0
 42
2.0
 43
2.0
  0
TEXT
  5
118
330
1E
100
AcDbEntity
  8
BEM
100
AcDbText
 10
417.3022923857165
 20
10.16790107998849
 30
0.0
 40
4.0
  1
Diese Zeichnung ist urheberrechtlich geschützt und bleibt unser Eigentum. Sie darf weder ganz noch teilweise verfielfältigt und nicht an Dritte weitergegeben werden.
 50
90.0
 41
0.8
  7
GREEKS
100
AcDbText
  0
TEXT
  5
7C7
330
1E
100
AcDbEntity
  8
TEXT
 62
     1
100
AcDbText
 10
234.6057658946468
 20
129.0783465745483
 30
0.0
 40
7.0
  1
feuerverzinkt und innen beschichtet
 41
0.8
  7
GREEKS
100
AcDbText
  0
TEXT
  5
7C8
330
1E
100
AcDbEntity
  8
TEXT
 62
     1
100
AcDbText
 10
186.6560484572489
 20
139.8004583895517
 30
0.0
 40
7.0
  1
Werkstoff: S235 JRH, E195 EN10305
 41
0.8
  7
GREEKS
100
AcDbText
  0
TEXT
  5
B05
330
1E
100
AcDbEntity
  8
VOLL
100
AcDbText
 10
341.8960188762916
 20
352.9686687966988
 30
0.0
 40
1.8
  1

  7
GREEKS
100
AcDbText
  0
LINE
  5
EE4
102
{ACAD_REACTORS
330
F7E
330
11D3
102
}
330
1E
100
AcDbEntity
  8
STEMPEL
100
AcDbLine
 10
175.0
 20
370.3661028831002
 30
0.0
 11
175.0
 21
390.883429815392
 31
0.0
  0
LINE
  5
EE5
102
{ACAD_REACTORS
330
F7E
330
11D3
102
}
330
1E
100
AcDbEntity
  8
STEMPEL
100
AcDbLine
 10
275.0
 20
370.3661028831002
 30
0.0
 11
274.9999999999999
 21
390.883429815392
 31
0.0
  0
LWPOLYLINE
  5
EE6
330
1E
100
AcDbEntity
  8
BEM
 62
     1
100
AcDbPolyline
 90
        4
 70
     1
 43
0.0
 10
211.2450006887722
 20
360.0396478620102
 10
211.2450006887722
 20
353.0396478620101
 10
218.245000688772
 20
353.0396478620101
 10
218.245000688772
 20
360.0396478620102
  0
DIMENSION
  5
EE7
330
1E
100
AcDbEntity
  8
BEM
100
AcDbDimension
  2
*D1
 10
274.9999999999999
 20
349.9856850850296
 30
0.0
 11
228.4270930317166
 21
349.9856850850296
 31
0.0
 70
   160
 71
     5
 42
99.99999999999984
  3
Standard
100
AcDbAlignedDimension
 13
175.0
 23
370.3661028831002
 33
0.0
 14
274.9999999999999
 24
370.3661028831002
 34
0.0
100
AcDbRotatedDimension
1001
ACAD
1000
DSTYLE
1002
{
1070
    40
1040
2.0
1070
    41
1040
3.5
1070
    42
1040
1.0
1070
    43
1040
7.0
1070
    44
1040
1.0
1070
    73
1070
     0
1070
    74
1070
     0
1070
    77
1070
     1
1070
    78
1070
     8
1070
    79
1070
     2
1070
   140
1040
3.5
1070
   141
1040
1.5
1070
   146
1040
0.5
1070
   147
1040
1.5
1070
   172
1070
     1
1070
   178
1070
     1
1070
   179
1070
     2
1070
   271
1070
     2
1070
   272
1070
     2
1070
   284
1070
     8
1070
   285
1070
     8
1070
   286
1070
     8
1002
}
  0
LINE
  5
EE8
330
1E
100
AcDbEntity
  8
STEMPEL
100
AcDbLine
 10
276.0
 20
230.3661028831002
 30
0.0
 11
174.699909308207
 21
230.3661028831002
 31
0.0
  0
LINE
  5
EFF
330
1E
100
AcDbEntity
  8
STEMPEL
100
AcDbLine
 10
274.9999999999999
 20
370.3661028831002
 30
0.0
 11
175.0
 21
370.3661028831002
 31
0.0
  0
TEXT
  5
F02
330
1E
100
AcDbEntity
  8
TEXT
 62
     1
100
AcDbText
 10
211.5355215667764
 20
428.5766614204415
 30
0.0
 40
7.0
  1
DN100
 50
90.0
 41
0.8
  7
GREEKS
100
AcDbText
  0
LINE
  5
F17
330
1E
100
AcDbEntity
  8
STEMPEL
100
AcDbLine
 10
174.699909308207
 20
230.3661028831002
 30
0.0
 11
173.9999999999997
 21
238.3661028831002
 31
0.0
  0
LINE
  5
F18
330
1E
100
AcDbEntity
  8
STEMPEL
100
AcDbLine
 10
276.0
 20
238.3661028831002
 30
0.0
 11
276.0
 21
340.3661028831002
 31
0.0
  0
LINE
  5
F1A
102
{ACAD_REACTORS
330
F7E
102
}
330
1E
100
AcDbEntity
  8
STEMPEL
100
AcDbLine
 10
276.0
 20
340.3661028831002
 30
0.0
 11
274.9999999999999
 21
370.3661028831002
 31
0.0
  0
LINE
  5
F1B
102
{ACAD_REACTORS
330
F7E
102
}
330
1E
100
AcDbEntity
  8
STEMPEL
100
AcDbLine
 10
174.0
 20
340.3661028831002
 30
0.0
 11
175.0
 21
370.3661028831002
 31
0.0
  0
ELLIPSE
  5
F1C
330
1E
100
AcDbEntity
  8
HILF
100
AcDbEllipse
 10
225.0
 20
370.3661028831002
 30
0.0
 11
-49.99999999999992
 21
0.0
 31
0.0
210
0.0
220
0.0
230
-1.0
 40
0.600000000000001
 41
3.141592653589793
 42
6.283185307179586
  0
DIMENSION
  5
F4D
330
1E
100
AcDbEntity
  8
BEM
100
AcDbDimension
  2
*D2
 10
139.3553048658414
 20
470.3661028831001
 30
0.0
 11
132.8553048658413
 21
350.3661028831002
 31
0.0
 70
    32
 71
     5
 42
240.0000000000001
  3
Standard
100
AcDbAlignedDimension
 13
174.699909308207
 23
230.3661028831002
 33
0.0
 14
170.8500000000001
 24
470.3661028831001
 34
0.0
 50
90.0
100
AcDbRotatedDimension
1001
ACAD
1000
DSTYLE
1002
{
1070
    40
1040
2.0
1070
    41
1040
3.5
1070
    42
1040
1.0
1070
    43
1040
7.0
1070
    44
1040
1.0
1070
    73
1070
     0
1070
    74
1070
     0
1070
    77
1070
     1
1070
    78
1070
     8
1070
    79
1070
     2
1070
   140
1040
3.5
1070
   141
1040
1.5
1070
   146
1040
0.5
1070
   147
1040
1.5
1070
   172
1070
     1
1070
   178
1070
     1
1070
   179
1070
     2
1070
   271
1070
     2
1070
   272
1070
     2
1070
   284
1070
     8
1070
   285
1070
     8
1070
   286
1070
     8
1002
}
  0
TEXT
  5
F5A
330
1E
100
AcDbEntity
  8
TEXT
 62
     1
100
AcDbText
 10
211.5355215667764
 20
263.6943593855361
 30
0.0
 40
7.0
  1
DN100
 50
90.0
 41
0.8
  7
GREEKS
100
AcDbText
  0
ARC
  5
F5D
102
{ACAD_REACTORS
330
F7E
102
}
330
1E
100
AcDbEntity
  8
SCHRAFF
100
AcDbCircle
 10
273.4999417201674
 20
370.3402685784364
 30
0.0
 40
3.377254518418056
100
AcDbArc
 50
298.2796110893941
 51
63.63007141834962
  0
ARC
  5
F5E
102
{ACAD_REACTORS
330
F7E
102
}
330
1E
100
AcDbEntity
  8
SCHRAFF
100
AcDbCircle
 10
176.5000582798325
 20
370.3402685784364
 30
0.0
 40
3.377254518418056
100
AcDbArc
 50
116.3699285816504
 51
241.7203889106058
  0
ARC
  5
F5F
330
1E
100
AcDbEntity
  8
SCHRAFF
100
AcDbCircle
 10
172.3506523296124
 20
369.9587310640188
 30
0.0
 40
5.0
100
AcDbArc
 50
323.1301023541569
 51
36.86989764584403
  0
ARC
  5
F60
330
1E
100
AcDbEntity
  8
SCHRAFF
100
AcDbCircle
 10
177.3506523296124
 20
369.9587310640188
 30
0.0
 40
5.0
100
AcDbArc
 50
323.1301023541569
 51
36.86989764584403
  0
ARC
  5
F61
330
1E
100
AcDbEntity
  8
SCHRAFF
100
AcDbCircle
 10
182.3506523296124
 20
369.9587310640188
 30
0.0
 40
5.0
100
AcDbArc
 50
323.1301023541569
 51
36.86989764584403
  0
ARC
  5
F62
330
1E
100
AcDbEntity
  8
SCHRAFF
100
AcDbCircle
 10
187.3506523296124
 20
369.9587310640188
 30
0.0
 40
5.0
100
AcDbArc
 50
323.1301023541569
 51
36.86989764584403
  0
ARC
  5
F63
330
1E
100
AcDbEntity
  8
SCHRAFF
100
AcDbCircle
 10
192.3506523296124
 20
369.9587310640188
 30
0.0
 40
5.0
100
AcDbArc
 50
323.1301023541569
 51
36.86989764584403
  0
ARC
  5
F64
330
1E
100
AcDbEntity
  8
SCHRAFF
100
AcDbCircle
 10
197.3506523296124
 20
369.9587310640188
 30
0.0
 40
5.0
100
AcDbArc
 50
323.1301023541569
 51
36.86989764584403
  0
ARC
  5
F65
330
1E
100
AcDbEntity
  8
SCHRAFF
100
AcDbCircle
 10
202.3506523296124
 20
369.9587310640188
 30
0.0
 40
5.0
100
AcDbArc
 50
323.1301023541569
 51
36.86989764584403
  0
ARC
  5
F66
330
1E
100
AcDbEntity
  8
SCHRAFF
100
AcDbCircle
 10
207.3506523296124
 20
369.9587310640188
 30
0.0
 40
5.0
100
AcDbArc
 50
323.1301023541569
 51
36.86989764584403
  0
ARC
  5
F67
330
1E
100
AcDbEntity
  8
SCHRAFF
100
AcDbCircle
 10
212.3506523296124
 20
369.9587310640188
 30
0.0
 40
5.0
100
AcDbArc
 50
323.1301023541569
 51
36.86989764584403
  0
ARC
  5
F68
330
1E
100
AcDbEntity
  8
SCHRAFF
100
AcDbCircle
 10
217.3506523296124
 20
369.9587310640188
 30
0.0
 40
5.0
100
AcDbArc
 50
323.1301023541569
 51
36.86989764584403
  0
ARC
  5
F69
330
1E
100
AcDbEntity
  8
SCHRAFF
100
AcDbCircle
 10
222.3506523296123
 20
369.9587310640188
 30
0.0
 40
5.0
100
AcDbArc
 50
323.1301023541569
 51
36.86989764584403
  0
ARC
  5
F6A
330
1E
100
AcDbEntity
  8
SCHRAFF
100
AcDbCircle
 10
227.3506523296123
 20
369.9587310640188
 30
0.0
 40
5.0
100
AcDbArc
 50
323.1301023541569
 51
36.86989764584403
  0
ARC
  5
F6C
330
1E
100
AcDbEntity
  8
SCHRAFF
100
AcDbCircle
 10
232.3506523296123
 20
369.9587310640188
 30
0.0
 40
5.0
100
AcDbArc
 50
323.1301023541569
 51
36.86989764584403
  0
ARC
  5
F6D
330
1E
100
AcDbEntity
  8
SCHRAFF
100
AcDbCircle
 10
237.3506523296123
 20
369.9587310640188
 30
0.0
 40
5.0
100
AcDbArc
 50
323.1301023541569
 51
36.86989764584403
  0
ARC
  5
F6E
330
1E
100
AcDbEntity
  8
SCHRAFF
100
AcDbCircle
 10
242.3506523296123
 20
369.9587310640188
 30
0.0
 40
5.0
100
AcDbArc
 50
323.1301023541569
 51
36.86989764584403
  0
ARC
  5
F6F
330
1E
100
AcDbEntity
  8
SCHRAFF
100
AcDbCircle
 10
247.3506523296123
 20
369.9587310640188
 30
0.0
 40
5.0
100
AcDbArc
 50
323.1301023541569
 51
36.86989764584403
  0
ARC
  5
F70
330
1E
100
AcDbEntity
  8
SCHRAFF
100
AcDbCircle
 10
252.3506523296123
 20
369.9587310640188
 30
0.0
 40
5.0
100
AcDbArc
 50
323.1301023541569
 51
36.86989764584403
  0
ARC
  5
F71
330
1E
100
AcDbEntity
  8
SCHRAFF
100
AcDbCircle
 10
257.3506523296123
 20
369.9587310640188
 30
0.0
 40
5.0
100
AcDbArc
 50
323.1301023541569
 51
36.86989764584403
  0
ARC
  5
F72
330
1E
100
AcDbEntity
  8
SCHRAFF
100
AcDbCircle
 10
262.3506523296123
 20
369.9587310640188
 30
0.0
 40
5.0
100
AcDbArc
 50
323.1301023541569
 51
36.86989764584403
  0
ARC
  5
F73
330
1E
100
AcDbEntity
  8
SCHRAFF
100
AcDbCircle
 10
267.3506523296123
 20
369.9587310640188
 30
0.0
 40
5.0
100
AcDbArc
 50
323.1301023541569
 51
36.86989764584403
  0
HATCH
  5
F7E
330
1E
100
AcDbEntity
  8
SCHRAFF
100
AcDbHatch
 10
0.0
 20
0.0
 30
0.0
210
0.0
220
0.0
230
1.0
  2
_USER
 70
     0
 71
     1
 91
        2
 92
        7
 72
     1
 73
     1
 93
        3
 10
274.9999999999999
 20
370.3661028831002
 42
0.0
 10
275.0999999999999
 20
367.3661028831002
 42
0.608909091052266
 10
275.0
 20
373.3661028831003
 42
0.0
 97
        3
330
F1A
330
EE5
330
F5D
 92
        7
 72
     1
 73
     1
 93
        3
 10
175.0
 20
370.3661028831001
 42
0.0
 10
175.0
 20
373.3661028831003
 42
0.6089090910522663
 10
174.9
 20
367.3661028831002
 42
0.0
 97
        3
330
F5E
330
EE4
330
F1B
 75
     0
 76
     0
 52
0.0
 41
0.1
 77
     0
 78
     1
 53
0.0
 43
0.0
 44
716.5242475728921
 45
0.0
 46
-0.1
 79
     0
 47
0.2036854952018502
 98
        2
 10
275.9097787142564
 20
370.5871239788455
 10
174.215588562623
 20
369.7723817376625
  0
DIMENSION
  5
F84
330
1E
100
AcDbEntity
  8
SCHRAFF
100
AcDbDimension
  2
*D3
 10
275.9999999999998
 20
210.645572479377
 30
0.0
 11
224.9999999999998
 21
217.145572479377
 31
0.0
 70
    32
  1
%%c<>
 71
     5
 42
102.0000000000001
  3
Standard
100
AcDbAlignedDimension
 13
173.9999999999997
 23
238.3661028831002
 33
0.0
 14
275.9999999999998
 24
238.3661028831002
 34
0.0
100
AcDbRotatedDimension
1001
ACAD
1000
DSTYLE
1002
{
1070
    40
1040
2.0
1070
    41
1040
3.5
1070
    42
1040
1.0
1070
    43
1040
7.0
1070
    44
1040
1.0
1070
    73
1070
     0
1070
    74
1070
     0
1070
    77
1070
     1
1070
    78
1070
     8
1070
    79
1070
     2
1070
   140
1040
3.5
1070
   141
1040
1.5
1070
   146
1040
0.5
1070
   147
1040
1.5
1070
   172
1070
     1
1070
   178
1070
     1
1070
   179
1070
     2
1070
   271
1070
     2
1070
   272
1070
     2
1070
   284
1070
     8
1070
   285
1070
     8
1070
   286
1070
     8
1002
}
  0
LINE
  5
FE9
330
1E
100
AcDbEntity
  8
HILF
100
AcDbLine
 10
276.0
 20
238.3661028831002
 30
0.0
 11
176.0076396750864
 21
238.3661028831002
 31
0.0
  0
LINE
  5
FEA
330
1E
100
AcDbEntity
  8
STEMPEL
100
AcDbLine
 10
173.9999999999997
 20
238.3661028831002
 30
0.0
 11
174.0
 21
340.3661028831002
 31
0.0
  0
LINE
  5
FED
330
1E
100
AcDbEntity
  8
STEMPEL
100
AcDbLine
 10
275.300090691793
 20
230.3661028831005
 30
0.0
 11
276.0000000000003
 21
238.3661028831006
 31
0.0
  0
SPLINE
  5
1023
102
{ACAD_REACTORS
330
11D3
102
}
330
1E
100
AcDbEntity
  8
HILF
100
AcDbSpline
210
0.0
220
0.0
230
1.0
 70
     8
 71
     3
 72
    15
 73
    11
 74
     0
 42
0.0000000001
 43
0.0000000001
 40
2.343740074098449
 40
2.343740074098449
 40
2.343740074098449
 40
2.343740074098449
 40
11.34764213187832
 40
23.7130226869154
 40
43.67299755953028
 40
56.0002596757232
 40
70.90651866618014
 40
83.61204171638862
 40
93.93372646456167
 40
105.2189611517529
 40
105.2189611517529
 40
105.2189611517529
 40
105.2189611517529
 10
274.9999999999996
 20
382.4176729046954
 30
0.0
 10
272.0741224662822
 20
383.5180305917987
 30
0.0
 10
265.1393890234774
 20
385.591844724495
 30
0.0
 10
251.9352037142878
 20
377.6527467350486
 30
0.0
 10
236.9055115802022
 20
387.4834943790162
 30
0.0
 10
221.799880078655
 20
378.1744224340798
 30
0.0
 10
208.6307306473903
 20
387.3206609644189
 30
0.0
 10
196.3837057085134
 20
378.041547241973
 30
0.0
 10
185.6327197729473
 20
385.7633351298425
 30
0.0
 10
178.6598532259884
 20
383.9073521905783
 30
0.0
 10
175.0000000000253
 20
382.3436686958292
 30
0.0
  0
LINE
  5
1024
330
1E
100
AcDbEntity
  8
HILF
100
AcDbLine
 10
269.4984428358759
 20
395.4316331800356
 30
0.0
 11
180.5015571641241
 21
395.4316331800356
 31
0.0
  0
LINE
  5
1025
330
1E
100
AcDbEntity
  8
HILF
100
AcDbLine
 10
272.5507497977821
 20
403.1107131962849
 30
0.0
 11
177.4492502022179
 21
403.1107131962849
 31
0.0
  0
LINE
  5
1026
102
{ACAD_REACTORS
330
11D3
102
}
330
1E
100
AcDbEntity
  8
STEMPEL
100
AcDbLine
 10
170.85
 20
470.3661028831001
 30
0.0
 11
279.15
 21
470.3661028831001
 31
0.0
  0
LINE
  5
1027
102
{ACAD_REACTORS
330
11D3
102
}
330
1E
100
AcDbEntity
  8
STEMPEL
100
AcDbLine
 10
178.0000000000001
 20
390.883429815392
 30
0.0
 11
178.0000000000001
 21
383.4685586158199
 31
0.0
  0
LINE
  5
1028
102
{ACAD_REACTORS
330
11D3
102
}
330
1E
100
AcDbEntity
  8
STEMPEL
100
AcDbLine
 10
170.85
 20
470.3661028831001
 30
0.0
 11
170.85
 21
406.7745436844699
 31
0.0
  0
LINE
  5
1029
102
{ACAD_REACTORS
330
11D3
102
}
330
1E
100
AcDbEntity
  8
STEMPEL
100
AcDbLine
 10
173.85
 20
470.3661028831001
 30
0.0
 11
173.85
 21
406.7745436844699
 31
0.0
  0
ARC
  5
102A
102
{ACAD_REACTORS
330
11D3
102
}
330
1E
100
AcDbEntity
  8
STEMPEL
100
AcDbCircle
 10
188.35
 20
406.7745436844699
 30
0.0
 40
17.5
100
AcDbArc
 50
180.0
 51
209.2720742173054
  0
ARC
  5
102B
102
{ACAD_REACTORS
330
11D3
102
}
330
1E
100
AcDbEntity
  8
STEMPEL
100
AcDbCircle
 10
188.35
 20
406.7745436844699
 30
0.0
 40
14.5
100
AcDbArc
 50
180.0
 51
209.2720742173054
  0
ARC
  5
102C
102
{ACAD_REACTORS
330
11D3
102
}
330
1E
100
AcDbEntity
  8
STEMPEL
100
AcDbCircle
 10
160.0000000000001
 20
390.883429815392
 30
0.0
 40
15.0
100
AcDbArc
 50
0.0
 51
29.2720742173054
  0
ARC
  5
102D
102
{ACAD_REACTORS
330
11D3
102
}
330
1E
100
AcDbEntity
  8
STEMPEL
100
AcDbCircle
 10
160.0000000000001
 20
390.883429815392
 30
0.0
 40
18.0
100
AcDbArc
 50
0.0
 51
29.2720742173054
  0
LINE
  5
102E
102
{ACAD_REACTORS
330
11D3
102
}
330
1E
100
AcDbEntity
  8
STEMPEL
100
AcDbLine
 10
272.0
 20
390.883429815392
 30
0.0
 11
272.0
 21
383.432336432065
 31
0.0
  0
ARC
  5
102F
102
{ACAD_REACTORS
330
11D3
102
}
330
1E
100
AcDbEntity
  8
STEMPEL
100
AcDbCircle
 10
261.6500000000001
 20
406.7745436844699
 30
0.0
 40
17.5
100
AcDbArc
 50
330.7279257826946
 51
0.0
  0
LINE
  5
1030
102
{ACAD_REACTORS
330
11D3
102
}
330
1E
100
AcDbEntity
  8
STEMPEL
100
AcDbLine
 10
276.15
 20
470.3661028831001
 30
0.0
 11
276.1500000000001
 21
406.7745436844699
 31
0.0
  0
ARC
  5
1031
102
{ACAD_REACTORS
330
11D3
102
}
330
1E
100
AcDbEntity
  8
STEMPEL
100
AcDbCircle
 10
261.6500000000001
 20
406.7745436844699
 30
0.0
 40
14.5
100
AcDbArc
 50
330.7279257826946
 51
0.0
  0
ARC
  5
1032
102
{ACAD_REACTORS
330
11D3
102
}
330
1E
100
AcDbEntity
  8
STEMPEL
100
AcDbCircle
 10
290.0
 20
390.883429815392
 30
0.0
 40
18.0
100
AcDbArc
 50
150.7279257826946
 51
180.0
  0
ARC
  5
1033
102
{ACAD_REACTORS
330
11D3
102
}
330
1E
100
AcDbEntity
  8
STEMPEL
100
AcDbCircle
 10
290.0
 20
390.883429815392
 30
0.0
 40
15.0
100
AcDbArc
 50
150.7279257826946
 51
180.0
  0
LINE
  5
1034
102
{ACAD_REACTORS
330
11D3
102
}
330
1E
100
AcDbEntity
  8
STEMPEL
100
AcDbLine
 10
279.15
 20
470.3661028831001
 30
0.0
 11
279.1500000000001
 21
406.7745436844699
 31
0.0
  0
LWPOLYLINE
  5
1035
330
1E
100
AcDbEntity
  8
BEM
 62
     1
100
AcDbPolyline
 90
        4
 70
     1
 43
0.0
 10
207.792175698736
 20
492.5395477142606
 10
207.792175698736
 20
485.5395477142605
 10
214.792175698736
 20
485.5395477142605
 10
214.792175698736
 20
492.5395477142606
  0
DIMENSION
  5
1036
330
1E
100
AcDbEntity
  8
BEM
100
AcDbDimension
  2
*D4
 10
276.15
 20
482.510831173801
 30
0.0
 11
227.3824856608582
 21
482.510831173801
 31
0.0
 70
   160
 71
     5
 42
102.2999999999999
  3
Standard
100
AcDbAlignedDimension
 13
173.85
 23
470.3661028831001
 33
0.0
 14
276.15
 24
470.3661028831001
 34
0.0
100
AcDbRotatedDimension
1001
ACAD
1000
DSTYLE
1002
{
1070
    40
1040
2.0
1070
    41
1040
3.5
1070
    42
1040
1.0
1070
    43
1040
7.0
1070
    44
1040
1.0
1070
    73
1070
     0
1070
    74
1070
     0
1070
    77
1070
     1
1070
    78
1070
     8
1070
    79
1070
     2
1070
   140
1040
3.5
1070
   141
1040
1.5
1070
   146
1040
0.5
1070
   147
1040
1.5
1070
   172
1070
     1
1070
   178
1070
     1
1070
   179
1070
     2
1070
   271
1070
     2
1070
   272
1070
     2
1070
   284
1070
     8
1070
   285
1070
     8
1070
   286
1070
     8
1002
}
  0
DIMENSION
  5
1037
330
1E
100
AcDbEntity
  8
BEM
100
AcDbDimension
  2
*D5
 10
156.7624371912831
 20
400.3661028831002
 30
0.0
 11
150.262437191283
 21
435.3661028831003
 31
0.0
 70
    32
 71
     5
 42
70.0
  3
Standard
100
AcDbAlignedDimension
 13
170.85
 23
470.3661028831001
 33
0.0
 14
172.0655937628866
 24
400.3661028831002
 34
0.0
 50
90.0
100
AcDbRotatedDimension
1001
ACAD
1000
DSTYLE
1002
{
1070
    40
1040
2.0
1070
    41
1040
3.5
1070
    42
1040
1.0
1070
    43
1040
7.0
1070
    44
1040
1.0
1070
    73
1070
     0
1070
    74
1070
     0
1070
    77
1070
     1
1070
    78
1070
     8
1070
    79
1070
     2
1070
   140
1040
3.5
1070
   141
1040
1.5
1070
   146
1040
0.5
1070
   147
1040
1.5
1070
   172
1070
     1
1070
   178
1070
     1
1070
   179
1070
     2
1070
   271
1070
     2
1070
   272
1070
     2
1070
   284
1070
     8
1070
   285
1070
     8
1070
   286
1070
     8
1002
}
  0
LINE
  5
106B
330
1E
100
AcDbEntity
  8
MITTEL
100
AcDbLine
 10
225.0
 20
475.3661028830998
 30
0.0
 11
225.0
 21
363.1125434482437
 31
0.0
  0
LINE
  5
1163
330
1E
100
AcDbEntity
  8
MITTEL
100
AcDbLine
 10
225.0
 20
347.2334976395743
 30
0.0
 11
225.0
 21
225.3661028831002
 31
0.0
  0
HATCH
  5
11D3
330
1E
100
AcDbEntity
  8
SCHRAFF
100
AcDbHatch
 10
0.0
 20
0.0
 30
0.0
210
0.0
220
0.0
230
1.0
  2
_USER
 70
     0
 71
     1
 91
        2
 92
        5
 93
       10
 72
     1
 10
279.1499999999999
 20
470.3661028831001
 11
276.15
 21
470.3661028831001
 72
     1
 10
276.15
 20
470.3661028831001
 11
276.1500000000001
 21
406.7745436844699
 72
     2
 10
261.6500000000002
 20
406.7745436844699
 40
14.49999999999998
 50
0.0000000000002036
 51
29.2720742173057
 73
     0
 72
     2
 10
290.0
 20
390.8834298153919
 40
17.99999999999993
 50
150.7279257827008
 51
180.0
 73
     1
 72
     1
 10
272.0
 20
390.8834298153919
 11
272.0
 21
383.4323364320145
 72
     4
 94
        3
 73
     0
 74
     0
 95
        8
 96
        4
 40
2.343740074098448
 40
2.343740074098448
 40
2.343740074098448
 40
2.343740074098448
 40
5.423114416231667
 40
5.423114416231667
 40
5.423114416231667
 40
5.423114416231667
 10
272.0000000000009
 20
383.4323364320141
 10
272.9991349894685
 20
383.1438271935363
 10
273.9993369377256
 20
382.7940001022917
 10
274.9999999999996
 20
382.4176729046954
 72
     1
 10
274.9999999999999
 20
382.4176729046953
 11
274.9999999999999
 21
390.883429815392
 72
     2
 10
289.9999999999998
 20
390.8834298153918
 40
14.99999999999996
 50
180.0000000000008
 51
209.2720742173064
 73
     0
 72
     2
 10
261.6500000000002
 20
406.77454368447
 40
17.49999999999996
 50
330.727925782701
 51
359.9999999999996
 73
     1
 72
     1
 10
279.1500000000001
 20
406.7745436844699
 11
279.1499999999999
 21
470.3661028831001
 97
       10
330
1026
330
1030
330
1031
330
1032
330
102E
330
1023
330
EE5
330
1033
330
102F
330
1034
 92
        5
 93
       10
 72
     1
 10
173.85
 20
470.3661028831001
 11
170.85
 21
470.3661028831002
 72
     1
 10
170.85
 20
470.3661028831002
 11
170.85
 21
406.7745436844699
 72
     2
 10
188.35
 20
406.7745436844699
 40
17.49999999999994
 50
180.0
 51
209.2720742173017
 73
     1
 72
     2
 10
160.0000000000001
 20
390.8834298153921
 40
14.99999999999996
 50
330.7279257826988
 51
360.0000000000004
 73
     0
 72
     1
 10
175.0
 20
390.883429815392
 11
175.0
 21
382.3436686958185
 72
     4
 94
        3
 73
     0
 74
     0
 95
        8
 96
        4
 40
102.130508144305
 40
102.130508144305
 40
102.130508144305
 40
102.130508144305
 40
105.2189611517529
 40
105.2189611517529
 40
105.2189611517529
 40
105.2189611517529
 10
175.0000000000253
 20
382.3436686958292
 10
176.001599436444
 20
382.7716051212485
 10
177.0018549190767
 20
383.1550299785275
 10
177.9999999999999
 20
383.4685586158128
 72
     1
 10
178.0000000000002
 20
383.468558615813
 11
178.0000000000001
 21
390.883429815392
 72
     2
 10
160.0000000000001
 20
390.8834298153919
 40
17.99999999999996
 50
0.0000000000005428
 51
29.27207421730183
 73
     1
 72
     2
 10
188.35
 20
406.7745436844699
 40
14.49999999999995
 50
150.7279257826979
 51
180.0
 73
     0
 72
     1
 10
173.85
 20
406.7745436844699
 11
173.85
 21
470.3661028831001
 97
       10
330
1026
330
1028
330
102A
330
102C
330
EE4
330
1023
330
1027
330
102D
330
102B
330
1029
 75
     0
 76
     0
 52
45.0
 41
2.0
 77
     0
 78
     1
 53
45.0
 43
0.0
 44
0.0
 45
-1.414213562373094
 46
1.414213562373095
 79
     0
 47
0.2398533235639947
 98
        2
 10
278.1029181500717
 20
454.5042691868791
 10
172.5102119862658
 20
448.9876436052067
  0
ENDSEC
  0
SECTION
  2
OBJECTS
  0
DICTIONARY
  5
C
330
0
100
AcDbDictionary
281
     1
  3
ACAD_COLOR
350
DF
  3
ACAD_GROUP
350
D
  3
ACAD_LAYOUT
350
19
  3
ACAD_MATERIAL
350
DE
  3
ACAD_MLINESTYLE
350
16
  3
ACAD_PLOTSETTINGS
350
18
  3
ACAD_PLOTSTYLENAME
350
E
  3
AcDbVariableDictionary
350
EA
  0
DICTIONARY
  5
A0
330
1E
100
AcDbDictionary
280
     1
281
     1
  3
ACAD_LAYOUTSELFREF
360
D4
  0
DICTIONARY
  5
A2
330
1A
100
AcDbDictionary
280
     1
281
     1
  3
ACAD_LAYOUTSELFREF
360
D3
  0
DICTIONARY
  5
DF
102
{ACAD_REACTORS
330
C
102
}
330
C
100
AcDbDictionary
281
     1
  0
DICTIONARY
  5
D
102
{ACAD_REACTORS
330
C
102
}
330
C
100
AcDbDictionary
281
     1
  0
DICTIONARY
  5
19
102
{ACAD_REACTORS
330
C
102
}
330
C
100
AcDbDictionary
281
     1
  3
Layout1
350
1D
  3
Model
350
21
  0
DICTIONARY
  5
DE
102
{ACAD_REACTORS
330
C
102
}
330
C
100
AcDbDictionary
281
     1
  0
DICTIONARY
  5
16
102
{ACAD_REACTORS
330
C
102
}
330
C
100
AcDbDictionary
281
     1
  3
Standard
350
17
  0
DICTIONARY
  5
18
102
{ACAD_REACTORS
330
C
102
}
330
C
100
AcDbDictionary
281
     1
  0
ACDBDICTIONARYWDFLT
  5
E
102
{ACAD_REACTORS
330
C
102
}
330
C
100
AcDbDictionary
281
     1
  3
Normal
350
F
100
AcDbDictionaryWithDefault
340
F
  0
DICTIONARY
  5
EA
102
{ACAD_REACTORS
330
C
102
}
330
C
100
AcDbDictionary
281
     1
  3
DIMASSOC
350
EB
  3
PROJECTNAME
350
EC
  0
XRECORD
  5
D4
102
{ACAD_REACTORS
330
A0
102
}
330
A0
100
AcDbXrecord
280
     1
340
1E
  0
XRECORD
  5
D3
102
{ACAD_REACTORS
330
A2
102
}
330
A2
100
AcDbXrecord
280
     1
340
1A
  0
LAYOUT
  5
1D
102
{ACAD_REACTORS
330
19
102
}
330
19
100
AcDbPlotSettings
  1

  2
\\NT_WORK01\HP LaserJet 5000 PCL 6
  4

  6

 40
0.0
 41
0.0
 42
0.0
 43
0.0
 44
0.0
 45
0.0
 46
0.0
 47
0.0
 48
0.0
 49
0.0
140
0.0
141
0.0
142
1.0
143
1.0
 70
   688
 72
     0
 73
     0
 74
     5
  7

 75
    16
147
1.0
 76
     0
 77
     2
 78
   300
148
0.0
149
0.0
100
AcDbLayout
  1
Layout1
 70
     0
 71
     1
 10
0.0
 20
0.0
 11
12.0
 21
9.0
 12
0.0
 22
0.0
 32
0.0
 14
1.000000000000000E+20
 24
1.000000000000000E+20
 34
1.000000000000000E+20
 15
-1.000000000000000E+20
 25
-1.000000000000000E+20
 35
-1.000000000000000E+20
146
0.0
 13
0.0
 23
0.0
 33
0.0
 16
1.0
 26
0.0
 36
0.0
 17
0.0
 27
1.0
 37
0.0
 76
     0
330
1A
  0
LAYOUT
  5
21
102
{ACAD_REACTORS
330
19
102
}
330
19
100
AcDbPlotSettings
  1

  2
none_device
  4
Letter_(8.50_x_11.00_Inches)
  6

 40
6.349999904632568
 41
6.349999904632568
 42
6.350006103515625
 43
6.350006103515625
 44
215.8999938964844
 45
279.3999938964844
 46
0.0
 47
0.0
 48
0.0
 49
0.0
140
0.0
141
0.0
142
1.0
143
1.0
 70
 11952
 72
     0
 73
     1
 74
     0
  7

 75
     0
147
1.0
 76
     0
 77
     2
 78
   300
148
2285.976159887129
149
76.17598236853753
100
AcDbLayout
  1
Model
 70
     1
 71
     0
 10
0.0
 20
0.0
 11
12.0
 21
9.0
 12
0.0
 22
0.0
 32
0.0
 14
0.0
 24
0.0
 34
0.0
 15
0.0
 25
0.0
 35
0.0
146
0.0
 13
0.0
 23
0.0
 33
0.0
 16
1.0
 26
0.0
 36
0.0
 17
0.0
 27
1.0
 37
0.0
 76
     0
330
1E
  0
MLINESTYLE
  5
17
102
{ACAD_REACTORS
330
16
102
}
330
16
100
AcDbMlineStyle
  2
STANDARD
 70
     0
  3

 62
   256
 51
90.0
 52
90.0
 71
     2
 49
0.5
 62
   256
  6
BYLAYER
 49
-0.5
 62
   256
  6
BYLAYER
  0
ACDBPLACEHOLDER
  5
F
102
{ACAD_REACTORS
330
E
102
}
330
E
  0
DICTIONARYVAR
  5
EB
102
{ACAD_REACTORS
330
EA
102
}
330
EA
100
DictionaryVariables
280
     0
  1
1
  0
DICTIONARYVAR
  5
EC
102
{ACAD_REACTORS
330
EA
102
}
330
EA
100
DictionaryVariables
280
     0
  1

  0
ENDSEC
  0
EOF
