  0
SECTION
  2
HEADER
  9
$ACADVER
  1
AC1018
  9
$ACADMAINTVER
 70
     2
  9
$DWGCODEPAGE
  3
ANSI_1252
  9
$INSBASE
 10
0.0
 20
0.0
 30
0.0
  9
$EXTMIN
 10
0.0
 20
-0.0000000000001137
 30
0.0
  9
$EXTMAX
 10
840.0000000000002
 20
594.0
 30
0.0
  9
$LIMMIN
 10
0.0
 20
0.0
  9
$LIMMAX
 10
840.0000000000002
 20
593.9999999999998
  9
$ORTHOMODE
 70
     1
  9
$REGENMODE
 70
     1
  9
$FILLMODE
 70
     1
  9
$QTEXTMODE
 70
     0
  9
$MIRRTEXT
 70
     1
  9
$LTSCALE
 40
20.0
  9
$ATTMODE
 70
     1
  9
$TEXTSIZE
 40
3.5
  9
$TRACEWID
 40
1.0
  9
$TEXTSTYLE
  7
STANDARD
  9
$CLAYER
  8
VOLL
  9
$CELTYPE
  6
ByLayer
  9
$CECOLOR
 62
   256
  9
$CELTSCALE
 40
1.0
  9
$DISPSILH
 70
     0
  9
$DIMSCALE
 40
2.0
  9
$DIMASZ
 40
3.5
  9
$DIMEXO
 40
1.0
  9
$DIMDLI
 40
7.0
  9
$DIMRND
 40
0.0
  9
$DIMDLE
 40
0.0
  9
$DIMEXE
 40
1.0
  9
$DIMTP
 40
0.0
  9
$DIMTM
 40
0.0
  9
$DIMTXT
 40
3.5
  9
$DIMCEN
 40
1.5
  9
$DIMTSZ
 40
0.0
  9
$DIMTOL
 70
     0
  9
$DIMLIM
 70
     0
  9
$DIMTIH
 70
     0
  9
$DIMTOH
 70
     0
  9
$DIMSE1
 70
     0
  9
$DIMSE2
 70
     0
  9
$DIMTAD
 70
     1
  9
$DIMZIN
 70
     8
  9
$DIMBLK
  1

  9
$DIMASO
 70
     1
  9
$DIMSHO
 70
     0
  9
$DIMPOST
  1

  9
$DIMAPOST
  1

  9
$DIMALT
 70
     0
  9
$DIMALTD
 70
     2
  9
$DIMALTF
 40
25.4
  9
$DIMLFAC
 40
1.0
  9
$DIMTOFL
 70
     1
  9
$DIMTVP
 40
0.0
  9
$DIMTIX
 70
     0
  9
$DIMSOXD
 70
     0
  9
$DIMSAH
 70
     0
  9
$DIMBLK1
  1

  9
$DIMBLK2
  1

  9
$DIMSTYLE
  2
Standard
  9
$DIMCLRD
 70
     0
  9
$DIMCLRE
 70
     0
  9
$DIMCLRT
 70
     1
  9
$DIMTFAC
 40
0.5142857142857144
  9
$DIMGAP
 40
1.5
  9
$DIMJUST
 70
     0
  9
$DIMSD1
 70
     0
  9
$DIMSD2
 70
     0
  9
$DIMTOLJ
 70
     1
  9
$DIMTZIN
 70
     8
  9
$DIMALTZ
 70
     8
  9
$DIMALTTZ
 70
     8
  9
$DIMUPT
 70
     0
  9
$DIMDEC
 70
     2
  9
$DIMTDEC
 70
     2
  9
$DIMALTU
 70
     2
  9
$DIMALTTD
 70
     2
  9
$DIMTXSTY
  7
STANDARD
  9
$DIMAUNIT
 70
     0
  9
$DIMADEC
 70
     2
  9
$DIMALTRND
 40
0.0
  9
$DIMAZIN
 70
     2
  9
$DIMDSEP
 70
    46
  9
$DIMATFIT
 70
     3
  9
$DIMFRAC
 70
     0
  9
$DIMLDRBLK
  1

  9
$DIMLUNIT
 70
     2
  9
$DIMLWD
 70
    -2
  9
$DIMLWE
 70
    -2
  9
$DIMTMOVE
 70
     0
  9
$LUNITS
 70
     2
  9
$LUPREC
 70
     2
  9
$SKETCHINC
 40
1.0
  9
$FILLETRAD
 40
0.0
  9
$AUNITS
 70
     0
  9
$AUPREC
 70
     0
  9
$MENU
  1
ACAD
  9
$ELEVATION
 40
0.0
  9
$PELEVATION
 40
0.0
  9
$THICKNESS
 40
0.0
  9
$LIMCHECK
 70
     0
  9
$CHAMFERA
 40
0.0
  9
$CHAMFERB
 40
0.0
  9
$CHAMFERC
 40
0.0
  9
$CHAMFERD
 40
0.0
  9
$SKPOLY
 70
     0
  9
$TDCREATE
 40
2455397.825393172
  9
$TDUCREATE
 40
2455397.783726505
  9
$TDUPDATE
 40
2455889.465958403
  9
$TDUUPDATE
 40
2455889.424291736
  9
$TDINDWG
 40
0.1304707755
  9
$TDUSRTIMER
 40
0.1304707755
  9
$USRTIMER
 70
     1
  9
$ANGBASE
 50
0.0
  9
$ANGDIR
 70
     0
  9
$PDMODE
 70
     0
  9
$PDSIZE
 40
0.0
  9
$PLINEWID
 40
0.0
  9
$SPLFRAME
 70
     0
  9
$SPLINETYPE
 70
     6
  9
$SPLINESEGS
 70
     8
  9
$HANDSEED
  5
14A7
  9
$SURFTAB1
 70
     6
  9
$SURFTAB2
 70
     6
  9
$SURFTYPE
 70
     6
  9
$SURFU
 70
     6
  9
$SURFV
 70
     6
  9
$UCSBASE
  2

  9
$UCSNAME
  2

  9
$UCSORG
 10
0.0
 20
0.0
 30
0.0
  9
$UCSXDIR
 10
1.0
 20
0.0
 30
0.0
  9
$UCSYDIR
 10
0.0
 20
1.0
 30
0.0
  9
$UCSORTHOREF
  2

  9
$UCSORTHOVIEW
 70
     0
  9
$UCSORGTOP
 10
0.0
 20
0.0
 30
0.0
  9
$UCSORGBOTTOM
 10
0.0
 20
0.0
 30
0.0
  9
$UCSORGLEFT
 10
0.0
 20
0.0
 30
0.0
  9
$UCSORGRIGHT
 10
0.0
 20
0.0
 30
0.0
  9
$UCSORGFRONT
 10
0.0
 20
0.0
 30
0.0
  9
$UCSORGBACK
 10
0.0
 20
0.0
 30
0.0
  9
$PUCSBASE
  2

  9
$PUCSNAME
  2

  9
$PUCSORG
 10
0.0
 20
0.0
 30
0.0
  9
$PUCSXDIR
 10
1.0
 20
0.0
 30
0.0
  9
$PUCSYDIR
 10
0.0
 20
1.0
 30
0.0
  9
$PUCSORTHOREF
  2

  9
$PUCSORTHOVIEW
 70
     0
  9
$PUCSORGTOP
 10
0.0
 20
0.0
 30
0.0
  9
$PUCSORGBOTTOM
 10
0.0
 20
0.0
 30
0.0
  9
$PUCSORGLEFT
 10
0.0
 20
0.0
 30
0.0
  9
$PUCSORGRIGHT
 10
0.0
 20
0.0
 30
0.0
  9
$PUCSORGFRONT
 10
0.0
 20
0.0
 30
0.0
  9
$PUCSORGBACK
 10
0.0
 20
0.0
 30
0.0
  9
$USERI1
 70
     0
  9
$USERI2
 70
     0
  9
$USERI3
 70
     0
  9
$USERI4
 70
     0
  9
$USERI5
 70
     0
  9
$USERR1
 40
0.0
  9
$USERR2
 40
0.0
  9
$USERR3
 40
0.0
  9
$USERR4
 40
0.0
  9
$USERR5
 40
0.0
  9
$WORLDVIEW
 70
     1
  9
$SHADEDGE
 70
     3
  9
$SHADEDIF
 70
    70
  9
$TILEMODE
 70
     1
  9
$MAXACTVP
 70
    16
  9
$PINSBASE
 10
0.0
 20
0.0
 30
0.0
  9
$PLIMCHECK
 70
     0
  9
$PEXTMIN
 10
1.000000000000000E+20
 20
1.000000000000000E+20
 30
1.000000000000000E+20
  9
$PEXTMAX
 10
-1.000000000000000E+20
 20
-1.000000000000000E+20
 30
-1.000000000000000E+20
  9
$PLIMMIN
 10
0.0
 20
0.0
  9
$PLIMMAX
 10
12.0
 20
9.0
  9
$UNITMODE
 70
     0
  9
$VISRETAIN
 70
     0
  9
$PLINEGEN
 70
     0
  9
$PSLTSCALE
 70
     0
  9
$TREEDEPTH
 70
  3020
  9
$CMLSTYLE
  2
Standard
  9
$CMLJUST
 70
     0
  9
$CMLSCALE
 40
1.0
  9
$PROXYGRAPHICS
 70
     1
  9
$MEASUREMENT
 70
     0
  9
$CELWEIGHT
370
    -1
  9
$ENDCAPS
280
     0
  9
$JOINSTYLE
280
     0
  9
$LWDISPLAY
290
     0
  9
$INSUNITS
 70
     0
  9
$HYPERLINKBASE
  1

  9
$STYLESHEET
  1
monochrome.ctb
  9
$XEDIT
290
     1
  9
$CEPSNTYPE
380
     0
  9
$PSTYLEMODE
290
     1
  9
$FINGERPRINTGUID
  2
{D68B0D0D-A558-11D7-B632-000102183313}
  9
$VERSIONGUID
  2
{C14F19B6-8581-47D8-8112-BAA608E0B724}
  9
$EXTNAMES
290
     1
  9
$PSVPSCALE
 40
0.0
  9
$OLESTARTUP
290
     0
  9
$SORTENTS
280
   127
  9
$INDEXCTL
280
     0
  9
$HIDETEXT
280
     0
  9
$XCLIPFRAME
290
     0
  9
$HALOGAP
280
     0
  9
$OBSCOLOR
 70
   257
  9
$OBSLTYPE
280
     0
  9
$INTERSECTIONDISPLAY
280
     0
  9
$INTERSECTIONCOLOR
 70
   257
  9
$DIMASSOC
280
     1
  9
$PROJECTNAME
  1

  0
ENDSEC
  0
SECTION
  2
CLASSES
  0
CLASS
  1
ACDBDICTIONARYWDFLT
  2
AcDbDictionaryWithDefault
  3
ObjectDBX Classes
 90
        0
 91
        1
280
     0
281
     0
  0
CLASS
  1
DICTIONARYVAR
  2
AcDbDictionaryVar
  3
ObjectDBX Classes
 90
        0
 91
        2
280
     0
281
     0
  0
ENDSEC
  0
SECTION
  2
TABLES
  0
TABLE
  2
VPORT
  5
8
330
0
100
AcDbSymbolTable
 70
     2
  0
VPORT
  5
14A6
330
8
100
AcDbSymbolTableRecord
100
AcDbViewportTableRecord
  2
*Active
 70
     0
 10
0.0
 20
0.0
 11
1.0
 21
1.0
 12
420.0
 22
296.9999999999999
 13
0.0
 23
0.0
 14
1.0
 24
1.0
 15
10.0
 25
10.0
 16
0.0
 26
0.0
 36
1.0
 17
0.0
 27
0.0
 37
0.0
 40
601.8720902581263
 41
1.395862068965517
 42
50.0
 43
0.0
 44
0.0
 50
0.0
 51
0.0
 71
     0
 72
  1500
 73
     1
 74
     0
 75
     0
 76
     0
 77
     0
 78
     0
281
     0
 65
     1
110
0.0
120
0.0
130
0.0
111
1.0
121
0.0
131
0.0
112
0.0
122
1.0
132
0.0
 79
     0
146
0.0
  0
ENDTAB
  0
TABLE
  2
LTYPE
  5
5
330
0
100
AcDbSymbolTable
 70
     2
  0
LTYPE
  5
13
330
5
100
AcDbSymbolTableRecord
100
AcDbLinetypeTableRecord
  2
ByBlock
 70
     0
  3

 72
    65
 73
     0
 40
0.0
  0
LTYPE
  5
14
330
5
100
AcDbSymbolTableRecord
100
AcDbLinetypeTableRecord
  2
ByLayer
 70
     0
  3

 72
    65
 73
     0
 40
0.0
  0
LTYPE
  5
15
330
5
100
AcDbSymbolTableRecord
100
AcDbLinetypeTableRecord
  2
Continuous
 70
     0
  3
Solid line
 72
    65
 73
     0
 40
0.0
  0
LTYPE
  5
25
330
5
100
AcDbSymbolTableRecord
100
AcDbLinetypeTableRecord
  2
STRICHPUNKT
 70
     0
  3
__ . __ . __ . __ . __ . __ . __ . __ . __ . __
 72
    65
 73
     4
 40
1.0
 49
0.5
 74
     0
 49
-0.25
 74
     0
 49
0.0
 74
     0
 49
-0.25
 74
     0
  0
ENDTAB
  0
TABLE
  2
LAYER
  5
2
330
0
100
AcDbSymbolTable
 70
     9
  0
LAYER
  5
10
330
2
100
AcDbSymbolTableRecord
100
AcDbLayerTableRecord
  2
0
 70
     0
 62
     7
  6
Continuous
370
    -3
390
F
  0
LAYER
  5
2B
330
2
100
AcDbSymbolTableRecord
100
AcDbLayerTableRecord
  2
VOLL
 70
     0
 62
     1
  6
Continuous
370
    -3
390
F
  0
LAYER
  5
2C
330
2
100
AcDbSymbolTableRecord
100
AcDbLayerTableRecord
  2
HILF
 70
     0
 62
     2
  6
Continuous
370
    -3
390
F
  0
LAYER
  5
2D
330
2
100
AcDbSymbolTableRecord
100
AcDbLayerTableRecord
  2
MITTEL
 70
     0
 62
     2
  6
STRICHPUNKT
370
    -3
390
F
  0
LAYER
  5
2F
330
2
100
AcDbSymbolTableRecord
100
AcDbLayerTableRecord
  2
BEM
 70
     0
 62
     7
  6
Continuous
370
    -3
390
F
  0
LAYER
  5
30
330
2
100
AcDbSymbolTableRecord
100
AcDbLayerTableRecord
  2
STEMPEL
 70
     0
 62
     3
  6
Continuous
370
    -3
390
F
  0
LAYER
  5
33
330
2
100
AcDbSymbolTableRecord
100
AcDbLayerTableRecord
  2
TEXT
 70
     0
 62
     7
  6
Continuous
370
    -3
390
F
  0
LAYER
  5
239
330
2
100
AcDbSymbolTableRecord
100
AcDbLayerTableRecord
  2
SCHRAFF
 70
     0
 62
     7
  6
Continuous
370
    -3
390
F
  0
LAYER
  5
23A
330
2
100
AcDbSymbolTableRecord
100
AcDbLayerTableRecord
  2
DEFPOINTS
 70
     0
 62
     7
  6
Continuous
290
     0
370
    -3
390
F
  0
ENDTAB
  0
TABLE
  2
STYLE
  5
3
330
0
100
AcDbSymbolTable
 70
     2
  0
STYLE
  5
11
330
3
100
AcDbSymbolTableRecord
100
AcDbTextStyleTableRecord
  2
STANDARD
 70
     0
 40
0.0
 41
0.8
 50
0.0
 71
     0
 42
3.5
  3
simplex.shx
  4

  0
STYLE
  5
24
330
3
100
AcDbSymbolTableRecord
100
AcDbTextStyleTableRecord
  2
GREEKS
 70
     0
 40
0.0
 41
0.8
 50
0.0
 71
     0
 42
2.5
  3
SIMPLEX.shx
  4

  0
ENDTAB
  0
TABLE
  2
VIEW
  5
6
330
0
100
AcDbSymbolTable
 70
     0
  0
ENDTAB
  0
TABLE
  2
UCS
  5
7
330
0
100
AcDbSymbolTable
 70
     0
  0
ENDTAB
  0
TABLE
  2
APPID
  5
9
330
0
100
AcDbSymbolTable
 70
     1
  0
APPID
  5
12
330
9
100
AcDbSymbolTableRecord
100
AcDbRegAppTableRecord
  2
ACAD
 70
     0
  0
ENDTAB
  0
TABLE
  2
DIMSTYLE
  5
A
330
0
100
AcDbSymbolTable
 70
     1
100
AcDbDimStyleTable
 71
     1
340
A2
  0
DIMSTYLE
105
A2
102
{ACAD_REACTORS
330
E2B
330
E29
330
104E
102
}
330
A
100
AcDbSymbolTableRecord
100
AcDbDimStyleTableRecord
  2
Standard
 70
     0
340
11
  0
ENDTAB
  0
TABLE
  2
BLOCK_RECORD
  5
1
330
0
100
AcDbSymbolTable
 70
     7
  0
BLOCK_RECORD
  5
1E
102
{ACAD_XDICTIONARY
360
DB
102
}
330
1
100
AcDbSymbolTableRecord
100
AcDbBlockTableRecord
  2
*Model_Space
340
21
  0
BLOCK_RECORD
  5
1A
102
{ACAD_XDICTIONARY
360
DD
102
}
330
1
100
AcDbSymbolTableRecord
100
AcDbBlockTableRecord
  2
*Paper_Space
340
1D
  0
BLOCK_RECORD
  5
22
330
1
100
AcDbSymbolTableRecord
100
AcDbBlockTableRecord
  2
LOGO
340
0
102
{BLKREFS
331
56
102
}
  0
BLOCK_RECORD
  5
23
330
1
100
AcDbSymbolTableRecord
100
AcDbBlockTableRecord
  2
LORO
340
0
102
{BLKREFS
331
9B
102
}
  0
BLOCK_RECORD
  5
FAD
330
1
100
AcDbSymbolTableRecord
100
AcDbBlockTableRecord
  2
*D2
340
0
  0
BLOCK_RECORD
  5
FC7
330
1
100
AcDbSymbolTableRecord
100
AcDbBlockTableRecord
  2
*D3
340
0
  0
BLOCK_RECORD
  5
104F
330
1
100
AcDbSymbolTableRecord
100
AcDbBlockTableRecord
  2
*D4
340
0
  0
BLOCK_RECORD
  5
1144
330
1
100
AcDbSymbolTableRecord
100
AcDbBlockTableRecord
  2
8DI931D
340
0
102
{BLKREFS
331
1196
331
11BD
102
}
  0
BLOCK_RECORD
  5
11CB
330
1
100
AcDbSymbolTableRecord
100
AcDbBlockTableRecord
  2
*X6
340
0
102
{BLKREFS
331
12BC
102
}
  0
ENDTAB
  0
ENDSEC
  0
SECTION
  2
BLOCKS
  0
BLOCK
  5
37
330
1E
100
AcDbEntity
  8
0
100
AcDbBlockBegin
  2
*Model_Space
 70
     0
 10
0.0
 20
0.0
 30
0.0
  3
*Model_Space
  1

  0
ENDBLK
  5
38
330
1E
100
AcDbEntity
  8
0
100
AcDbBlockEnd
  0
BLOCK
  5
35
330
1A
100
AcDbEntity
 67
     1
  8
0
100
AcDbBlockBegin
  2
*Paper_Space
 70
     0
 10
0.0
 20
0.0
 30
0.0
  3
*Paper_Space
  1

  0
ENDBLK
  5
36
330
1A
100
AcDbEntity
 67
     1
  8
0
100
AcDbBlockEnd
  0
BLOCK
  5
39
330
22
100
AcDbEntity
  8
0
100
AcDbBlockBegin
  2
LOGO
 70
     0
 10
0.0
 20
0.0
 30
0.0
  3
LOGO
  1

  0
ARC
  5
3A
330
22
100
AcDbEntity
  8
0
100
AcDbCircle
 10
11.59973089678112
 20
-9.271599258481501
 30
0.0
 40
4.5
100
AcDbArc
 50
270.0
 51
231.0575587310159
  0
LINE
  5
3B
330
22
100
AcDbEntity
  8
0
100
AcDbLine
 10
3.599730896781125
 20
-4.771599258481529
 30
0.0
 11
3.599730896781153
 21
-11.77159925848133
 31
0.0
  0
LINE
  5
3C
330
22
100
AcDbEntity
  8
0
100
AcDbLine
 10
2.599730896781125
 20
-4.771599258481529
 30
0.0
 11
2.599730896781153
 21
-11.77159925848133
 31
0.0
  0
CIRCLE
  5
3D
330
22
100
AcDbEntity
  8
0
100
AcDbCircle
 10
11.59973089678112
 20
-9.271599258481501
 30
0.0
 40
3.5
  0
ARC
  5
3E
330
22
100
AcDbEntity
  8
0
100
AcDbCircle
 10
31.59973089678115
 20
-9.271599258481472
 30
0.0
 40
4.5
100
AcDbArc
 50
270.0
 51
231.0575587310182
  0
LINE
  5
3F
330
22
100
AcDbEntity
  8
0
100
AcDbLine
 10
17.59973089678112
 20
-4.771599258481472
 30
0.0
 11
17.59973089678115
 21
-13.77159925848147
 31
0.0
  0
ARC
  5
40
330
22
100
AcDbEntity
  8
0
100
AcDbCircle
 10
22.59973089678116
 20
-7.271599258481472
 30
0.0
 40
2.5
100
AcDbArc
 50
293.1161887722295
 51
90.0
  0
CIRCLE
  5
41
330
22
100
AcDbEntity
  8
0
100
AcDbCircle
 10
31.59973089678115
 20
-9.271599258481472
 30
0.0
 40
3.5
  0
ARC
  5
42
330
22
100
AcDbEntity
  8
0
100
AcDbCircle
 10
4.599730896781153
 20
-11.77159925848133
 30
0.0
 40
1.0
100
AcDbArc
 50
180.0
 51
270.0
  0
ARC
  5
43
330
22
100
AcDbEntity
  8
0
100
AcDbCircle
 10
4.599730896781153
 20
-11.77159925848133
 30
0.0
 40
2.0
100
AcDbArc
 50
179.9999999999992
 51
270.0
  0
LINE
  5
44
330
22
100
AcDbEntity
  8
0
100
AcDbLine
 10
11.59973089678115
 20
-13.77159925848144
 30
0.0
 11
4.599730896781153
 21
-13.77159925848147
 31
0.0
  0
LINE
  5
45
330
22
100
AcDbEntity
  8
0
100
AcDbLine
 10
8.771303772034769
 20
-12.77159925848136
 30
0.0
 11
4.599730896781153
 21
-12.77159925848133
 31
0.0
  0
LINE
  5
46
330
22
100
AcDbEntity
  8
0
100
AcDbLine
 10
31.59973089678115
 20
-13.77159925848147
 30
0.0
 11
23.6715276665056
 21
-13.77159925848144
 31
0.0
  0
LINE
  5
47
330
22
100
AcDbEntity
  8
0
100
AcDbLine
 10
23.56565672307022
 20
-9.51278021337896
 30
0.0
 11
24.4388546544846
 21
-12.77159925848144
 31
0.0
  0
LINE
  5
48
330
22
100
AcDbEntity
  8
0
100
AcDbLine
 10
22.59973089678116
 20
-9.771599258481472
 30
0.0
 11
18.59973089678112
 21
-9.771599258481472
 31
0.0
  0
LINE
  5
49
330
22
100
AcDbEntity
  8
0
100
AcDbLine
 10
18.59973089678115
 20
-13.77159925848144
 30
0.0
 11
17.59973089678115
 21
-13.77159925848144
 31
0.0
  0
LINE
  5
4A
330
22
100
AcDbEntity
  8
0
100
AcDbLine
 10
18.59973089678115
 20
-9.771599258481472
 30
0.0
 11
18.59973089678115
 21
-13.77159925848144
 31
0.0
  0
LINE
  5
4B
330
22
100
AcDbEntity
  8
0
100
AcDbLine
 10
22.59973089678116
 20
-9.771599258481472
 30
0.0
 11
23.67152766650562
 21
-13.77159925848147
 31
0.0
  0
ARC
  5
4C
330
22
100
AcDbEntity
  8
0
100
AcDbCircle
 10
22.59973089678116
 20
-7.271599258481472
 30
0.0
 40
2.5
100
AcDbArc
 50
270.0
 51
270.0000000000007
  0
LINE
  5
4D
330
22
100
AcDbEntity
  8
0
100
AcDbLine
 10
28.77130377203494
 20
-12.77159925848147
 30
0.0
 11
24.43885465448463
 21
-12.77159925848144
 31
0.0
  0
LINE
  5
4E
330
22
100
AcDbEntity
  8
0
100
AcDbLine
 10
3.599730896781125
 20
-4.771599258481472
 30
0.0
 11
2.599730896781125
 21
-4.771599258481472
 31
0.0
  0
LINE
  5
4F
330
22
100
AcDbEntity
  8
0
100
AcDbLine
 10
22.59973089678116
 20
-8.771599258481472
 30
0.0
 11
18.59973089678115
 21
-8.771599258481472
 31
0.0
  0
LINE
  5
50
330
22
100
AcDbEntity
  8
0
100
AcDbLine
 10
22.59973089678116
 20
-5.771599258481472
 30
0.0
 11
18.59973089678115
 21
-5.771599258481472
 31
0.0
  0
LINE
  5
51
330
22
100
AcDbEntity
  8
0
100
AcDbLine
 10
22.59973089678116
 20
-4.771599258481472
 30
0.0
 11
17.59973089678115
 21
-4.771599258481472
 31
0.0
  0
LINE
  5
52
330
22
100
AcDbEntity
  8
0
100
AcDbLine
 10
18.59973089678115
 20
-5.771599258481472
 30
0.0
 11
18.59973089678115
 21
-8.771599258481472
 31
0.0
  0
ARC
  5
53
330
22
100
AcDbEntity
  8
0
100
AcDbCircle
 10
22.59973089678116
 20
-7.271599258481472
 30
0.0
 40
1.5
100
AcDbArc
 50
270.0
 51
90.0
  0
ENDBLK
  5
54
330
22
100
AcDbEntity
  8
0
100
AcDbBlockEnd
  0
BLOCK
  5
55
330
23
100
AcDbEntity
  8
0
100
AcDbBlockBegin
  2
LORO
 70
     0
 10
0.0
 20
0.0
 30
0.0
  3
LORO
  1

  0
INSERT
  5
56
330
23
100
AcDbEntity
  8
STEMPEL
100
AcDbBlockReference
  2
LOGO
 10
-1.748032802467321
 20
3.771489518552062
 30
0.0
  0
ENDBLK
  5
57
330
23
100
AcDbEntity
  8
0
100
AcDbBlockEnd
  0
BLOCK
  5
FB8
330
FAD
100
AcDbEntity
  8
0
100
AcDbBlockBegin
  2
*D2
 70
     1
 10
0.0
 20
0.0
 30
0.0
  3
*D2
  1

  0
LINE
  5
10B0
330
FAD
100
AcDbEntity
  8
BEM
 62
     0
370
    -2
100
AcDbLine
 10
127.0947727928462
 20
278.3599008676409
 30
0.0
 11
127.0947727928462
 21
322.7909043325439
 31
0.0
  0
LINE
  5
10B1
330
FAD
100
AcDbEntity
  8
BEM
 62
     0
370
    -2
100
AcDbLine
 10
727.0947727928465
 20
284.1165206678768
 30
0.0
 11
727.0947727928465
 21
322.7909043325439
 31
0.0
  0
LINE
  5
10B2
330
FAD
100
AcDbEntity
  8
BEM
 62
     0
370
    -2
100
AcDbLine
 10
134.0947727928462
 20
320.7909043325439
 30
0.0
 11
720.0947727928466
 21
320.7909043325439
 31
0.0
  0
SOLID
  5
10B3
330
FAD
100
AcDbEntity
  8
BEM
 62
     0
100
AcDbTrace
 10
134.0947727928462
 20
321.9575709992105
 30
0.0
 11
134.0947727928462
 21
319.6242376658771
 31
0.0
 12
127.0947727928462
 22
320.7909043325439
 32
0.0
 13
127.0947727928462
 23
320.7909043325439
 33
0.0
  0
SOLID
  5
10B4
330
FAD
100
AcDbEntity
  8
BEM
 62
     0
100
AcDbTrace
 10
720.0947727928466
 20
321.9575709992105
 30
0.0
 11
720.0947727928466
 21
319.6242376658771
 31
0.0
 12
727.0947727928465
 22
320.7909043325439
 32
0.0
 13
727.0947727928465
 23
320.7909043325439
 33
0.0
  0
MTEXT
  5
10B5
330
FAD
100
AcDbEntity
  8
BEM
 62
     1
100
AcDbMText
 10
427.0947727928464
 20
327.2909043325439
 30
0.0
 40
7.0
 41
0.0
 71
     5
 72
     1
  1
\A1;1000
 73
     1
 44
1.0
  0
POINT
  5
10B6
330
FAD
100
AcDbEntity
  8
DEFPOINTS
 62
     0
100
AcDbPoint
 10
127.0947727928462
 20
276.3599008676409
 30
0.0
  0
POINT
  5
10B7
330
FAD
100
AcDbEntity
  8
DEFPOINTS
 62
     0
100
AcDbPoint
 10
727.0947727928465
 20
282.1165206678768
 30
0.0
  0
POINT
  5
10B8
330
FAD
100
AcDbEntity
  8
DEFPOINTS
 62
     0
100
AcDbPoint
 10
727.0947727928465
 20
320.7909043325439
 30
0.0
  0
ENDBLK
  5
FB9
330
FAD
100
AcDbEntity
  8
0
100
AcDbBlockEnd
  0
BLOCK
  5
FD2
330
FC7
100
AcDbEntity
  8
0
100
AcDbBlockBegin
  2
*D3
 70
     1
 10
0.0
 20
0.0
 30
0.0
  3
*D3
  1

  0
LINE
  5
108B
330
FC7
100
AcDbEntity
  8
BEM
 62
     0
370
    -2
100
AcDbLine
 10
125.0947727928462
 20
349.7435947086847
 30
0.0
 11
115.0233526087023
 21
349.7435947086847
 31
0.0
  0
LINE
  5
108C
330
FC7
100
AcDbEntity
  8
BEM
 62
     0
370
    -2
100
AcDbLine
 10
125.0947727928462
 20
451.7435947086851
 30
0.0
 11
115.0233526087023
 21
451.7435947086851
 31
0.0
  0
LINE
  5
108D
330
FC7
100
AcDbEntity
  8
BEM
 62
     0
370
    -2
100
AcDbLine
 10
117.0233526087023
 20
356.7435947086847
 30
0.0
 11
117.0233526087023
 21
444.7435947086852
 31
0.0
  0
SOLID
  5
108E
330
FC7
100
AcDbEntity
  8
BEM
 62
     0
100
AcDbTrace
 10
115.8566859420356
 20
356.7435947086847
 30
0.0
 11
118.190019275369
 21
356.7435947086847
 31
0.0
 12
117.0233526087023
 22
349.7435947086847
 32
0.0
 13
117.0233526087023
 23
349.7435947086847
 33
0.0
  0
SOLID
  5
108F
330
FC7
100
AcDbEntity
  8
BEM
 62
     0
100
AcDbTrace
 10
115.8566859420356
 20
444.7435947086852
 30
0.0
 11
118.190019275369
 21
444.7435947086852
 31
0.0
 12
117.0233526087023
 22
451.7435947086851
 32
0.0
 13
117.0233526087023
 23
451.7435947086851
 33
0.0
  0
MTEXT
  5
1090
330
FC7
100
AcDbEntity
  8
BEM
 62
     1
100
AcDbMText
 10
110.5233526087022
 20
400.7435947086849
 30
0.0
 40
7.0
 41
0.0
 71
     5
 72
     1
  1
\A1;%%c102
 11
0.0000000000000001
 21
1.0
 31
0.0
 73
     1
 44
1.0
  0
POINT
  5
1091
330
FC7
100
AcDbEntity
  8
DEFPOINTS
 62
     0
100
AcDbPoint
 10
127.0947727928462
 20
349.7435947086847
 30
0.0
  0
POINT
  5
1092
330
FC7
100
AcDbEntity
  8
DEFPOINTS
 62
     0
100
AcDbPoint
 10
127.0947727928462
 20
451.7435947086851
 30
0.0
  0
POINT
  5
1093
330
FC7
100
AcDbEntity
  8
DEFPOINTS
 62
     0
100
AcDbPoint
 10
117.0233526087023
 20
451.7435947086851
 30
0.0
  0
ENDBLK
  5
FD3
330
FC7
100
AcDbEntity
  8
0
100
AcDbBlockEnd
  0
BLOCK
  5
1059
330
104F
100
AcDbEntity
  8
0
100
AcDbBlockBegin
  2
*D4
 70
     1
 10
0.0
 20
0.0
 30
0.0
  3
*D4
  1

  0
LINE
  5
11C2
330
104F
100
AcDbEntity
  8
BEM
 62
     0
370
    -2
100
AcDbLine
 10
127.0947727928462
 20
278.3599008676409
 30
0.0
 11
127.0947727928462
 21
305.5558720231815
 31
0.0
  0
LINE
  5
11C3
330
104F
100
AcDbEntity
  8
BEM
 62
     0
370
    -2
100
AcDbLine
 10
447.0947727928465
 20
282.4097648299517
 30
0.0
 11
447.0947727928465
 21
305.5558720231815
 31
0.0
  0
LINE
  5
11C4
330
104F
100
AcDbEntity
  8
BEM
 62
     0
370
    -2
100
AcDbLine
 10
134.0947727928462
 20
303.5558720231815
 30
0.0
 11
440.0947727928466
 21
303.5558720231815
 31
0.0
  0
SOLID
  5
11C5
330
104F
100
AcDbEntity
  8
BEM
 62
     0
100
AcDbTrace
 10
134.0947727928462
 20
304.7225386898482
 30
0.0
 11
134.0947727928462
 21
302.3892053565148
 31
0.0
 12
127.0947727928462
 22
303.5558720231815
 32
0.0
 13
127.0947727928462
 23
303.5558720231815
 33
0.0
  0
SOLID
  5
11C6
330
104F
100
AcDbEntity
  8
BEM
 62
     0
100
AcDbTrace
 10
440.0947727928466
 20
304.7225386898482
 30
0.0
 11
440.0947727928466
 21
302.3892053565148
 31
0.0
 12
447.0947727928465
 22
303.5558720231815
 32
0.0
 13
447.0947727928465
 23
303.5558720231815
 33
0.0
  0
MTEXT
  5
11C7
330
104F
100
AcDbEntity
  8
BEM
 62
     1
100
AcDbMText
 10
287.0947727928464
 20
310.0558720231815
 30
0.0
 40
7.0
 41
0.0
 71
     5
 72
     1
  1
\A1;620
 73
     1
 44
1.0
  0
POINT
  5
11C8
330
104F
100
AcDbEntity
  8
DEFPOINTS
 62
     0
100
AcDbPoint
 10
127.0947727928462
 20
276.3599008676409
 30
0.0
  0
POINT
  5
11C9
330
104F
100
AcDbEntity
  8
DEFPOINTS
 62
     0
100
AcDbPoint
 10
447.0947727928465
 20
280.4097648299517
 30
0.0
  0
POINT
  5
11CA
330
104F
100
AcDbEntity
  8
DEFPOINTS
 62
     0
100
AcDbPoint
 10
447.0947727928465
 20
303.5558720231815
 30
0.0
  0
ENDBLK
  5
105A
330
104F
100
AcDbEntity
  8
0
100
AcDbBlockEnd
  0
BLOCK
  5
1145
330
1144
100
AcDbEntity
  8
0
100
AcDbBlockBegin
  2
8DI931D
 70
     0
 10
0.0
 20
0.0
 30
0.0
  3
8DI931D
  1

  0
LWPOLYLINE
  5
1146
330
1144
100
AcDbEntity
  8
STEMPEL
100
AcDbPolyline
 90
        6
 70
     1
 43
0.0
 10
-3.752776749732561
 20
6.5
 10
-7.505553499465122
 20
0.0
 10
-3.752776749732561
 20
-6.5
 10
3.752776749732561
 20
-6.5
 10
7.505553499465122
 20
0.0
 10
3.752776749732561
 20
6.5
  0
CIRCLE
  5
1147
330
1144
100
AcDbEntity
  8
STEMPEL
100
AcDbCircle
 10
0.0
 20
0.0
 30
0.0
 40
6.5
  0
ENDBLK
  5
1148
330
1144
100
AcDbEntity
  8
0
100
AcDbBlockEnd
  0
BLOCK
  5
11CC
330
11CB
100
AcDbEntity
  8
0
100
AcDbBlockBegin
  2
*X6
 70
     1
 10
0.0
 20
0.0
 30
0.0
  3
*X6
  1

  0
LINE
  5
11CD
330
11CB
100
AcDbEntity
  8
0
 62
     0
100
AcDbLine
 10
332.4100201311313
 20
512.7222493337009
 30
0.0
 11
333.1593029571798
 21
513.4715321597493
 31
0.0
  0
LINE
  5
11CE
330
11CB
100
AcDbEntity
  8
0
 62
     0
100
AcDbLine
 10
330.642253178165
 20
512.7222493337009
 30
0.0
 11
333.1593029571798
 21
515.2392991127157
 31
0.0
  0
LINE
  5
11CF
330
11CB
100
AcDbEntity
  8
0
 62
     0
100
AcDbLine
 10
328.8744862251986
 20
512.7222493337009
 30
0.0
 11
332.7629502492472
 21
516.6107133577495
 31
0.0
  0
LINE
  5
11D0
330
11CB
100
AcDbEntity
  8
0
 62
     0
100
AcDbLine
 10
327.1067192722322
 20
512.7222493337009
 30
0.0
 11
332.004621907878
 21
517.6201519693466
 31
0.0
  0
LINE
  5
11D1
330
11CB
100
AcDbEntity
  8
0
 62
     0
100
AcDbLine
 10
325.3389523192658
 20
512.7222493337009
 30
0.0
 11
330.3389523192659
 21
517.7222493337009
 31
0.0
  0
LINE
  5
11D2
330
11CB
100
AcDbEntity
  8
0
 62
     0
100
AcDbLine
 10
323.5711853662995
 20
512.7222493337009
 30
0.0
 11
328.5711853662995
 21
517.7222493337009
 31
0.0
  0
LINE
  5
11D3
330
11CB
100
AcDbEntity
  8
0
 62
     0
100
AcDbLine
 10
322.1593029571798
 20
513.0781338775475
 30
0.0
 11
326.8034184133331
 21
517.7222493337009
 31
0.0
  0
LINE
  5
11D4
330
11CB
100
AcDbEntity
  8
0
 62
     0
100
AcDbLine
 10
322.1593029571798
 20
514.8459008305139
 30
0.0
 11
325.0356514603667
 21
517.7222493337009
 31
0.0
  0
LINE
  5
11D5
330
11CB
100
AcDbEntity
  8
0
 62
     0
100
AcDbLine
 10
322.1593029571798
 20
516.6136677834803
 30
0.0
 11
323.2678845074004
 21
517.7222493337009
 31
0.0
  0
LINE
  5
11D6
330
11CB
100
AcDbEntity
  8
0
 62
     0
100
AcDbLine
 10
403.6531485949766
 20
516.7902335848242
 30
0.0
 11
404.5676055203802
 21
517.7046905102278
 31
0.0
  0
LINE
  5
11D7
330
11CB
100
AcDbEntity
  8
0
 62
     0
100
AcDbLine
 10
403.1593029571797
 20
514.5286209940609
 30
0.0
 11
406.3529312968197
 21
517.7222493337009
 31
0.0
  0
LINE
  5
11D8
330
11CB
100
AcDbEntity
  8
0
 62
     0
100
AcDbLine
 10
403.1593029571797
 20
512.7608540410945
 30
0.0
 11
408.120698249786
 21
517.7222493337009
 31
0.0
  0
LINE
  5
11D9
330
11CB
100
AcDbEntity
  8
0
 62
     0
100
AcDbLine
 10
404.8884652027523
 20
512.7222493337009
 30
0.0
 11
409.8884652027524
 21
517.7222493337009
 31
0.0
  0
LINE
  5
11DA
330
11CB
100
AcDbEntity
  8
0
 62
     0
100
AcDbLine
 10
406.6562321557188
 20
512.7222493337009
 30
0.0
 11
411.6562321557188
 21
517.7222493337009
 31
0.0
  0
LINE
  5
11DB
330
11CB
100
AcDbEntity
  8
0
 62
     0
100
AcDbLine
 10
408.4239991086851
 20
512.7222493337009
 30
0.0
 11
413.4239991086852
 21
517.7222493337009
 31
0.0
  0
LINE
  5
11DC
330
11CB
100
AcDbEntity
  8
0
 62
     0
100
AcDbLine
 10
410.1917660616515
 20
512.7222493337009
 30
0.0
 11
414.1593029571796
 21
516.689786229229
 31
0.0
  0
LINE
  5
11DD
330
11CB
100
AcDbEntity
  8
0
 62
     0
100
AcDbLine
 10
411.9595330146179
 20
512.7222493337009
 30
0.0
 11
414.1593029571797
 21
514.9220192762627
 31
0.0
  0
LINE
  5
11DE
330
11CB
100
AcDbEntity
  8
0
 62
     0
100
AcDbLine
 10
413.7272999675842
 20
512.7222493337009
 30
0.0
 11
414.1593029571797
 21
513.1542523232964
 31
0.0
  0
LINE
  5
11DF
330
11CB
100
AcDbEntity
  8
0
 62
     0
100
AcDbLine
 10
333.1593029571798
 20
515.3688344666772
 30
0.0
 11
330.8058880901561
 21
517.7222493337009
 31
0.0
  0
LINE
  5
11E0
330
11CB
100
AcDbEntity
  8
0
 62
     0
100
AcDbLine
 10
333.1593029571798
 20
513.6010675137108
 30
0.0
 11
329.0381211371897
 21
517.7222493337009
 31
0.0
  0
LINE
  5
11E1
330
11CB
100
AcDbEntity
  8
0
 62
     0
100
AcDbLine
 10
332.2703541842233
 20
512.7222493337009
 30
0.0
 11
327.2703541842234
 21
517.7222493337009
 31
0.0
  0
LINE
  5
11E2
330
11CB
100
AcDbEntity
  8
0
 62
     0
100
AcDbLine
 10
330.5025872312569
 20
512.7222493337009
 30
0.0
 11
325.502587231257
 21
517.7222493337009
 31
0.0
  0
LINE
  5
11E3
330
11CB
100
AcDbEntity
  8
0
 62
     0
100
AcDbLine
 10
328.7348202782906
 20
512.7222493337009
 30
0.0
 11
323.7348202782906
 21
517.7222493337009
 31
0.0
  0
LINE
  5
11E4
330
11CB
100
AcDbEntity
  8
0
 62
     0
100
AcDbLine
 10
326.9670533253242
 20
512.7222493337009
 30
0.0
 11
322.1593029571798
 21
517.5299997018453
 31
0.0
  0
LINE
  5
11E5
330
11CB
100
AcDbEntity
  8
0
 62
     0
100
AcDbLine
 10
325.1992863723578
 20
512.7222493337009
 30
0.0
 11
322.1593029571798
 21
515.7622327488789
 31
0.0
  0
LINE
  5
11E6
330
11CB
100
AcDbEntity
  8
0
 62
     0
100
AcDbLine
 10
323.4315194193915
 20
512.7222493337009
 30
0.0
 11
322.1593029571798
 21
513.9944657959126
 31
0.0
  0
LINE
  5
11E7
330
11CB
100
AcDbEntity
  8
0
 62
     0
100
AcDbLine
 10
404.7487992558443
 20
512.7222493337009
 30
0.0
 11
403.1593029571797
 21
514.3117456323655
 31
0.0
  0
LINE
  5
11E8
330
11CB
100
AcDbEntity
  8
0
 62
     0
100
AcDbLine
 10
406.5165662088108
 20
512.7222493337009
 30
0.0
 11
403.229209414673
 21
516.0096061278387
 31
0.0
  0
LINE
  5
11E9
330
11CB
100
AcDbEntity
  8
0
 62
     0
100
AcDbLine
 10
408.2843331617771
 20
512.7222493337009
 30
0.0
 11
403.851363183347
 21
517.1552193121311
 31
0.0
  0
LINE
  5
11EA
330
11CB
100
AcDbEntity
  8
0
 62
     0
100
AcDbLine
 10
410.0521001147434
 20
512.7222493337009
 30
0.0
 11
405.0521001147434
 21
517.7222493337009
 31
0.0
  0
LINE
  5
11EB
330
11CB
100
AcDbEntity
  8
0
 62
     0
100
AcDbLine
 10
411.8198670677099
 20
512.7222493337009
 30
0.0
 11
406.8198670677098
 21
517.7222493337009
 31
0.0
  0
LINE
  5
11EC
330
11CB
100
AcDbEntity
  8
0
 62
     0
100
AcDbLine
 10
413.5876340206762
 20
512.7222493337009
 30
0.0
 11
408.5876340206763
 21
517.7222493337009
 31
0.0
  0
LINE
  5
11ED
330
11CB
100
AcDbEntity
  8
0
 62
     0
100
AcDbLine
 10
414.1593029571797
 20
513.9183473501637
 30
0.0
 11
410.3554009736425
 21
517.7222493337009
 31
0.0
  0
LINE
  5
11EE
330
11CB
100
AcDbEntity
  8
0
 62
     0
100
AcDbLine
 10
414.1593029571796
 20
515.6861143031302
 30
0.0
 11
412.1231679266089
 21
517.7222493337009
 31
0.0
  0
LINE
  5
11EF
330
11CB
100
AcDbEntity
  8
0
 62
     0
100
AcDbLine
 10
414.1593029571796
 20
517.4538812560966
 30
0.0
 11
413.8909348795754
 21
517.7222493337009
 31
0.0
  0
ENDBLK
  5
11F0
330
11CB
100
AcDbEntity
  8
0
100
AcDbBlockEnd
  0
ENDSEC
  0
SECTION
  2
ENTITIES
  0
LINE
  5
58
330
1E
100
AcDbEntity
  8
STEMPEL
100
AcDbLine
 10
830.0000000000004
 20
109.9999999999998
 30
0.0
 11
470.0000000000001
 21
109.9999999999999
 31
0.0
  0
LINE
  5
59
330
1E
100
AcDbEntity
  8
STEMPEL
100
AcDbLine
 10
470.0000000000001
 20
109.9999999999999
 30
0.0
 11
470.0000000000001
 21
9.999999999999886
 31
0.0
  0
LINE
  5
5A
330
1E
100
AcDbEntity
  8
STEMPEL
100
AcDbLine
 10
566.0000000000003
 20
109.9999999999997
 30
0.0
 11
566.0000000000001
 21
9.999999999999772
 31
0.0
  0
LINE
  5
5B
330
1E
100
AcDbEntity
  8
STEMPEL
100
AcDbLine
 10
650.0
 20
109.9999999999999
 30
0.0
 11
650.0
 21
9.999999999999886
 31
0.0
  0
LINE
  5
5C
330
1E
100
AcDbEntity
  8
STEMPEL
100
AcDbLine
 10
752.0000000000003
 20
109.9999999999995
 30
0.0
 11
752.0000000000003
 21
39.99999999999989
 31
0.0
  0
LINE
  5
5D
330
1E
100
AcDbEntity
  8
STEMPEL
100
AcDbLine
 10
566.0000000000001
 20
29.99999999999989
 30
0.0
 11
470.0000000000001
 21
29.99999999999989
 31
0.0
  0
LINE
  5
5E
330
1E
100
AcDbEntity
  8
STEMPEL
100
AcDbLine
 10
830.0000000000004
 20
39.99999999999989
 30
0.0
 11
566.0000000000001
 21
39.99999999999989
 31
0.0
  0
LINE
  5
5F
330
1E
100
AcDbEntity
  8
STEMPEL
100
AcDbLine
 10
830.0000000000004
 20
79.99999999999989
 30
0.0
 11
566.0000000000003
 21
79.99999999999989
 31
0.0
  0
LINE
  5
60
330
1E
100
AcDbEntity
  8
VOLL
100
AcDbLine
 10
484.0000000000002
 20
109.9999999999999
 30
0.0
 11
484.0000000000001
 21
9.999999999999886
 31
0.0
  0
LINE
  5
61
330
1E
100
AcDbEntity
  8
VOLL
100
AcDbLine
 10
524.0000000000001
 20
109.9999999999997
 30
0.0
 11
524.0
 21
9.999999999999772
 31
0.0
  0
LINE
  5
62
330
1E
100
AcDbEntity
  8
VOLL
100
AcDbLine
 10
544.0000000000002
 20
109.9999999999997
 30
0.0
 11
544.0
 21
9.999999999999772
 31
0.0
  0
LINE
  5
63
330
1E
100
AcDbEntity
  8
VOLL
100
AcDbLine
 10
584.0000000000003
 20
79.99999999999989
 30
0.0
 11
584.0000000000003
 21
39.99999999999989
 31
0.0
  0
LINE
  5
64
330
1E
100
AcDbEntity
  8
VOLL
100
AcDbLine
 10
610.0000000000003
 20
109.9999999999996
 30
0.0
 11
610.0000000000001
 21
39.99999999999989
 31
0.0
  0
LINE
  5
65
330
1E
100
AcDbEntity
  8
HILF
100
AcDbLine
 10
470.0000000000001
 20
99.99999999999989
 30
0.0
 11
566.0000000000003
 21
99.99999999999989
 31
0.0
  0
LINE
  5
66
330
1E
100
AcDbEntity
  8
HILF
100
AcDbLine
 10
470.0000000000001
 20
89.99999999999989
 30
0.0
 11
566.0000000000003
 21
89.99999999999989
 31
0.0
  0
LINE
  5
67
330
1E
100
AcDbEntity
  8
HILF
100
AcDbLine
 10
470.0000000000001
 20
79.99999999999989
 30
0.0
 11
566.0000000000003
 21
79.99999999999989
 31
0.0
  0
LINE
  5
68
330
1E
100
AcDbEntity
  8
HILF
100
AcDbLine
 10
470.0000000000001
 20
69.99999999999989
 30
0.0
 11
566.0000000000003
 21
69.99999999999989
 31
0.0
  0
LINE
  5
69
330
1E
100
AcDbEntity
  8
HILF
100
AcDbLine
 10
470.0000000000001
 20
59.99999999999989
 30
0.0
 11
566.0000000000003
 21
59.99999999999989
 31
0.0
  0
LINE
  5
6A
330
1E
100
AcDbEntity
  8
HILF
100
AcDbLine
 10
470.0000000000001
 20
49.99999999999989
 30
0.0
 11
566.0000000000003
 21
49.99999999999989
 31
0.0
  0
LINE
  5
6B
330
1E
100
AcDbEntity
  8
HILF
100
AcDbLine
 10
470.0000000000001
 20
39.99999999999989
 30
0.0
 11
566.0000000000003
 21
39.99999999999989
 31
0.0
  0
LINE
  5
6C
330
1E
100
AcDbEntity
  8
HILF
100
AcDbLine
 10
566.0000000000003
 20
69.99999999999989
 30
0.0
 11
650.0
 21
69.99999999999989
 31
0.0
  0
LINE
  5
6D
330
1E
100
AcDbEntity
  8
HILF
100
AcDbLine
 10
566.0000000000003
 20
59.99999999999989
 30
0.0
 11
650.0
 21
59.99999999999989
 31
0.0
  0
LINE
  5
6E
330
1E
100
AcDbEntity
  8
HILF
100
AcDbLine
 10
566.0000000000003
 20
49.99999999999989
 30
0.0
 11
650.0
 21
49.99999999999989
 31
0.0
  0
LINE
  5
6F
330
1E
100
AcDbEntity
  8
HILF
100
AcDbLine
 10
654.773680109695
 20
84.03758247564121
 30
0.0
 11
746.6297842514812
 21
84.03758247564121
 31
0.0
  0
LINE
  5
70
330
1E
100
AcDbEntity
  8
HILF
100
AcDbLine
 10
654.773680109695
 20
69.99999999999989
 30
0.0
 11
746.6297842514812
 21
69.99999999999989
 31
0.0
  0
LINE
  5
71
330
1E
100
AcDbEntity
  8
HILF
100
AcDbLine
 10
654.773680109695
 20
59.99999999999989
 30
0.0
 11
746.6297842514812
 21
59.99999999999989
 31
0.0
  0
LINE
  5
72
330
1E
100
AcDbEntity
  8
HILF
100
AcDbLine
 10
654.773680109695
 20
49.99999999999989
 30
0.0
 11
746.6297842514812
 21
49.99999999999989
 31
0.0
  0
LINE
  5
73
330
1E
100
AcDbEntity
  8
VOLL
100
AcDbLine
 10
752.0000000000003
 20
59.99999999999989
 30
0.0
 11
830.0000000000004
 21
59.99999999999989
 31
0.0
  0
LINE
  5
74
330
1E
100
AcDbEntity
  8
HILF
100
AcDbLine
 10
756.7238616296996
 20
83.77983636955809
 30
0.0
 11
824.8588839326732
 21
83.77983636955804
 31
0.0
  0
LINE
  5
75
330
1E
100
AcDbEntity
  8
HILF
100
AcDbLine
 10
654.773680109695
 20
14.89398258028291
 30
0.0
 11
824.8588839326732
 21
14.89398258028291
 31
0.0
  0
TEXT
  5
76
330
1E
100
AcDbEntity
  8
TEXT
100
AcDbText
 10
492.3998239263299
 20
18.67381894984115
 30
0.0
 40
4.0
  1
Änderung
 41
0.8
  7
GREEKS
 72
     1
 11
503.1426810691869
 21
18.67381894984115
 31
0.0
100
AcDbText
  0
TEXT
  5
78
330
1E
100
AcDbEntity
  8
TEXT
100
AcDbText
 10
573.5163572150376
 20
102.4620895087087
 30
0.0
 40
5.0
  1
Maßstab
 41
0.8
  7
GREEKS
100
AcDbText
  0
TEXT
  5
79
330
1E
100
AcDbEntity
  8
TEXT
100
AcDbText
 10
654.8779403809009
 20
102.5489328011778
 30
0.0
 40
5.0
  1
Benennung
 41
0.8
  7
GREEKS
100
AcDbText
  0
TEXT
  5
7A
330
1E
100
AcDbEntity
  8
TEXT
100
AcDbText
 10
756.1787549576343
 20
102.3132034537135
 30
0.0
 40
5.0
  1
Zeichnungs Nr.
 41
0.8
  7
GREEKS
100
AcDbText
  0
TEXT
  5
7B
330
1E
100
AcDbEntity
  8
TEXT
100
AcDbText
 10
654.7422383911359
 20
30.84560570193048
 30
0.0
 40
5.0
  1
Bauvorhaben
 41
0.8
  7
GREEKS
100
AcDbText
  0
TEXT
  5
7C
330
1E
100
AcDbEntity
  8
TEXT
100
AcDbText
 10
756.7238616296995
 20
73.18118237099949
 30
0.0
 40
5.0
  1
Ersatz für:
 41
0.8
  7
GREEKS
100
AcDbText
  0
TEXT
  5
7D
330
1E
100
AcDbEntity
  8
TEXT
100
AcDbText
 10
478.2664110704578
 20
13.6546584602718
 30
0.0
 40
4.0
  1
Index
 50
89.99999999999998
 41
0.8
  7
GREEKS
100
AcDbText
  0
TEXT
  5
7E
330
1E
100
AcDbEntity
  8
TEXT
100
AcDbText
 10
529.8990113186979
 20
18.67156269339799
 30
0.0
 40
4.0
  1
Tag
 41
0.8
  7
GREEKS
 72
     1
 11
533.6323446520313
 21
18.67156269339799
 31
0.0
100
AcDbText
  0
TEXT
  5
7F
330
1E
100
AcDbEntity
  8
TEXT
100
AcDbText
 10
548.9795678138292
 20
18.59324216966391
 30
0.0
 40
4.0
  1
Name
 41
0.8
  7
GREEKS
 72
     1
 11
555.3033773376387
 21
18.59324216966391
 31
0.0
100
AcDbText
  0
TEXT
  5
80
330
1E
100
AcDbEntity
  8
TEXT
100
AcDbText
 10
592.3311673153651
 20
73.31880501229909
 30
0.0
 40
4.0
  1
Tag
 41
0.8
  7
GREEKS
100
AcDbText
  0
TEXT
  5
81
330
1E
100
AcDbEntity
  8
TEXT
100
AcDbText
 10
622.4626584226296
 20
73.30961091915208
 30
0.0
 40
4.0
  1
Name
 41
0.8
  7
GREEKS
100
AcDbText
  0
TEXT
  5
82
330
1E
100
AcDbEntity
  8
TEXT
100
AcDbText
 10
567.5836127167615
 20
63.62990369617946
 30
0.0
 40
4.0
  1
Gez.
 41
0.8
  7
GREEKS
100
AcDbText
  0
TEXT
  5
83
330
1E
100
AcDbEntity
  8
TEXT
100
AcDbText
 10
567.5515086571672
 20
53.68926291428365
 30
0.0
 40
4.0
  1
Gepr.
 41
0.8
  7
GREEKS
100
AcDbText
  0
TEXT
  5
84
330
1E
100
AcDbEntity
  8
TEXT
100
AcDbText
 10
567.6006777387303
 20
43.52946389649789
 30
0.0
 40
4.0
  1
Norm.
 41
0.8
  7
GREEKS
100
AcDbText
  0
TEXT
  5
85
330
1E
100
AcDbEntity
  8
TEXT
100
AcDbText
 10
757.2400861497007
 20
52.07416177878585
 30
0.0
 40
5.0
  1
ersetzt durch:
 41
0.8
  7
GREEKS
100
AcDbText
  0
TEXT
  5
86
330
1E
100
AcDbEntity
  8
TEXT
100
AcDbText
 10
568.8693027807324
 20
72.96682596523718
 30
0.0
 40
4.0
  1
2011
 41
0.8
  7
GREEKS
100
AcDbText
  0
LINE
  5
87
330
1E
100
AcDbEntity
  8
HILF
100
AcDbLine
 10
0.0
 20
0.0
 30
0.0
 11
840.0000000000002
 21
-0.0000000000001137
 31
0.0
  0
LINE
  5
88
330
1E
100
AcDbEntity
  8
HILF
100
AcDbLine
 10
840.0000000000002
 20
-0.0000000000001137
 30
0.0
 11
840.0000000000002
 21
593.9999999999998
 31
0.0
  0
LINE
  5
89
330
1E
100
AcDbEntity
  8
HILF
100
AcDbLine
 10
840.0000000000002
 20
593.9999999999998
 30
0.0
 11
0.0000000000001705
 21
594.0
 31
0.0
  0
LINE
  5
8B
330
1E
100
AcDbEntity
  8
STEMPEL
100
AcDbLine
 10
830.0
 20
583.9999999999998
 30
0.0
 11
40.00000000000011
 21
584.0
 31
0.0
  0
LINE
  5
8D
330
1E
100
AcDbEntity
  8
STEMPEL
100
AcDbLine
 10
40.0
 20
10.0
 30
0.0
 11
830.0
 21
9.999999999999886
 31
0.0
  0
LINE
  5
8E
330
1E
100
AcDbEntity
  8
STEMPEL
100
AcDbLine
 10
830.0
 20
9.999999999999886
 30
0.0
 11
830.0
 21
583.9999999999998
 31
0.0
  0
TEXT
  5
8F
330
1E
100
AcDbEntity
  8
TEXT
 62
     1
100
AcDbText
 10
655.0390572473189
 20
87.3734307565253
 30
0.0
 40
7.0
  1
Regenstandrohr DN100
 41
0.75
  7
GREEKS
100
AcDbText
  0
TEXT
  5
90
330
1E
100
AcDbEntity
  8
TEXT
 62
     1
100
AcDbText
 10
767.9961422184136
 20
87.37343075652526
 30
0.0
 40
7.0
  1
55103100N
 41
0.8
  7
GREEKS
 72
     1
 11
790.1294755517469
 21
87.37343075652526
 31
0.0
100
AcDbText
  0
TEXT
  5
91
330
1E
100
AcDbEntity
  8
TEXT
100
AcDbText
 10
618.5090226415829
 20
102.8398961137899
 30
0.0
 40
5.0
  1
Zul.Abw.
 41
0.8
  7
GREEKS
100
AcDbText
  0
TEXT
  5
93
330
1E
100
AcDbEntity
  8
TEXT
100
AcDbText
 10
590.7660475607107
 20
63.15085876120213
 30
0.0
 40
4.0
  1
23.11.
 41
0.8
  7
GREEKS
 72
     1
 11
597.1660475607107
 21
63.15085876120213
 31
0.0
100
AcDbText
  0
TEXT
  5
94
330
1E
100
AcDbEntity
  8
TEXT
100
AcDbText
 10
624.0231753226609
 20
62.94297655165462
 30
0.0
 40
4.0
  1
Koeh
 41
0.8
  7
GREEKS
 72
     1
 11
629.2803181798038
 21
62.94297655165462
 31
0.0
100
AcDbText
  0
TEXT
  5
95
330
1E
100
AcDbEntity
  8
TEXT
100
AcDbText
 10
654.3410940884991
 20
72.10021383107516
 30
0.0
 40
5.0
  1
mit runder Reinigungsöffnung
 41
0.8
  7
GREEKS
100
AcDbText
  0
TEXT
  5
97
330
1E
100
AcDbEntity
  8
TEXT
100
AcDbText
 10
654.3410940884991
 20
52.59097337846049
 30
0.0
 40
5.0
  1
EDV-Art.Nr. 55103.100N
 41
0.8
  7
GREEKS
100
AcDbText
  0
TEXT
  5
98
330
1E
100
AcDbEntity
  8
TEXT
100
AcDbText
 10
654.1676050109347
 20
43.31127624791498
 30
0.0
 40
4.0
  1
55103100N.DWG
 41
0.8
  7
GREEKS
100
AcDbText
  0
TEXT
  5
99
330
1E
100
AcDbEntity
  8
TEXT
 62
     1
100
AcDbText
 10
582.703491203422
 20
87.47077088414959
 30
0.0
 40
7.0
  1
1:2
 41
0.8
  7
GREEKS
100
AcDbText
  0
TEXT
  5
9A
330
1E
100
AcDbEntity
  8
TEXT
100
AcDbText
 10
470.0441139350129
 20
114.1143585051042
 30
0.0
 40
5.0
  1
Erstellt mit AUTOCAD 2004
 41
0.8
  7
GREEKS
100
AcDbText
  0
INSERT
  5
9B
330
1E
100
AcDbEntity
  8
HILF
100
AcDbBlockReference
  2
LORO
 10
573.0624985962354
 20
36.98059300298954
 30
0.0
 41
2.0
 42
2.0
 43
2.0
  0
LINE
  5
9C
330
1E
100
AcDbEntity
  8
BEM
100
AcDbLine
 10
456.0
 20
-0.0000000000001137
 30
0.0
 11
456.0
 21
9.999999999999886
 31
0.0
  0
LINE
  5
13E
330
1E
100
AcDbEntity
  8
HILF
100
AcDbLine
 10
0.0
 20
0.0
 30
0.0
 11
0.0000000000001705
 21
594.0
 31
0.0
  0
LINE
  5
13F
330
1E
100
AcDbEntity
  8
STEMPEL
100
AcDbLine
 10
40.0
 20
10.0
 30
0.0
 11
40.00000000000011
 21
584.0
 31
0.0
  0
LINE
  5
14A
330
1E
100
AcDbEntity
  8
HILF
100
AcDbLine
 10
0.0000000000000568
 20
297.0
 30
0.0
 11
40.00000000000006
 21
297.0
 31
0.0
  0
TEXT
  5
15B
330
1E
100
AcDbEntity
  8
BEM
100
AcDbText
 10
837.3022923857165
 20
10.16790107998847
 30
0.0
 40
4.0
  1
Diese Zeichnung ist urheberrechtlich geschützt und bleibt unser Eigentum. Sie darf weder ganz noch teilweise verfielfältigt und nicht an Dritte weitergegeben werden.
 50
89.99999999999998
 41
0.8
  7
GREEKS
100
AcDbText
  0
TEXT
  5
ACA
330
1E
100
AcDbEntity
  8
TEXT
100
AcDbText
 10
612.2898419893275
 20
89.26643524492067
 30
0.0
 40
4.0
  1
DIN EN1123-2
 41
0.8
  7
GREEKS
 72
     1
 11
629.2803181798038
 21
89.26643524492067
 31
0.0
100
AcDbText
  0
TEXT
  5
AE3
330
1E
100
AcDbEntity
  8
TEXT
 62
     1
100
AcDbText
 10
664.6057658946469
 20
129.0783465745481
 30
0.0
 40
7.0
  1

 41
0.8
  7
GREEKS
100
AcDbText
  0
POLYLINE
  5
DD0
330
1E
100
AcDbEntity
  8
HILF
100
AcDb2dPolyline
 66
     1
 10
0.0
 20
0.0
 30
0.0
 70
     2
  0
VERTEX
  5
DD1
330
DD0
100
AcDbEntity
  8
HILF
100
AcDbVertex
100
AcDb2dVertex
 10
556.9863812792124
 20
277.4097648299516
 30
0.0
 42
0.0121929004348654
  0
VERTEX
  5
DD2
330
DD0
100
AcDbEntity
  8
HILF
100
AcDbVertex
100
AcDb2dVertex
 10
552.8194351044236
 20
266.4982758448463
 30
0.0
 42
0.0180598744561613
 70
     1
  0
VERTEX
  5
DD3
330
DD0
100
AcDbEntity
  8
HILF
100
AcDbVertex
100
AcDb2dVertex
 10
550.4563208438268
 20
258.9735625812914
 30
0.0
 42
0.0052201000386137
  0
VERTEX
  5
DD4
330
DD0
100
AcDbEntity
  8
HILF
100
AcDbVertex
100
AcDb2dVertex
 10
546.994414482384
 20
245.8404152299531
 30
0.0
 42
0.0168612676998402
 70
     1
  0
VERTEX
  5
DD5
330
DD0
100
AcDbEntity
  8
HILF
100
AcDbVertex
100
AcDb2dVertex
 10
546.1029443425664
 20
241.7301022514668
 30
0.0
 42
0.0641755544296637
  0
VERTEX
  5
DD6
330
DD0
100
AcDbEntity
  8
HILF
100
AcDbVertex
100
AcDb2dVertex
 10
545.5224482389367
 20
230.5083857636244
 30
0.0
 42
0.0699359878718527
 70
     1
  0
VERTEX
  5
DD7
330
DD0
100
AcDbEntity
  8
HILF
100
AcDbVertex
100
AcDb2dVertex
 10
547.7354594514127
 20
220.4293606877908
 30
0.0
 42
0.004056519498209
  0
VERTEX
  5
DD8
330
DD0
100
AcDbEntity
  8
HILF
100
AcDbVertex
100
AcDb2dVertex
 10
549.583342977569
 20
215.5774259445913
 30
0.0
 42
0.0031039833680859
 70
     1
  0
VERTEX
  5
DD9
330
DD0
100
AcDbEntity
  8
HILF
100
AcDbVertex
100
AcDb2dVertex
 10
552.0888359526731
 20
209.2718282431258
 30
0.0
 42
0.0110224921829013
  0
VERTEX
  5
DDA
330
DD0
100
AcDbEntity
  8
HILF
100
AcDbVertex
100
AcDb2dVertex
 10
555.5179886198212
 20
201.3051525474059
 30
0.0
 42
-0.012126988856184
 70
     1
  0
VERTEX
  5
DDB
330
DD0
100
AcDbEntity
  8
HILF
100
AcDbVertex
100
AcDb2dVertex
 10
558.6189007045637
 20
194.0570105416877
 30
0.0
 42
-0.0848932264977562
  0
VERTEX
  5
DDC
330
DD0
100
AcDbEntity
  8
HILF
100
AcDbVertex
100
AcDb2dVertex
 10
559.7912575510242
 20
188.5734799554185
 30
0.0
 42
-0.0613866774022237
 70
     1
  0
VERTEX
  5
DDD
330
DD0
100
AcDbEntity
  8
HILF
100
AcDbVertex
100
AcDb2dVertex
 10
559.1630695298428
 20
180.8708354686362
 30
0.0
 42
-0.0839111881417839
  0
VERTEX
  5
DDE
330
DD0
100
AcDbEntity
  8
HILF
100
AcDbVertex
100
AcDb2dVertex
 10
558.329833612781
 20
178.7316055508455
 30
0.0
 42
-0.0465672393298728
 70
     1
  0
VERTEX
  5
DDF
330
DD0
100
AcDbEntity
  8
HILF
100
AcDbVertex
100
AcDb2dVertex
 10
555.8980393121498
 20
175.4097648299515
 30
0.0
  0
SEQEND
  5
DE0
330
DD0
100
AcDbEntity
  8
HILF
  0
LINE
  5
DE1
330
1E
100
AcDbEntity
  8
STEMPEL
  6
Continuous
100
AcDbLine
 10
324.0690794752646
 20
349.7435947086848
 30
0.0
 11
127.0947727928462
 21
349.7435947086848
 31
0.0
  0
LINE
  5
DE2
330
1E
100
AcDbEntity
  8
STEMPEL
  6
Continuous
100
AcDbLine
 10
325.1574214423275
 20
451.7435947086853
 30
0.0
 11
127.0947727928462
 21
451.7435947086851
 31
0.0
  0
LINE
  5
DE3
330
1E
100
AcDbEntity
  8
STEMPEL
  6
Continuous
100
AcDbLine
 10
324.069079475265
 20
175.4097648299515
 30
0.0
 11
127.0947727928462
 21
175.4097648299515
 31
0.0
  0
LINE
  5
DE4
330
1E
100
AcDbEntity
  8
STEMPEL
100
AcDbLine
 10
325.1574214423275
 20
277.4097648299516
 30
0.0
 11
127.0947727928462
 21
277.4097648299515
 31
0.0
  0
POLYLINE
  5
DE5
330
1E
100
AcDbEntity
  8
HILF
100
AcDb2dPolyline
 66
     1
 10
0.0
 20
0.0
 30
0.0
 70
     2
  0
VERTEX
  5
DE6
330
DE5
100
AcDbEntity
  8
HILF
100
AcDbVertex
100
AcDb2dVertex
 10
328.1574214423273
 20
277.409764829951
 30
0.0
 42
0.0121929004348654
  0
VERTEX
  5
DE7
330
DE5
100
AcDbEntity
  8
HILF
100
AcDbVertex
100
AcDb2dVertex
 10
323.9904752675385
 20
266.4982758448458
 30
0.0
 42
0.0180598744561613
 70
     1
  0
VERTEX
  5
DE8
330
DE5
100
AcDbEntity
  8
HILF
100
AcDbVertex
100
AcDb2dVertex
 10
321.6273610069417
 20
258.9735625812908
 30
0.0
 42
0.0052201000386137
  0
VERTEX
  5
DE9
330
DE5
100
AcDbEntity
  8
HILF
100
AcDbVertex
100
AcDb2dVertex
 10
318.1654546454989
 20
245.8404152299525
 30
0.0
 42
0.0168612676998402
 70
     1
  0
VERTEX
  5
DEA
330
DE5
100
AcDbEntity
  8
HILF
100
AcDbVertex
100
AcDb2dVertex
 10
317.2739845056814
 20
241.7301022514664
 30
0.0
 42
0.0641755544296637
  0
VERTEX
  5
DEB
330
DE5
100
AcDbEntity
  8
HILF
100
AcDbVertex
100
AcDb2dVertex
 10
316.6934884020517
 20
230.508385763624
 30
0.0
 42
0.0699359878718527
 70
     1
  0
VERTEX
  5
DEC
330
DE5
100
AcDbEntity
  8
HILF
100
AcDbVertex
100
AcDb2dVertex
 10
318.9064996145277
 20
220.4293606877903
 30
0.0
 42
0.004056519498209
  0
VERTEX
  5
DED
330
DE5
100
AcDbEntity
  8
HILF
100
AcDbVertex
100
AcDb2dVertex
 10
320.7543831406839
 20
215.577425944591
 30
0.0
 42
0.0031039833680859
 70
     1
  0
VERTEX
  5
DEE
330
DE5
100
AcDbEntity
  8
HILF
100
AcDbVertex
100
AcDb2dVertex
 10
323.259876115788
 20
209.2718282431254
 30
0.0
 42
0.0110224921829013
  0
VERTEX
  5
DEF
330
DE5
100
AcDbEntity
  8
HILF
100
AcDbVertex
100
AcDb2dVertex
 10
326.6890287829361
 20
201.3051525474055
 30
0.0
 42
-0.012126988856184
 70
     1
  0
VERTEX
  5
DF0
330
DE5
100
AcDbEntity
  8
HILF
100
AcDbVertex
100
AcDb2dVertex
 10
329.7899408676786
 20
194.0570105416871
 30
0.0
 42
-0.0848932264977562
  0
VERTEX
  5
DF1
330
DE5
100
AcDbEntity
  8
HILF
100
AcDbVertex
100
AcDb2dVertex
 10
330.962297714139
 20
188.573479955418
 30
0.0
 42
-0.0613866774022237
 70
     1
  0
VERTEX
  5
DF2
330
DE5
100
AcDbEntity
  8
HILF
100
AcDbVertex
100
AcDb2dVertex
 10
330.3341096929577
 20
180.8708354686357
 30
0.0
 42
-0.0839111881417839
  0
VERTEX
  5
DF3
330
DE5
100
AcDbEntity
  8
HILF
100
AcDbVertex
100
AcDb2dVertex
 10
329.5008737758959
 20
178.731605550845
 30
0.0
 42
-0.0465672393298728
 70
     1
  0
VERTEX
  5
DF4
330
DE5
100
AcDbEntity
  8
HILF
100
AcDbVertex
100
AcDb2dVertex
 10
327.0690794752646
 20
175.409764829951
 30
0.0
  0
SEQEND
  5
DF5
330
DE5
100
AcDbEntity
  8
HILF
  0
POLYLINE
  5
DF6
330
1E
100
AcDbEntity
  8
HILF
100
AcDb2dPolyline
 66
     1
 10
0.0
 20
0.0
 30
0.0
 70
     2
  0
VERTEX
  5
DF7
330
DF6
100
AcDbEntity
  8
HILF
100
AcDbVertex
100
AcDb2dVertex
 10
325.1574214423273
 20
277.409764829951
 30
0.0
 42
0.0121929004348654
  0
VERTEX
  5
DF8
330
DF6
100
AcDbEntity
  8
HILF
100
AcDbVertex
100
AcDb2dVertex
 10
320.9904752675385
 20
266.4982758448458
 30
0.0
 42
0.0180598744561613
 70
     1
  0
VERTEX
  5
DF9
330
DF6
100
AcDbEntity
  8
HILF
100
AcDbVertex
100
AcDb2dVertex
 10
318.6273610069417
 20
258.9735625812908
 30
0.0
 42
0.0052201000386137
  0
VERTEX
  5
DFA
330
DF6
100
AcDbEntity
  8
HILF
100
AcDbVertex
100
AcDb2dVertex
 10
315.1654546454989
 20
245.8404152299525
 30
0.0
 42
0.0168612676998402
 70
     1
  0
VERTEX
  5
DFB
330
DF6
100
AcDbEntity
  8
HILF
100
AcDbVertex
100
AcDb2dVertex
 10
314.2739845056814
 20
241.7301022514664
 30
0.0
 42
0.0641755544296637
  0
VERTEX
  5
DFC
330
DF6
100
AcDbEntity
  8
HILF
100
AcDbVertex
100
AcDb2dVertex
 10
313.6934884020517
 20
230.508385763624
 30
0.0
 42
0.0699359878718527
 70
     1
  0
VERTEX
  5
DFD
330
DF6
100
AcDbEntity
  8
HILF
100
AcDbVertex
100
AcDb2dVertex
 10
315.9064996145277
 20
220.4293606877903
 30
0.0
 42
0.004056519498209
  0
VERTEX
  5
DFE
330
DF6
100
AcDbEntity
  8
HILF
100
AcDbVertex
100
AcDb2dVertex
 10
317.7543831406839
 20
215.577425944591
 30
0.0
 42
0.0031039833680859
 70
     1
  0
VERTEX
  5
DFF
330
DF6
100
AcDbEntity
  8
HILF
100
AcDbVertex
100
AcDb2dVertex
 10
320.259876115788
 20
209.2718282431254
 30
0.0
 42
0.0110224921829013
  0
VERTEX
  5
E00
330
DF6
100
AcDbEntity
  8
HILF
100
AcDbVertex
100
AcDb2dVertex
 10
323.6890287829361
 20
201.3051525474055
 30
0.0
 42
-0.012126988856184
 70
     1
  0
VERTEX
  5
E01
330
DF6
100
AcDbEntity
  8
HILF
100
AcDbVertex
100
AcDb2dVertex
 10
326.7899408676786
 20
194.0570105416871
 30
0.0
 42
-0.0848932264977562
  0
VERTEX
  5
E02
330
DF6
100
AcDbEntity
  8
HILF
100
AcDbVertex
100
AcDb2dVertex
 10
327.962297714139
 20
188.573479955418
 30
0.0
 42
-0.0613866774022237
 70
     1
  0
VERTEX
  5
E03
330
DF6
100
AcDbEntity
  8
HILF
100
AcDbVertex
100
AcDb2dVertex
 10
327.3341096929577
 20
180.8708354686357
 30
0.0
 42
-0.0839111881417839
  0
VERTEX
  5
E04
330
DF6
100
AcDbEntity
  8
HILF
100
AcDbVertex
100
AcDb2dVertex
 10
326.5008737758959
 20
178.731605550845
 30
0.0
 42
-0.0465672393298728
 70
     1
  0
VERTEX
  5
E05
330
DF6
100
AcDbEntity
  8
HILF
100
AcDbVertex
100
AcDb2dVertex
 10
324.0690794752646
 20
175.409764829951
 30
0.0
  0
SEQEND
  5
E06
330
DF6
100
AcDbEntity
  8
HILF
  0
POLYLINE
  5
E07
330
1E
100
AcDbEntity
  8
HILF
100
AcDb2dPolyline
 66
     1
 10
0.0
 20
0.0
 30
0.0
 70
     2
  0
VERTEX
  5
E08
330
E07
100
AcDbEntity
  8
HILF
100
AcDbVertex
100
AcDb2dVertex
 10
325.1574214423273
 20
451.7435947086847
 30
0.0
 42
0.0121929004348654
  0
VERTEX
  5
E09
330
E07
100
AcDbEntity
  8
HILF
100
AcDbVertex
100
AcDb2dVertex
 10
320.9904752675385
 20
440.8321057235794
 30
0.0
 42
0.0180598744561613
 70
     1
  0
VERTEX
  5
E0A
330
E07
100
AcDbEntity
  8
HILF
100
AcDbVertex
100
AcDb2dVertex
 10
318.6273610069417
 20
433.3073924600244
 30
0.0
 42
0.0052201000386137
  0
VERTEX
  5
E0B
330
E07
100
AcDbEntity
  8
HILF
100
AcDbVertex
100
AcDb2dVertex
 10
315.1654546454989
 20
420.1742451086862
 30
0.0
 42
0.0168612676998402
 70
     1
  0
VERTEX
  5
E0C
330
E07
100
AcDbEntity
  8
HILF
100
AcDbVertex
100
AcDb2dVertex
 10
314.2739845056814
 20
416.0639321302002
 30
0.0
 42
0.0641755544296637
  0
VERTEX
  5
E0D
330
E07
100
AcDbEntity
  8
HILF
100
AcDbVertex
100
AcDb2dVertex
 10
313.6934884020517
 20
404.8422156423576
 30
0.0
 42
0.0699359878718527
 70
     1
  0
VERTEX
  5
E0E
330
E07
100
AcDbEntity
  8
HILF
100
AcDbVertex
100
AcDb2dVertex
 10
315.9064996145277
 20
394.763190566524
 30
0.0
 42
0.004056519498209
  0
VERTEX
  5
E0F
330
E07
100
AcDbEntity
  8
HILF
100
AcDbVertex
100
AcDb2dVertex
 10
317.7543831406839
 20
389.9112558233247
 30
0.0
 42
0.0031039833680859
 70
     1
  0
VERTEX
  5
E10
330
E07
100
AcDbEntity
  8
HILF
100
AcDbVertex
100
AcDb2dVertex
 10
320.259876115788
 20
383.6056581218592
 30
0.0
 42
0.0110224921829013
  0
VERTEX
  5
E11
330
E07
100
AcDbEntity
  8
HILF
100
AcDbVertex
100
AcDb2dVertex
 10
323.6890287829361
 20
375.6389824261392
 30
0.0
 42
-0.012126988856184
 70
     1
  0
VERTEX
  5
E12
330
E07
100
AcDbEntity
  8
HILF
100
AcDbVertex
100
AcDb2dVertex
 10
326.7899408676786
 20
368.3908404204209
 30
0.0
 42
-0.0848932264977562
  0
VERTEX
  5
E13
330
E07
100
AcDbEntity
  8
HILF
100
AcDbVertex
100
AcDb2dVertex
 10
327.962297714139
 20
362.9073098341518
 30
0.0
 42
-0.0613866774022237
 70
     1
  0
VERTEX
  5
E14
330
E07
100
AcDbEntity
  8
HILF
100
AcDbVertex
100
AcDb2dVertex
 10
327.3341096929577
 20
355.2046653473695
 30
0.0
 42
-0.0839111881417839
  0
VERTEX
  5
E15
330
E07
100
AcDbEntity
  8
HILF
100
AcDbVertex
100
AcDb2dVertex
 10
326.5008737758959
 20
353.0654354295787
 30
0.0
 42
-0.0465672393298728
 70
     1
  0
VERTEX
  5
E16
330
E07
100
AcDbEntity
  8
HILF
100
AcDbVertex
100
AcDb2dVertex
 10
324.0690794752646
 20
349.7435947086848
 30
0.0
  0
SEQEND
  5
E17
330
E07
100
AcDbEntity
  8
HILF
  0
POLYLINE
  5
E18
330
1E
100
AcDbEntity
  8
HILF
100
AcDb2dPolyline
 66
     1
 10
0.0
 20
0.0
 30
0.0
 70
     2
  0
VERTEX
  5
E19
330
E18
100
AcDbEntity
  8
HILF
100
AcDbVertex
100
AcDb2dVertex
 10
328.1574214423273
 20
451.7435947086847
 30
0.0
 42
0.0121929004348654
  0
VERTEX
  5
E1A
330
E18
100
AcDbEntity
  8
HILF
100
AcDbVertex
100
AcDb2dVertex
 10
323.9904752675385
 20
440.8321057235794
 30
0.0
 42
0.0180598744561613
 70
     1
  0
VERTEX
  5
E1B
330
E18
100
AcDbEntity
  8
HILF
100
AcDbVertex
100
AcDb2dVertex
 10
321.6273610069417
 20
433.3073924600244
 30
0.0
 42
0.0052201000386137
  0
VERTEX
  5
E1C
330
E18
100
AcDbEntity
  8
HILF
100
AcDbVertex
100
AcDb2dVertex
 10
318.1654546454989
 20
420.1742451086862
 30
0.0
 42
0.0168612676998402
 70
     1
  0
VERTEX
  5
E1D
330
E18
100
AcDbEntity
  8
HILF
100
AcDbVertex
100
AcDb2dVertex
 10
317.2739845056814
 20
416.0639321302002
 30
0.0
 42
0.0641755544296637
  0
VERTEX
  5
E1E
330
E18
100
AcDbEntity
  8
HILF
100
AcDbVertex
100
AcDb2dVertex
 10
316.6934884020517
 20
404.8422156423576
 30
0.0
 42
0.0699359878718527
 70
     1
  0
VERTEX
  5
E1F
330
E18
100
AcDbEntity
  8
HILF
100
AcDbVertex
100
AcDb2dVertex
 10
318.9064996145277
 20
394.763190566524
 30
0.0
 42
0.004056519498209
  0
VERTEX
  5
E20
330
E18
100
AcDbEntity
  8
HILF
100
AcDbVertex
100
AcDb2dVertex
 10
320.7543831406839
 20
389.9112558233247
 30
0.0
 42
0.0031039833680859
 70
     1
  0
VERTEX
  5
E21
330
E18
100
AcDbEntity
  8
HILF
100
AcDbVertex
100
AcDb2dVertex
 10
323.259876115788
 20
383.6056581218592
 30
0.0
 42
0.0110224921829013
  0
VERTEX
  5
E22
330
E18
100
AcDbEntity
  8
HILF
100
AcDbVertex
100
AcDb2dVertex
 10
326.6890287829361
 20
375.6389824261392
 30
0.0
 42
-0.012126988856184
 70
     1
  0
VERTEX
  5
E23
330
E18
100
AcDbEntity
  8
HILF
100
AcDbVertex
100
AcDb2dVertex
 10
329.7899408676786
 20
368.3908404204209
 30
0.0
 42
-0.0848932264977562
  0
VERTEX
  5
E24
330
E18
100
AcDbEntity
  8
HILF
100
AcDbVertex
100
AcDb2dVertex
 10
330.962297714139
 20
362.9073098341518
 30
0.0
 42
-0.0613866774022237
 70
     1
  0
VERTEX
  5
E25
330
E18
100
AcDbEntity
  8
HILF
100
AcDbVertex
100
AcDb2dVertex
 10
330.3341096929577
 20
355.2046653473695
 30
0.0
 42
-0.0839111881417839
  0
VERTEX
  5
E26
330
E18
100
AcDbEntity
  8
HILF
100
AcDbVertex
100
AcDb2dVertex
 10
329.5008737758959
 20
353.0654354295787
 30
0.0
 42
-0.0465672393298728
 70
     1
  0
VERTEX
  5
E27
330
E18
100
AcDbEntity
  8
HILF
100
AcDbVertex
100
AcDb2dVertex
 10
327.0690794752646
 20
349.7435947086848
 30
0.0
  0
SEQEND
  5
E28
330
E18
100
AcDbEntity
  8
HILF
  0
DIMENSION
  5
E29
330
1E
100
AcDbEntity
  8
BEM
100
AcDbDimension
  2
*D2
 10
727.0947727928465
 20
320.7909043325439
 30
0.0
 11
427.0947727928464
 21
327.2909043325439
 31
0.0
 70
    32
  1
1000
 71
     5
 42
600.0000000000003
  3
Standard
100
AcDbAlignedDimension
 13
127.0947727928462
 23
276.3599008676409
 33
0.0
 14
727.0947727928465
 24
282.1165206678768
 34
0.0
100
AcDbRotatedDimension
1001
ACAD
1000
DSTYLE
1002
{
1070
    40
1040
2.0
1070
    41
1040
3.5
1070
    42
1040
1.0
1070
    43
1040
7.0
1070
    44
1040
1.0
1070
    73
1070
     0
1070
    74
1070
     0
1070
    77
1070
     1
1070
    78
1070
     8
1070
    79
1070
     2
1070
   140
1040
3.5
1070
   141
1040
1.5
1070
   146
1040
0.5142857142857144
1070
   147
1040
1.5
1070
   172
1070
     1
1070
   178
1070
     1
1070
   179
1070
     2
1070
   271
1070
     2
1070
   272
1070
     2
1070
   284
1070
     8
1070
   285
1070
     8
1070
   286
1070
     8
1002
}
  0
DIMENSION
  5
E2B
330
1E
100
AcDbEntity
  8
BEM
100
AcDbDimension
  2
*D3
 10
117.0233526087023
 20
451.7435947086851
 30
0.0
 11
110.5233526087022
 21
400.7435947086849
 31
0.0
 70
    32
  1
%%c<>
 71
     5
 42
102.0000000000004
  3
Standard
100
AcDbAlignedDimension
 13
127.0947727928462
 23
349.7435947086847
 33
0.0
 14
127.0947727928462
 24
451.7435947086851
 34
0.0
 50
90.0
100
AcDbRotatedDimension
1001
ACAD
1000
DSTYLE
1002
{
1070
    40
1040
2.0
1070
    41
1040
3.5
1070
    42
1040
1.0
1070
    43
1040
7.0
1070
    44
1040
1.0
1070
    73
1070
     0
1070
    74
1070
     0
1070
    77
1070
     1
1070
    78
1070
     8
1070
    79
1070
     2
1070
   140
1040
3.5
1070
   141
1040
1.5
1070
   146
1040
0.5142857142857144
1070
   147
1040
1.5
1070
   172
1070
     1
1070
   178
1070
     1
1070
   179
1070
     2
1070
   271
1070
     2
1070
   272
1070
     2
1070
   284
1070
     8
1070
   285
1070
     8
1070
   286
1070
     8
1002
}
  0
LINE
  5
E2D
330
1E
100
AcDbEntity
  8
STEMPEL
  6
Continuous
100
AcDbLine
 10
556.9863812792125
 20
451.7435947086851
 30
0.0
 11
494.6947727928466
 21
451.7435947086851
 31
0.0
  0
LINE
  5
E66
330
1E
100
AcDbEntity
  8
STEMPEL
100
AcDbLine
 10
727.0947727928465
 20
456.4503505466096
 30
0.0
 11
725.0554778737929
 21
457.401289384601
 31
0.0
  0
ARC
  5
E67
330
1E
100
AcDbEntity
  8
STEMPEL
100
AcDbCircle
 10
714.4900213302754
 20
434.7435947086849
 30
0.0
 40
25.0
100
AcDbArc
 50
65.00000000000065
 51
90.0
  0
ARC
  5
E68
330
1E
100
AcDbEntity
  8
STEMPEL
  6
Continuous
100
AcDbCircle
 10
679.5947727928465
 20
467.7435947086848
 30
0.0
 40
12.0
100
AcDbArc
 50
270.0
 51
296.8877706590191
  0
ARC
  5
E69
330
1E
100
AcDbEntity
  8
STEMPEL
  6
Continuous
100
AcDbCircle
 10
696.3277727928463
 20
434.7435947086849
 30
0.0
 40
24.99990931069965
100
AcDbArc
 50
90.0
 51
116.8877706590191
  0
ARC
  5
E6A
330
1E
100
AcDbEntity
  8
STEMPEL
  6
Continuous
100
AcDbCircle
 10
584.0222616697944
 20
440.743594708685
 30
0.0
 40
15.0
100
AcDbArc
 50
90.0
 51
124.3011527567897
  0
LINE
  5
E6B
330
1E
100
AcDbEntity
  8
STEMPEL
  6
Continuous
100
AcDbLine
 10
679.5947727928465
 20
455.7435947086847
 30
0.0
 11
584.0222616697944
 21
455.7435947086847
 31
0.0
  0
LINE
  5
E6C
330
1E
100
AcDbEntity
  8
STEMPEL
  6
Continuous
100
AcDbLine
 10
714.4900213302754
 20
459.7435947086847
 30
0.0
 11
696.3277727928463
 21
459.7435947086847
 31
0.0
  0
LINE
  5
E6D
330
1E
100
AcDbEntity
  8
STEMPEL
100
AcDbLine
 10
571.0607802729783
 20
451.7435947086847
 30
0.0
 11
559.9863812792124
 21
451.7435947086847
 31
0.0
  0
ARC
  5
E6E
330
1E
100
AcDbEntity
  8
STEMPEL
  6
Continuous
100
AcDbCircle
 10
571.0607802729783
 20
459.7435947086847
 30
0.0
 40
8.0
100
AcDbArc
 50
270.0
 51
304.3011527567897
  0
POINT
  5
E6F
330
1E
100
AcDbEntity
  8
DEFPOINTS
  6
ByBlock
 62
     0
100
AcDbPoint
 10
727.0947727928465
 20
345.0368388707596
 30
0.0
  0
LINE
  5
E70
330
1E
100
AcDbEntity
  8
STEMPEL
100
AcDbLine
 10
727.0947727928465
 20
345.0368388707596
 30
0.0
 11
725.0554778737929
 21
344.0859000327683
 31
0.0
  0
ARC
  5
E71
330
1E
100
AcDbEntity
  8
STEMPEL
100
AcDbCircle
 10
714.4900213302754
 20
366.743594708685
 30
0.0
 40
25.0
100
AcDbArc
 50
270.0
 51
294.9999999999921
  0
LINE
  5
E72
330
1E
100
AcDbEntity
  8
STEMPEL
100
AcDbLine
 10
727.0947727928465
 20
282.1165206678765
 30
0.0
 11
725.0554778737929
 21
283.067459505868
 31
0.0
  0
ARC
  5
E73
330
1E
100
AcDbEntity
  8
STEMPEL
100
AcDbCircle
 10
714.4900213302754
 20
260.4097648299518
 30
0.0
 40
25.0
100
AcDbArc
 50
65.00000000000065
 51
90.0
  0
ARC
  5
E74
330
1E
100
AcDbEntity
  8
STEMPEL
  6
Continuous
100
AcDbCircle
 10
679.5947727928465
 20
333.7435947086848
 30
0.0
 40
12.0
100
AcDbArc
 50
63.11222934098088
 51
90.0
  0
ARC
  5
E75
330
1E
100
AcDbEntity
  8
STEMPEL
  6
Continuous
100
AcDbCircle
 10
696.3277727928463
 20
366.743594708685
 30
0.0
 40
24.99990931069965
100
AcDbArc
 50
243.1122293409809
 51
270.0
  0
POINT
  5
E76
330
1E
100
AcDbEntity
  8
DEFPOINTS
  6
ByBlock
 62
     0
100
AcDbPoint
 10
577.0947727928465
 20
347.4390880338859
 30
0.0
  0
ARC
  5
E77
330
1E
100
AcDbEntity
  8
STEMPEL
  6
Continuous
100
AcDbCircle
 10
584.0222616697944
 20
360.743594708685
 30
0.0
 40
15.0
100
AcDbArc
 50
235.6988472432103
 51
270.0
  0
LINE
  5
E78
330
1E
100
AcDbEntity
  8
STEMPEL
  6
Continuous
100
AcDbLine
 10
679.5947727928465
 20
345.7435947086848
 30
0.0
 11
584.0222616697944
 21
345.7435947086848
 31
0.0
  0
ARC
  5
E79
330
1E
100
AcDbEntity
  8
STEMPEL
  6
Continuous
100
AcDbCircle
 10
679.5947727928465
 20
293.4097648299515
 30
0.0
 40
12.0
100
AcDbArc
 50
270.0
 51
296.8877706590191
  0
ARC
  5
E7A
330
1E
100
AcDbEntity
  8
STEMPEL
  6
Continuous
100
AcDbCircle
 10
696.3277727928463
 20
260.4097648299518
 30
0.0
 40
24.99990931069965
100
AcDbArc
 50
90.0
 51
116.8877706590191
  0
ARC
  5
E7B
330
1E
100
AcDbEntity
  8
STEMPEL
  6
Continuous
100
AcDbCircle
 10
584.0222616697944
 20
266.4097648299518
 30
0.0
 40
15.0
100
AcDbArc
 50
90.0
 51
124.3011527567897
  0
LINE
  5
E7C
330
1E
100
AcDbEntity
  8
STEMPEL
  6
Continuous
100
AcDbLine
 10
679.5947727928465
 20
281.4097648299515
 30
0.0
 11
584.0222616697944
 21
281.4097648299515
 31
0.0
  0
LINE
  5
E7D
330
1E
100
AcDbEntity
  8
STEMPEL
  6
Continuous
100
AcDbLine
 10
714.4900213302754
 20
341.7435947086848
 30
0.0
 11
696.3277727928463
 21
341.7435947086848
 31
0.0
  0
LINE
  5
E7E
330
1E
100
AcDbEntity
  8
STEMPEL
  6
Continuous
100
AcDbLine
 10
714.4900213302754
 20
285.4097648299515
 30
0.0
 11
696.3277727928463
 21
285.4097648299515
 31
0.0
  0
LINE
  5
E7F
330
1E
100
AcDbEntity
  8
STEMPEL
100
AcDbLine
 10
727.0947727928465
 20
170.7030089920266
 30
0.0
 11
725.0554778737929
 21
169.752070154035
 31
0.0
  0
POINT
  5
E80
330
1E
100
AcDbEntity
  8
DEFPOINTS
  6
ByBlock
 62
     0
100
AcDbPoint
 10
727.0947727928465
 20
170.7030089920266
 30
0.0
  0
ARC
  5
E81
330
1E
100
AcDbEntity
  8
STEMPEL
100
AcDbCircle
 10
714.4900213302754
 20
192.4097648299517
 30
0.0
 40
25.0
100
AcDbArc
 50
270.0
 51
294.9999999999921
  0
ARC
  5
E82
330
1E
100
AcDbEntity
  8
STEMPEL
  6
Continuous
100
AcDbCircle
 10
679.5947727928465
 20
159.4097648299515
 30
0.0
 40
12.0
100
AcDbArc
 50
63.11222934098088
 51
90.0
  0
ARC
  5
E83
330
1E
100
AcDbEntity
  8
STEMPEL
  6
Continuous
100
AcDbCircle
 10
696.3277727928463
 20
192.4097648299517
 30
0.0
 40
24.99990931069965
100
AcDbArc
 50
243.1122293409809
 51
270.0
  0
POINT
  5
E84
330
1E
100
AcDbEntity
  8
DEFPOINTS
  6
ByBlock
 62
     0
100
AcDbPoint
 10
577.0947727928465
 20
173.1052581551528
 30
0.0
  0
ARC
  5
E85
330
1E
100
AcDbEntity
  8
STEMPEL
  6
Continuous
100
AcDbCircle
 10
584.0222616697944
 20
186.4097648299517
 30
0.0
 40
15.0
100
AcDbArc
 50
235.6988472432103
 51
270.0
  0
LINE
  5
E86
330
1E
100
AcDbEntity
  8
STEMPEL
  6
Continuous
100
AcDbLine
 10
679.5947727928465
 20
171.4097648299515
 30
0.0
 11
584.0222616697944
 21
171.4097648299515
 31
0.0
  0
LINE
  5
E87
330
1E
100
AcDbEntity
  8
STEMPEL
  6
Continuous
100
AcDbLine
 10
714.4900213302754
 20
167.4097648299515
 30
0.0
 11
696.3277727928463
 21
167.4097648299515
 31
0.0
  0
LINE
  5
E88
330
1E
100
AcDbEntity
  8
HILF
100
AcDbLine
 10
582.289688771105
 20
279.6384709332332
 30
0.0
 11
582.289688771105
 21
173.1810587266698
 31
0.0
  0
LINE
  5
E89
330
1E
100
AcDbEntity
  8
HILF
100
AcDbLine
 10
682.9704521716409
 20
279.6384709332332
 30
0.0
 11
682.9704521716409
 21
173.1810587266698
 31
0.0
  0
LINE
  5
E8A
330
1E
100
AcDbEntity
  8
STEMPEL
  6
Continuous
100
AcDbLine
 10
727.0947727928465
 20
170.7030089920266
 30
0.0
 11
727.0947727928465
 21
282.1165206678765
 31
0.0
  0
LINE
  5
E8B
330
1E
100
AcDbEntity
  8
STEMPEL
  6
Continuous
100
AcDbLine
 10
571.0607802729783
 20
349.7435947086848
 30
0.0
 11
558.8980393121491
 21
349.7435947086848
 31
0.0
  0
LINE
  5
E8C
330
1E
100
AcDbEntity
  8
STEMPEL
100
AcDbLine
 10
571.0607802729783
 20
277.4097648299516
 30
0.0
 11
559.9863812792123
 21
277.4097648299516
 31
0.0
  0
LINE
  5
E8D
330
1E
100
AcDbEntity
  8
STEMPEL
  6
Continuous
100
AcDbLine
 10
571.0607802729783
 20
175.4097648299515
 30
0.0
 11
558.8980393121494
 21
175.4097648299515
 31
0.0
  0
LINE
  5
E8E
330
1E
100
AcDbEntity
  8
HILF
100
AcDbLine
 10
572.777524591672
 20
275.6759944618631
 30
0.0
 11
572.777524591672
 21
177.1435351980402
 31
0.0
  0
ARC
  5
E8F
330
1E
100
AcDbEntity
  8
STEMPEL
  6
Continuous
100
AcDbCircle
 10
571.0607802729783
 20
167.4097648299515
 30
0.0
 40
8.0
100
AcDbArc
 50
55.69884724321028
 51
90.0
  0
ARC
  5
E90
330
1E
100
AcDbEntity
  8
STEMPEL
  6
Continuous
100
AcDbCircle
 10
571.0607802729783
 20
341.7435947086848
 30
0.0
 40
8.0
100
AcDbArc
 50
55.69884724321028
 51
90.0
  0
ARC
  5
E91
330
1E
100
AcDbEntity
  8
STEMPEL
  6
Continuous
100
AcDbCircle
 10
571.0607802729783
 20
285.4097648299515
 30
0.0
 40
8.0
100
AcDbArc
 50
270.0
 51
304.3011527567897
  0
LINE
  5
E92
330
1E
100
AcDbEntity
  8
HILF
100
AcDbLine
 10
572.777524591672
 20
450.0098243405963
 30
0.0
 11
572.777524591672
 21
351.4773650767735
 31
0.0
  0
LINE
  5
E93
330
1E
100
AcDbEntity
  8
STEMPEL
  6
Continuous
100
AcDbLine
 10
727.0947727928465
 20
345.0368388707596
 30
0.0
 11
727.0947727928465
 21
456.4503505466096
 31
0.0
  0
LINE
  5
E94
330
1E
100
AcDbEntity
  8
HILF
100
AcDbLine
 10
582.289688771105
 20
453.9723008119661
 30
0.0
 11
582.289688771105
 21
347.5148886054031
 31
0.0
  0
LINE
  5
E95
330
1E
100
AcDbEntity
  8
HILF
100
AcDbLine
 10
682.9704521716409
 20
453.9723008119661
 30
0.0
 11
682.9704521716409
 21
347.5148886054031
 31
0.0
  0
LINE
  5
E96
330
1E
100
AcDbEntity
  8
MITTEL
100
AcDbLine
 10
447.0947727928465
 20
172.4097648299517
 30
0.0
 11
447.0947727928465
 21
280.4097648299517
 31
0.0
  0
LINE
  5
E97
330
1E
100
AcDbEntity
  8
MITTEL
100
AcDbLine
 10
447.0947727928465
 20
400.7435947086848
 30
0.0
 11
447.0947727928465
 21
470.0653990666134
 31
0.0
  0
POLYLINE
  5
E98
330
1E
100
AcDbEntity
  8
HILF
100
AcDb2dPolyline
 66
     1
 10
0.0
 20
0.0
 30
0.0
 70
     2
  0
VERTEX
  5
E99
330
E98
100
AcDbEntity
  8
HILF
100
AcDbVertex
100
AcDb2dVertex
 10
559.9863812792124
 20
277.4097648299516
 30
0.0
 42
0.0121929004348654
  0
VERTEX
  5
E9A
330
E98
100
AcDbEntity
  8
HILF
100
AcDbVertex
100
AcDb2dVertex
 10
555.8194351044236
 20
266.4982758448463
 30
0.0
 42
0.0180598744561613
 70
     1
  0
VERTEX
  5
E9B
330
E98
100
AcDbEntity
  8
HILF
100
AcDbVertex
100
AcDb2dVertex
 10
553.4563208438267
 20
258.9735625812914
 30
0.0
 42
0.0052201000386137
  0
VERTEX
  5
E9C
330
E98
100
AcDbEntity
  8
HILF
100
AcDbVertex
100
AcDb2dVertex
 10
549.9944144823841
 20
245.8404152299531
 30
0.0
 42
0.0168612676998402
 70
     1
  0
VERTEX
  5
E9D
330
E98
100
AcDbEntity
  8
HILF
100
AcDbVertex
100
AcDb2dVertex
 10
549.1029443425665
 20
241.7301022514668
 30
0.0
 42
0.0641755544296637
  0
VERTEX
  5
E9E
330
E98
100
AcDbEntity
  8
HILF
100
AcDbVertex
100
AcDb2dVertex
 10
548.5224482389368
 20
230.5083857636244
 30
0.0
 42
0.0699359878718527
 70
     1
  0
VERTEX
  5
E9F
330
E98
100
AcDbEntity
  8
HILF
100
AcDbVertex
100
AcDb2dVertex
 10
550.7354594514128
 20
220.4293606877908
 30
0.0
 42
0.004056519498209
  0
VERTEX
  5
EA0
330
E98
100
AcDbEntity
  8
HILF
100
AcDbVertex
100
AcDb2dVertex
 10
552.583342977569
 20
215.5774259445913
 30
0.0
 42
0.0031039833680859
 70
     1
  0
VERTEX
  5
EA1
330
E98
100
AcDbEntity
  8
HILF
100
AcDbVertex
100
AcDb2dVertex
 10
555.088835952673
 20
209.2718282431258
 30
0.0
 42
0.0110224921829013
  0
VERTEX
  5
EA2
330
E98
100
AcDbEntity
  8
HILF
100
AcDbVertex
100
AcDb2dVertex
 10
558.5179886198212
 20
201.3051525474059
 30
0.0
 42
-0.012126988856184
 70
     1
  0
VERTEX
  5
EA3
330
E98
100
AcDbEntity
  8
HILF
100
AcDbVertex
100
AcDb2dVertex
 10
561.6189007045638
 20
194.0570105416877
 30
0.0
 42
-0.0848932264977562
  0
VERTEX
  5
EA4
330
E98
100
AcDbEntity
  8
HILF
100
AcDbVertex
100
AcDb2dVertex
 10
562.7912575510241
 20
188.5734799554185
 30
0.0
 42
-0.0613866774022237
 70
     1
  0
VERTEX
  5
EA5
330
E98
100
AcDbEntity
  8
HILF
100
AcDbVertex
100
AcDb2dVertex
 10
562.1630695298428
 20
180.8708354686362
 30
0.0
 42
-0.0839111881417839
  0
VERTEX
  5
EA6
330
E98
100
AcDbEntity
  8
HILF
100
AcDbVertex
100
AcDb2dVertex
 10
561.329833612781
 20
178.7316055508455
 30
0.0
 42
-0.0465672393298728
 70
     1
  0
VERTEX
  5
EA7
330
E98
100
AcDbEntity
  8
HILF
100
AcDbVertex
100
AcDb2dVertex
 10
558.8980393121497
 20
175.4097648299515
 30
0.0
  0
SEQEND
  5
EA8
330
E98
100
AcDbEntity
  8
HILF
  0
POLYLINE
  5
EAB
330
1E
100
AcDbEntity
  8
HILF
100
AcDb2dPolyline
 66
     1
 10
0.0
 20
0.0
 30
0.0
 70
     2
  0
VERTEX
  5
EAC
330
EAB
100
AcDbEntity
  8
HILF
100
AcDbVertex
100
AcDb2dVertex
 10
559.9863812792124
 20
451.7435947086847
 30
0.0
 42
0.0121929004348654
  0
VERTEX
  5
EAD
330
EAB
100
AcDbEntity
  8
HILF
100
AcDbVertex
100
AcDb2dVertex
 10
555.8194351044236
 20
440.8321057235794
 30
0.0
 42
0.0180598744561613
 70
     1
  0
VERTEX
  5
EAE
330
EAB
100
AcDbEntity
  8
HILF
100
AcDbVertex
100
AcDb2dVertex
 10
553.4563208438267
 20
433.3073924600244
 30
0.0
 42
0.0052201000386137
  0
VERTEX
  5
EAF
330
EAB
100
AcDbEntity
  8
HILF
100
AcDbVertex
100
AcDb2dVertex
 10
549.9944144823841
 20
420.1742451086862
 30
0.0
 42
0.0168612676998402
 70
     1
  0
VERTEX
  5
EB0
330
EAB
100
AcDbEntity
  8
HILF
100
AcDbVertex
100
AcDb2dVertex
 10
549.1029443425665
 20
416.0639321302002
 30
0.0
 42
0.0641755544296637
  0
VERTEX
  5
EB1
330
EAB
100
AcDbEntity
  8
HILF
100
AcDbVertex
100
AcDb2dVertex
 10
548.5224482389368
 20
404.8422156423576
 30
0.0
 42
0.0699359878718527
 70
     1
  0
VERTEX
  5
EB2
330
EAB
100
AcDbEntity
  8
HILF
100
AcDbVertex
100
AcDb2dVertex
 10
550.7354594514128
 20
394.763190566524
 30
0.0
 42
0.004056519498209
  0
VERTEX
  5
EB3
330
EAB
100
AcDbEntity
  8
HILF
100
AcDbVertex
100
AcDb2dVertex
 10
552.583342977569
 20
389.9112558233247
 30
0.0
 42
0.0031039833680859
 70
     1
  0
VERTEX
  5
EB4
330
EAB
100
AcDbEntity
  8
HILF
100
AcDbVertex
100
AcDb2dVertex
 10
555.088835952673
 20
383.6056581218592
 30
0.0
 42
0.0110224921829013
  0
VERTEX
  5
EB5
330
EAB
100
AcDbEntity
  8
HILF
100
AcDbVertex
100
AcDb2dVertex
 10
558.5179886198212
 20
375.6389824261392
 30
0.0
 42
-0.012126988856184
 70
     1
  0
VERTEX
  5
EB6
330
EAB
100
AcDbEntity
  8
HILF
100
AcDbVertex
100
AcDb2dVertex
 10
561.6189007045638
 20
368.3908404204209
 30
0.0
 42
-0.0848932264977562
  0
VERTEX
  5
EB7
330
EAB
100
AcDbEntity
  8
HILF
100
AcDbVertex
100
AcDb2dVertex
 10
562.7912575510241
 20
362.9073098341518
 30
0.0
 42
-0.0613866774022237
 70
     1
  0
VERTEX
  5
EB8
330
EAB
100
AcDbEntity
  8
HILF
100
AcDbVertex
100
AcDb2dVertex
 10
562.1630695298428
 20
355.2046653473695
 30
0.0
 42
-0.0839111881417839
  0
VERTEX
  5
EB9
330
EAB
100
AcDbEntity
  8
HILF
100
AcDbVertex
100
AcDb2dVertex
 10
561.329833612781
 20
353.0654354295787
 30
0.0
 42
-0.0465672393298728
 70
     1
  0
VERTEX
  5
EBA
330
EAB
100
AcDbEntity
  8
HILF
100
AcDbVertex
100
AcDb2dVertex
 10
558.8980393121497
 20
349.7435947086848
 30
0.0
  0
SEQEND
  5
EBB
330
EAB
100
AcDbEntity
  8
HILF
  0
POLYLINE
  5
EBC
330
1E
100
AcDbEntity
  8
HILF
100
AcDb2dPolyline
 66
     1
 10
0.0
 20
0.0
 30
0.0
 70
     2
  0
VERTEX
  5
EBD
330
EBC
100
AcDbEntity
  8
HILF
100
AcDbVertex
100
AcDb2dVertex
 10
556.9863812792124
 20
451.7435947086847
 30
0.0
 42
0.0121929004348654
  0
VERTEX
  5
EBE
330
EBC
100
AcDbEntity
  8
HILF
100
AcDbVertex
100
AcDb2dVertex
 10
552.8194351044236
 20
440.8321057235794
 30
0.0
 42
0.0180598744561613
 70
     1
  0
VERTEX
  5
EBF
330
EBC
100
AcDbEntity
  8
HILF
100
AcDbVertex
100
AcDb2dVertex
 10
550.4563208438268
 20
433.3073924600244
 30
0.0
 42
0.0052201000386137
  0
VERTEX
  5
EC0
330
EBC
100
AcDbEntity
  8
HILF
100
AcDbVertex
100
AcDb2dVertex
 10
546.994414482384
 20
420.1742451086862
 30
0.0
 42
0.0168612676998402
 70
     1
  0
VERTEX
  5
EC1
330
EBC
100
AcDbEntity
  8
HILF
100
AcDbVertex
100
AcDb2dVertex
 10
546.1029443425664
 20
416.0639321302002
 30
0.0
 42
0.0641755544296637
  0
VERTEX
  5
EC2
330
EBC
100
AcDbEntity
  8
HILF
100
AcDbVertex
100
AcDb2dVertex
 10
545.5224482389367
 20
404.8422156423576
 30
0.0
 42
0.0699359878718527
 70
     1
  0
VERTEX
  5
EC3
330
EBC
100
AcDbEntity
  8
HILF
100
AcDbVertex
100
AcDb2dVertex
 10
547.7354594514127
 20
394.763190566524
 30
0.0
 42
0.004056519498209
  0
VERTEX
  5
EC4
330
EBC
100
AcDbEntity
  8
HILF
100
AcDbVertex
100
AcDb2dVertex
 10
549.583342977569
 20
389.9112558233247
 30
0.0
 42
0.0031039833680859
 70
     1
  0
VERTEX
  5
EC5
330
EBC
100
AcDbEntity
  8
HILF
100
AcDbVertex
100
AcDb2dVertex
 10
552.0888359526731
 20
383.6056581218592
 30
0.0
 42
0.0110224921829013
  0
VERTEX
  5
EC6
330
EBC
100
AcDbEntity
  8
HILF
100
AcDbVertex
100
AcDb2dVertex
 10
555.5179886198212
 20
375.6389824261392
 30
0.0
 42
-0.012126988856184
 70
     1
  0
VERTEX
  5
EC7
330
EBC
100
AcDbEntity
  8
HILF
100
AcDbVertex
100
AcDb2dVertex
 10
558.6189007045637
 20
368.3908404204209
 30
0.0
 42
-0.0848932264977562
  0
VERTEX
  5
EC8
330
EBC
100
AcDbEntity
  8
HILF
100
AcDbVertex
100
AcDb2dVertex
 10
559.7912575510242
 20
362.9073098341518
 30
0.0
 42
-0.0613866774022237
 70
     1
  0
VERTEX
  5
EC9
330
EBC
100
AcDbEntity
  8
HILF
100
AcDbVertex
100
AcDb2dVertex
 10
559.1630695298428
 20
355.2046653473695
 30
0.0
 42
-0.0839111881417839
  0
VERTEX
  5
ECA
330
EBC
100
AcDbEntity
  8
HILF
100
AcDbVertex
100
AcDb2dVertex
 10
558.329833612781
 20
353.0654354295787
 30
0.0
 42
-0.0465672393298728
 70
     1
  0
VERTEX
  5
ECB
330
EBC
100
AcDbEntity
  8
HILF
100
AcDbVertex
100
AcDb2dVertex
 10
555.8980393121498
 20
349.7435947086848
 30
0.0
  0
SEQEND
  5
ECC
330
EBC
100
AcDbEntity
  8
HILF
  0
LINE
  5
ECE
330
1E
100
AcDbEntity
  8
STEMPEL
  6
Continuous
100
AcDbLine
 10
127.0947727928462
 20
175.4097648299515
 30
0.0
 11
127.0947727928462
 21
277.4097648299515
 31
0.0
  0
LINE
  5
ECF
330
1E
100
AcDbEntity
  8
STEMPEL
  6
Continuous
100
AcDbLine
 10
127.0947727928462
 20
349.7435947086848
 30
0.0
 11
127.0947727928462
 21
451.7435947086851
 31
0.0
  0
LINE
  5
ED0
330
1E
100
AcDbEntity
  8
STEMPEL
  6
Continuous
100
AcDbLine
 10
555.8980393121498
 20
175.4097648299515
 30
0.0
 11
327.069079475265
 21
175.4097648299515
 31
0.0
  0
LINE
  5
ED1
330
1E
100
AcDbEntity
  8
MITTEL
100
AcDbLine
 10
732.0947727928466
 20
400.7435947086849
 30
0.0
 11
120.0557308958375
 21
400.7435947086849
 31
0.0
  0
LINE
  5
ED2
330
1E
100
AcDbEntity
  8
MITTEL
100
AcDbLine
 10
732.0947727928466
 20
226.4097648299518
 30
0.0
 11
120.0557308958375
 21
226.4097648299518
 31
0.0
  0
LINE
  5
ED3
330
1E
100
AcDbEntity
  8
STEMPEL
100
AcDbLine
 10
556.9863812792124
 20
277.4097648299516
 30
0.0
 11
328.1574214423275
 21
277.4097648299516
 31
0.0
  0
LINE
  5
F0A
330
1E
100
AcDbEntity
  8
STEMPEL
  6
Continuous
100
AcDbLine
 10
555.8980393121498
 20
349.7435947086848
 30
0.0
 11
327.0690794752646
 21
349.7435947086848
 31
0.0
  0
POLYLINE
  5
F67
330
1E
100
AcDbEntity
  8
HILF
100
AcDb2dPolyline
 66
     1
 10
0.0
 20
0.0
 30
0.0
 70
     4
 75
     6
  0
VERTEX
  5
F68
330
F67
100
AcDbEntity
  8
HILF
100
AcDbVertex
100
AcDb2dVertex
 10
373.0757500341021
 20
451.7435947086845
 30
0.0
 70
    16
  0
VERTEX
  5
F69
330
F67
100
AcDbEntity
  8
HILF
100
AcDbVertex
100
AcDb2dVertex
 10
373.0757500341021
 20
451.7435947086845
 30
0.0
 70
     8
  0
VERTEX
  5
F6A
330
F67
100
AcDbEntity
  8
HILF
100
AcDbVertex
100
AcDb2dVertex
 10
376.6855478036835
 20
446.1219796346951
 30
0.0
 70
     8
  0
VERTEX
  5
F6B
330
F67
100
AcDbEntity
  8
HILF
100
AcDbVertex
100
AcDb2dVertex
 10
379.2122909923727
 20
441.0941769230587
 30
0.0
 70
     8
  0
VERTEX
  5
F6C
330
F67
100
AcDbEntity
  8
HILF
100
AcDbVertex
100
AcDb2dVertex
 10
380.8882639395118
 20
436.6150232415078
 30
0.0
 70
     8
  0
VERTEX
  5
F6D
330
F67
100
AcDbEntity
  8
HILF
100
AcDbVertex
100
AcDb2dVertex
 10
381.9457509844434
 20
432.6393552577754
 30
0.0
 70
     8
  0
VERTEX
  5
F6E
330
F67
100
AcDbEntity
  8
HILF
100
AcDbVertex
100
AcDb2dVertex
 10
382.6170364665096
 20
429.1220096395943
 30
0.0
 70
     8
  0
VERTEX
  5
F6F
330
F67
100
AcDbEntity
  8
HILF
100
AcDbVertex
100
AcDb2dVertex
 10
383.1344047250528
 20
426.0178230546975
 30
0.0
 70
     8
  0
VERTEX
  5
F70
330
F67
100
AcDbEntity
  8
HILF
100
AcDbVertex
100
AcDb2dVertex
 10
383.7301400994155
 20
423.2816321708175
 30
0.0
 70
     8
  0
VERTEX
  5
F71
330
F67
100
AcDbEntity
  8
HILF
100
AcDbVertex
100
AcDb2dVertex
 10
384.6365269289398
 20
420.8682736556873
 30
0.0
 70
     8
  0
VERTEX
  5
F72
330
F67
100
AcDbEntity
  8
HILF
100
AcDbVertex
100
AcDb2dVertex
 10
386.0318974402466
 20
418.7331379756925
 30
0.0
 70
     8
  0
VERTEX
  5
F73
330
F67
100
AcDbEntity
  8
HILF
100
AcDbVertex
100
AcDb2dVertex
 10
387.8787754090696
 20
416.8338307918289
 30
0.0
 70
     8
  0
VERTEX
  5
F74
330
F67
100
AcDbEntity
  8
HILF
100
AcDbVertex
100
AcDb2dVertex
 10
390.085732498421
 20
415.1285115637453
 30
0.0
 70
     8
  0
VERTEX
  5
F75
330
F67
100
AcDbEntity
  8
HILF
100
AcDbVertex
100
AcDb2dVertex
 10
392.5613403713131
 20
413.57533975109
 30
0.0
 70
     8
  0
VERTEX
  5
F76
330
F67
100
AcDbEntity
  8
HILF
100
AcDbVertex
100
AcDb2dVertex
 10
395.2141706907582
 20
412.1324748135118
 30
0.0
 70
     8
  0
VERTEX
  5
F77
330
F67
100
AcDbEntity
  8
HILF
100
AcDbVertex
100
AcDb2dVertex
 10
397.9527951197682
 20
410.7580762106594
 30
0.0
 70
     8
  0
VERTEX
  5
F78
330
F67
100
AcDbEntity
  8
HILF
100
AcDbVertex
100
AcDb2dVertex
 10
400.6857853213556
 20
409.4103034021811
 30
0.0
 70
     8
  0
VERTEX
  5
F79
330
F67
100
AcDbEntity
  8
HILF
100
AcDbVertex
100
AcDb2dVertex
 10
403.3217129585324
 20
408.0473158477258
 30
0.0
 70
     8
  0
VERTEX
  5
F7A
330
F67
100
AcDbEntity
  8
HILF
100
AcDbVertex
100
AcDb2dVertex
 10
405.796168431813
 20
406.6363860041936
 30
0.0
 70
     8
  0
VERTEX
  5
F7B
330
F67
100
AcDbEntity
  8
HILF
100
AcDbVertex
100
AcDb2dVertex
 10
408.1528170917198
 20
405.1812383174908
 30
0.0
 70
     8
  0
VERTEX
  5
F7C
330
F67
100
AcDbEntity
  8
HILF
100
AcDbVertex
100
AcDb2dVertex
 10
410.4623430262769
 20
403.6947102307756
 30
0.0
 70
     8
  0
VERTEX
  5
F7D
330
F67
100
AcDbEntity
  8
HILF
100
AcDbVertex
100
AcDb2dVertex
 10
412.7954303235086
 20
402.189639187206
 30
0.0
 70
     8
  0
VERTEX
  5
F7E
330
F67
100
AcDbEntity
  8
HILF
100
AcDbVertex
100
AcDb2dVertex
 10
415.2227630714397
 20
400.6788626299401
 30
0.0
 70
     8
  0
VERTEX
  5
F7F
330
F67
100
AcDbEntity
  8
HILF
100
AcDbVertex
100
AcDb2dVertex
 10
417.8150253580942
 20
399.1752180021358
 30
0.0
 70
     8
  0
VERTEX
  5
F80
330
F67
100
AcDbEntity
  8
HILF
100
AcDbVertex
100
AcDb2dVertex
 10
420.6429012714967
 20
397.6915427469513
 30
0.0
 70
     8
  0
VERTEX
  5
F81
330
F67
100
AcDbEntity
  8
HILF
100
AcDbVertex
100
AcDb2dVertex
 10
423.7770748996712
 20
396.2406743075445
 30
0.0
 70
     8
  0
VERTEX
  5
F82
330
F67
100
AcDbEntity
  8
HILF
100
AcDbVertex
100
AcDb2dVertex
 10
427.2621079494841
 20
394.8419480890458
 30
0.0
 70
     8
  0
VERTEX
  5
F83
330
F67
100
AcDbEntity
  8
HILF
100
AcDbVertex
100
AcDb2dVertex
 10
431.0380726031673
 20
393.540691344475
 30
0.0
 70
     8
  0
VERTEX
  5
F84
330
F67
100
AcDbEntity
  8
HILF
100
AcDbVertex
100
AcDb2dVertex
 10
435.0189186617941
 20
392.3887292888243
 30
0.0
 70
     8
  0
VERTEX
  5
F85
330
F67
100
AcDbEntity
  8
HILF
100
AcDbVertex
100
AcDb2dVertex
 10
439.1185959264386
 20
391.4378871370855
 30
0.0
 70
     8
  0
VERTEX
  5
F86
330
F67
100
AcDbEntity
  8
HILF
100
AcDbVertex
100
AcDb2dVertex
 10
443.2510541981742
 20
390.7399901042512
 30
0.0
 70
     8
  0
VERTEX
  5
F87
330
F67
100
AcDbEntity
  8
HILF
100
AcDbVertex
100
AcDb2dVertex
 10
447.3302432780748
 20
390.3468634053132
 30
0.0
 70
     8
  0
VERTEX
  5
F88
330
F67
100
AcDbEntity
  8
HILF
100
AcDbVertex
100
AcDb2dVertex
 10
451.270112967214
 20
390.3103322552637
 30
0.0
 70
     8
  0
VERTEX
  5
F89
330
F67
100
AcDbEntity
  8
HILF
100
AcDbVertex
100
AcDb2dVertex
 10
454.984613066665
 20
390.6822218690948
 30
0.0
 70
     8
  0
VERTEX
  5
F8A
330
F67
100
AcDbEntity
  8
HILF
100
AcDbVertex
100
AcDb2dVertex
 10
458.4158645749559
 20
391.4970823893566
 30
0.0
 70
     8
  0
VERTEX
  5
F8B
330
F67
100
AcDbEntity
  8
HILF
100
AcDbVertex
100
AcDb2dVertex
 10
461.6186732804295
 20
392.7203636688313
 30
0.0
 70
     8
  0
VERTEX
  5
F8C
330
F67
100
AcDbEntity
  8
HILF
100
AcDbVertex
100
AcDb2dVertex
 10
464.6760161688829
 20
394.3002404878592
 30
0.0
 70
     8
  0
VERTEX
  5
F8D
330
F67
100
AcDbEntity
  8
HILF
100
AcDbVertex
100
AcDb2dVertex
 10
467.6708702261131
 20
396.1848876267806
 30
0.0
 70
     8
  0
VERTEX
  5
F8E
330
F67
100
AcDbEntity
  8
HILF
100
AcDbVertex
100
AcDb2dVertex
 10
470.6862124379173
 20
398.3224798659356
 30
0.0
 70
     8
  0
VERTEX
  5
F8F
330
F67
100
AcDbEntity
  8
HILF
100
AcDbVertex
100
AcDb2dVertex
 10
473.8050197900921
 20
400.6611919856645
 30
0.0
 70
     8
  0
VERTEX
  5
F90
330
F67
100
AcDbEntity
  8
HILF
100
AcDbVertex
100
AcDb2dVertex
 10
477.1102692684348
 20
403.1491987663075
 30
0.0
 70
     8
  0
VERTEX
  5
F91
330
F67
100
AcDbEntity
  8
HILF
100
AcDbVertex
100
AcDb2dVertex
 10
480.6849378587422
 20
405.7346749882048
 30
0.0
 70
     8
  0
VERTEX
  5
F92
330
F67
100
AcDbEntity
  8
HILF
100
AcDbVertex
100
AcDb2dVertex
 10
484.5744836326044
 20
408.3752254041356
 30
0.0
 70
     8
  0
VERTEX
  5
F93
330
F67
100
AcDbEntity
  8
HILF
100
AcDbVertex
100
AcDb2dVertex
 10
488.674289004784
 20
411.0661746566344
 30
0.0
 70
     8
  0
VERTEX
  5
F94
330
F67
100
AcDbEntity
  8
HILF
100
AcDbVertex
100
AcDb2dVertex
 10
492.8422174758367
 20
413.8122773606747
 30
0.0
 70
     8
  0
VERTEX
  5
F95
330
F67
100
AcDbEntity
  8
HILF
100
AcDbVertex
100
AcDb2dVertex
 10
496.9361325463174
 20
416.6182881312299
 30
0.0
 70
     8
  0
VERTEX
  5
F96
330
F67
100
AcDbEntity
  8
HILF
100
AcDbVertex
100
AcDb2dVertex
 10
500.813897716782
 20
419.4889615832737
 30
0.0
 70
     8
  0
VERTEX
  5
F97
330
F67
100
AcDbEntity
  8
HILF
100
AcDbVertex
100
AcDb2dVertex
 10
504.3333764877858
 20
422.4290523317793
 30
0.0
 70
     8
  0
VERTEX
  5
F98
330
F67
100
AcDbEntity
  8
HILF
100
AcDbVertex
100
AcDb2dVertex
 10
507.3524323598843
 20
425.4433149917201
 30
0.0
 70
     8
  0
VERTEX
  5
F99
330
F67
100
AcDbEntity
  8
HILF
100
AcDbVertex
100
AcDb2dVertex
 10
509.7289288336331
 20
428.5365041780699
 30
0.0
 70
     8
  0
VERTEX
  5
F9A
330
F67
100
AcDbEntity
  8
HILF
100
AcDbVertex
100
AcDb2dVertex
 10
511.3758766638217
 20
431.7037058891852
 30
0.0
 70
     8
  0
VERTEX
  5
F9B
330
F67
100
AcDbEntity
  8
HILF
100
AcDbVertex
100
AcDb2dVertex
 10
512.4268756221737
 20
434.9013316569564
 30
0.0
 70
     8
  0
VERTEX
  5
F9C
330
F67
100
AcDbEntity
  8
HILF
100
AcDbVertex
100
AcDb2dVertex
 10
513.0706727346481
 20
438.0761243966573
 30
0.0
 70
     8
  0
VERTEX
  5
F9D
330
F67
100
AcDbEntity
  8
HILF
100
AcDbVertex
100
AcDb2dVertex
 10
513.4960150272023
 20
441.1748270235615
 30
0.0
 70
     8
  0
VERTEX
  5
F9E
330
F67
100
AcDbEntity
  8
HILF
100
AcDbVertex
100
AcDb2dVertex
 10
513.8916495257948
 20
444.1441824529427
 30
0.0
 70
     8
  0
VERTEX
  5
F9F
330
F67
100
AcDbEntity
  8
HILF
100
AcDbVertex
100
AcDb2dVertex
 10
514.4463232563835
 20
446.9309336000744
 30
0.0
 70
     8
  0
VERTEX
  5
FA0
330
F67
100
AcDbEntity
  8
HILF
100
AcDbVertex
100
AcDb2dVertex
 10
515.3487832449265
 20
449.4818233802305
 30
0.0
 70
     8
  0
VERTEX
  5
FA1
330
F67
100
AcDbEntity
  8
HILF
100
AcDbVertex
100
AcDb2dVertex
 10
516.787776517382
 20
451.7435947086847
 30
0.0
 70
     8
  0
VERTEX
  5
FA2
330
F67
100
AcDbEntity
  8
HILF
100
AcDbVertex
100
AcDb2dVertex
 10
384.35242516248
 20
435.9207261773384
 30
0.0
 70
    16
  0
VERTEX
  5
FA3
330
F67
100
AcDbEntity
  8
HILF
100
AcDbVertex
100
AcDb2dVertex
 10
378.8452117875632
 20
417.9064705998724
 30
0.0
 70
    16
  0
VERTEX
  5
FA4
330
F67
100
AcDbEntity
  8
HILF
100
AcDbVertex
100
AcDb2dVertex
 10
405.3322825734477
 20
408.6559055685633
 30
0.0
 70
    16
  0
VERTEX
  5
FA5
330
F67
100
AcDbEntity
  8
HILF
100
AcDbVertex
100
AcDb2dVertex
 10
419.7559356698408
 20
395.7538022122295
 30
0.0
 70
    16
  0
VERTEX
  5
FA6
330
F67
100
AcDbEntity
  8
HILF
100
AcDbVertex
100
AcDb2dVertex
 10
458.3064241452167
 20
385.7729314277857
 30
0.0
 70
    16
  0
VERTEX
  5
FA7
330
F67
100
AcDbEntity
  8
HILF
100
AcDbVertex
100
AcDb2dVertex
 10
476.9260461492828
 20
405.2478032911961
 30
0.0
 70
    16
  0
VERTEX
  5
FA8
330
F67
100
AcDbEntity
  8
HILF
100
AcDbVertex
100
AcDb2dVertex
 10
518.099018410105
 20
427.643905336659
 30
0.0
 70
    16
  0
VERTEX
  5
FA9
330
F67
100
AcDbEntity
  8
HILF
100
AcDbVertex
100
AcDb2dVertex
 10
512.0673082780991
 20
446.1450353992776
 30
0.0
 70
    16
  0
VERTEX
  5
FAA
330
F67
100
AcDbEntity
  8
HILF
100
AcDbVertex
100
AcDb2dVertex
 10
516.787776517382
 20
451.7435947086847
 30
0.0
 70
    16
  0
SEQEND
  5
FAB
330
F67
100
AcDbEntity
  8
HILF
  0
DIMENSION
  5
104E
330
1E
100
AcDbEntity
  8
BEM
100
AcDbDimension
  2
*D4
 10
447.0947727928465
 20
303.5558720231815
 30
0.0
 11
287.0947727928464
 21
310.0558720231815
 31
0.0
 70
    32
  1
620
 71
     5
 42
320.0000000000003
  3
Standard
100
AcDbAlignedDimension
 13
127.0947727928462
 23
276.3599008676409
 33
0.0
 14
447.0947727928465
 24
280.4097648299517
 34
0.0
100
AcDbRotatedDimension
1001
ACAD
1000
DSTYLE
1002
{
1070
    40
1040
2.0
1070
    41
1040
3.5
1070
    42
1040
1.0
1070
    43
1040
7.0
1070
    44
1040
1.0
1070
    73
1070
     0
1070
    74
1070
     0
1070
    77
1070
     1
1070
    78
1070
     8
1070
    79
1070
     2
1070
   140
1040
3.5
1070
   141
1040
1.5
1070
   146
1040
0.5142857142857144
1070
   147
1040
1.5
1070
   172
1070
     1
1070
   178
1070
     1
1070
   179
1070
     2
1070
   271
1070
     2
1070
   272
1070
     2
1070
   284
1070
     8
1070
   285
1070
     8
1070
   286
1070
     8
1002
}
  0
TEXT
  5
1081
330
1E
100
AcDbEntity
  8
TEXT
100
AcDbText
 10
654.3410940884991
 20
62.10021383107516
 30
0.0
 40
5.0
  1
und Überlauf, 1000mm lang
 41
0.8
  7
GREEKS
100
AcDbText
  0
TEXT
  5
10C3
330
1E
100
AcDbEntity
  8
TEXT
 62
     1
100
AcDbText
 10
626.4262446161207
 20
412.2087685679311
 30
0.0
 40
7.0
  1
DN100
 41
0.8
  7
GREEKS
100
AcDbText
  0
LINE
  5
1187
330
1E
100
AcDbEntity
  8
STEMPEL
100
AcDbLine
 10
504.5730336624118
 20
237.5564920361862
 30
0.0
 11
482.24694670589
 21
260.5466168990449
 31
0.0
  0
LINE
  5
1188
330
1E
100
AcDbEntity
  8
HILF
100
AcDbLine
 10
502.6920650637997
 20
235.7326603600918
 30
0.0
 11
480.3590561050679
 21
258.7229870857142
 31
0.0
  0
LINE
  5
118A
330
1E
100
AcDbEntity
  8
HILF
100
AcDbLine
 10
413.8304894806252
 20
258.7229870857142
 30
0.0
 11
391.4974805218934
 21
235.7326603600918
 31
0.0
  0
LINE
  5
118B
330
1E
100
AcDbEntity
  8
STEMPEL
100
AcDbLine
 10
411.9425988798032
 20
260.5466168990449
 30
0.0
 11
389.6165119232813
 21
237.5564920361862
 31
0.0
  0
CIRCLE
  5
118C
330
1E
100
AcDbEntity
  8
STEMPEL
100
AcDbCircle
 10
447.0947727928465
 20
226.4097648299518
 30
0.0
 40
31.5
  0
CIRCLE
  5
118D
330
1E
100
AcDbEntity
  8
HILF
100
AcDbCircle
 10
447.0947727928465
 20
226.4097648299518
 30
0.0
 40
35.06111457868633
  0
ARC
  5
118E
330
1E
100
AcDbEntity
  8
HILF
100
AcDbCircle
 10
447.0947727928465
 20
226.4097648299518
 30
0.0
 40
46.37517522151287
100
AcDbArc
 50
224.1691058674075
 51
315.8308941325925
  0
ARC
  5
118F
330
1E
100
AcDbEntity
  8
STEMPEL
100
AcDbCircle
 10
447.0947727928465
 20
226.4097648299518
 30
0.0
 40
48.99999999999997
100
AcDbArc
 50
224.1604804299481
 51
315.8395195700519
  0
LINE
  5
1190
330
1E
100
AcDbEntity
  8
STEMPEL
100
AcDbLine
 10
389.6165119232813
 20
215.2630376237173
 30
0.0
 11
411.9425988798032
 21
192.2729127608587
 31
0.0
  0
LINE
  5
1191
330
1E
100
AcDbEntity
  8
HILF
100
AcDbLine
 10
391.4974805218934
 20
217.0868692998118
 30
0.0
 11
413.8304894806252
 21
194.0965425741893
 31
0.0
  0
LINE
  5
1192
330
1E
100
AcDbEntity
  8
MITTEL
100
AcDbLine
 10
395.0947727928465
 20
216.4097648299518
 30
0.0
 11
395.0947727928465
 21
236.4097648299518
 31
0.0
  0
ARC
  5
1193
330
1E
100
AcDbEntity
  8
HILF
100
AcDbCircle
 10
401.0947727928465
 20
226.4097648299518
 30
0.0
 40
13.38
100
AcDbArc
 50
135.8308941325925
 51
224.1691058674075
  0
ARC
  5
1194
330
1E
100
AcDbEntity
  8
STEMPEL
100
AcDbCircle
 10
401.0947727928465
 20
226.4097648299518
 30
0.0
 40
16.0
100
AcDbArc
 50
135.8395195700518
 51
224.1604804299481
  0
CIRCLE
  5
1195
330
1E
100
AcDbEntity
  8
STEMPEL
100
AcDbCircle
 10
395.0947727928465
 20
226.4097648299518
 30
0.0
 40
5.65
  0
INSERT
  5
1196
330
1E
100
AcDbEntity
  8
HILF
100
AcDbBlockReference
  2
8DI931D
 10
395.0947727928465
 20
226.4097648299518
 30
0.0
  0
LINE
  5
1197
330
1E
100
AcDbEntity
  8
STEMPEL
100
AcDbLine
 10
482.24694670589
 20
192.2729127608587
 30
0.0
 11
504.5730336624118
 21
215.2630376237173
 31
0.0
  0
LINE
  5
1198
330
1E
100
AcDbEntity
  8
HILF
100
AcDbLine
 10
480.3590561050679
 20
194.0965425741893
 30
0.0
 11
502.6920650637997
 21
217.0868692998118
 31
0.0
  0
LINE
  5
11B9
330
1E
100
AcDbEntity
  8
MITTEL
100
AcDbLine
 10
499.0947727928466
 20
216.4097648299518
 30
0.0
 11
499.0947727928466
 21
236.4097648299518
 31
0.0
  0
ARC
  5
11BA
330
1E
100
AcDbEntity
  8
HILF
100
AcDbCircle
 10
493.0947727928465
 20
226.4097648299518
 30
0.0
 40
13.38
100
AcDbArc
 50
315.8308941325925
 51
44.16910586740746
  0
ARC
  5
11BB
330
1E
100
AcDbEntity
  8
STEMPEL
100
AcDbCircle
 10
493.0947727928465
 20
226.4097648299518
 30
0.0
 40
16.0
100
AcDbArc
 50
315.8395195700519
 51
44.16048042994813
  0
CIRCLE
  5
11BC
330
1E
100
AcDbEntity
  8
STEMPEL
100
AcDbCircle
 10
499.0947727928466
 20
226.4097648299518
 30
0.0
 40
5.65
  0
INSERT
  5
11BD
330
1E
100
AcDbEntity
  8
HILF
100
AcDbBlockReference
  2
8DI931D
 10
499.0947727928466
 20
226.4097648299518
 30
0.0
  0
ARC
  5
11BE
330
1E
100
AcDbEntity
  8
STEMPEL
100
AcDbCircle
 10
447.0947727928465
 20
226.4097648299518
 30
0.0
 40
48.99999999999997
100
AcDbArc
 50
44.16048042994813
 51
135.8395195700518
  0
ARC
  5
11BF
330
1E
100
AcDbEntity
  8
HILF
100
AcDbCircle
 10
447.0947727928465
 20
226.4097648299518
 30
0.0
 40
46.37517522151287
100
AcDbArc
 50
44.16910586740746
 51
135.8308941325925
  0
LINE
  5
12A2
330
1E
100
AcDbEntity
  8
MITTEL
100
AcDbLine
 10
395.0947727928466
 20
485.3435947086845
 30
0.0
 11
395.0947727928466
 21
451.7435947086851
 31
0.0
  0
LINE
  5
12A3
330
1E
100
AcDbEntity
  8
MITTEL
100
AcDbLine
 10
499.0947727928465
 20
485.3435947086854
 30
0.0
 11
499.0947727928466
 21
451.7435947086851
 31
0.0
  0
LINE
  5
12A4
330
1E
100
AcDbEntity
  8
STEMPEL
100
AcDbLine
 10
503.0947727928465
 20
465.7435947086852
 30
0.0
 11
503.0947727928465
 21
451.7435947086851
 31
0.0
  0
LINE
  5
12A5
330
1E
100
AcDbEntity
  8
HILF
100
AcDbLine
 10
502.0947727928464
 20
465.7435947086852
 30
0.0
 11
502.0947727928465
 21
451.7435947086851
 31
0.0
  0
LINE
  5
12A6
330
1E
100
AcDbEntity
  8
STEMPEL
100
AcDbLine
 10
495.0947727928464
 20
465.7435947086852
 30
0.0
 11
495.0947727928465
 21
451.7435947086851
 31
0.0
  0
LINE
  5
12A7
330
1E
100
AcDbEntity
  8
HILF
100
AcDbLine
 10
496.0947727928465
 20
465.7435947086852
 30
0.0
 11
496.0947727928465
 21
451.7435947086851
 31
0.0
  0
LINE
  5
12A8
330
1E
100
AcDbEntity
  8
STEMPEL
100
AcDbLine
 10
507.1544877925561
 20
456.7435947086853
 30
0.0
 11
509.0947727928466
 21
457.228665958758
 31
0.0
  0
LINE
  5
12A9
330
1E
100
AcDbEntity
  8
STEMPEL
100
AcDbLine
 10
505.5938538862969
 20
462.9861303337216
 30
0.0
 11
507.1544877925561
 21
456.7435947086853
 31
0.0
  0
ARC
  5
12AB
330
1E
100
AcDbEntity
  8
STEMPEL
100
AcDbCircle
 10
494.6947727928466
 20
457.7435947086851
 30
0.0
 40
6.0
100
AcDbArc
 50
180.0
 51
270.0
  0
ARC
  5
12AD
330
1E
100
AcDbEntity
  8
STEMPEL
100
AcDbCircle
 10
399.4947727928466
 20
457.7435947086851
 30
0.0
 40
6.0
100
AcDbArc
 50
270.0
 51
0.0
  0
LINE
  5
12AE
330
1E
100
AcDbEntity
  8
STEMPEL
100
AcDbLine
 10
388.5956916993963
 20
462.9861303337214
 30
0.0
 11
387.0350577931373
 21
456.7435947086852
 31
0.0
  0
LINE
  5
12AF
330
1E
100
AcDbEntity
  8
STEMPEL
100
AcDbLine
 10
387.0350577931373
 20
456.7435947086852
 30
0.0
 11
385.0947727928466
 21
457.2286659587578
 31
0.0
  0
LINE
  5
12B0
330
1E
100
AcDbEntity
  8
HILF
100
AcDbLine
 10
392.0947727928466
 20
465.7435947086852
 30
0.0
 11
392.0947727928466
 21
451.7435947086851
 31
0.0
  0
LINE
  5
12B1
330
1E
100
AcDbEntity
  8
STEMPEL
100
AcDbLine
 10
391.0947727928466
 20
465.7435947086852
 30
0.0
 11
391.0947727928466
 21
451.7435947086851
 31
0.0
  0
LINE
  5
12B2
330
1E
100
AcDbEntity
  8
HILF
100
AcDbLine
 10
398.0947727928466
 20
465.7435947086852
 30
0.0
 11
398.0947727928466
 21
451.7435947086851
 31
0.0
  0
LINE
  5
12B3
330
1E
100
AcDbEntity
  8
STEMPEL
100
AcDbLine
 10
399.0947727928466
 20
465.7435947086852
 30
0.0
 11
399.0947727928466
 21
451.7435947086851
 31
0.0
  0
LINE
  5
12B6
330
1E
100
AcDbEntity
  8
STEMPEL
100
AcDbLine
 10
391.0947727928466
 20
456.7435947086852
 30
0.0
 11
387.0350577931373
 21
456.7435947086852
 31
0.0
  0
LINE
  5
12B7
330
1E
100
AcDbEntity
  8
STEMPEL
100
AcDbLine
 10
405.4108525759462
 20
456.7435947086852
 30
0.0
 11
399.0947727928466
 21
456.7435947086852
 31
0.0
  0
LINE
  5
12B8
330
1E
100
AcDbEntity
  8
STEMPEL
100
AcDbLine
 10
495.0947727928464
 20
456.7435947086851
 30
0.0
 11
488.7786930097469
 21
456.7435947086852
 31
0.0
  0
LINE
  5
12B9
330
1E
100
AcDbEntity
  8
STEMPEL
100
AcDbLine
 10
507.1544877925561
 20
456.7435947086852
 30
0.0
 11
503.0947727928465
 21
456.7435947086851
 31
0.0
  0
INSERT
  5
12BC
330
1E
100
AcDbEntity
  8
SCHRAFF
100
AcDbBlockReference
  2
*X6
 10
78.93546983566682
 20
-53.97865462501574
 30
0.0
1001
ACAD
1000
HATCH
1002
{
1070
    16
1000
NET,I
1040
10.0
1040
0.7853981633974483
1002
}
  0
LINE
  5
12BE
330
1E
100
AcDbEntity
  8
STEMPEL
100
AcDbLine
 10
504.6237113861515
 20
465.7435947086852
 30
0.0
 11
465.9391611027601
 21
465.7435947086852
 31
0.0
  0
LINE
  5
12BF
330
1E
100
AcDbEntity
  8
STEMPEL
100
AcDbLine
 10
389.7036925980212
 20
472.2435947086851
 30
0.0
 11
400.4858529876626
 21
472.2435947086853
 31
0.0
  0
LINE
  5
12C0
330
1E
100
AcDbEntity
  8
STEMPEL
100
AcDbLine
 10
389.7036925980212
 20
465.7435947086852
 30
0.0
 11
400.4858529876626
 21
465.7435947086852
 31
0.0
  0
ARC
  5
12C1
330
1E
100
AcDbEntity
  8
STEMPEL
100
AcDbCircle
 10
395.0947727928466
 20
461.4608895086853
 30
0.0
 40
10.7827052
100
AcDbArc
 50
70.52782738138624
 51
109.4721726186137
  0
ARC
  5
12C2
330
1E
100
AcDbEntity
  8
STEMPEL
100
AcDbCircle
 10
395.0947727928466
 20
476.5262999086852
 30
0.0
 40
10.7827052
100
AcDbArc
 50
250.5278273813862
 51
289.4721726186137
  0
ARC
  5
12C3
330
1E
100
AcDbEntity
  8
STEMPEL
100
AcDbCircle
 10
395.0947727928466
 20
474.6935947086852
 30
0.0
 40
5.65
100
AcDbArc
 50
0.0
 51
180.0
  0
ARC
  5
12C4
330
1E
100
AcDbEntity
  8
STEMPEL
100
AcDbCircle
 10
389.7031668267347
 20
469.3166437708216
 30
0.0
 40
2.926950985085932
100
AcDbArc
 50
52.11936428281847
 51
121.4691945238291
  0
ARC
  5
12C5
330
1E
100
AcDbEntity
  8
STEMPEL
100
AcDbCircle
 10
389.7031668267347
 20
468.6705456465486
 30
0.0
 40
2.926950985085932
100
AcDbArc
 50
238.5308054768418
 51
307.8806357171815
  0
LINE
  5
12C6
330
1E
100
AcDbEntity
  8
STEMPEL
100
AcDbLine
 10
387.9059648380306
 20
471.6576695196186
 30
0.0
 11
387.9059648380306
 21
466.3295198977516
 31
0.0
  0
LINE
  5
12C7
330
1E
100
AcDbEntity
  8
STEMPEL
100
AcDbLine
 10
387.9059648380306
 20
466.3295198977516
 30
0.0
 11
388.1751811551591
 21
466.1740877845873
 31
0.0
  0
LINE
  5
12C8
330
1E
100
AcDbEntity
  8
STEMPEL
100
AcDbLine
 10
387.9059648380306
 20
471.6576695196186
 30
0.0
 11
388.1751811551293
 21
471.8131016327658
 31
0.0
  0
LINE
  5
12C9
330
1E
100
AcDbEntity
  8
STEMPEL
100
AcDbLine
 10
391.5003688154386
 20
471.6268617434153
 30
0.0
 11
391.5003688154386
 21
466.3603276739554
 31
0.0
  0
LINE
  5
12CA
330
1E
100
AcDbEntity
  8
STEMPEL
100
AcDbLine
 10
389.4447727928465
 20
474.6935947086852
 30
0.0
 11
389.4447727928465
 21
472.2321668100629
 31
0.0
  0
ARC
  5
12CB
330
1E
100
AcDbEntity
  8
STEMPEL
100
AcDbCircle
 10
389.5658341995416
 20
462.7435947086851
 30
0.0
 40
1.0
100
AcDbArc
 50
90.0
 51
165.9637565320735
  0
ARC
  5
12CC
330
1E
100
AcDbEntity
  8
STEMPEL
100
AcDbCircle
 10
389.5658341995416
 20
462.7435947086851
 30
0.0
 40
3.0
100
AcDbArc
 50
90.0
 51
165.9637565320735
  0
LINE
  5
12CD
330
1E
100
AcDbEntity
  8
STEMPEL
100
AcDbLine
 10
390.0947727928466
 20
465.7435947086852
 30
0.0
 11
390.0947727928466
 21
463.7435947086851
 31
0.0
  0
LINE
  5
12CE
330
1E
100
AcDbEntity
  8
STEMPEL
100
AcDbLine
 10
391.0947727928466
 20
463.7435947086851
 30
0.0
 11
389.5658341995416
 21
463.7435947086851
 31
0.0
  0
LINE
  5
12CF
330
1E
100
AcDbEntity
  8
STEMPEL
100
AcDbLine
 10
386.6554066991056
 20
463.4712015837942
 30
0.0
 11
385.0947727928466
 21
457.2286659587578
 31
0.0
  0
ARC
  5
12D0
330
1E
100
AcDbEntity
  8
STEMPEL
100
AcDbCircle
 10
400.4863787589585
 20
469.3166437708216
 30
0.0
 40
2.926950985085932
100
AcDbArc
 50
58.53080547515485
 51
127.8806357171815
  0
ARC
  5
12D1
330
1E
100
AcDbEntity
  8
STEMPEL
100
AcDbCircle
 10
400.4863787589585
 20
468.6705456465486
 30
0.0
 40
2.926950985085932
100
AcDbArc
 50
232.1193642828185
 51
301.4691945241509
  0
LINE
  5
12D2
330
1E
100
AcDbEntity
  8
STEMPEL
100
AcDbLine
 10
398.6891767702546
 20
471.6268617434153
 30
0.0
 11
398.6891767702545
 21
466.3603276739554
 31
0.0
  0
LINE
  5
12D3
330
1E
100
AcDbEntity
  8
STEMPEL
100
AcDbLine
 10
402.2835807476625
 20
471.6576695196186
 30
0.0
 11
402.2835807476625
 21
466.3295198977516
 31
0.0
  0
LINE
  5
12D4
330
1E
100
AcDbEntity
  8
STEMPEL
100
AcDbLine
 10
400.4812235176054
 20
465.7435947086852
 30
0.0
 11
400.4858529876522
 21
465.7435947086852
 31
0.0
  0
LINE
  5
12D5
330
1E
100
AcDbEntity
  8
STEMPEL
100
AcDbLine
 10
402.2835807476625
 20
466.3295198977516
 30
0.0
 11
402.014364430578
 21
466.1740877846127
 31
0.0
  0
LINE
  5
12D6
330
1E
100
AcDbEntity
  8
STEMPEL
100
AcDbLine
 10
400.4812235176054
 20
472.2435947086853
 30
0.0
 11
400.4858529876522
 21
472.2435947086853
 31
0.0
  0
LINE
  5
12D7
330
1E
100
AcDbEntity
  8
STEMPEL
100
AcDbLine
 10
402.2835807476625
 20
471.6576695196186
 30
0.0
 11
402.0143644306088
 21
471.8131016327399
 31
0.0
  0
LINE
  5
12D8
330
1E
100
AcDbEntity
  8
STEMPEL
100
AcDbLine
 10
400.7447727928465
 20
474.6935947086852
 30
0.0
 11
400.7447727928465
 21
472.2321668100629
 31
0.0
  0
LINE
  5
12D9
330
1E
100
AcDbEntity
  8
STEMPEL
100
AcDbLine
 10
412.0947727928466
 20
461.9022280852312
 30
0.0
 11
412.0947727928465
 21
458.7435947086851
 31
0.0
  0
LINE
  5
12E0
330
1E
100
AcDbEntity
  8
STEMPEL
100
AcDbLine
 10
405.4947727928465
 20
458.7435947086851
 30
0.0
 11
405.4947727928466
 21
457.7435947086851
 31
0.0
  0
LINE
  5
12E2
330
1E
100
AcDbEntity
  8
STEMPEL
100
AcDbLine
 10
401.0947727928465
 20
463.7435947086851
 30
0.0
 11
401.0947727928465
 21
458.7435947086851
 31
0.0
  0
LINE
  5
12E3
330
1E
100
AcDbEntity
  8
STEMPEL
100
AcDbLine
 10
400.0947727928466
 20
465.7435947086852
 30
0.0
 11
400.0947727928466
 21
463.7435947086851
 31
0.0
  0
LINE
  5
12E4
330
1E
100
AcDbEntity
  8
STEMPEL
100
AcDbLine
 10
410.4998976308
 20
463.7435947086851
 30
0.0
 11
399.0947727928466
 21
463.7435947086851
 31
0.0
  0
LINE
  5
12F7
330
1E
100
AcDbEntity
  8
STEMPEL
100
AcDbLine
 10
495.0947727928464
 20
463.7435947086851
 30
0.0
 11
483.6896479548933
 21
463.7435947086851
 31
0.0
  0
LINE
  5
12F8
330
1E
100
AcDbEntity
  8
STEMPEL
100
AcDbLine
 10
488.6947727928466
 20
458.7435947086851
 30
0.0
 11
488.6947727928466
 21
457.7435947086851
 31
0.0
  0
LINE
  5
12FA
330
1E
100
AcDbEntity
  8
STEMPEL
100
AcDbLine
 10
482.0947727928466
 20
461.9022280852308
 30
0.0
 11
482.0947727928466
 21
458.7435947086851
 31
0.0
  0
LINE
  5
1301
330
1E
100
AcDbEntity
  8
STEMPEL
100
AcDbLine
 10
504.7447727928465
 20
474.6935947086852
 30
0.0
 11
504.7447727928465
 21
472.2321668100629
 31
0.0
  0
LINE
  5
1302
330
1E
100
AcDbEntity
  8
STEMPEL
100
AcDbLine
 10
493.4447727928465
 20
474.6935947086852
 30
0.0
 11
493.4447727928465
 21
472.2321668100629
 31
0.0
  0
ARC
  5
1303
330
1E
100
AcDbEntity
  8
STEMPEL
100
AcDbCircle
 10
499.0947727928466
 20
474.6935947086852
 30
0.0
 40
5.65
100
AcDbArc
 50
0.0
 51
180.0
  0
LINE
  5
1304
330
1E
100
AcDbEntity
  8
STEMPEL
100
AcDbLine
 10
506.2835807476625
 20
471.6576695196186
 30
0.0
 11
506.0143644306088
 21
471.8131016327399
 31
0.0
  0
LINE
  5
1305
330
1E
100
AcDbEntity
  8
STEMPEL
100
AcDbLine
 10
504.4812235176054
 20
472.2435947086853
 30
0.0
 11
504.4858529876522
 21
472.2435947086853
 31
0.0
  0
LINE
  5
1306
330
1E
100
AcDbEntity
  8
STEMPEL
100
AcDbLine
 10
506.2835807476625
 20
466.3295198977516
 30
0.0
 11
506.014364430578
 21
466.1740877846127
 31
0.0
  0
LINE
  5
1307
330
1E
100
AcDbEntity
  8
STEMPEL
100
AcDbLine
 10
504.4812235176054
 20
465.7435947086852
 30
0.0
 11
504.4858529876522
 21
465.7435947086852
 31
0.0
  0
LINE
  5
1308
330
1E
100
AcDbEntity
  8
STEMPEL
100
AcDbLine
 10
506.2835807476625
 20
471.6576695196186
 30
0.0
 11
506.2835807476625
 21
466.3295198977516
 31
0.0
  0
LINE
  5
1309
330
1E
100
AcDbEntity
  8
STEMPEL
100
AcDbLine
 10
502.6891767702545
 20
471.6268617434153
 30
0.0
 11
502.6891767702545
 21
466.3603276739554
 31
0.0
  0
LINE
  5
130A
330
1E
100
AcDbEntity
  8
STEMPEL
100
AcDbLine
 10
495.5003688154386
 20
471.6268617434153
 30
0.0
 11
495.5003688154386
 21
466.3603276739554
 31
0.0
  0
ARC
  5
130B
330
1E
100
AcDbEntity
  8
STEMPEL
100
AcDbCircle
 10
499.0947727928466
 20
476.5262999086852
 30
0.0
 40
10.7827052
100
AcDbArc
 50
250.5278273813862
 51
289.4721726186137
  0
ARC
  5
130C
330
1E
100
AcDbEntity
  8
STEMPEL
100
AcDbCircle
 10
499.0947727928466
 20
461.4608895086853
 30
0.0
 40
10.7827052
100
AcDbArc
 50
70.52782738138624
 51
109.4721726186137
  0
ARC
  5
130D
330
1E
100
AcDbEntity
  8
STEMPEL
100
AcDbCircle
 10
504.4863787589585
 20
468.6705456465486
 30
0.0
 40
2.926950985085932
100
AcDbArc
 50
232.1193642828185
 51
301.4691945241509
  0
ARC
  5
130E
330
1E
100
AcDbEntity
  8
STEMPEL
100
AcDbCircle
 10
504.4863787589585
 20
469.3166437708216
 30
0.0
 40
2.926950985085932
100
AcDbArc
 50
58.53080547515485
 51
127.8806357171815
  0
LINE
  5
130F
330
1E
100
AcDbEntity
  8
STEMPEL
100
AcDbLine
 10
491.9059648380305
 20
471.6576695196186
 30
0.0
 11
492.1751811551292
 21
471.8131016327658
 31
0.0
  0
LINE
  5
1310
330
1E
100
AcDbEntity
  8
STEMPEL
100
AcDbLine
 10
491.9059648380305
 20
466.3295198977516
 30
0.0
 11
492.175181155159
 21
466.1740877845873
 31
0.0
  0
LINE
  5
1311
330
1E
100
AcDbEntity
  8
STEMPEL
100
AcDbLine
 10
491.9059648380305
 20
471.6576695196186
 30
0.0
 11
491.9059648380305
 21
466.3295198977516
 31
0.0
  0
LINE
  5
1312
330
1E
100
AcDbEntity
  8
STEMPEL
100
AcDbLine
 10
493.7036925980212
 20
465.7435947086852
 30
0.0
 11
504.4858529876626
 21
465.7435947086852
 31
0.0
  0
ARC
  5
1313
330
1E
100
AcDbEntity
  8
STEMPEL
100
AcDbCircle
 10
493.7031668267346
 20
468.6705456465486
 30
0.0
 40
2.926950985085932
100
AcDbArc
 50
238.5308054768418
 51
307.8806357171815
  0
LINE
  5
1314
330
1E
100
AcDbEntity
  8
STEMPEL
100
AcDbLine
 10
493.7036925980212
 20
472.2435947086851
 30
0.0
 11
504.4858529876626
 21
472.2435947086853
 31
0.0
  0
ARC
  5
1315
330
1E
100
AcDbEntity
  8
STEMPEL
100
AcDbCircle
 10
493.7031668267346
 20
469.3166437708216
 30
0.0
 40
2.926950985085932
100
AcDbArc
 50
52.11936428281847
 51
121.4691945238291
  0
LINE
  5
1316
330
1E
100
AcDbEntity
  8
STEMPEL
100
AcDbLine
 10
507.5341388865876
 20
463.4712015837942
 30
0.0
 11
509.0947727928466
 21
457.228665958758
 31
0.0
  0
LINE
  5
1317
330
1E
100
AcDbEntity
  8
STEMPEL
100
AcDbLine
 10
504.6237113861515
 20
463.7435947086851
 30
0.0
 11
503.0947727928465
 21
463.7435947086851
 31
0.0
  0
LINE
  5
1318
330
1E
100
AcDbEntity
  8
STEMPEL
100
AcDbLine
 10
504.0947727928466
 20
465.7435947086852
 30
0.0
 11
504.0947727928466
 21
463.7435947086851
 31
0.0
  0
LINE
  5
1319
330
1E
100
AcDbEntity
  8
STEMPEL
100
AcDbLine
 10
493.0947727928465
 20
463.7435947086851
 30
0.0
 11
493.0947727928466
 21
458.7435947086851
 31
0.0
  0
LINE
  5
131A
330
1E
100
AcDbEntity
  8
STEMPEL
100
AcDbLine
 10
494.0947727928466
 20
465.7435947086852
 30
0.0
 11
494.0947727928466
 21
463.7435947086851
 31
0.0
  0
ARC
  5
131B
330
1E
100
AcDbEntity
  8
STEMPEL
100
AcDbCircle
 10
504.6237113861515
 20
462.7435947086851
 30
0.0
 40
3.0
100
AcDbArc
 50
14.03624346792648
 51
90.0
  0
ARC
  5
131C
330
1E
100
AcDbEntity
  8
STEMPEL
100
AcDbCircle
 10
504.6237113861515
 20
462.7435947086851
 30
0.0
 40
1.0
100
AcDbArc
 50
14.03624346792648
 51
90.0
  0
LINE
  5
1322
330
1E
100
AcDbEntity
  8
STEMPEL
  6
Continuous
100
AcDbLine
 10
515.5153284547931
 20
449.7435947086852
 30
0.0
 11
494.6947727928466
 21
449.7435947086851
 31
0.0
  0
ARC
  5
1323
330
1E
100
AcDbEntity
  8
STEMPEL
100
AcDbCircle
 10
399.4947727928466
 20
457.7435947086851
 30
0.0
 40
8.0
100
AcDbArc
 50
270.0
 51
0.0
  0
ARC
  5
1324
330
1E
100
AcDbEntity
  8
STEMPEL
100
AcDbCircle
 10
494.6947727928466
 20
457.7435947086851
 30
0.0
 40
8.0
100
AcDbArc
 50
180.0
 51
270.0
  0
LINE
  5
1325
330
1E
100
AcDbEntity
  8
STEMPEL
100
AcDbLine
 10
486.6947727928466
 20
458.7435947086851
 30
0.0
 11
486.6947727928466
 21
457.7435947086851
 31
0.0
  0
LINE
  5
1326
330
1E
100
AcDbEntity
  8
STEMPEL
100
AcDbLine
 10
407.4947727928465
 20
458.7435947086852
 30
0.0
 11
407.4947727928465
 21
457.7435947086852
 31
0.0
  0
LINE
  5
1327
330
1E
100
AcDbEntity
  8
STEMPEL
  6
Continuous
100
AcDbLine
 10
399.4947727928466
 20
451.7435947086851
 30
0.0
 11
328.1574214423275
 21
451.7435947086853
 31
0.0
  0
LINE
  5
1328
330
1E
100
AcDbEntity
  8
STEMPEL
  6
Continuous
100
AcDbLine
 10
399.4947727928466
 20
449.7435947086852
 30
0.0
 11
374.3600065056212
 21
449.7435947086851
 31
0.0
  0
TEXT
  5
1330
330
1E
100
AcDbEntity
  8
TEXT
 62
     1
100
AcDbText
 10
611.0339679107676
 20
130.0496326603988
 30
0.0
 40
7.0
  1
Werkstoff: SF-Cu DIN1754/1786
 41
0.8
  7
GREEKS
100
AcDbText
  0
TEXT
  5
133C
330
1E
100
AcDbEntity
  8
TEXT
 62
     1
100
AcDbText
 10
532.026467649684
 20
477.1541430040502
 30
0.0
 40
7.0
  1
EDV-Art.Nr. 55881.080N
 41
0.75
  7
GREEKS
100
AcDbText
  0
LINE
  5
133D
330
1E
100
AcDbEntity
  8
TEXT
 62
     2
100
AcDbLine
 10
531.7108442611338
 20
486.787231600775
 30
0.0
 11
632.4414809286109
 21
486.787231600775
 31
0.0
  0
LINE
  5
133E
330
1E
100
AcDbEntity
  8
TEXT
 62
     2
100
AcDbLine
 10
531.7108442611338
 20
486.787231600775
 30
0.0
 11
507.494806753929
 21
460.4568614605071
 31
0.0
  0
TEXT
  5
133F
330
1E
100
AcDbEntity
  8
TEXT
 62
     1
100
AcDbText
 10
532.026467649684
 20
490.1671370176715
 30
0.0
 40
7.0
  1
Deckel DN80
 41
0.75
  7
GREEKS
100
AcDbText
  0
ARC
  5
1346
330
1E
100
AcDbEntity
  8
HILF
100
AcDbCircle
 10
447.0947727928466
 20
486.87456632637
 30
0.0
 40
54.49238757857255
100
AcDbArc
 50
221.7801556182497
 51
318.2198443817504
  0
HATCH
  5
135D
330
1E
100
AcDbEntity
  8
SCHRAFF
100
AcDbHatch
 10
0.0
 20
0.0
 30
0.0
210
0.0
220
0.0
230
1.0
  2
_USER
 70
     0
 71
     0
 91
        2
 92
        7
 72
     1
 73
     1
 93
        8
 10
494.6947727928466
 20
451.7435947086851
 42
-0.4142135623730978
 10
488.6947727928466
 20
457.7435947086851
 42
0.0
 10
488.6947727928465
 20
458.7435947086851
 42
0.0
 10
486.6947727928466
 20
458.7435947086851
 42
0.0
 10
486.6947727928466
 20
457.7435947086851
 42
0.4142135623730951
 10
494.6947727928466
 20
449.7435947086851
 42
0.0
 10
515.5153284547932
 20
449.7435947086853
 42
0.0
 10
516.7877765173821
 20
451.7435947086851
 42
0.0
 97
        0
 92
        7
 72
     1
 73
     1
 93
        8
 10
399.4947727928466
 20
449.7435947086852
 42
0.414213562373097
 10
407.4947727928465
 20
457.7435947086852
 42
0.0
 10
407.4947727928464
 20
458.7435947086851
 42
0.0
 10
405.4947727928465
 20
458.7435947086851
 42
0.0
 10
405.4947727928466
 20
457.7435947086851
 42
-0.4142135623730951
 10
399.4947727928466
 20
451.7435947086851
 42
0.0
 10
373.0757500341016
 20
451.7435947086851
 42
0.0
 10
374.3600065056211
 20
449.7435947086851
 42
0.0
 97
        0
 75
     0
 76
     0
 52
45.0
 41
2.0
 77
     0
 78
     1
 53
45.0
 43
0.0
 44
0.0
 45
-1.414213562373094
 46
1.414213562373095
 79
     0
 47
0.2864021791813927
 98
        2
 10
497.7312662075632
 20
451.2042734303556
 10
382.269726216804
 20
450.0586648271969
  0
HATCH
  5
13AD
330
1E
100
AcDbEntity
  8
SCHRAFF
100
AcDbHatch
 10
0.0
 20
0.0
 30
0.0
210
0.0
220
0.0
230
1.0
  2
_USER
 70
     0
 71
     0
 91
        2
 92
        7
 72
     1
 73
     1
 93
        5
 10
475.7292687700142
 20
458.7435947086852
 42
0.0
 10
478.5947727928467
 20
458.7435947086852
 42
-0.1739316815162859
 10
447.4271727730768
 20
440.5396948025921
 42
0.0
 10
447.0947727928467
 20
442.1185947086851
 42
0.0
 10
447.0947727928467
 20
442.5138454599412
 42
0.1663969662308831
 97
        0
 92
        7
 72
     1
 73
     1
 93
        3
 10
447.014717319822
 20
442.4988582055521
 42
0.0004006574752786
 10
447.0947727928467
 20
442.5138454599412
 42
0.0
 10
447.0947727928467
 20
442.1185947086851
 42
0.0
 97
        0
 75
     0
 76
     0
 52
45.0
 41
2.0
 77
     0
 78
     1
 53
134.9999999999998
 43
559.594772792846
 44
199.0529886851912
 45
1.414213562373099
 46
1.414213562373091
 79
     0
 47
0.1848875284570464
 98
        2
 10
464.5439381638967
 20
448.4001977019327
 10
447.063775262595
 20
442.4592780613296
  0
HATCH
  5
13AE
330
1E
100
AcDbEntity
  8
SCHRAFF
100
AcDbHatch
 10
0.0
 20
0.0
 30
0.0
210
0.0
220
0.0
230
1.0
  2
_USER
 70
     0
 71
     0
 91
        4
 92
        7
 72
     1
 73
     1
 93
       14
 10
466.5411106949931
 20
462.9242803452079
 42
0.1507552354653365
 10
478.8235616855047
 20
458.7523314901442
 42
0.2545294249473877
 10
481.2310923403816
 20
460.3118757267319
 42
0.0
 10
482.8108747723818
 20
463.2208343693363
 42
-0.2749517555998701
 10
483.6896479548935
 20
463.7435947086853
 42
0.0
 10
494.0947727928467
 20
463.7435947086853
 42
0.0
 10
494.0947727928467
 20
465.7435947086852
 42
0.0
 10
483.6896479548935
 20
465.7435947086852
 42
0.2749517555998691
 10
481.0533284073586
 20
464.1753136906388
 42
0.0
 10
479.4735459753583
 20
461.2663550480341
 42
-0.3419469600841944
 10
478.3525605888455
 20
460.773371410556
 42
-0.1440140475996711
 10
467.714056536554
 20
464.544218014615
 42
0.1676842874047068
 10
447.0947727928468
 20
470.7966627478844
 42
0.0
 10
447.0947727928468
 20
468.7951361802125
 42
-0.1683119086924299
 97
        0
 92
        7
 72
     1
 73
     1
 93
        8
 10
504.6237113861518
 20
465.7435947086852
 42
0.0
 10
504.0947727928467
 20
465.7435947086852
 42
0.0
 10
504.0947727928466
 20
463.7435947086853
 42
0.0
 10
504.6237113861517
 20
463.7435947086853
 42
-0.3441507314088949
 10
505.593853886297
 20
462.9861303337216
 42
0.0
 10
507.1544877925561
 20
456.7435947086853
 42
0.0
 10
509.0947727928468
 20
457.2286659587577
 42
0.0
 10
507.5341388865877
 20
463.4712015837942
 42
0.3441507314089002
 97
        0
 92
        7
 72
     1
 73
     1
 93
       28
 10
415.5947727928467
 20
460.7435947086854
 42
-0.2749517555998185
 10
414.7159996103351
 20
461.2663550480341
 42
0.0
 10
413.1362171783349
 20
464.1753136906388
 42
0.2749517555998702
 10
410.4998976308
 20
465.7435947086853
 42
0.0
 10
400.0947727928467
 20
465.7435947086853
 42
0.0
 10
400.0947727928467
 20
463.7435947086855
 42
0.0
 10
410.4998976308
 20
463.7435947086854
 42
-0.274951755599852
 10
411.3786708133117
 20
463.2208343693366
 42
0.0
 10
412.9584532453119
 20
460.311875726732
 42
0.2749517555998591
 10
415.5947727928467
 20
458.7435947086855
 42
0.0
 10
445.0947727928467
 20
458.7435947086854
 42
0.0
 10
445.0947727928467
 20
460.7435947086854
 42
0.0
 10
439.8475505706245
 20
460.7435947086854
 42
-0.4142135623731367
 10
439.4475505706244
 20
461.1435947086855
 42
0.0
 10
439.4475505706244
 20
461.3435947086853
 42
0.4142135623730951
 10
439.0475505706245
 20
461.7435947086852
 42
0.0
 10
437.3586616817354
 20
461.7435947086852
 42
0.4142135623730951
 10
436.9586616817355
 20
461.3435947086853
 42
0.0
 10
436.9586616817354
 20
461.1435947086855
 42
-0.4142135623730951
 10
436.5586616817354
 20
460.7435947086854
 42
0.0
 10
435.6475505706243
 20
460.7435947086854
 42
-0.4142135623730951
 10
435.2475505706244
 20
461.1435947086855
 42
0.0
 10
435.2475505706244
 20
461.3435947086853
 42
0.4142135623730951
 10
434.8475505706244
 20
461.7435947086852
 42
0.0
 10
433.1586616817355
 20
461.7435947086852
 42
0.4142135623731367
 10
432.7586616817354
 20
461.3435947086853
 42
0.0
 10
432.7586616817354
 20
461.1435947086855
 42
-0.4142135623730951
 10
432.3586616817355
 20
460.7435947086854
 42
0.0
 97
        0
 92
        7
 72
     1
 73
     1
 93
        8
 10
389.5658341995418
 20
463.7435947086854
 42
0.0
 10
390.0947727928467
 20
463.7435947086855
 42
0.0
 10
390.0947727928466
 20
465.7435947086853
 42
0.0
 10
389.5658341995418
 20
465.7435947086853
 42
0.3441507314089107
 10
386.6554066991057
 20
463.4712015837944
 42
0.0
 10
385.0947727928467
 20
457.2286659587584
 42
0.0
 10
387.0350577931373
 20
456.7435947086856
 42
0.0
 10
388.5956916993965
 20
462.9861303337217
 42
-0.344150731408895
 97
        0
 75
     0
 76
     0
 52
135.0
 41
2.0
 77
     0
 78
     1
 53
44.99999999999983
 43
559.594772792846
 44
199.0529886851912
 45
1.414213562373091
 46
-1.414213562373098
 79
     0
 47
0.1848875284570464
 98
        4
 10
453.6279013525148
 20
469.1076009073088
 10
505.9878754439285
 20
464.3005251507089
 10
431.4257922873987
 20
460.232999133747
 10
388.5017132379592
 20
464.1156375408743
  0
HATCH
  5
13AF
330
1E
100
AcDbEntity
  8
SCHRAFF
100
AcDbHatch
 10
0.0
 20
0.0
 30
0.0
210
0.0
220
0.0
230
1.0
  2
_USER
 70
     0
 71
     1
 91
        1
 92
        7
 72
     1
 73
     1
 93
        3
 10
480.4803908760109
 20
459.4102613753518
 42
-0.1715728752538132
 10
478.5947727928467
 20
458.7435947086852
 42
-0.0093554364340615
 10
477.281321262421
 20
457.2353357530603
 42
0.5505825429620974
 97
        3
330
13BF
330
13B0
330
13B6
 75
     0
 76
     0
 52
0.0
 41
0.1
 77
     0
 78
     1
 53
179.9999999999998
 43
559.594772792846
 44
199.0529886851912
 45
0.0000000000000003
 46
0.1
 79
     0
 47
0.0140973955890983
 98
        1
 10
479.1702208137997
 20
457.872957122559
  0
ARC
  5
13B0
102
{ACAD_REACTORS
330
13AF
102
}
330
1E
100
AcDbEntity
  8
SCHRAFF
100
AcDbCircle
 10
478.19266852292
 20
459.3350446131016
 30
0.0
 40
2.288958524341319
100
AcDbArc
 50
246.5374661252275
 51
1.883118003142154
  0
ARC
  5
13B1
330
1E
100
AcDbEntity
  8
STEMPEL
100
AcDbCircle
 10
479.443514952168
 20
480.7435947086853
 30
0.0
 40
22.0
100
AcDbArc
 50
234.0928865949636
 51
268.3852087048832
  0
ARC
  5
13B2
330
1E
100
AcDbEntity
  8
STEMPEL
100
AcDbCircle
 10
479.443514952168
 20
480.7435947086853
 30
0.0
 40
20.0
100
AcDbArc
 50
234.0928865949636
 51
266.873093997133
  0
LINE
  5
13B5
330
1E
100
AcDbEntity
  8
STEMPEL
100
AcDbLine
 10
478.5947727928467
 20
458.7435947086852
 30
0.0
 11
415.5947727928467
 21
458.7435947086855
 31
0.0
  0
ARC
  5
13B6
102
{ACAD_REACTORS
330
13AF
102
}
330
1E
100
AcDbEntity
  8
STEMPEL
100
AcDbCircle
 10
437.6372295000478
 20
493.0850105028585
 30
0.0
 40
53.44953873823229
100
AcDbArc
 50
280.5540123845514
 51
320.0213862649834
  0
ARC
  5
13BF
102
{ACAD_REACTORS
330
13AF
102
}
330
1E
100
AcDbEntity
  8
STEMPEL
100
AcDbCircle
 10
478.5947727928467
 20
461.7435947086852
 30
0.0
 40
3.0
100
AcDbArc
 50
269.9999999999998
 51
331.4947254476706
  0
ARC
  5
13C1
330
1E
100
AcDbEntity
  8
STEMPEL
100
AcDbCircle
 10
483.6896479548935
 20
462.7435947086852
 30
0.0
 40
3.0
100
AcDbArc
 50
89.99999999999984
 51
151.4947254476706
  0
LINE
  5
13C2
330
1E
100
AcDbEntity
  8
STEMPEL
100
AcDbLine
 10
482.8108747723818
 20
463.2208343693363
 30
0.0
 11
481.2310923403816
 21
460.3118757267319
 31
0.0
  0
ARC
  5
13C3
330
1E
100
AcDbEntity
  8
STEMPEL
100
AcDbCircle
 10
483.6896479548935
 20
462.7435947086852
 30
0.0
 40
1.0
100
AcDbArc
 50
89.99999999999984
 51
151.4947254476706
  0
ARC
  5
13C4
330
1E
100
AcDbEntity
  8
STEMPEL
100
AcDbCircle
 10
478.5947727928467
 20
461.7435947086852
 30
0.0
 40
1.0
100
AcDbArc
 50
255.9828567039965
 51
331.4947254476706
  0
LINE
  5
13C5
330
1E
100
AcDbEntity
  8
STEMPEL
100
AcDbLine
 10
481.0533284073586
 20
464.1753136906387
 30
0.0
 11
479.4735459753583
 21
461.2663550480341
 31
0.0
  0
LINE
  5
13C6
330
1E
100
AcDbEntity
  8
STEMPEL
100
AcDbLine
 10
447.4271727730768
 20
440.5396948025921
 30
0.0
 11
443.5947727928467
 21
458.7435947086855
 31
0.0
  0
LINE
  5
13C7
330
1E
100
AcDbEntity
  8
MITTEL
100
AcDbLine
 10
447.0947727928468
 20
475.7997759950628
 30
0.0
 11
447.0947727928467
 21
435.4056948552456
 31
0.0
  0
ARC
  5
13C8
330
1E
100
AcDbEntity
  8
STEMPEL
100
AcDbCircle
 10
437.7030837820659
 20
492.4589080142815
 30
0.0
 40
50.82040039228512
100
AcDbArc
 50
280.5577389120947
 51
318.4387088147487
  0
LINE
  5
13CC
330
1E
100
AcDbEntity
  8
STEMPEL
100
AcDbLine
 10
445.0947727928467
 20
460.7435947086854
 30
0.0
 11
439.8475505706245
 21
460.7435947086854
 31
0.0
  0
ARC
  5
13CE
330
1E
100
AcDbEntity
  8
STEMPEL
100
AcDbCircle
 10
448.3447727928466
 20
437.7935947086855
 30
0.0
 40
33.02673159729859
100
AcDbArc
 50
54.0928865949636
 51
93.90639423800195
  0
ARC
  5
13CF
330
1E
100
AcDbEntity
  8
STEMPEL
100
AcDbCircle
 10
448.3447727928466
 20
437.7935947086855
 30
0.0
 40
31.02673159729859
100
AcDbArc
 50
54.0928865949636
 51
94.15863216277342
  0
LINE
  5
13D0
330
1E
100
AcDbEntity
  8
STEMPEL
100
AcDbLine
 10
445.0947727928467
 20
460.7435947086854
 30
0.0
 11
445.0947727928467
 21
458.7435947086854
 31
0.0
  0
LINE
  5
13D1
330
1E
100
AcDbEntity
  8
STEMPEL
100
AcDbLine
 10
446.0947727928468
 20
470.7435947086855
 30
0.0
 11
445.0947727928467
 21
460.7435947086854
 31
0.0
  0
LINE
  5
13D2
330
1E
100
AcDbEntity
  8
STEMPEL
100
AcDbLine
 10
446.0947727928468
 20
470.7435947086855
 30
0.0
 11
446.0947727928468
 21
468.7386358883446
 31
0.0
  0
LINE
  5
13D3
330
1E
100
AcDbEntity
  8
STEMPEL
100
AcDbLine
 10
432.3586616817355
 20
460.7435947086854
 30
0.0
 11
415.5947727928467
 21
460.7435947086854
 31
0.0
  0
ARC
  5
13D4
330
1E
100
AcDbEntity
  8
STEMPEL
100
AcDbCircle
 10
434.8475505706243
 20
461.3435947086853
 30
0.0
 40
0.4
100
AcDbArc
 50
359.9999999999998
 51
89.99999999999984
  0
LINE
  5
13D5
330
1E
100
AcDbEntity
  8
STEMPEL
100
AcDbLine
 10
439.0475505706245
 20
461.7435947086852
 30
0.0
 11
428.141995015069
 21
461.7435947086853
 31
0.0
  0
ARC
  5
13D6
330
1E
100
AcDbEntity
  8
STEMPEL
100
AcDbCircle
 10
439.0475505706245
 20
461.3435947086853
 30
0.0
 40
0.4
100
AcDbArc
 50
359.9999999999998
 51
89.99999999999984
  0
LINE
  5
13D7
330
1E
100
AcDbEntity
  8
STEMPEL
100
AcDbLine
 10
439.4475505706244
 20
461.1435947086853
 30
0.0
 11
439.4475505706244
 21
461.3435947086853
 31
0.0
  0
ARC
  5
13D8
330
1E
100
AcDbEntity
  8
STEMPEL
100
AcDbCircle
 10
439.8475505706245
 20
461.1435947086853
 30
0.0
 40
0.4
100
AcDbArc
 50
179.9999999999998
 51
269.9999999999998
  0
LINE
  5
13D9
330
1E
100
AcDbEntity
  8
STEMPEL
100
AcDbLine
 10
435.2475505706244
 20
461.1435947086853
 30
0.0
 11
435.2475505706244
 21
461.3435947086853
 31
0.0
  0
ARC
  5
13DA
330
1E
100
AcDbEntity
  8
STEMPEL
100
AcDbCircle
 10
435.6475505706243
 20
461.1435947086853
 30
0.0
 40
0.4
100
AcDbArc
 50
179.9999999999998
 51
269.9999999999998
  0
ARC
  5
13DB
330
1E
100
AcDbEntity
  8
STEMPEL
100
AcDbCircle
 10
436.5586616817354
 20
461.1435947086855
 30
0.0
 40
0.4
100
AcDbArc
 50
269.9999999999998
 51
359.9999999999998
  0
LINE
  5
13DC
330
1E
100
AcDbEntity
  8
STEMPEL
100
AcDbLine
 10
436.9586616817354
 20
461.1435947086855
 30
0.0
 11
436.9586616817355
 21
461.3435947086853
 31
0.0
  0
ARC
  5
13DD
330
1E
100
AcDbEntity
  8
STEMPEL
100
AcDbCircle
 10
437.3586616817354
 20
461.3435947086853
 30
0.0
 40
0.4
100
AcDbArc
 50
89.99999999999984
 51
179.9999999999998
  0
LINE
  5
13DE
330
1E
100
AcDbEntity
  8
STEMPEL
100
AcDbLine
 10
436.5586616817354
 20
460.7435947086854
 30
0.0
 11
435.6475505706243
 21
460.7435947086854
 31
0.0
  0
ARC
  5
13DF
330
1E
100
AcDbEntity
  8
STEMPEL
100
AcDbCircle
 10
432.3586616817355
 20
461.1435947086855
 30
0.0
 40
0.4
100
AcDbArc
 50
269.9999999999998
 51
359.9999999999998
  0
LINE
  5
13E0
330
1E
100
AcDbEntity
  8
STEMPEL
100
AcDbLine
 10
432.7586616817354
 20
461.1435947086855
 30
0.0
 11
432.7586616817354
 21
461.3435947086853
 31
0.0
  0
ARC
  5
13E1
330
1E
100
AcDbEntity
  8
STEMPEL
100
AcDbCircle
 10
433.1586616817355
 20
461.3435947086853
 30
0.0
 40
0.4
100
AcDbArc
 50
89.99999999999984
 51
179.9999999999998
  0
ARC
  5
13E2
330
1E
100
AcDbEntity
  8
STEMPEL
100
AcDbCircle
 10
427.3419950150689
 20
461.1435947086856
 30
0.0
 40
0.4
100
AcDbArc
 50
269.9999999999998
 51
359.9999999999998
  0
LINE
  5
13E3
330
1E
100
AcDbEntity
  8
STEMPEL
100
AcDbLine
 10
427.7419950150689
 20
461.1435947086855
 30
0.0
 11
427.7419950150689
 21
461.3435947086853
 31
0.0
  0
ARC
  5
13E4
330
1E
100
AcDbEntity
  8
STEMPEL
100
AcDbCircle
 10
428.141995015069
 20
461.3435947086853
 30
0.0
 40
0.4
100
AcDbArc
 50
89.99999999999984
 51
179.9999999999998
  0
ARC
  5
13E5
330
1E
100
AcDbEntity
  8
STEMPEL
100
AcDbCircle
 10
415.5947727928467
 20
461.7435947086855
 30
0.0
 40
3.0
100
AcDbArc
 50
208.5052745523291
 51
269.9999999999998
  0
LINE
  5
13E6
330
1E
100
AcDbEntity
  8
STEMPEL
100
AcDbLine
 10
413.1362171783349
 20
464.1753136906388
 30
0.0
 11
414.7159996103351
 21
461.2663550480341
 31
0.0
  0
ARC
  5
13E7
330
1E
100
AcDbEntity
  8
STEMPEL
100
AcDbCircle
 10
415.5947727928467
 20
461.7435947086855
 30
0.0
 40
1.0
100
AcDbArc
 50
208.5052745523291
 51
269.9999999999998
  0
ARC
  5
13E8
330
1E
100
AcDbEntity
  8
STEMPEL
100
AcDbCircle
 10
410.4998976308
 20
462.7435947086854
 30
0.0
 40
3.0
100
AcDbArc
 50
28.50527455232908
 51
89.99999999999984
  0
LINE
  5
13E9
330
1E
100
AcDbEntity
  8
STEMPEL
100
AcDbLine
 10
411.3786708133117
 20
463.2208343693366
 30
0.0
 11
412.9584532453119
 21
460.311875726732
 31
0.0
  0
ARC
  5
13EA
330
1E
100
AcDbEntity
  8
STEMPEL
100
AcDbCircle
 10
410.4998976308
 20
462.7435947086854
 30
0.0
 40
1.0
100
AcDbArc
 50
28.50527455232908
 51
89.99999999999984
  0
ARC
  5
1472
330
1E
100
AcDbEntity
  8
STEMPEL
100
AcDbCircle
 10
430.6197727928466
 20
220.1321159066111
 30
0.0
 40
0.3888888888888889
100
AcDbArc
 50
99.55500261065857
 51
180.0
  0
LINE
  5
1473
330
1E
100
AcDbEntity
  8
STEMPEL
100
AcDbLine
 10
430.2308839039576
 20
220.1321159066111
 30
0.0
 11
430.2308839039577
 21
219.308981728991
 31
0.0
  0
ARC
  5
1474
330
1E
100
AcDbEntity
  8
STEMPEL
100
AcDbCircle
 10
432.0975505706242
 20
223.969487052174
 30
0.0
 40
3.150000000000008
100
AcDbArc
 50
280.0000000000002
 51
308.6930109383321
  0
LINE
  5
1475
330
1E
100
AcDbEntity
  8
STEMPEL
100
AcDbLine
 10
430.5552194380847
 20
220.5156096253213
 30
0.0
 11
432.6350175555271
 21
220.8657012673945
 31
0.0
  0
ARC
  5
1476
330
1E
100
AcDbEntity
  8
STEMPEL
100
AcDbCircle
 10
432.0975505706242
 20
223.969487052174
 30
0.0
 40
0.6611111111111199
100
AcDbArc
 50
280.0000000000002
 51
0.0
  0
LINE
  5
1477
330
1E
100
AcDbEntity
  8
STEMPEL
100
AcDbLine
 10
432.7586616817353
 20
227.1194870521739
 30
0.0
 11
432.7586616817353
 21
223.969487052174
 31
0.0
  0
LINE
  5
1478
330
1E
100
AcDbEntity
  8
STEMPEL
100
AcDbLine
 10
432.7586616817353
 20
227.1194870521739
 30
0.0
 11
428.9864394595132
 21
227.1194870521739
 31
0.0
  0
LINE
  5
1479
330
1E
100
AcDbEntity
  8
STEMPEL
100
AcDbLine
 10
429.6495899596742
 20
222.8870691022168
 30
0.0
 11
432.2218760850521
 21
223.3200610671403
 31
0.0
  0
ARC
  5
147A
330
1E
100
AcDbEntity
  8
STEMPEL
100
AcDbCircle
 10
430.0364394595133
 20
220.6374775221965
 30
0.0
 40
2.294444444444444
100
AcDbArc
 50
100.0000000000002
 51
180.0
  0
ARC
  5
147B
330
1E
100
AcDbEntity
  8
STEMPEL
100
AcDbCircle
 10
436.1031061261797
 20
224.1639314966184
 30
0.0
 40
0.8555555555555024
100
AcDbArc
 50
180.0
 51
0.0
  0
LINE
  5
147C
330
1E
100
AcDbEntity
  8
STEMPEL
100
AcDbLine
 10
436.9586616817352
 20
227.1194870521739
 30
0.0
 11
435.2475505706243
 21
227.1194870521739
 31
0.0
  0
LINE
  5
147D
330
1E
100
AcDbEntity
  8
STEMPEL
100
AcDbLine
 10
436.9586616817352
 20
227.1194870521739
 30
0.0
 11
436.9586616817352
 21
224.1639314966184
 31
0.0
  0
LINE
  5
147E
330
1E
100
AcDbEntity
  8
STEMPEL
100
AcDbLine
 10
435.2475505706243
 20
227.1194870521739
 30
0.0
 11
435.2475505706243
 21
224.1639314966184
 31
0.0
  0
LINE
  5
147F
330
1E
100
AcDbEntity
  8
STEMPEL
100
AcDbLine
 10
439.4475505706243
 20
228.8305981632851
 30
0.0
 11
439.4475505706242
 21
224.1639314966184
 31
0.0
  0
ARC
  5
1480
330
1E
100
AcDbEntity
  8
STEMPEL
100
AcDbCircle
 10
436.1031061261797
 20
224.1639314966184
 30
0.0
 40
3.344444444444391
100
AcDbArc
 50
232.4919601629159
 51
0.0
  0
ARC
  5
1481
330
1E
100
AcDbEntity
  8
STEMPEL
100
AcDbCircle
 10
433.5947727928465
 20
214.519487052174
 30
0.0
 40
5.852777777777742
100
AcDbArc
 50
180.0
 51
125.0821845754596
  0
CIRCLE
  5
1482
330
1E
100
AcDbEntity
  8
STEMPEL
100
AcDbCircle
 10
433.5947727928465
 20
214.519487052174
 30
0.0
 40
3.363888888888853
  0
LINE
  5
1483
330
1E
100
AcDbEntity
  8
STEMPEL
100
AcDbLine
 10
427.7419950150687
 20
220.6374775221965
 30
0.0
 11
427.7419950150687
 21
214.519487052174
 31
0.0
  0
ARC
  5
1484
330
1E
100
AcDbEntity
  8
STEMPEL
100
AcDbCircle
 10
433.5947727928465
 20
234.7417092743962
 30
0.0
 40
5.852777777777742
100
AcDbArc
 50
180.0
 51
241.2916789772526
  0
LINE
  5
1485
330
1E
100
AcDbEntity
  8
STEMPEL
100
AcDbLine
 10
430.7833858388792
 20
229.6083759410629
 30
0.0
 11
428.9864394595132
 21
229.6083759410628
 31
0.0
  0
LINE
  5
1486
330
1E
100
AcDbEntity
  8
STEMPEL
100
AcDbLine
 10
438.6697727928466
 20
229.6083759410629
 30
0.0
 11
436.4061597468139
 21
229.6083759410629
 31
0.0
  0
CIRCLE
  5
1487
330
1E
100
AcDbEntity
  8
STEMPEL
100
AcDbCircle
 10
433.5947727928465
 20
234.7417092743962
 30
0.0
 40
3.363888888888853
  0
ARC
  5
1488
330
1E
100
AcDbEntity
  8
STEMPEL
100
AcDbCircle
 10
430.0364394595133
 20
241.8583759410629
 30
0.0
 40
2.294444444444444
100
AcDbArc
 50
90.0
 51
180.0
  0
ARC
  5
1489
330
1E
100
AcDbEntity
  8
STEMPEL
100
AcDbCircle
 10
430.6197727928466
 20
241.2750426077295
 30
0.0
 40
0.3888888888888889
100
AcDbArc
 50
90.0
 51
180.0
  0
ARC
  5
148A
330
1E
100
AcDbEntity
  8
STEMPEL
100
AcDbCircle
 10
438.2031061261799
 20
242.9083759410629
 30
0.0
 40
1.244444444444462
100
AcDbArc
 50
270.0
 51
90.0
  0
LINE
  5
148B
330
1E
100
AcDbEntity
  8
STEMPEL
100
AcDbLine
 10
438.2031061261799
 20
244.1528203855073
 30
0.0
 11
430.0364394595133
 21
244.1528203855073
 31
0.0
  0
LINE
  5
148C
330
1E
100
AcDbEntity
  8
STEMPEL
100
AcDbLine
 10
438.2031061261799
 20
241.6639314966184
 30
0.0
 11
430.6197727928466
 21
241.6639314966184
 31
0.0
  0
LINE
  5
148D
330
1E
100
AcDbEntity
  8
STEMPEL
100
AcDbLine
 10
430.2308839039577
 20
241.2750426077295
 30
0.0
 11
430.2308839039577
 21
239.5312039512126
 31
0.0
  0
LINE
  5
148E
330
1E
100
AcDbEntity
  8
STEMPEL
100
AcDbLine
 10
427.7419950150687
 20
241.8583759410629
 30
0.0
 11
427.7419950150687
 21
234.7417092743962
 31
0.0
  0
ARC
  5
148F
330
1E
100
AcDbEntity
  8
HILF
100
AcDbCircle
 10
447.0947727928465
 20
226.4097648299518
 30
0.0
 40
27.0
100
AcDbArc
 50
265.7519773332714
 51
94.24802266672868
  0
LINE
  5
1490
330
1E
100
AcDbEntity
  8
MITTEL
100
AcDbLine
 10
433.5947727928465
 20
245.297853947734
 30
0.0
 11
433.5947727928465
 21
207.5641252738256
 31
0.0
  0
ARC
  5
1491
330
1E
100
AcDbEntity
  8
STEMPEL
100
AcDbCircle
 10
433.5947727928465
 20
234.7417092743962
 30
0.0
 40
5.852777777777742
100
AcDbArc
 50
298.7083210227475
 51
125.0821845754639
  0
ARC
  5
1492
330
1E
100
AcDbEntity
  8
STEMPEL
100
AcDbCircle
 10
81.09477279284659
 20
226.4097648299518
 30
0.0
 40
365.0
100
AcDbArc
 50
355.7578072066769
 51
4.242192793323038
  0
LINE
  5
1493
330
1E
100
AcDbEntity
  8
STEMPEL
100
AcDbLine
 10
445.0947727928466
 20
253.4097648299516
 30
0.0
 11
445.0947727928466
 21
199.4097648299517
 31
0.0
  0
ARC
  5
1494
330
1E
100
AcDbEntity
  8
STEMPEL
100
AcDbCircle
 10
438.6697727928466
 20
228.8305981632851
 30
0.0
 40
0.7777777777777778
100
AcDbArc
 50
0.0
 51
90.0
  0
ARC
  5
1495
330
1E
100
AcDbEntity
  8
STEMPEL
100
AcDbCircle
 10
428.9864394595132
 20
228.3639314966184
 30
0.0
 40
1.244444444444462
100
AcDbArc
 50
90.0
 51
270.0
  0
LINE
  5
1496
330
1E
100
AcDbEntity
  8
STEMPEL
100
AcDbLine
 10
445.5947727928467
 20
465.7435947086852
 30
0.0
 11
389.5658341995416
 21
465.7435947086852
 31
0.0
  0
LINE
  5
1497
330
1E
100
AcDbEntity
  8
STEMPEL
100
AcDbLine
 10
401.0947727928465
 20
458.7435947086851
 30
0.0
 11
415.5947727928467
 21
458.7435947086851
 31
0.0
  0
LINE
  5
1498
330
1E
100
AcDbEntity
  8
STEMPEL
100
AcDbLine
 10
480.4038940059318
 20
458.7435947086851
 30
0.0
 11
493.0947727928466
 21
458.7435947086851
 31
0.0
  0
ENDSEC
  0
SECTION
  2
OBJECTS
  0
DICTIONARY
  5
C
330
0
100
AcDbDictionary
281
     1
  3
ACAD_COLOR
350
11A
  3
ACAD_GROUP
350
D
  3
ACAD_LAYOUT
350
19
  3
ACAD_MATERIAL
350
119
  3
ACAD_MLINESTYLE
350
16
  3
ACAD_PLOTSETTINGS
350
18
  3
ACAD_PLOTSTYLENAME
350
E
  3
AcDbVariableDictionary
350
125
  0
DICTIONARY
  5
DB
330
1E
100
AcDbDictionary
280
     1
281
     1
  3
ACAD_LAYOUTSELFREF
360
10F
  0
DICTIONARY
  5
DD
330
1A
100
AcDbDictionary
280
     1
281
     1
  3
ACAD_LAYOUTSELFREF
360
10E
  0
DICTIONARY
  5
11A
102
{ACAD_REACTORS
330
C
102
}
330
C
100
AcDbDictionary
281
     1
  0
DICTIONARY
  5
D
102
{ACAD_REACTORS
330
C
102
}
330
C
100
AcDbDictionary
281
     1
  0
DICTIONARY
  5
19
102
{ACAD_REACTORS
330
C
102
}
330
C
100
AcDbDictionary
281
     1
  3
Layout1
350
1D
  3
Model
350
21
  0
DICTIONARY
  5
119
102
{ACAD_REACTORS
330
C
102
}
330
C
100
AcDbDictionary
281
     1
  0
DICTIONARY
  5
16
102
{ACAD_REACTORS
330
C
102
}
330
C
100
AcDbDictionary
281
     1
  3
Standard
350
17
  0
DICTIONARY
  5
18
102
{ACAD_REACTORS
330
C
102
}
330
C
100
AcDbDictionary
281
     1
  0
ACDBDICTIONARYWDFLT
  5
E
102
{ACAD_REACTORS
330
C
102
}
330
C
100
AcDbDictionary
281
     1
  3
Normal
350
F
100
AcDbDictionaryWithDefault
340
F
  0
DICTIONARY
  5
125
102
{ACAD_REACTORS
330
C
102
}
330
C
100
AcDbDictionary
281
     1
  3
DIMASSOC
350
126
  3
PROJECTNAME
350
127
  0
XRECORD
  5
10F
102
{ACAD_REACTORS
330
DB
102
}
330
DB
100
AcDbXrecord
280
     1
340
1E
  0
XRECORD
  5
10E
102
{ACAD_REACTORS
330
DD
102
}
330
DD
100
AcDbXrecord
280
     1
340
1A
  0
LAYOUT
  5
1D
102
{ACAD_REACTORS
330
19
102
}
330
19
100
AcDbPlotSettings
  1

  2
\\NT_WORK01\HP LaserJet 5000 PCL 6
  4

  6

 40
0.0
 41
0.0
 42
0.0
 43
0.0
 44
0.0
 45
0.0
 46
0.0
 47
0.0
 48
0.0
 49
0.0
140
0.0
141
0.0
142
1.0
143
1.0
 70
   688
 72
     0
 73
     0
 74
     5
  7

 75
    16
147
1.0
 76
     0
 77
     2
 78
   300
148
0.0
149
0.0
100
AcDbLayout
  1
Layout1
 70
     0
 71
     1
 10
0.0
 20
0.0
 11
12.0
 21
9.0
 12
0.0
 22
0.0
 32
0.0
 14
1.000000000000000E+20
 24
1.000000000000000E+20
 34
1.000000000000000E+20
 15
-1.000000000000000E+20
 25
-1.000000000000000E+20
 35
-1.000000000000000E+20
146
0.0
 13
0.0
 23
0.0
 33
0.0
 16
1.0
 26
0.0
 36
0.0
 17
0.0
 27
1.0
 37
0.0
 76
     0
330
1A
  0
LAYOUT
  5
21
102
{ACAD_REACTORS
330
19
102
}
330
19
100
AcDbPlotSettings
  1

  2
none_device
  4
Letter_(8.50_x_11.00_Inches)
  6

 40
6.349999904632568
 41
6.349999904632568
 42
6.350006103515625
 43
6.350006103515625
 44
215.8999938964844
 45
279.3999938964844
 46
0.0
 47
0.0
 48
0.0
 49
0.0
140
0.0
141
0.0
142
1.0
143
1.0
 70
 11952
 72
     0
 73
     1
 74
     0
  7

 75
     0
147
1.0
 76
     0
 77
     2
 78
   300
148
-2846.205533596839
149
277.9944664031651
100
AcDbLayout
  1
Model
 70
     1
 71
     0
 10
0.0
 20
0.0
 11
12.0
 21
9.0
 12
0.0
 22
0.0
 32
0.0
 14
0.0
 24
0.0
 34
0.0
 15
0.0
 25
0.0
 35
0.0
146
0.0
 13
0.0
 23
0.0
 33
0.0
 16
1.0
 26
0.0
 36
0.0
 17
0.0
 27
1.0
 37
0.0
 76
     0
330
1E
  0
MLINESTYLE
  5
17
102
{ACAD_REACTORS
330
16
102
}
330
16
100
AcDbMlineStyle
  2
STANDARD
 70
     0
  3

 62
   256
 51
90.0
 52
90.0
 71
     2
 49
0.5
 62
   256
  6
BYLAYER
 49
-0.5
 62
   256
  6
BYLAYER
  0
ACDBPLACEHOLDER
  5
F
102
{ACAD_REACTORS
330
E
102
}
330
E
  0
DICTIONARYVAR
  5
126
102
{ACAD_REACTORS
330
125
102
}
330
125
100
DictionaryVariables
280
     0
  1
1
  0
DICTIONARYVAR
  5
127
102
{ACAD_REACTORS
330
125
102
}
330
125
100
DictionaryVariables
280
     0
  1

  0
ENDSEC
  0
EOF
