  0
SECTION
  2
HEADER
  9
$ACADVER
  1
AC1018
  9
$ACADMAINTVER
 70
     2
  9
$DWGCODEPAGE
  3
ANSI_1252
  9
$INSBASE
 10
0.0
 20
0.0
 30
0.0
  9
$EXTMIN
 10
-0.0160161050886245
 20
-0.0226513486255726
 30
-0.0000000000000053
  9
$EXTMAX
 10
210.0000024450054
 20
297.000003457936
 30
0.0000000000000099
  9
$LIMMIN
 10
0.0
 20
0.0
  9
$LIMMAX
 10
210.0
 20
297.0
  9
$ORTHOMODE
 70
     1
  9
$REGENMODE
 70
     1
  9
$FILLMODE
 70
     1
  9
$QTEXTMODE
 70
     0
  9
$MIRRTEXT
 70
     1
  9
$LTSCALE
 40
10.0
  9
$ATTMODE
 70
     1
  9
$TEXTSIZE
 40
3.5
  9
$TRACEWID
 40
0.5
  9
$TEXTSTYLE
  7
STANDARD
  9
$CLAYER
  8
SCHRAFF
  9
$CELTYPE
  6
ByLayer
  9
$CECOLOR
 62
   256
  9
$CELTSCALE
 40
1.0
  9
$DISPSILH
 70
     0
  9
$DIMSCALE
 40
1.0
  9
$DIMASZ
 40
3.5
  9
$DIMEXO
 40
1.0
  9
$DIMDLI
 40
8.0
  9
$DIMRND
 40
0.0
  9
$DIMDLE
 40
0.0
  9
$DIMEXE
 40
1.0
  9
$DIMTP
 40
4.0
  9
$DIMTM
 40
2.0
  9
$DIMTXT
 40
3.5
  9
$DIMCEN
 40
1.5
  9
$DIMTSZ
 40
0.0
  9
$DIMTOL
 70
     0
  9
$DIMLIM
 70
     0
  9
$DIMTIH
 70
     0
  9
$DIMTOH
 70
     0
  9
$DIMSE1
 70
     0
  9
$DIMSE2
 70
     0
  9
$DIMTAD
 70
     1
  9
$DIMZIN
 70
     8
  9
$DIMBLK
  1

  9
$DIMASO
 70
     1
  9
$DIMSHO
 70
     0
  9
$DIMPOST
  1

  9
$DIMAPOST
  1

  9
$DIMALT
 70
     0
  9
$DIMALTD
 70
     2
  9
$DIMALTF
 40
25.4
  9
$DIMLFAC
 40
1.0
  9
$DIMTOFL
 70
     1
  9
$DIMTVP
 40
0.0
  9
$DIMTIX
 70
     0
  9
$DIMSOXD
 70
     0
  9
$DIMSAH
 70
     0
  9
$DIMBLK1
  1

  9
$DIMBLK2
  1

  9
$DIMSTYLE
  2
Standard
  9
$DIMCLRD
 70
     0
  9
$DIMCLRE
 70
     0
  9
$DIMCLRT
 70
     1
  9
$DIMTFAC
 40
0.5
  9
$DIMGAP
 40
1.5
  9
$DIMJUST
 70
     0
  9
$DIMSD1
 70
     0
  9
$DIMSD2
 70
     0
  9
$DIMTOLJ
 70
     1
  9
$DIMTZIN
 70
     8
  9
$DIMALTZ
 70
     8
  9
$DIMALTTZ
 70
     8
  9
$DIMUPT
 70
     0
  9
$DIMDEC
 70
     2
  9
$DIMTDEC
 70
     2
  9
$DIMALTU
 70
     2
  9
$DIMALTTD
 70
     2
  9
$DIMTXSTY
  7
STANDARD
  9
$DIMAUNIT
 70
     0
  9
$DIMADEC
 70
     2
  9
$DIMALTRND
 40
0.0
  9
$DIMAZIN
 70
     2
  9
$DIMDSEP
 70
    46
  9
$DIMATFIT
 70
     3
  9
$DIMFRAC
 70
     0
  9
$DIMLDRBLK
  1

  9
$DIMLUNIT
 70
     2
  9
$DIMLWD
 70
    -2
  9
$DIMLWE
 70
    -2
  9
$DIMTMOVE
 70
     0
  9
$LUNITS
 70
     2
  9
$LUPREC
 70
     2
  9
$SKETCHINC
 40
1.0
  9
$FILLETRAD
 40
4.0
  9
$AUNITS
 70
     0
  9
$AUPREC
 70
     0
  9
$MENU
  1
ACAD
  9
$ELEVATION
 40
0.0
  9
$PELEVATION
 40
0.0
  9
$THICKNESS
 40
0.0
  9
$LIMCHECK
 70
     0
  9
$CHAMFERA
 40
0.0
  9
$CHAMFERB
 40
0.0
  9
$CHAMFERC
 40
0.0
  9
$CHAMFERD
 40
0.0
  9
$SKPOLY
 70
     0
  9
$TDCREATE
 40
2455227.557643518
  9
$TDUCREATE
 40
2455227.515976852
  9
$TDUPDATE
 40
2455544.574321898
  9
$TDUUPDATE
 40
2455544.532655232
  9
$TDINDWG
 40
0.1859015625
  9
$TDUSRTIMER
 40
0.1859015625
  9
$USRTIMER
 70
     1
  9
$ANGBASE
 50
0.0
  9
$ANGDIR
 70
     0
  9
$PDMODE
 70
     0
  9
$PDSIZE
 40
0.0
  9
$PLINEWID
 40
0.0
  9
$SPLFRAME
 70
     0
  9
$SPLINETYPE
 70
     6
  9
$SPLINESEGS
 70
     8
  9
$HANDSEED
  5
C05
  9
$SURFTAB1
 70
     6
  9
$SURFTAB2
 70
     6
  9
$SURFTYPE
 70
     6
  9
$SURFU
 70
     6
  9
$SURFV
 70
     6
  9
$UCSBASE
  2

  9
$UCSNAME
  2

  9
$UCSORG
 10
0.0
 20
0.0
 30
0.0
  9
$UCSXDIR
 10
1.0
 20
0.0
 30
0.0
  9
$UCSYDIR
 10
0.0
 20
1.0
 30
0.0
  9
$UCSORTHOREF
  2

  9
$UCSORTHOVIEW
 70
     0
  9
$UCSORGTOP
 10
0.0
 20
0.0
 30
0.0
  9
$UCSORGBOTTOM
 10
0.0
 20
0.0
 30
0.0
  9
$UCSORGLEFT
 10
0.0
 20
0.0
 30
0.0
  9
$UCSORGRIGHT
 10
0.0
 20
0.0
 30
0.0
  9
$UCSORGFRONT
 10
0.0
 20
0.0
 30
0.0
  9
$UCSORGBACK
 10
0.0
 20
0.0
 30
0.0
  9
$PUCSBASE
  2

  9
$PUCSNAME
  2

  9
$PUCSORG
 10
0.0
 20
0.0
 30
0.0
  9
$PUCSXDIR
 10
1.0
 20
0.0
 30
0.0
  9
$PUCSYDIR
 10
0.0
 20
1.0
 30
0.0
  9
$PUCSORTHOREF
  2

  9
$PUCSORTHOVIEW
 70
     0
  9
$PUCSORGTOP
 10
0.0
 20
0.0
 30
0.0
  9
$PUCSORGBOTTOM
 10
0.0
 20
0.0
 30
0.0
  9
$PUCSORGLEFT
 10
0.0
 20
0.0
 30
0.0
  9
$PUCSORGRIGHT
 10
0.0
 20
0.0
 30
0.0
  9
$PUCSORGFRONT
 10
0.0
 20
0.0
 30
0.0
  9
$PUCSORGBACK
 10
0.0
 20
0.0
 30
0.0
  9
$USERI1
 70
     0
  9
$USERI2
 70
     0
  9
$USERI3
 70
     0
  9
$USERI4
 70
     0
  9
$USERI5
 70
     0
  9
$USERR1
 40
0.0
  9
$USERR2
 40
0.0
  9
$USERR3
 40
0.0
  9
$USERR4
 40
0.0
  9
$USERR5
 40
0.0
  9
$WORLDVIEW
 70
     1
  9
$SHADEDGE
 70
     3
  9
$SHADEDIF
 70
    70
  9
$TILEMODE
 70
     1
  9
$MAXACTVP
 70
    16
  9
$PINSBASE
 10
0.0
 20
0.0
 30
0.0
  9
$PLIMCHECK
 70
     0
  9
$PEXTMIN
 10
1.000000000000000E+20
 20
1.000000000000000E+20
 30
1.000000000000000E+20
  9
$PEXTMAX
 10
-1.000000000000000E+20
 20
-1.000000000000000E+20
 30
-1.000000000000000E+20
  9
$PLIMMIN
 10
0.0
 20
0.0
  9
$PLIMMAX
 10
12.0
 20
9.0
  9
$UNITMODE
 70
     0
  9
$VISRETAIN
 70
     0
  9
$PLINEGEN
 70
     0
  9
$PSLTSCALE
 70
     0
  9
$TREEDEPTH
 70
  3020
  9
$CMLSTYLE
  2
Standard
  9
$CMLJUST
 70
     0
  9
$CMLSCALE
 40
1.0
  9
$PROXYGRAPHICS
 70
     1
  9
$MEASUREMENT
 70
     0
  9
$CELWEIGHT
370
    -1
  9
$ENDCAPS
280
     0
  9
$JOINSTYLE
280
     0
  9
$LWDISPLAY
290
     0
  9
$INSUNITS
 70
     0
  9
$HYPERLINKBASE
  1

  9
$STYLESHEET
  1
monochrome1.ctb
  9
$XEDIT
290
     1
  9
$CEPSNTYPE
380
     0
  9
$PSTYLEMODE
290
     1
  9
$FINGERPRINTGUID
  2
{B27D5760-B91A-49D7-BD88-914845710FAF}
  9
$VERSIONGUID
  2
{7CCF1D8D-36A2-4080-80FD-82E07D953F7F}
  9
$EXTNAMES
290
     1
  9
$PSVPSCALE
 40
0.0
  9
$OLESTARTUP
290
     0
  9
$SORTENTS
280
   127
  9
$INDEXCTL
280
     0
  9
$HIDETEXT
280
     1
  9
$XCLIPFRAME
290
     0
  9
$HALOGAP
280
     0
  9
$OBSCOLOR
 70
   257
  9
$OBSLTYPE
280
     0
  9
$INTERSECTIONDISPLAY
280
     0
  9
$INTERSECTIONCOLOR
 70
   257
  9
$DIMASSOC
280
     2
  9
$PROJECTNAME
  1

  0
ENDSEC
  0
SECTION
  2
CLASSES
  0
CLASS
  1
ACDBDICTIONARYWDFLT
  2
AcDbDictionaryWithDefault
  3
ObjectDBX Classes
 90
        0
 91
        1
280
     0
281
     0
  0
CLASS
  1
DICTIONARYVAR
  2
AcDbDictionaryVar
  3
ObjectDBX Classes
 90
        0
 91
        3
280
     0
281
     0
  0
CLASS
  1
DIMASSOC
  2
AcDbDimAssoc
  3
"AcDbDimAssoc|Product Desc:     AcDim ARX App For Dimension|Company:          Autodesk, Inc.|WEB Address:      www.autodesk.com"
 90
        0
 91
        2
280
     0
281
     0
  0
ENDSEC
  0
SECTION
  2
TABLES
  0
TABLE
  2
VPORT
  5
8
330
0
100
AcDbSymbolTable
 70
     2
  0
VPORT
  5
C04
330
8
100
AcDbSymbolTableRecord
100
AcDbViewportTableRecord
  2
*Active
 70
     0
 10
0.0
 20
0.0
 11
1.0
 21
1.0
 12
104.9919931699583
 22
148.4886760546552
 13
0.0
 23
0.0
 14
1.0
 24
1.0
 15
10.0
 25
10.0
 16
0.0
 26
0.0
 36
1.0
 17
0.0
 27
0.0
 37
0.0
 40
299.4212226784854
 41
1.336927223719676
 42
50.0
 43
0.0
 44
0.0
 50
0.0
 51
0.0
 71
     0
 72
  1500
 73
     1
 74
     0
 75
     0
 76
     0
 77
     0
 78
     0
281
     0
 65
     1
110
0.0
120
0.0
130
0.0
111
1.0
121
0.0
131
0.0
112
0.0
122
1.0
132
0.0
 79
     0
146
0.0
  0
ENDTAB
  0
TABLE
  2
LTYPE
  5
5
330
0
100
AcDbSymbolTable
 70
     3
  0
LTYPE
  5
13
330
5
100
AcDbSymbolTableRecord
100
AcDbLinetypeTableRecord
  2
ByBlock
 70
     0
  3

 72
    65
 73
     0
 40
0.0
  0
LTYPE
  5
14
330
5
100
AcDbSymbolTableRecord
100
AcDbLinetypeTableRecord
  2
ByLayer
 70
     0
  3

 72
    65
 73
     0
 40
0.0
  0
LTYPE
  5
15
330
5
100
AcDbSymbolTableRecord
100
AcDbLinetypeTableRecord
  2
AUSGEZOGEN
 70
     0
  3
Ausgezogene Linie
 72
    65
 73
     0
 40
0.0
  0
LTYPE
  5
57
330
5
100
AcDbSymbolTableRecord
100
AcDbLinetypeTableRecord
  2
STRICHPUNKT
 70
     0
  3
__ . __ . __ . __ . __ . __ . __ . __ . __ . __
 72
    65
 73
     4
 40
1.0
 49
0.5
 74
     0
 49
-0.25
 74
     0
 49
0.0
 74
     0
 49
-0.25
 74
     0
  0
LTYPE
  5
5A
330
5
100
AcDbSymbolTableRecord
100
AcDbLinetypeTableRecord
  2
CONTINUOUS
 70
     0
  3
Solid Line
 72
    65
 73
     0
 40
0.0
  0
ENDTAB
  0
TABLE
  2
LAYER
  5
2
330
0
100
AcDbSymbolTable
 70
     9
  0
LAYER
  5
10
330
2
100
AcDbSymbolTableRecord
100
AcDbLayerTableRecord
  2
0
 70
     0
 62
     7
  6
AUSGEZOGEN
370
    -3
390
F
  0
LAYER
  5
5D
330
2
100
AcDbSymbolTableRecord
100
AcDbLayerTableRecord
  2
VOLL
 70
     0
 62
     1
  6
AUSGEZOGEN
370
    -3
390
F
  0
LAYER
  5
5E
330
2
100
AcDbSymbolTableRecord
100
AcDbLayerTableRecord
  2
HILF
 70
     0
 62
     2
  6
AUSGEZOGEN
370
    -3
390
F
  0
LAYER
  5
5F
330
2
100
AcDbSymbolTableRecord
100
AcDbLayerTableRecord
  2
MITTEL
 70
     0
 62
     2
  6
STRICHPUNKT
370
    -3
390
F
  0
LAYER
  5
62
330
2
100
AcDbSymbolTableRecord
100
AcDbLayerTableRecord
  2
BEM
 70
     0
 62
     7
  6
AUSGEZOGEN
370
    -3
390
F
  0
LAYER
  5
63
330
2
100
AcDbSymbolTableRecord
100
AcDbLayerTableRecord
  2
DEFPOINTS
 70
     0
 62
     7
  6
AUSGEZOGEN
290
     0
370
    -3
390
F
  0
LAYER
  5
64
330
2
100
AcDbSymbolTableRecord
100
AcDbLayerTableRecord
  2
STEMPEL
 70
     0
 62
     3
  6
AUSGEZOGEN
370
    -3
390
F
  0
LAYER
  5
65
330
2
100
AcDbSymbolTableRecord
100
AcDbLayerTableRecord
  2
TEXT
 70
     0
 62
     7
  6
AUSGEZOGEN
370
    -3
390
F
  0
LAYER
  5
66
330
2
100
AcDbSymbolTableRecord
100
AcDbLayerTableRecord
  2
SCHRAFF
 70
     0
 62
     7
  6
AUSGEZOGEN
370
    -3
390
F
  0
ENDTAB
  0
TABLE
  2
STYLE
  5
3
330
0
100
AcDbSymbolTable
 70
     2
  0
STYLE
  5
11
330
3
100
AcDbSymbolTableRecord
100
AcDbTextStyleTableRecord
  2
STANDARD
 70
     0
 40
0.0
 41
0.8
 50
0.0
 71
     0
 42
3.5
  3
simplex.shx
  4

  0
STYLE
  5
56
330
3
100
AcDbSymbolTableRecord
100
AcDbTextStyleTableRecord
  2
GREEKS
 70
     0
 40
0.0
 41
0.8
 50
0.0
 71
     0
 42
2.5
  3
SIMPLEX.shx
  4

  0
ENDTAB
  0
TABLE
  2
VIEW
  5
6
330
0
100
AcDbSymbolTable
 70
     0
  0
ENDTAB
  0
TABLE
  2
UCS
  5
7
330
0
100
AcDbSymbolTable
 70
     0
  0
ENDTAB
  0
TABLE
  2
APPID
  5
9
330
0
100
AcDbSymbolTable
 70
     1
  0
APPID
  5
12
330
9
100
AcDbSymbolTableRecord
100
AcDbRegAppTableRecord
  2
ACAD
 70
     0
  0
ENDTAB
  0
TABLE
  2
DIMSTYLE
  5
A
330
0
100
AcDbSymbolTable
 70
     1
100
AcDbDimStyleTable
 71
     1
340
5F8
  0
DIMSTYLE
105
5F8
102
{ACAD_REACTORS
330
60B
330
68F
330
5EC
330
9DE
330
5F1
102
}
330
A
100
AcDbSymbolTableRecord
100
AcDbDimStyleTableRecord
  2
Standard
 70
     0
340
11
  0
ENDTAB
  0
TABLE
  2
BLOCK_RECORD
  5
1
330
0
100
AcDbSymbolTable
 70
     6
  0
BLOCK_RECORD
  5
20
330
1
100
AcDbSymbolTableRecord
100
AcDbBlockTableRecord
  2
*Model_Space
340
23
  0
BLOCK_RECORD
  5
1C
330
1
100
AcDbSymbolTableRecord
100
AcDbBlockTableRecord
  2
*Paper_Space
340
1F
  0
BLOCK_RECORD
  5
24
330
1
100
AcDbSymbolTableRecord
100
AcDbBlockTableRecord
  2
LOGO
340
0
102
{BLKREFS
331
5B2
102
}
  0
BLOCK_RECORD
  5
60C
330
1
100
AcDbSymbolTableRecord
100
AcDbBlockTableRecord
  2
*D1
340
0
  0
BLOCK_RECORD
  5
683
330
1
100
AcDbSymbolTableRecord
100
AcDbBlockTableRecord
  2
*D2
340
0
  0
BLOCK_RECORD
  5
690
330
1
100
AcDbSymbolTableRecord
100
AcDbBlockTableRecord
  2
*D3
340
0
  0
BLOCK_RECORD
  5
9DF
330
1
100
AcDbSymbolTableRecord
100
AcDbBlockTableRecord
  2
*D4
340
0
  0
BLOCK_RECORD
  5
A59
330
1
100
AcDbSymbolTableRecord
100
AcDbBlockTableRecord
  2
*D5
340
0
  0
ENDTAB
  0
ENDSEC
  0
SECTION
  2
BLOCKS
  0
BLOCK
  5
6A
330
20
100
AcDbEntity
  8
0
100
AcDbBlockBegin
  2
*Model_Space
 70
     0
 10
0.0
 20
0.0
 30
0.0
  3
*Model_Space
  1

  0
ENDBLK
  5
6B
330
20
100
AcDbEntity
  8
0
100
AcDbBlockEnd
  0
BLOCK
  5
68
330
1C
100
AcDbEntity
 67
     1
  8
0
100
AcDbBlockBegin
  2
*Paper_Space
 70
     0
 10
0.0
 20
0.0
 30
0.0
  3
*Paper_Space
  1

  0
ENDBLK
  5
69
330
1C
100
AcDbEntity
 67
     1
  8
0
100
AcDbBlockEnd
  0
BLOCK
  5
6C
330
24
100
AcDbEntity
  8
0
100
AcDbBlockBegin
  2
LOGO
 70
     0
 10
0.0
 20
0.0
 30
0.0
  3
LOGO
  1

  0
ARC
  5
6D
330
24
100
AcDbEntity
  8
0
100
AcDbCircle
 10
11.59973089678112
 20
-9.271599258481501
 30
0.0
 40
4.5
100
AcDbArc
 50
270.0
 51
231.0575587310159
  0
LINE
  5
6E
330
24
100
AcDbEntity
  8
0
100
AcDbLine
 10
3.599730896781125
 20
-4.771599258481529
 30
0.0
 11
3.599730896781153
 21
-11.77159925848133
 31
0.0
  0
LINE
  5
6F
330
24
100
AcDbEntity
  8
0
100
AcDbLine
 10
2.599730896781125
 20
-4.771599258481529
 30
0.0
 11
2.599730896781153
 21
-11.77159925848133
 31
0.0
  0
CIRCLE
  5
70
330
24
100
AcDbEntity
  8
0
100
AcDbCircle
 10
11.59973089678112
 20
-9.271599258481501
 30
0.0
 40
3.5
  0
ARC
  5
71
330
24
100
AcDbEntity
  8
0
100
AcDbCircle
 10
31.59973089678115
 20
-9.271599258481472
 30
0.0
 40
4.5
100
AcDbArc
 50
270.0
 51
231.0575587310182
  0
LINE
  5
72
330
24
100
AcDbEntity
  8
0
100
AcDbLine
 10
17.59973089678112
 20
-4.771599258481472
 30
0.0
 11
17.59973089678115
 21
-13.77159925848147
 31
0.0
  0
ARC
  5
73
330
24
100
AcDbEntity
  8
0
100
AcDbCircle
 10
22.59973089678116
 20
-7.271599258481472
 30
0.0
 40
2.5
100
AcDbArc
 50
293.1161887722295
 51
90.0
  0
CIRCLE
  5
74
330
24
100
AcDbEntity
  8
0
100
AcDbCircle
 10
31.59973089678115
 20
-9.271599258481472
 30
0.0
 40
3.5
  0
ARC
  5
75
330
24
100
AcDbEntity
  8
0
100
AcDbCircle
 10
4.599730896781153
 20
-11.77159925848133
 30
0.0
 40
1.0
100
AcDbArc
 50
180.0
 51
270.0
  0
ARC
  5
76
330
24
100
AcDbEntity
  8
0
100
AcDbCircle
 10
4.599730896781153
 20
-11.77159925848133
 30
0.0
 40
2.0
100
AcDbArc
 50
179.9999999999992
 51
270.0
  0
LINE
  5
77
330
24
100
AcDbEntity
  8
0
100
AcDbLine
 10
11.59973089678115
 20
-13.77159925848144
 30
0.0
 11
4.599730896781153
 21
-13.77159925848147
 31
0.0
  0
LINE
  5
78
330
24
100
AcDbEntity
  8
0
100
AcDbLine
 10
8.771303772034769
 20
-12.77159925848136
 30
0.0
 11
4.599730896781153
 21
-12.77159925848133
 31
0.0
  0
LINE
  5
79
330
24
100
AcDbEntity
  8
0
100
AcDbLine
 10
31.59973089678115
 20
-13.77159925848147
 30
0.0
 11
23.6715276665056
 21
-13.77159925848144
 31
0.0
  0
LINE
  5
7A
330
24
100
AcDbEntity
  8
0
100
AcDbLine
 10
23.56565672307022
 20
-9.51278021337896
 30
0.0
 11
24.4388546544846
 21
-12.77159925848144
 31
0.0
  0
LINE
  5
7B
330
24
100
AcDbEntity
  8
0
100
AcDbLine
 10
22.59973089678116
 20
-9.771599258481472
 30
0.0
 11
18.59973089678112
 21
-9.771599258481472
 31
0.0
  0
LINE
  5
7C
330
24
100
AcDbEntity
  8
0
100
AcDbLine
 10
18.59973089678115
 20
-13.77159925848144
 30
0.0
 11
17.59973089678115
 21
-13.77159925848144
 31
0.0
  0
LINE
  5
7D
330
24
100
AcDbEntity
  8
0
100
AcDbLine
 10
18.59973089678115
 20
-9.771599258481472
 30
0.0
 11
18.59973089678115
 21
-13.77159925848144
 31
0.0
  0
LINE
  5
7E
330
24
100
AcDbEntity
  8
0
100
AcDbLine
 10
22.59973089678116
 20
-9.771599258481472
 30
0.0
 11
23.67152766650562
 21
-13.77159925848147
 31
0.0
  0
ARC
  5
7F
330
24
100
AcDbEntity
  8
0
100
AcDbCircle
 10
22.59973089678116
 20
-7.271599258481472
 30
0.0
 40
2.5
100
AcDbArc
 50
270.0
 51
270.0000000000007
  0
LINE
  5
80
330
24
100
AcDbEntity
  8
0
100
AcDbLine
 10
28.77130377203494
 20
-12.77159925848147
 30
0.0
 11
24.43885465448463
 21
-12.77159925848144
 31
0.0
  0
LINE
  5
81
330
24
100
AcDbEntity
  8
0
100
AcDbLine
 10
3.599730896781125
 20
-4.771599258481472
 30
0.0
 11
2.599730896781125
 21
-4.771599258481472
 31
0.0
  0
LINE
  5
82
330
24
100
AcDbEntity
  8
0
100
AcDbLine
 10
22.59973089678116
 20
-8.771599258481472
 30
0.0
 11
18.59973089678115
 21
-8.771599258481472
 31
0.0
  0
LINE
  5
83
330
24
100
AcDbEntity
  8
0
100
AcDbLine
 10
22.59973089678116
 20
-5.771599258481472
 30
0.0
 11
18.59973089678115
 21
-5.771599258481472
 31
0.0
  0
LINE
  5
84
330
24
100
AcDbEntity
  8
0
100
AcDbLine
 10
22.59973089678116
 20
-4.771599258481472
 30
0.0
 11
17.59973089678115
 21
-4.771599258481472
 31
0.0
  0
LINE
  5
85
330
24
100
AcDbEntity
  8
0
100
AcDbLine
 10
18.59973089678115
 20
-5.771599258481472
 30
0.0
 11
18.59973089678115
 21
-8.771599258481472
 31
0.0
  0
ARC
  5
86
330
24
100
AcDbEntity
  8
0
100
AcDbCircle
 10
22.59973089678116
 20
-7.271599258481472
 30
0.0
 40
1.5
100
AcDbArc
 50
270.0
 51
90.0
  0
ENDBLK
  5
87
330
24
100
AcDbEntity
  8
0
100
AcDbBlockEnd
  0
BLOCK
  5
616
330
60C
100
AcDbEntity
  8
0
100
AcDbBlockBegin
  2
*D1
 70
     1
 10
0.0
 20
0.0
 30
0.0
  3
*D1
  1

  0
LINE
  5
A94
330
60C
100
AcDbEntity
  8
BEM
 62
     0
370
    -2
100
AcDbLine
 10
70.62711618680956
 20
129.7683575679984
 30
0.0
 11
70.62711618680956
 21
116.0617356023859
 31
0.0
  0
LINE
  5
A95
330
60C
100
AcDbEntity
  8
BEM
 62
     0
370
    -2
100
AcDbLine
 10
129.6271161868096
 20
129.7683575679984
 30
0.0
 11
129.6271161868096
 21
116.0617356023859
 31
0.0
  0
LINE
  5
A96
330
60C
100
AcDbEntity
  8
BEM
 62
     0
370
    -2
100
AcDbLine
 10
74.12711618680956
 20
117.0617356023859
 30
0.0
 11
126.1271161868096
 21
117.0617356023859
 31
0.0
  0
SOLID
  5
A97
330
60C
100
AcDbEntity
  8
BEM
 62
     0
100
AcDbTrace
 10
74.12711618680956
 20
117.6450689357193
 30
0.0
 11
74.12711618680956
 21
116.4784022690526
 31
0.0
 12
70.62711618680956
 22
117.0617356023859
 32
0.0
 13
70.62711618680956
 23
117.0617356023859
 33
0.0
  0
SOLID
  5
A98
330
60C
100
AcDbEntity
  8
BEM
 62
     0
100
AcDbTrace
 10
126.1271161868096
 20
117.6450689357193
 30
0.0
 11
126.1271161868096
 21
116.4784022690526
 31
0.0
 12
129.6271161868096
 22
117.0617356023859
 32
0.0
 13
129.6271161868096
 23
117.0617356023859
 33
0.0
  0
MTEXT
  5
A99
330
60C
100
AcDbEntity
  8
BEM
 62
     1
100
AcDbMText
 10
100.1271161868096
 20
120.3117356023859
 30
0.0
 40
3.5
 41
0.0
 71
     5
 72
     1
  1
\A1;R2
 73
     1
 44
1.0
  0
POINT
  5
A9A
330
60C
100
AcDbEntity
  8
DEFPOINTS
 62
     0
100
AcDbPoint
 10
70.62711618680956
 20
130.7683575679984
 30
0.0
  0
POINT
  5
A9B
330
60C
100
AcDbEntity
  8
DEFPOINTS
 62
     0
100
AcDbPoint
 10
129.6271161868096
 20
130.7683575679984
 30
0.0
  0
POINT
  5
A9C
330
60C
100
AcDbEntity
  8
DEFPOINTS
 62
     0
100
AcDbPoint
 10
129.6271161868096
 20
117.0617356023859
 30
0.0
  0
ENDBLK
  5
617
330
60C
100
AcDbEntity
  8
0
100
AcDbBlockEnd
  0
BLOCK
  5
68D
330
683
100
AcDbEntity
  8
0
100
AcDbBlockBegin
  2
*D2
 70
     1
 10
0.0
 20
0.0
 30
0.0
  3
*D2
  1

  0
LINE
  5
AF4
330
683
100
AcDbEntity
  8
BEM
 62
     0
370
    -2
100
AcDbLine
 10
69.52076303687288
 20
230.7683575679984
 30
0.0
 11
42.58984144596626
 21
230.7683575679985
 31
0.0
  0
LINE
  5
AF5
330
683
100
AcDbEntity
  8
BEM
 62
     0
370
    -2
100
AcDbLine
 10
69.62711618680955
 20
130.7683575679984
 30
0.0
 11
42.58984144596624
 21
130.7683575679984
 31
0.0
  0
LINE
  5
AF6
330
683
100
AcDbEntity
  8
BEM
 62
     0
370
    -2
100
AcDbLine
 10
43.58984144596626
 20
227.2683575679985
 30
0.0
 11
43.58984144596624
 21
134.2683575679984
 31
0.0
  0
SOLID
  5
AF7
330
683
100
AcDbEntity
  8
BEM
 62
     0
100
AcDbTrace
 10
43.00650811263293
 20
227.2683575679985
 30
0.0
 11
44.1731747792996
 21
227.2683575679985
 31
0.0
 12
43.58984144596626
 22
230.7683575679985
 32
0.0
 13
43.58984144596626
 23
230.7683575679985
 33
0.0
  0
SOLID
  5
AF8
330
683
100
AcDbEntity
  8
BEM
 62
     0
100
AcDbTrace
 10
43.00650811263291
 20
134.2683575679984
 30
0.0
 11
44.17317477929958
 21
134.2683575679984
 31
0.0
 12
43.58984144596624
 22
130.7683575679984
 32
0.0
 13
43.58984144596624
 23
130.7683575679984
 33
0.0
  0
MTEXT
  5
AF9
330
683
100
AcDbEntity
  8
BEM
 62
     1
100
AcDbMText
 10
40.33984144596622
 20
180.7683575679984
 30
0.0
 40
3.5
 41
0.0
 71
     5
 72
     1
  1
\A1;100
 11
0.0000000000000001
 21
1.0
 31
0.0
 73
     1
 44
1.0
  0
POINT
  5
AFA
330
683
100
AcDbEntity
  8
DEFPOINTS
 62
     0
100
AcDbPoint
 10
70.52076303687288
 20
230.7683575679984
 30
0.0
  0
POINT
  5
AFB
330
683
100
AcDbEntity
  8
DEFPOINTS
 62
     0
100
AcDbPoint
 10
70.62711618680956
 20
130.7683575679984
 30
0.0
  0
POINT
  5
AFC
330
683
100
AcDbEntity
  8
DEFPOINTS
 62
     0
100
AcDbPoint
 10
43.58984144596624
 20
130.7683575679984
 30
0.0
  0
ENDBLK
  5
68E
330
683
100
AcDbEntity
  8
0
100
AcDbBlockEnd
  0
BLOCK
  5
69A
330
690
100
AcDbEntity
  8
0
100
AcDbBlockBegin
  2
*D3
 70
     1
 10
0.0
 20
0.0
 30
0.0
  3
*D3
  1

  0
LINE
  5
AEB
330
690
100
AcDbEntity
  8
BEM
 62
     0
370
    -2
100
AcDbLine
 10
69.62711618680955
 20
130.7683575679984
 30
0.0
 11
49.58984144596622
 21
130.7683575679984
 31
0.0
  0
LINE
  5
AEC
330
690
100
AcDbEntity
  8
BEM
 62
     0
370
    -2
100
AcDbLine
 10
69.62711618680955
 20
180.7683575679984
 30
0.0
 11
49.58984144596623
 21
180.7683575679984
 31
0.0
  0
LINE
  5
AED
330
690
100
AcDbEntity
  8
BEM
 62
     0
370
    -2
100
AcDbLine
 10
50.58984144596622
 20
134.2683575679984
 30
0.0
 11
50.58984144596624
 21
177.2683575679984
 31
0.0
  0
SOLID
  5
AEE
330
690
100
AcDbEntity
  8
BEM
 62
     0
100
AcDbTrace
 10
50.00650811263288
 20
134.2683575679984
 30
0.0
 11
51.17317477929955
 21
134.2683575679984
 31
0.0
 12
50.58984144596622
 22
130.7683575679984
 32
0.0
 13
50.58984144596622
 23
130.7683575679984
 33
0.0
  0
SOLID
  5
AEF
330
690
100
AcDbEntity
  8
BEM
 62
     0
100
AcDbTrace
 10
50.0065081126329
 20
177.2683575679984
 30
0.0
 11
51.17317477929957
 21
177.2683575679984
 31
0.0
 12
50.58984144596624
 22
180.7683575679984
 32
0.0
 13
50.58984144596624
 23
180.7683575679984
 33
0.0
  0
MTEXT
  5
AF0
330
690
100
AcDbEntity
  8
BEM
 62
     1
100
AcDbMText
 10
47.3398414459662
 20
155.7683575679984
 30
0.0
 40
3.5
 41
0.0
 71
     5
 72
     1
  1
\A1;50
 11
0.0000000000000001
 21
1.0
 31
0.0
 73
     1
 44
1.0
  0
POINT
  5
AF1
330
690
100
AcDbEntity
  8
DEFPOINTS
 62
     0
100
AcDbPoint
 10
70.62711618680956
 20
130.7683575679984
 30
0.0
  0
POINT
  5
AF2
330
690
100
AcDbEntity
  8
DEFPOINTS
 62
     0
100
AcDbPoint
 10
70.62711618680956
 20
180.7683575679984
 30
0.0
  0
POINT
  5
AF3
330
690
100
AcDbEntity
  8
DEFPOINTS
 62
     0
100
AcDbPoint
 10
50.58984144596624
 20
180.7683575679984
 30
0.0
  0
ENDBLK
  5
69B
330
690
100
AcDbEntity
  8
0
100
AcDbBlockEnd
  0
BLOCK
  5
9E9
330
9DF
100
AcDbEntity
  8
0
100
AcDbBlockBegin
  2
*D4
 70
     1
 10
0.0
 20
0.0
 30
0.0
  3
*D4
  1

  0
LINE
  5
AFD
330
9DF
100
AcDbEntity
  8
BEM
 62
     0
370
    -2
100
AcDbLine
 10
69.52076303687288
 20
230.7683575679984
 30
0.0
 11
49.58984144596624
 21
230.7683575679985
 31
0.0
  0
LINE
  5
AFE
330
9DF
100
AcDbEntity
  8
BEM
 62
     0
370
    -2
100
AcDbLine
 10
69.62711618680959
 20
180.7683575679984
 30
0.0
 11
49.58984144596623
 21
180.7683575679985
 31
0.0
  0
LINE
  5
AFF
330
9DF
100
AcDbEntity
  8
BEM
 62
     0
370
    -2
100
AcDbLine
 10
50.58984144596625
 20
227.2683575679985
 30
0.0
 11
50.58984144596624
 21
184.2683575679984
 31
0.0
  0
SOLID
  5
B00
330
9DF
100
AcDbEntity
  8
BEM
 62
     0
100
AcDbTrace
 10
50.00650811263291
 20
227.2683575679985
 30
0.0
 11
51.17317477929958
 21
227.2683575679985
 31
0.0
 12
50.58984144596625
 22
230.7683575679985
 32
0.0
 13
50.58984144596625
 23
230.7683575679985
 33
0.0
  0
SOLID
  5
B01
330
9DF
100
AcDbEntity
  8
BEM
 62
     0
100
AcDbTrace
 10
50.0065081126329
 20
184.2683575679984
 30
0.0
 11
51.17317477929957
 21
184.2683575679984
 31
0.0
 12
50.58984144596624
 22
180.7683575679985
 32
0.0
 13
50.58984144596624
 23
180.7683575679985
 33
0.0
  0
MTEXT
  5
B02
330
9DF
100
AcDbEntity
  8
BEM
 62
     1
100
AcDbMText
 10
47.33984144596621
 20
205.7683575679985
 30
0.0
 40
3.5
 41
0.0
 71
     5
 72
     1
  1
\A1;50
 11
0.0000000000000001
 21
1.0
 31
0.0
 73
     1
 44
1.0
  0
POINT
  5
B03
330
9DF
100
AcDbEntity
  8
DEFPOINTS
 62
     0
100
AcDbPoint
 10
70.52076303687288
 20
230.7683575679984
 30
0.0
  0
POINT
  5
B04
330
9DF
100
AcDbEntity
  8
DEFPOINTS
 62
     0
100
AcDbPoint
 10
70.62711618680959
 20
180.7683575679984
 30
0.0
  0
POINT
  5
B05
330
9DF
100
AcDbEntity
  8
DEFPOINTS
 62
     0
100
AcDbPoint
 10
50.58984144596624
 20
180.7683575679985
 30
0.0
  0
ENDBLK
  5
9EA
330
9DF
100
AcDbEntity
  8
0
100
AcDbBlockEnd
  0
BLOCK
  5
A63
330
A59
100
AcDbEntity
  8
0
100
AcDbBlockBegin
  2
*D5
 70
     1
 10
0.0
 20
0.0
 30
0.0
  3
*D5
  1

  0
LINE
  5
A5A
330
A59
100
AcDbEntity
  8
BEM
 62
     0
370
    -2
100
AcDbLine
 10
69.62711618680955
 20
130.7683575679984
 30
0.0
 11
56.58984144596623
 21
130.7683575679984
 31
0.0
  0
LINE
  5
A5B
330
A59
100
AcDbEntity
  8
BEM
 62
     0
370
    -2
100
AcDbLine
 10
69.62711618680957
 20
154.7683575679984
 30
0.0
 11
56.58984144596624
 21
154.7683575679984
 31
0.0
  0
LINE
  5
A5C
330
A59
100
AcDbEntity
  8
BEM
 62
     0
370
    -2
100
AcDbLine
 10
57.58984144596624
 20
134.2683575679984
 30
0.0
 11
57.58984144596624
 21
151.2683575679984
 31
0.0
  0
SOLID
  5
A5D
330
A59
100
AcDbEntity
  8
BEM
 62
     0
100
AcDbTrace
 10
57.0065081126329
 20
134.2683575679984
 30
0.0
 11
58.17317477929957
 21
134.2683575679984
 31
0.0
 12
57.58984144596624
 22
130.7683575679984
 32
0.0
 13
57.58984144596624
 23
130.7683575679984
 33
0.0
  0
SOLID
  5
A5E
330
A59
100
AcDbEntity
  8
BEM
 62
     0
100
AcDbTrace
 10
57.0065081126329
 20
151.2683575679984
 30
0.0
 11
58.17317477929957
 21
151.2683575679984
 31
0.0
 12
57.58984144596624
 22
154.7683575679984
 32
0.0
 13
57.58984144596624
 23
154.7683575679984
 33
0.0
  0
MTEXT
  5
A5F
330
A59
100
AcDbEntity
  8
BEM
 62
     1
100
AcDbMText
 10
54.33984144596621
 20
142.7683575679984
 30
0.0
 40
3.5
 41
0.0
 71
     5
 72
     1
  1
\A1;24
 11
0.0000000000000001
 21
1.0
 31
0.0
 73
     1
 44
1.0
  0
POINT
  5
A60
330
A59
100
AcDbEntity
  8
DEFPOINTS
 62
     0
100
AcDbPoint
 10
70.62711618680956
 20
130.7683575679984
 30
0.0
  0
POINT
  5
A61
330
A59
100
AcDbEntity
  8
DEFPOINTS
 62
     0
100
AcDbPoint
 10
70.62711618680957
 20
154.7683575679984
 30
0.0
  0
POINT
  5
A62
330
A59
100
AcDbEntity
  8
DEFPOINTS
 62
     0
100
AcDbPoint
 10
57.58984144596624
 20
154.7683575679984
 30
0.0
  0
ENDBLK
  5
A64
330
A59
100
AcDbEntity
  8
0
100
AcDbBlockEnd
  0
ENDSEC
  0
SECTION
  2
ENTITIES
  0
LINE
  5
56D
330
20
100
AcDbEntity
  8
STEMPEL
100
AcDbLine
 10
205.0
 20
55.00000000000003
 30
0.0
 11
19.99999999999998
 21
55.0
 31
0.0
  0
LINE
  5
56E
330
20
100
AcDbEntity
  8
STEMPEL
100
AcDbLine
 10
68.00000000000006
 20
54.99999999999997
 30
0.0
 11
68.0
 21
4.999999999999985
 31
0.0
  0
LINE
  5
56F
330
20
100
AcDbEntity
  8
STEMPEL
100
AcDbLine
 10
110.0
 20
55.00000000000003
 30
0.0
 11
110.0
 21
4.999999999999985
 31
0.0
  0
LINE
  5
570
330
20
100
AcDbEntity
  8
STEMPEL
100
AcDbLine
 10
166.0
 20
54.99999999999989
 30
0.0
 11
166.0
 21
20.0
 31
0.0
  0
LINE
  5
571
330
20
100
AcDbEntity
  8
STEMPEL
100
AcDbLine
 10
67.99999999999994
 20
14.99999999999998
 30
0.0
 11
19.99999999999998
 21
14.99999999999998
 31
0.0
  0
LINE
  5
572
330
20
100
AcDbEntity
  8
STEMPEL
100
AcDbLine
 10
205.0
 20
20.0
 30
0.0
 11
68.00000000000006
 21
19.99999999999998
 31
0.0
  0
LINE
  5
573
330
20
100
AcDbEntity
  8
STEMPEL
100
AcDbLine
 10
205.0
 20
40.0
 30
0.0
 11
68.00000000000006
 21
39.99999999999997
 31
0.0
  0
LINE
  5
574
330
20
100
AcDbEntity
  8
VOLL
100
AcDbLine
 10
27.00000000000005
 20
55.00000000000003
 30
0.0
 11
26.99999999999999
 21
4.999999999999985
 31
0.0
  0
LINE
  5
575
330
20
100
AcDbEntity
  8
VOLL
100
AcDbLine
 10
47.00000000000005
 20
54.99999999999997
 30
0.0
 11
47.0
 21
4.999999999999985
 31
0.0
  0
LINE
  5
576
330
20
100
AcDbEntity
  8
VOLL
100
AcDbLine
 10
57.00000000000006
 20
54.99999999999997
 30
0.0
 11
57.0
 21
4.999999999999985
 31
0.0
  0
LINE
  5
577
330
20
100
AcDbEntity
  8
VOLL
100
AcDbLine
 10
77.00000000000006
 20
39.99999999999997
 30
0.0
 11
77.00000000000006
 21
19.99999999999998
 31
0.0
  0
LINE
  5
578
330
20
100
AcDbEntity
  8
VOLL
100
AcDbLine
 10
90.00000000000005
 20
54.99999999999992
 30
0.0
 11
90.0
 21
19.99999999999998
 31
0.0
  0
LINE
  5
579
330
20
100
AcDbEntity
  8
HILF
100
AcDbLine
 10
20.00000000000004
 20
50.00000000000003
 30
0.0
 11
68.00000000000006
 21
50.00000000000003
 31
0.0
  0
LINE
  5
57A
330
20
100
AcDbEntity
  8
HILF
100
AcDbLine
 10
20.00000000000004
 20
45.00000000000002
 30
0.0
 11
68.00000000000006
 21
45.00000000000002
 31
0.0
  0
LINE
  5
57B
330
20
100
AcDbEntity
  8
HILF
100
AcDbLine
 10
20.00000000000004
 20
39.99999999999997
 30
0.0
 11
68.00000000000006
 21
39.99999999999997
 31
0.0
  0
LINE
  5
57C
330
20
100
AcDbEntity
  8
HILF
100
AcDbLine
 10
20.00000000000004
 20
34.99999999999997
 30
0.0
 11
68.00000000000006
 21
34.99999999999997
 31
0.0
  0
LINE
  5
57D
330
20
100
AcDbEntity
  8
HILF
100
AcDbLine
 10
20.00000000000004
 20
29.99999999999999
 30
0.0
 11
68.00000000000006
 21
29.99999999999999
 31
0.0
  0
LINE
  5
57E
330
20
100
AcDbEntity
  8
HILF
100
AcDbLine
 10
20.00000000000004
 20
24.99999999999999
 30
0.0
 11
68.00000000000006
 21
24.99999999999999
 31
0.0
  0
LINE
  5
57F
330
20
100
AcDbEntity
  8
HILF
100
AcDbLine
 10
20.00000000000004
 20
19.99999999999998
 30
0.0
 11
68.00000000000006
 21
19.99999999999998
 31
0.0
  0
LINE
  5
580
330
20
100
AcDbEntity
  8
HILF
100
AcDbLine
 10
68.00000000000006
 20
34.99999999999997
 30
0.0
 11
110.0
 21
34.99999999999997
 31
0.0
  0
LINE
  5
581
330
20
100
AcDbEntity
  8
HILF
100
AcDbLine
 10
68.00000000000006
 20
29.99999999999999
 30
0.0
 11
110.0
 21
29.99999999999999
 31
0.0
  0
LINE
  5
582
330
20
100
AcDbEntity
  8
HILF
100
AcDbLine
 10
68.00000000000006
 20
24.99999999999999
 30
0.0
 11
110.0
 21
24.99999999999999
 31
0.0
  0
LINE
  5
583
330
20
100
AcDbEntity
  8
HILF
100
AcDbLine
 10
112.3868400548474
 20
42.01879123782069
 30
0.0
 11
162.4176958278155
 21
42.01879123782069
 31
0.0
  0
LINE
  5
584
330
20
100
AcDbEntity
  8
HILF
100
AcDbLine
 10
112.3868400548474
 20
34.99999999999997
 30
0.0
 11
162.4176958278155
 21
34.99999999999997
 31
0.0
  0
LINE
  5
585
330
20
100
AcDbEntity
  8
HILF
100
AcDbLine
 10
112.3868400548474
 20
29.99999999999999
 30
0.0
 11
162.4176958278155
 21
29.99999999999999
 31
0.0
  0
LINE
  5
586
330
20
100
AcDbEntity
  8
HILF
100
AcDbLine
 10
112.3868400548474
 20
24.99999999999999
 30
0.0
 11
162.4176958278155
 21
24.99999999999999
 31
0.0
  0
LINE
  5
587
330
20
100
AcDbEntity
  8
VOLL
100
AcDbLine
 10
166.0
 20
30.0
 30
0.0
 11
205.0
 21
30.0
 31
0.0
  0
LINE
  5
588
330
20
100
AcDbEntity
  8
HILF
100
AcDbLine
 10
168.3619308148496
 20
41.88991818477913
 30
0.0
 11
202.4294419663364
 21
41.88991818477913
 31
0.0
  0
LINE
  5
589
330
20
100
AcDbEntity
  8
HILF
100
AcDbLine
 10
111.7454849644942
 20
7.446991290141568
 30
0.0
 11
202.4294419663364
 21
7.446991290141568
 31
0.0
  0
TEXT
  5
58A
330
20
100
AcDbEntity
  8
TEXT
100
AcDbText
 10
31.36336737959207
 20
9.336909474920659
 30
0.0
 40
2.0
  1
Änderung
 41
0.8
 72
     1
 11
36.73479595102064
 21
9.336909474920659
 31
0.0
100
AcDbText
  0
TEXT
  5
58B
330
20
100
AcDbEntity
  8
TEXT
100
AcDbText
 10
71.75817860751886
 20
51.23104475435443
 30
0.0
 40
2.5
  1
Maßstab
 41
0.8
  7
GREEKS
100
AcDbText
  0
TEXT
  5
58C
330
20
100
AcDbEntity
  8
TEXT
100
AcDbText
 10
92.14294773670257
 20
51.20920842174095
 30
0.0
 40
2.5
  1
Zul. Abw.
 41
0.8
  7
GREEKS
100
AcDbText
  0
TEXT
  5
58D
330
20
100
AcDbEntity
  8
TEXT
100
AcDbText
 10
112.4389701904505
 20
51.27446640058898
 30
0.0
 40
2.5
  1
Benennung
 41
0.8
  7
GREEKS
100
AcDbText
  0
TEXT
  5
58E
330
20
100
AcDbEntity
  8
TEXT
100
AcDbText
 10
168.089377478817
 20
51.15660172685682
 30
0.0
 40
2.5
  1
Zeichnungs Nr.
 41
0.8
  7
GREEKS
100
AcDbText
  0
TEXT
  5
58F
330
20
100
AcDbEntity
  8
TEXT
100
AcDbText
 10
112.371119195568
 20
15.42280285096528
 30
0.0
 40
2.5
  1
Bauvorhaben
 41
0.8
  7
GREEKS
100
AcDbText
  0
TEXT
  5
590
330
20
100
AcDbEntity
  8
TEXT
100
AcDbText
 10
168.3619308148496
 20
36.59059118549985
 30
0.0
 40
2.5
  1
Ersatz für:
 41
0.8
  7
GREEKS
100
AcDbText
  0
TEXT
  5
591
330
20
100
AcDbEntity
  8
TEXT
100
AcDbText
 10
24.13320553522878
 20
6.827329230135958
 30
0.0
 40
1.8
  1
Index
 50
90.0
 41
0.8
  7
GREEKS
100
AcDbText
  0
TEXT
  5
592
330
20
100
AcDbEntity
  8
TEXT
100
AcDbText
 10
50.18504907414718
 20
9.33578134669905
 30
0.0
 40
2.0
  1
Tag
 41
0.8
 72
     1
 11
52.05171574081385
 21
9.33578134669905
 31
0.0
100
AcDbText
  0
TEXT
  5
593
330
20
100
AcDbEntity
  8
TEXT
100
AcDbText
 10
59.33242073364678
 20
9.29662108483204
 30
0.0
 40
2.0
  1
Name
 41
0.8
 72
     1
 11
62.49432549555155
 21
9.29662108483204
 31
0.0
100
AcDbText
  0
TEXT
  5
594
330
20
100
AcDbEntity
  8
TEXT
100
AcDbText
 10
81.16558365768254
 20
36.65940250614963
 30
0.0
 40
1.8
  1
Tag
 41
0.8
  7
GREEKS
100
AcDbText
  0
TEXT
  5
595
330
20
100
AcDbEntity
  8
TEXT
100
AcDbText
 10
96.23132921131475
 20
36.65480545957612
 30
0.0
 40
1.8
  1
Name
 41
0.8
  7
GREEKS
100
AcDbText
  0
TEXT
  5
596
330
20
100
AcDbEntity
  8
TEXT
100
AcDbText
 10
68.79180635838077
 20
31.81495184808982
 30
0.0
 40
1.8
  1
Gez.
 41
0.8
  7
GREEKS
100
AcDbText
  0
TEXT
  5
597
330
20
100
AcDbEntity
  8
TEXT
100
AcDbText
 10
68.77575432858361
 20
26.84463145714189
 30
0.0
 40
1.8
  1
Gepr.
 41
0.8
  7
GREEKS
100
AcDbText
  0
TEXT
  5
598
330
20
100
AcDbEntity
  8
TEXT
100
AcDbText
 10
68.80033886936519
 20
21.76473194824904
 30
0.0
 40
1.8
  1
Norm.
 41
0.8
  7
GREEKS
100
AcDbText
  0
LINE
  5
599
330
20
100
AcDbEntity
  8
STEMPEL
100
AcDbLine
 10
24.99999999999995
 20
5.0
 30
0.0
 11
205.0
 21
5.0
 31
0.0
  0
LINE
  5
59A
330
20
100
AcDbEntity
  8
STEMPEL
100
AcDbLine
 10
205.0
 20
55.00000000000003
 30
0.0
 11
205.0
 21
5.0
 31
0.0
  0
TEXT
  5
59B
330
20
100
AcDbEntity
  8
TEXT
100
AcDbText
 10
168.6200430748503
 20
26.03708088939301
 30
0.0
 40
2.5
  1
ersetzt durch:
 41
0.8
  7
GREEKS
100
AcDbText
  0
LINE
  5
59C
330
20
100
AcDbEntity
  8
STEMPEL
100
AcDbLine
 10
205.0
 20
5.0
 30
0.0
 11
19.99999999999994
 21
5.0
 31
0.0
  0
LINE
  5
59D
330
20
100
AcDbEntity
  8
STEMPEL
100
AcDbLine
 10
205.0
 20
55.00000000000003
 30
0.0
 11
205.0
 21
292.0
 31
0.0
  0
LINE
  5
59E
330
20
100
AcDbEntity
  8
STEMPEL
100
AcDbLine
 10
20.0
 20
5.0
 30
0.0
 11
19.99999999999994
 21
292.0
 31
0.0
  0
LINE
  5
59F
330
20
100
AcDbEntity
  8
STEMPEL
100
AcDbLine
 10
205.0
 20
292.0
 30
0.0
 11
19.99999999999994
 21
292.0
 31
0.0
  0
LINE
  5
5A0
330
20
100
AcDbEntity
  8
HILF
100
AcDbLine
 10
0.0
 20
0.0
 30
0.0
 11
-0.0000000000000568
 21
297.0
 31
0.0
  0
LINE
  5
5A1
330
20
100
AcDbEntity
  8
HILF
100
AcDbLine
 10
210.0
 20
297.0000000000001
 30
0.0
 11
0.0
 21
297.0
 31
0.0
  0
LINE
  5
5A2
330
20
100
AcDbEntity
  8
HILF
100
AcDbLine
 10
210.0
 20
0.0
 30
0.0
 11
0.0
 21
0.0
 31
0.0
  0
LINE
  5
5A3
330
20
100
AcDbEntity
  8
HILF
100
AcDbLine
 10
15.54383567856928
 20
148.5
 30
0.0
 11
0.0000000000000568
 21
148.5
 31
0.0
  0
TEXT
  5
5A4
330
20
100
AcDbEntity
  8
TEXT
100
AcDbText
 10
69.31105491105199
 20
36.57012735575833
 30
0.0
 40
1.8
  1
2010
 41
0.8
  7
GREEKS
100
AcDbText
  0
LINE
  5
5A5
330
20
100
AcDbEntity
  8
HILF
100
AcDbLine
 10
210.0
 20
-0.0000000000000568
 30
0.0
 11
210.0
 21
297.0
 31
0.0
  0
TEXT
  5
5A6
330
20
100
AcDbEntity
  8
VOLL
100
AcDbText
 10
78.07675471698113
 20
31.02594776470585
 30
0.0
 40
1.8
  1

  7
GREEKS
100
AcDbText
  0
TEXT
  5
5A7
330
20
100
AcDbEntity
  8
TEXT
100
AcDbText
 10
21.04731372410087
 20
55.83599999999997
 30
0.0
 40
2.5
  1
Erstellt mit AUTOCAD 2004
 41
0.8
  7
GREEKS
100
AcDbText
  0
TEXT
  5
5A8
330
20
100
AcDbEntity
  8
TEXT
100
AcDbText
 10
97.21080242906285
 20
31.54481959861755
 30
0.0
 40
2.0
  1
Koeh
 41
0.8
  7
GREEKS
 72
     1
 11
99.83937385763429
 21
31.54481959861755
 31
0.0
100
AcDbText
  0
TEXT
  5
5A9
330
20
100
AcDbEntity
  8
TEXT
 62
     1
100
AcDbText
 10
173.2238587271335
 20
44.07450714456979
 30
0.0
 40
3.5
  1
5701050W
 41
0.8
  7
GREEKS
 72
     1
 11
183.6238587271335
 21
44.07450714456979
 31
0.0
100
AcDbText
  0
TEXT
  5
5AA
330
20
100
AcDbEntity
  8
TEXT
 62
     1
100
AcDbText
 10
75.25031532409435
 20
44.07450714456979
 30
0.0
 40
3.5
  1
1:1
 41
0.8
  7
GREEKS
100
AcDbText
  0
TEXT
  5
5AB
330
20
100
AcDbEntity
  8
TEXT
100
AcDbText
 10
80.50426045887993
 20
31.55382520412866
 30
0.0
 40
2.0
  1
13.12.
 41
0.8
  7
GREEKS
 72
     1
 11
83.70426045887993
 21
31.55382520412866
 31
0.0
100
AcDbText
  0
TEXT
  5
5AC
330
20
100
AcDbEntity
  8
TEXT
 62
     1
100
AcDbText
 10
112.5648195562657
 20
43.70874394626889
 30
0.0
 40
3.5
  1
Anschlußstück DN50
 41
0.8
  7
GREEKS
100
AcDbText
  0
TEXT
  5
5AD
330
20
100
AcDbEntity
  8
TEXT
100
AcDbText
 10
112.5648195562657
 20
35.75167208792644
 30
0.0
 40
2.5
  1
mit Gewinde R2 und Muffe DN50
 41
0.75
  7
GREEKS
100
AcDbText
  0
TEXT
  5
5AF
330
20
100
AcDbEntity
  8
TEXT
100
AcDbText
 10
112.5648195562657
 20
25.82005971521079
 30
0.0
 40
2.5
  1
EDV-Art.Nr. 5.701.050C
 41
0.8
  7
GREEKS
100
AcDbText
  0
TEXT
  5
5B0
330
20
100
AcDbEntity
  8
TEXT
100
AcDbText
 10
112.4918750788913
 20
21.31487076511316
 30
0.0
 40
1.8
  1
5701050W.DWG
 41
0.8
  7
GREEKS
100
AcDbText
  0
INSERT
  5
5B2
330
20
100
AcDbEntity
  8
STEMPEL
100
AcDbBlockReference
  2
LOGO
 10
70.4977742728897
 20
22.51052638224161
 30
0.0
  0
TEXT
  5
5B3
330
20
100
AcDbEntity
  8
VOLL
100
AcDbText
 10
228.2942085714423
 20
36.31806448042517
 30
0.0
 40
1.8
  1

  7
GREEKS
100
AcDbText
  0
TEXT
  5
5B4
330
20
100
AcDbEntity
  8
TEXT
100
AcDbText
 10
560.1264767750352
 20
41.87630001365072
 30
0.0
 40
2.5
  1
  
  7
GREEKS
 72
     1
 11
562.38838153694
 21
41.87630001365072
 31
0.0
100
AcDbText
  0
TEXT
  5
5B5
330
20
100
AcDbEntity
  8
BEM
100
AcDbText
 10
804.2461940875172
 20
177.4351820440529
 30
0.0
 40
2.5
  1
 
 72
     4
 11
805.3771464684697
 21
177.4351820440529
 31
0.0
100
AcDbText
  0
TEXT
  5
5B6
330
20
100
AcDbEntity
  8
BEM
100
AcDbText
 10
383.4338107282382
 20
56.65147537010173
 30
0.0
 40
2.5
  1

  7
GREEKS
100
AcDbText
  0
TEXT
  5
5B7
330
20
100
AcDbEntity
  8
VOLL
100
AcDbText
 10
369.3676177085168
 20
36.46821471306662
 30
0.0
 40
1.8
  1

  7
GREEKS
100
AcDbText
  0
TEXT
  5
5B8
330
20
100
AcDbEntity
  8
BEM
100
AcDbText
 10
403.8556825478013
 20
41.19393903628721
 30
0.0
 40
2.5
  1

 41
0.8
  7
GREEKS
100
AcDbText
  0
TEXT
  5
5B9
330
20
100
AcDbEntity
  8
BEM
100
AcDbText
 10
403.8556825478013
 20
36.50017048223506
 30
0.0
 40
2.5
  1

 41
0.8
  7
GREEKS
100
AcDbText
  0
TEXT
  5
5BA
330
20
100
AcDbEntity
  8
BEM
100
AcDbText
 10
403.8556825478013
 20
31.26232666357156
 30
0.0
 40
2.5
  1

 41
0.8
  7
GREEKS
100
AcDbText
  0
TEXT
  5
5BB
330
20
100
AcDbEntity
  8
BEM
100
AcDbText
 10
403.7827380704269
 20
26.75713771347393
 30
0.0
 40
1.8
  1

 41
0.8
  7
GREEKS
100
AcDbText
  0
TEXT
  5
5BC
330
20
100
AcDbEntity
  8
BEM
100
AcDbText
 10
391.0991671908158
 20
52.34872680969922
 30
0.0
 40
2.0
  1

 41
0.8
  7
GREEKS
 72
     1
 11
391.0991671908158
 21
52.34872680969922
 31
0.0
100
AcDbText
  0
TEXT
  5
5BD
330
20
100
AcDbEntity
  8
TEXT
100
AcDbText
 10
701.1998859121097
 20
42.02645024629216
 30
0.0
 40
2.5
  1
  
  7
GREEKS
 72
     1
 11
703.4617906740145
 21
42.02645024629216
 31
0.0
100
AcDbText
  0
TEXT
  5
5BE
330
20
100
AcDbEntity
  8
BEM
100
AcDbText
 10
945.3196032245916
 20
177.5853322766943
 30
0.0
 40
2.5
  1
 
 72
     4
 11
946.450555605544
 21
177.5853322766943
 31
0.0
100
AcDbText
  0
TEXT
  5
5C0
330
20
100
AcDbEntity
  8
TEXT
 62
     1
100
AcDbText
 10
144.6439138702817
 20
66.80161650274865
 30
0.0
 40
3.5
  1
Werkstoff: Rohr 1.4404
 41
0.8
  7
GREEKS
100
AcDbText
  0
TEXT
  5
5C2
330
20
100
AcDbEntity
  8
TEXT
100
AcDbText
 10
91.31306610404202
 20
43.86569843273582
 30
0.0
 40
2.0
  1
DIN EN1124-3
 41
0.8
  7
GREEKS
 72
     1
 11
99.80830419928011
 21
43.86569843273582
 31
0.0
100
AcDbText
  0
TEXT
  5
5C4
330
20
100
AcDbEntity
  8
VOLL
100
AcDbText
 10
316.3942501808743
 20
53.31698455672277
 30
0.0
 40
1.8
  1

  7
GREEKS
100
AcDbText
  0
TEXT
  5
5C5
330
20
100
AcDbEntity
  8
TEXT
100
AcDbText
 10
648.2265183844672
 20
58.87522008994832
 30
0.0
 40
2.5
  1
  
  7
GREEKS
 72
     1
 11
650.488423146372
 21
58.87522008994832
 31
0.0
100
AcDbText
  0
TEXT
  5
5C6
330
20
100
AcDbEntity
  8
BEM
100
AcDbText
 10
892.3462356969492
 20
194.4341021203505
 30
0.0
 40
2.5
  1
 
 72
     4
 11
893.4771880779017
 21
194.4341021203505
 31
0.0
100
AcDbText
  0
TEXT
  5
5C7
330
20
100
AcDbEntity
  8
BEM
100
AcDbText
 10
481.7398632605243
 20
93.47021525530843
 30
0.0
 40
2.5
  1

  7
GREEKS
100
AcDbText
  0
TEXT
  5
5C8
330
20
100
AcDbEntity
  8
VOLL
100
AcDbText
 10
467.6736702408028
 20
73.28695459827333
 30
0.0
 40
1.8
  1

  7
GREEKS
100
AcDbText
  0
TEXT
  5
5C9
330
20
100
AcDbEntity
  8
BEM
100
AcDbText
 10
502.1617350800875
 20
78.01267892149393
 30
0.0
 40
2.5
  1

 41
0.8
  7
GREEKS
100
AcDbText
  0
TEXT
  5
5CA
330
20
100
AcDbEntity
  8
BEM
100
AcDbText
 10
502.1617350800875
 20
73.31891036744176
 30
0.0
 40
2.5
  1

 41
0.8
  7
GREEKS
100
AcDbText
  0
TEXT
  5
5CB
330
20
100
AcDbEntity
  8
BEM
100
AcDbText
 10
502.1617350800875
 20
68.08106654877827
 30
0.0
 40
2.5
  1

 41
0.8
  7
GREEKS
100
AcDbText
  0
TEXT
  5
5CC
330
20
100
AcDbEntity
  8
BEM
100
AcDbText
 10
502.088790602713
 20
63.57587759868065
 30
0.0
 40
1.8
  1

 41
0.8
  7
GREEKS
100
AcDbText
  0
TEXT
  5
5CD
330
20
100
AcDbEntity
  8
BEM
100
AcDbText
 10
489.4052197231018
 20
89.16746669490592
 30
0.0
 40
2.0
  1

 41
0.8
  7
GREEKS
 72
     1
 11
489.4052197231018
 21
89.16746669490592
 31
0.0
100
AcDbText
  0
TEXT
  5
5CE
330
20
100
AcDbEntity
  8
TEXT
100
AcDbText
 10
799.5059384443957
 20
78.84519013149887
 30
0.0
 40
2.5
  1
  
  7
GREEKS
 72
     1
 11
801.7678432063005
 21
78.84519013149887
 31
0.0
100
AcDbText
  0
TEXT
  5
5CF
330
20
100
AcDbEntity
  8
BEM
100
AcDbText
 10
1043.625655756878
 20
214.4040721619011
 30
0.0
 40
2.5
  1
 
 72
     4
 11
1044.75660813783
 21
214.4040721619011
 31
0.0
100
AcDbText
  0
DIMENSION
  5
5EC
330
20
100
AcDbEntity
  8
BEM
100
AcDbDimension
  2
*D2
 10
43.58984144596624
 20
130.7683575679984
 30
0.0
 11
40.33984144596622
 21
180.7683575679984
 31
0.0
 70
    32
 71
     5
 42
100.0
  3
Standard
100
AcDbAlignedDimension
 13
70.52076303687288
 23
230.7683575679984
 33
0.0
 14
70.62711618680956
 24
130.7683575679984
 34
0.0
 50
90.0
100
AcDbRotatedDimension
1001
ACAD
1000
DSTYLE
1002
{
1070
    41
1040
3.5
1070
    42
1040
1.0
1070
    43
1040
8.0
1070
    44
1040
1.0
1070
    47
1040
4.0
1070
    48
1040
2.0
1070
    73
1070
     0
1070
    74
1070
     0
1070
    77
1070
     1
1070
    78
1070
     8
1070
    79
1070
     2
1070
   140
1040
3.5
1070
   141
1040
1.5
1070
   146
1040
0.5
1070
   147
1040
1.5
1070
   172
1070
     1
1070
   178
1070
     1
1070
   179
1070
     2
1070
   271
1070
     2
1070
   272
1070
     2
1070
   284
1070
     8
1070
   285
1070
     8
1070
   286
1070
     8
1002
}
  0
DIMENSION
  5
5F1
330
20
100
AcDbEntity
  8
BEM
100
AcDbDimension
  2
*D5
 10
57.58984144596624
 20
154.7683575679984
 30
0.0
 11
54.33984144596621
 21
142.7683575679984
 31
0.0
 70
    32
 71
     5
 42
24.0
  3
Standard
100
AcDbAlignedDimension
 13
70.62711618680956
 23
130.7683575679984
 33
0.0
 14
70.62711618680957
 24
154.7683575679984
 34
0.0
 50
90.0
100
AcDbRotatedDimension
1001
ACAD
1000
DSTYLE
1002
{
1070
    41
1040
3.5
1070
    42
1040
1.0
1070
    43
1040
8.0
1070
    44
1040
1.0
1070
    47
1040
4.0
1070
    48
1040
2.0
1070
    73
1070
     0
1070
    74
1070
     0
1070
    77
1070
     1
1070
    78
1070
     8
1070
    79
1070
     2
1070
   140
1040
3.5
1070
   141
1040
1.5
1070
   146
1040
0.5
1070
   147
1040
1.5
1070
   172
1070
     1
1070
   178
1070
     1
1070
   179
1070
     2
1070
   271
1070
     2
1070
   272
1070
     2
1070
   284
1070
     8
1070
   285
1070
     8
1070
   286
1070
     8
1002
}
  0
TEXT
  5
5FE
330
20
100
AcDbEntity
  8
TEXT
100
AcDbText
 10
208.6511461928583
 20
5.083950539994247
 30
0.0
 40
2.0
  1
Diese Zeichnung ist urheberrechtlich geschützt und bleibt unser Eigentum. Sie darf weder ganz noch teilweise verfielfältigt und nicht an Dritte weitergegeben werden.
 50
90.0
 41
0.8
  7
GREEKS
100
AcDbText
  0
DIMENSION
  5
60B
330
20
100
AcDbEntity
  8
BEM
100
AcDbDimension
  2
*D1
 10
129.6271161868096
 20
117.0617356023859
 30
0.0
 11
100.1271161868096
 21
120.3117356023859
 31
0.0
 70
    32
  1
R2
 71
     5
 42
59.00000000000003
  3
Standard
100
AcDbAlignedDimension
 13
70.62711618680956
 23
130.7683575679984
 33
0.0
 14
129.6271161868096
 24
130.7683575679984
 34
0.0
100
AcDbRotatedDimension
1001
ACAD
1000
DSTYLE
1002
{
1070
    41
1040
3.5
1070
    42
1040
1.0
1070
    43
1040
8.0
1070
    44
1040
1.0
1070
    47
1040
4.0
1070
    48
1040
2.0
1070
    73
1070
     0
1070
    74
1070
     0
1070
    77
1070
     1
1070
    78
1070
     8
1070
    79
1070
     2
1070
   140
1040
3.5
1070
   141
1040
1.5
1070
   146
1040
0.5
1070
   147
1040
1.5
1070
   172
1070
     1
1070
   178
1070
     1
1070
   179
1070
     2
1070
   271
1070
     2
1070
   272
1070
     2
1070
   284
1070
     8
1070
   285
1070
     8
1070
   286
1070
     8
1002
}
  0
LINE
  5
638
102
{ACAD_REACTORS
330
6A6
102
}
330
20
100
AcDbEntity
  8
STEMPEL
100
AcDbLine
 10
70.62711618680956
 20
180.7683575679984
 30
0.0
 11
129.6271161868096
 21
180.7683575679984
 31
0.0
  0
DIMENSION
  5
68F
102
{ACAD_XDICTIONARY
360
69C
102
}
102
{ACAD_REACTORS
330
6A6
102
}
330
20
100
AcDbEntity
  8
BEM
100
AcDbDimension
  2
*D3
 10
50.58984144596624
 20
180.7683575679984
 30
0.0
 11
47.3398414459662
 21
155.7683575679984
 31
0.0
 70
    32
 71
     5
 42
50.0
  3
Standard
100
AcDbAlignedDimension
 13
70.62711618680956
 23
130.7683575679984
 33
0.0
 14
70.62711618680956
 24
180.7683575679984
 34
0.0
 50
90.0
100
AcDbRotatedDimension
1001
ACAD
1000
DSTYLE
1002
{
1070
    41
1040
3.5
1070
    42
1040
1.0
1070
    43
1040
8.0
1070
    44
1040
1.0
1070
    47
1040
4.0
1070
    48
1040
2.0
1070
    73
1070
     0
1070
    74
1070
     0
1070
    77
1070
     1
1070
    78
1070
     8
1070
    79
1070
     2
1070
   140
1040
3.5
1070
   141
1040
1.5
1070
   146
1040
0.5
1070
   147
1040
1.5
1070
   172
1070
     1
1070
   178
1070
     1
1070
   179
1070
     2
1070
   271
1070
     2
1070
   272
1070
     2
1070
   284
1070
     8
1070
   285
1070
     8
1070
   286
1070
     8
1002
}
  0
ARC
  5
6BA
330
20
100
AcDbEntity
  8
SCHRAFF
100
AcDbCircle
 10
103.9247982988483
 20
180.7683575679984
 30
0.0
 40
5.0
100
AcDbArc
 50
156.4218215217981
 51
203.5781784782019
  0
ARC
  5
6BB
330
20
100
AcDbEntity
  8
SCHRAFF
100
AcDbCircle
 10
98.92479829884832
 20
180.7683575679984
 30
0.0
 40
5.0
100
AcDbArc
 50
156.4218215217981
 51
203.5781784782019
  0
ARC
  5
6BC
330
20
100
AcDbEntity
  8
SCHRAFF
100
AcDbCircle
 10
93.92479829884832
 20
180.7683575679984
 30
0.0
 40
5.0
100
AcDbArc
 50
156.4218215217981
 51
203.5781784782019
  0
ARC
  5
6BD
330
20
100
AcDbEntity
  8
SCHRAFF
100
AcDbCircle
 10
88.9247982988483
 20
180.7683575679984
 30
0.0
 40
5.0
100
AcDbArc
 50
156.4218215217981
 51
203.5781784782019
  0
ARC
  5
6BE
330
20
100
AcDbEntity
  8
SCHRAFF
100
AcDbCircle
 10
83.9247982988483
 20
180.7683575679984
 30
0.0
 40
5.0
100
AcDbArc
 50
156.4218215217981
 51
203.5781784782019
  0
ARC
  5
6BF
330
20
100
AcDbEntity
  8
SCHRAFF
100
AcDbCircle
 10
78.9247982988483
 20
180.7683575679984
 30
0.0
 40
5.0
100
AcDbArc
 50
156.4218215217981
 51
203.5781784782019
  0
LINE
  5
7B2
102
{ACAD_REACTORS
330
BDA
102
}
330
20
100
AcDbEntity
  8
STEMPEL
100
AcDbLine
 10
125.8069042564628
 20
182.8090221802152
 30
0.0
 11
126.6271161868096
 21
180.7683575679984
 31
0.0
  0
ARC
  5
7BE
102
{ACAD_REACTORS
330
BBD
102
}
330
20
100
AcDbEntity
  8
SCHRAFF
100
AcDbCircle
 10
72.79837219989596
 20
179.7588705707747
 30
0.0
 40
2.990083861707855
100
AcDbArc
 50
79.82600413441852
 51
160.654367836397
  0
ARC
  5
7C8
102
{ACAD_REACTORS
330
BBD
102
}
330
20
100
AcDbEntity
  8
SCHRAFF
100
AcDbCircle
 10
127.4383033596392
 20
179.7239290118207
 30
0.0
 40
3.024845331032079
100
AcDbArc
 50
20.19908996821948
 51
99.74306095141209
  0
LINE
  5
801
102
{ACAD_REACTORS
330
9F5
330
BDA
102
}
330
20
100
AcDbEntity
  8
STEMPEL
  6
Continuous
100
AcDbLine
 10
129.7334693367464
 20
230.7683575679984
 30
0.0
 11
70.52076303687288
 21
230.7683575679984
 31
0.0
  0
TEXT
  5
867
330
20
100
AcDbEntity
  8
TEXT
 62
     1
100
AcDbText
 10
85.71609804470359
 20
215.6205461528088
 30
0.0
 40
3.5
  1
DN50
 41
0.8
  7
GREEKS
100
AcDbText
  0
LINE
  5
8C7
330
20
100
AcDbEntity
  8
MITTEL
100
AcDbLine
 10
100.1271161868096
 20
235.7683575679984
 30
0.0
 11
100.1271161868096
 21
125.6366081110029
 31
0.0
  0
LINE
  5
908
330
20
100
AcDbEntity
  8
HILF
  6
Continuous
100
AcDbLine
 10
71.96163741477807
 20
208.2122270421999
 30
0.0
 11
127.7856056637696
 21
208.2122270421999
 31
0.0
  0
LINE
  5
909
330
20
100
AcDbEntity
  8
HILF
  6
Continuous
100
AcDbLine
 10
72.52853955443217
 20
195.3011410542923
 30
0.0
 11
127.2047594251015
 21
195.3011410542923
 31
0.0
  0
LINE
  5
90A
330
20
100
AcDbEntity
  8
HILF
  6
Continuous
100
AcDbLine
 10
74.76392361610345
 20
190.2427128764911
 30
0.0
 11
124.9714831159022
 21
190.2427128764911
 31
0.0
  0
ARC
  5
90E
330
20
100
AcDbEntity
  8
STEMPEL
  6
Continuous
100
AcDbCircle
 10
60.62711618680959
 20
206.2683575679985
 30
0.0
 40
10.0
100
AcDbArc
 50
0.0
 51
19.46309944468874
  0
ARC
  5
90F
330
20
100
AcDbEntity
  8
STEMPEL
  6
Continuous
100
AcDbCircle
 10
82.62711618680965
 20
198.1766844811944
 30
0.0
 40
12.0
100
AcDbArc
 50
180.0
 51
211.7883306170511
  0
ARC
  5
911
330
20
100
AcDbEntity
  8
STEMPEL
  6
Continuous
100
AcDbCircle
 10
65.62711618680959
 20
187.6410307283417
 30
0.0
 40
8.0
100
AcDbArc
 50
0.0
 51
31.7883306170511
  0
LINE
  5
916
330
20
100
AcDbEntity
  8
STEMPEL
  6
Continuous
100
AcDbLine
 10
70.62711618680964
 20
206.2683575679985
 30
0.0
 11
70.62711618680964
 21
198.1766844811944
 31
0.0
  0
ARC
  5
918
330
20
100
AcDbEntity
  8
STEMPEL
  6
Continuous
100
AcDbCircle
 10
88.12711618680964
 20
222.3858562253377
 30
0.0
 40
19.5
100
AcDbArc
 50
154.5405714311896
 51
180.0
  0
ARC
  5
91A
330
20
100
AcDbEntity
  8
STEMPEL
  6
Continuous
100
AcDbCircle
 10
93.62711618680965
 20
217.9303575679985
 30
0.0
 40
25.00003205712822
100
AcDbArc
 50
179.9082450082411
 51
199.4630994446887
  0
LINE
  5
91C
330
20
100
AcDbEntity
  8
STEMPEL
  6
Continuous
100
AcDbLine
 10
68.62711618680958
 20
222.3858562253377
 30
0.0
 11
68.62711618680958
 21
217.9703932700068
 31
0.0
  0
ARC
  5
921
102
{ACAD_REACTORS
330
BDA
102
}
330
20
100
AcDbEntity
  8
STEMPEL
  6
Continuous
100
AcDbCircle
 10
139.6271161868096
 20
206.2683575679986
 30
0.0
 40
10.0
100
AcDbArc
 50
160.5369005553112
 51
180.0
  0
ARC
  5
925
102
{ACAD_REACTORS
330
BDA
102
}
330
20
100
AcDbEntity
  8
STEMPEL
  6
Continuous
100
AcDbCircle
 10
117.6271161868096
 20
198.1766844811944
 30
0.0
 40
12.0
100
AcDbArc
 50
328.2116693829489
 51
0.0
  0
ARC
  5
927
102
{ACAD_REACTORS
330
BDA
102
}
330
20
100
AcDbEntity
  8
STEMPEL
  6
Continuous
100
AcDbCircle
 10
134.6271161868096
 20
187.6410307283417
 30
0.0
 40
8.0
100
AcDbArc
 50
148.2116693829489
 51
180.0
  0
LINE
  5
928
102
{ACAD_REACTORS
330
BDA
102
}
330
20
100
AcDbEntity
  8
STEMPEL
100
AcDbLine
 10
126.6271161868096
 20
187.6410307283417
 30
0.0
 11
126.6271161868096
 21
187.2795286608482
 31
0.0
  0
LINE
  5
92A
330
20
100
AcDbEntity
  8
STEMPEL
100
AcDbLine
 10
126.6271161868096
 20
192.7683575679985
 30
0.0
 11
126.6271161868096
 21
192.7645061113214
 31
0.0
  0
LINE
  5
92B
102
{ACAD_REACTORS
330
BDA
102
}
330
20
100
AcDbEntity
  8
STEMPEL
  6
Continuous
100
AcDbLine
 10
129.6271161868096
 20
206.2683575679985
 30
0.0
 11
129.6271161868096
 21
198.1766844811944
 31
0.0
  0
ARC
  5
92D
102
{ACAD_REACTORS
330
BDA
102
}
330
20
100
AcDbEntity
  8
STEMPEL
  6
Continuous
100
AcDbCircle
 10
112.1271161868095
 20
222.3858562253377
 30
0.0
 40
19.5
100
AcDbArc
 50
0.0
 51
25.45942856880455
  0
ARC
  5
92F
102
{ACAD_REACTORS
330
BDA
102
}
330
20
100
AcDbEntity
  8
STEMPEL
  6
Continuous
100
AcDbCircle
 10
106.6271161868095
 20
217.9303575679985
 30
0.0
 40
25.00003205712822
100
AcDbArc
 50
340.5369005553112
 51
0.0917549917588481
  0
LINE
  5
932
102
{ACAD_REACTORS
330
BDA
102
}
330
20
100
AcDbEntity
  8
STEMPEL
  6
Continuous
100
AcDbLine
 10
131.6271161868096
 20
222.3858562253377
 30
0.0
 11
131.6271161868096
 21
217.9703932700068
 31
0.0
  0
LINE
  5
937
102
{ACAD_REACTORS
330
6A6
102
}
330
20
100
AcDbEntity
  8
HILF
100
AcDbLine
 10
75.10331049616667
 20
184.7683575679984
 30
0.0
 11
124.6827265670742
 21
184.7683575679984
 31
0.0
  0
ARC
  5
93A
102
{ACAD_REACTORS
330
BDA
102
}
330
20
100
AcDbEntity
  8
STEMPEL
100
AcDbCircle
 10
181.2298092390556
 20
187.2768052440637
 30
0.0
 40
54.60269312016388
100
AcDbArc
 50
179.9971422602302
 51
184.4499813718279
  0
LINE
  5
941
330
20
100
AcDbEntity
  8
STEMPEL
100
AcDbLine
 10
73.62711618680953
 20
187.6410307283417
 30
0.0
 11
73.62711618680958
 21
187.2795286608482
 31
0.0
  0
DIMENSION
  5
9DE
102
{ACAD_XDICTIONARY
360
9EB
102
}
102
{ACAD_REACTORS
330
9F5
102
}
330
20
100
AcDbEntity
  8
BEM
100
AcDbDimension
  2
*D4
 10
50.58984144596624
 20
180.7683575679985
 30
0.0
 11
47.33984144596621
 21
205.7683575679985
 31
0.0
 70
    32
 71
     5
 42
50.0
  3
Standard
100
AcDbAlignedDimension
 13
70.52076303687288
 23
230.7683575679984
 33
0.0
 14
70.62711618680959
 24
180.7683575679984
 34
0.0
 50
90.0
100
AcDbRotatedDimension
1001
ACAD
1000
DSTYLE
1002
{
1070
    41
1040
3.5
1070
    42
1040
1.0
1070
    43
1040
8.0
1070
    44
1040
1.0
1070
    47
1040
4.0
1070
    48
1040
2.0
1070
    73
1070
     0
1070
    74
1070
     0
1070
    77
1070
     1
1070
    78
1070
     8
1070
    79
1070
     2
1070
   140
1040
3.5
1070
   141
1040
1.5
1070
   146
1040
0.5
1070
   147
1040
1.5
1070
   172
1070
     1
1070
   178
1070
     1
1070
   179
1070
     2
1070
   271
1070
     2
1070
   272
1070
     2
1070
   284
1070
     8
1070
   285
1070
     8
1070
   286
1070
     8
1002
}
  0
TEXT
  5
A90
330
20
100
AcDbEntity
  8
TEXT
 62
     1
100
AcDbText
 10
138.3715356426639
 20
174.9981297486342
 30
0.0
 40
3.5
  1
Anschweißnippel 1.4571
 41
0.8
  7
GREEKS
100
AcDbText
  0
TEXT
  5
A91
330
20
100
AcDbEntity
  8
TEXT
 62
     1
100
AcDbText
 10
138.3715356426639
 20
167.8898657279424
 30
0.0
 40
3.5
  1
mit Gewinde nach DIN 2999
 41
0.8
  7
GREEKS
100
AcDbText
  0
LINE
  5
A92
330
20
100
AcDbEntity
  8
TEXT
 62
     2
100
AcDbLine
 10
136.4783774326753
 20
172.927631534646
 30
0.0
 11
200.0329097082187
 21
172.927631534646
 31
0.0
  0
LINE
  5
A93
330
20
100
AcDbEntity
  8
TEXT
 62
     2
100
AcDbLine
 10
136.4783774326753
 20
172.927631534646
 30
0.0
 11
130.2771161868096
 21
163.9191062971456
 31
0.0
  0
LINE
  5
AB8
102
{ACAD_REACTORS
330
BBD
102
}
330
20
100
AcDbEntity
  8
STEMPEL
100
AcDbLine
 10
69.97711618680959
 20
180.7683575679985
 30
0.0
 11
130.2771161868096
 21
180.7683575679984
 31
0.0
  0
LINE
  5
AC1
330
20
100
AcDbEntity
  8
HILF
100
AcDbLine
 10
128.4571161868096
 20
154.7683575679986
 30
0.0
 11
130.2771161868096
 21
154.7683575679986
 31
0.0
  0
LINE
  5
AC2
330
20
100
AcDbEntity
  8
HILF
100
AcDbLine
 10
71.79711618680959
 20
130.7683575679986
 30
0.0
 11
71.79711618680959
 21
154.7683575679986
 31
0.0
  0
LINE
  5
AC3
330
20
100
AcDbEntity
  8
HILF
100
AcDbLine
 10
128.4571161868096
 20
130.7683575679986
 30
0.0
 11
128.4571161868096
 21
154.7683575679986
 31
0.0
  0
LINE
  5
AC4
330
20
100
AcDbEntity
  8
STEMPEL
100
AcDbLine
 10
69.97711618680959
 20
154.7683575679986
 30
0.0
 11
100.1271161868096
 21
154.7683575679986
 31
0.0
  0
LINE
  5
AC5
330
20
100
AcDbEntity
  8
STEMPEL
100
AcDbLine
 10
126.6271161868095
 20
130.7683575679986
 30
0.0
 11
126.6271161868095
 21
180.7683575679984
 31
0.0
  0
LINE
  5
AC6
330
20
100
AcDbEntity
  8
STEMPEL
100
AcDbLine
 10
70.78480849450191
 20
130.7683575679986
 30
0.0
 11
129.4694238791172
 21
130.7683575679986
 31
0.0
  0
LINE
  5
AC7
330
20
100
AcDbEntity
  8
STEMPEL
100
AcDbLine
 10
69.97711618680959
 20
154.7683575679985
 30
0.0
 11
69.97711618680959
 21
180.7683575679985
 31
0.0
  0
LINE
  5
AC8
330
20
100
AcDbEntity
  8
STEMPEL
100
AcDbLine
 10
130.2771161868096
 20
154.7683575679986
 30
0.0
 11
130.2771161868096
 21
180.7683575679984
 31
0.0
  0
LINE
  5
AC9
330
20
100
AcDbEntity
  8
STEMPEL
100
AcDbLine
 10
69.97711618680959
 20
154.7683575679986
 30
0.0
 11
70.78480849450191
 21
130.7683575679986
 31
0.0
  0
LINE
  5
ACA
330
20
100
AcDbEntity
  8
STEMPEL
100
AcDbLine
 10
130.2771161868096
 20
154.7683575679986
 30
0.0
 11
129.4694238791172
 21
130.7683575679986
 31
0.0
  0
HATCH
  5
ACE
330
20
100
AcDbEntity
  8
SCHRAFF
100
AcDbHatch
 10
0.0
 20
0.0
 30
0.0
210
0.0
220
0.0
230
1.0
  2
_USER
 70
     0
 71
     0
 91
        2
 92
       23
 72
     0
 73
     1
 93
        4
 10
128.4571161868096
 20
154.7683575679986
 10
130.2771161868096
 20
154.7683575679986
 10
129.4694238791173
 20
130.7683575679986
 10
128.4571161868096
 20
130.7683575679986
 97
        0
 92
        7
 72
     0
 73
     1
 93
        7
 10
126.6271161868096
 20
180.7683575679984
 10
128.1451445536031
 20
180.7683575679984
 10
130.2771161868096
 20
180.7683575679984
 10
130.2771161868096
 20
154.7683575679986
 10
128.4571161868096
 20
154.7683575679986
 10
128.4571161868096
 20
130.7683575679986
 10
126.6271161868095
 20
130.7683575679986
 97
        0
 75
     0
 76
     0
 52
135.0
 41
3.0
 77
     0
 78
     1
 53
135.0
 43
0.0
 44
0.0
 45
-2.121320343559642
 46
-2.121320343559642
 79
     0
 47
0.18921598717325
 98
        2
 10
128.9876696748111
 20
145.2894459268641
 10
128.2302317857211
 20
159.2914289619877
  0
LINE
  5
B75
102
{ACAD_REACTORS
330
BBD
330
BDA
102
}
330
20
100
AcDbEntity
  8
STEMPEL
100
AcDbLine
 10
126.7917187859332
 20
183.0402495920685
 30
0.0
 11
127.5549728926896
 21
181.1412944706423
 31
0.0
  0
LINE
  5
B78
102
{ACAD_REACTORS
330
BBD
330
BDA
102
}
330
20
100
AcDbEntity
  8
STEMPEL
100
AcDbLine
 10
126.6271161868096
 20
180.7683575679984
 30
0.0
 11
127.5549728926896
 21
181.1412944706423
 31
0.0
  0
ARC
  5
B95
102
{ACAD_REACTORS
330
BDA
102
}
330
20
100
AcDbEntity
  8
STEMPEL
100
AcDbCircle
 10
181.2298092390556
 20
187.2768052440637
 30
0.0
 40
55.60269312016387
100
AcDbArc
 50
179.9971422602302
 51
184.6087942997789
  0
ARC
  5
B96
102
{ACAD_REACTORS
330
BDA
102
}
330
20
100
AcDbEntity
  8
STEMPEL
  6
Continuous
100
AcDbCircle
 10
134.6271161868096
 20
187.6410307283417
 30
0.0
 40
9.0
100
AcDbArc
 50
148.2116693829489
 51
180.0
  0
ARC
  5
B97
102
{ACAD_REACTORS
330
BDA
102
}
330
20
100
AcDbEntity
  8
STEMPEL
  6
Continuous
100
AcDbCircle
 10
117.6271161868096
 20
198.1766844811944
 30
0.0
 40
11.0
100
AcDbArc
 50
328.2116693829489
 51
0.0
  0
LINE
  5
B98
102
{ACAD_REACTORS
330
BDA
102
}
330
20
100
AcDbEntity
  8
STEMPEL
100
AcDbLine
 10
125.6271161868096
 20
187.6410307283419
 30
0.0
 11
125.6271161868096
 21
187.2795286608483
 31
0.0
  0
LINE
  5
BA4
102
{ACAD_REACTORS
330
BDA
102
}
330
20
100
AcDbEntity
  8
STEMPEL
  6
Continuous
100
AcDbLine
 10
128.6271161868096
 20
206.2683575679985
 30
0.0
 11
128.6271161868096
 21
198.1766844811944
 31
0.0
  0
ARC
  5
BA5
102
{ACAD_REACTORS
330
BDA
102
}
330
20
100
AcDbEntity
  8
STEMPEL
  6
Continuous
100
AcDbCircle
 10
139.6271161868096
 20
206.2683575679986
 30
0.0
 40
11.0
100
AcDbArc
 50
160.5369005553112
 51
180.0
  0
ARC
  5
BA7
102
{ACAD_REACTORS
330
BDA
102
}
330
20
100
AcDbEntity
  8
STEMPEL
  6
Continuous
100
AcDbCircle
 10
106.6271161868095
 20
217.9303575679985
 30
0.0
 40
24.00003205712822
100
AcDbArc
 50
340.5369005553112
 51
0.0917549917588481
  0
LINE
  5
BA8
102
{ACAD_REACTORS
330
BDA
102
}
330
20
100
AcDbEntity
  8
STEMPEL
  6
Continuous
100
AcDbLine
 10
130.6271161868096
 20
222.3858562253377
 30
0.0
 11
130.6271161868096
 21
217.9703932700068
 31
0.0
  0
ARC
  5
BA9
102
{ACAD_REACTORS
330
BDA
102
}
330
20
100
AcDbEntity
  8
STEMPEL
  6
Continuous
100
AcDbCircle
 10
112.1271161868095
 20
222.3858562253377
 30
0.0
 40
18.5
100
AcDbArc
 50
0.0
 51
26.9432771614235
  0
ARC
  5
BAB
330
20
100
AcDbEntity
  8
STEMPEL
100
AcDbCircle
 10
19.02442313456359
 20
187.2768052440637
 30
0.0
 40
54.60269312016388
100
AcDbArc
 50
355.5500186281721
 51
0.0028577397698251
  0
LINE
  5
BAC
102
{ACAD_REACTORS
330
BBD
102
}
330
20
100
AcDbEntity
  8
STEMPEL
100
AcDbLine
 10
73.46251358768601
 20
183.0402495920685
 30
0.0
 11
72.69925948092957
 21
181.1412944706423
 31
0.0
  0
LINE
  5
BAD
330
20
100
AcDbEntity
  8
STEMPEL
100
AcDbLine
 10
73.62711618680953
 20
187.6410307283417
 30
0.0
 11
73.62711618680958
 21
187.2795286608482
 31
0.0
  0
LINE
  5
BAE
102
{ACAD_REACTORS
330
BBD
102
}
330
20
100
AcDbEntity
  8
STEMPEL
100
AcDbLine
 10
73.62711618680953
 20
180.7683575679984
 30
0.0
 11
72.69925948092958
 21
181.1412944706423
 31
0.0
  0
HATCH
  5
BBD
330
20
100
AcDbEntity
  8
SCHRAFF
100
AcDbHatch
 10
0.0
 20
0.0
 30
0.0
210
0.0
220
0.0
230
1.0
  2
_USER
 70
     0
 71
     1
 91
        2
 92
        7
 72
     1
 73
     1
 93
        4
 10
73.32653474452377
 20
182.7019379887076
 42
0.366158665979094
 10
69.9838495933991
 20
180.7683575679985
 42
0.0
 10
73.62711618680942
 20
180.7683575679985
 42
0.0
 10
72.69925948092958
 20
181.1412944706423
 42
0.0
 97
        4
330
7BE
330
AB8
330
BAE
330
BAC
 92
        7
 72
     1
 73
     1
 93
        4
 10
126.9264083527523
 20
182.7051456726139
 42
0.0
 10
127.5549728926896
 20
181.1412944706423
 42
0.0
 10
126.6271161868095
 20
180.7683575679984
 42
0.0
 10
130.2771161868096
 20
180.7683575679984
 42
0.3617184624512053
 97
        4
330
B75
330
B78
330
AB8
330
7C8
 75
     0
 76
     0
 52
45.0
 41
0.1
 77
     0
 78
     1
 53
45.0
 43
0.0
 44
0.0
 45
-0.0707106781186548
 46
0.0707106781186548
 79
     0
 47
0.1305119149061968
 98
        2
 10
71.81278158447276
 20
181.4977146664621
 10
128.6285114952868
 20
181.7587386139145
  0
HATCH
  5
BDA
330
20
100
AcDbEntity
  8
SCHRAFF
100
AcDbHatch
 10
0.0
 20
0.0
 30
0.0
210
0.0
220
0.0
230
1.0
  2
_USER
 70
     0
 71
     1
 91
        1
 92
        7
 72
     1
 73
     1
 93
       22
 10
131.6271161868096
 20
222.3858562253377
 42
0.1115469390821233
 10
129.7334693367463
 20
230.7683575679984
 42
0.0
 10
128.6190436436076
 20
230.7683575679984
 42
-0.1181068397918012
 10
130.6271161868096
 20
222.3858562253376
 42
0.0
 10
130.6271161868096
 20
217.9695843850813
 42
-0.0855401287098463
 10
129.2556971147499
 20
209.9335542109791
 42
0.085128540896247
 10
128.6271161868096
 20
206.2683575679986
 42
0.0
 10
128.6271161868096
 20
198.1766844811944
 42
-0.1395991324168588
 10
126.9771161868096
 20
192.3820749171255
 42
0.1395991324168204
 10
125.6271161868096
 20
187.6410307283432
 42
0.0
 10
125.6271161868096
 20
187.2740570025531
 42
0.020100008381465
 10
125.8069042564628
 20
182.8090221802152
 42
0.0
 10
126.6271161868096
 20
180.7683575679984
 42
0.0
 10
127.5549728926896
 20
181.1412944706423
 42
0.0
 10
126.7917187859332
 20
183.0402495920685
 42
-0.0194316210507793
 10
126.6271161868096
 20
187.2795286608482
 42
0.0
 10
126.6271161868096
 20
187.6410307283417
 42
-0.1395991324168588
 10
127.8271161868096
 20
191.8552922294828
 42
0.1395991324168608
 10
129.6271161868096
 20
198.1766844811944
 42
0.0
 10
129.6271161868096
 20
206.2683575679985
 42
-0.0851285408962513
 10
130.1985533940281
 20
209.6003545161627
 42
0.0847252966078231
 10
131.6271161868096
 20
217.8903218659761
 42
0.0
 97
       22
330
92D
330
801
330
BA9
330
BA8
330
BA7
330
BA5
330
BA4
330
B97
330
B96
330
B98
330
B95
330
7B2
330
B78
330
B75
330
93A
330
928
330
927
330
925
330
92B
330
921
330
92F
330
932
 75
     0
 76
     0
 52
45.0
 41
2.0
 77
     0
 78
     1
 53
45.0
 43
0.0
 44
0.0
 45
-1.414213562373094
 46
1.414213562373095
 79
     0
 47
0.2087213036384187
 98
        1
 10
131.1153380173291
 20
220.8755396014279
  0
ENDSEC
  0
SECTION
  2
OBJECTS
  0
DICTIONARY
  5
C
330
0
100
AcDbDictionary
281
     1
  3
ACAD_COLOR
350
1B
  3
ACAD_GROUP
350
D
  3
ACAD_LAYOUT
350
19
  3
ACAD_MATERIAL
350
1A
  3
ACAD_MLINESTYLE
350
16
  3
ACAD_PLOTSETTINGS
350
18
  3
ACAD_PLOTSTYLENAME
350
E
  3
AcDbVariableDictionary
350
711
  0
DICTIONARY
  5
69C
330
68F
100
AcDbDictionary
280
     1
281
     1
  3
ACAD_DIMASSOC
360
6A6
  0
DICTIONARY
  5
9EB
330
9DE
100
AcDbDictionary
280
     1
281
     1
  3
ACAD_DIMASSOC
360
9F5
  0
DICTIONARY
  5
1B
102
{ACAD_REACTORS
330
C
102
}
330
C
100
AcDbDictionary
281
     1
  0
DICTIONARY
  5
D
102
{ACAD_REACTORS
330
C
102
}
330
C
100
AcDbDictionary
281
     1
  0
DICTIONARY
  5
19
102
{ACAD_REACTORS
330
C
102
}
330
C
100
AcDbDictionary
281
     1
  3
Layout1
350
1F
  3
Model
350
23
  0
DICTIONARY
  5
1A
102
{ACAD_REACTORS
330
C
102
}
330
C
100
AcDbDictionary
281
     1
  0
DICTIONARY
  5
16
102
{ACAD_REACTORS
330
C
102
}
330
C
100
AcDbDictionary
281
     1
  3
Standard
350
17
  0
DICTIONARY
  5
18
102
{ACAD_REACTORS
330
C
102
}
330
C
100
AcDbDictionary
281
     1
  0
ACDBDICTIONARYWDFLT
  5
E
102
{ACAD_REACTORS
330
C
102
}
330
C
100
AcDbDictionary
281
     1
  3
Normal
350
F
100
AcDbDictionaryWithDefault
340
F
  0
DICTIONARY
  5
711
102
{ACAD_REACTORS
330
C
102
}
330
C
100
AcDbDictionary
281
     1
  3
DIMASSOC
350
713
  3
HIDETEXT
350
712
  3
PROJECTNAME
350
714
  0
DIMASSOC
  5
6A6
102
{ACAD_REACTORS
330
69C
102
}
330
69C
100
AcDbDimAssoc
330
68F
 90
        2
 70
     0
 71
     0
  1
AcDbOsnapPointRef
 72
    13
331
638
 73
     2
 91
        0
 40
0.0
 10
0.0
 20
0.0
 30
2.000000000000000E+50
 75
     0
  0
DIMASSOC
  5
9F5
102
{ACAD_REACTORS
330
9EB
102
}
330
9EB
100
AcDbDimAssoc
330
9DE
 90
        1
 70
     0
 71
     0
  1
AcDbOsnapPointRef
 72
     1
331
801
 73
     2
 91
        0
 40
1.0
 10
0.0
 20
0.0
 30
2.000000000000000E+50
 75
     0
  0
LAYOUT
  5
1F
102
{ACAD_REACTORS
330
19
102
}
330
19
100
AcDbPlotSettings
  1

  2
RICOH Aficio 2027 PCL 6
  4

  6

 40
0.0
 41
0.0
 42
0.0
 43
0.0
 44
0.0
 45
0.0
 46
0.0
 47
0.0
 48
0.0
 49
0.0
140
0.0
141
0.0
142
1.0
143
1.0
 70
   688
 72
     0
 73
     0
 74
     5
  7
monochrome1.ctb
 75
    16
147
1.0
 76
     0
 77
     2
 78
   300
148
0.0
149
0.0
100
AcDbLayout
  1
Layout1
 70
     0
 71
     1
 10
0.0
 20
0.0
 11
12.0
 21
9.0
 12
0.0
 22
0.0
 32
0.0
 14
1.000000000000000E+20
 24
1.000000000000000E+20
 34
1.000000000000000E+20
 15
-1.000000000000000E+20
 25
-1.000000000000000E+20
 35
-1.000000000000000E+20
146
0.0
 13
0.0
 23
0.0
 33
0.0
 16
1.0
 26
0.0
 36
0.0
 17
0.0
 27
1.0
 37
0.0
 76
     0
330
1C
  0
LAYOUT
  5
23
102
{ACAD_REACTORS
330
19
102
}
330
19
100
AcDbPlotSettings
  1

  2
RICOH Aficio 2027 PCL 6
  4
A4
  6

 40
5.027083396911621
 41
5.027085304260253
 42
5.027084350585937
 43
5.027069091796875
 44
209.9733276367187
 45
296.9259948730469
 46
0.0
 47
2.06
 48
0.0
 49
0.0
140
387.7586288529683
141
297.2801669816856
142
1.0
143
1.050424582197948
 70
 11956
 72
     1
 73
     0
 74
     2
  7
monochrome1.ctb
 75
     0
147
0.9519959994724818
 76
     0
 77
     2
 78
   300
148
0.0
149
0.0
100
AcDbLayout
  1
Model
 70
     1
 71
     0
 10
0.0
 20
0.0
 11
12.0
 21
9.0
 12
0.0
 22
0.0
 32
0.0
 14
0.0
 24
0.0
 34
0.0
 15
0.0
 25
0.0
 35
0.0
146
0.0
 13
0.0
 23
0.0
 33
0.0
 16
1.0
 26
0.0
 36
0.0
 17
0.0
 27
1.0
 37
0.0
 76
     0
330
20
  0
MLINESTYLE
  5
17
102
{ACAD_REACTORS
330
16
102
}
330
16
100
AcDbMlineStyle
  2
STANDARD
 70
     0
  3

 62
   256
 51
90.0
 52
90.0
 71
     2
 49
0.5
 62
   256
  6
BYLAYER
 49
-0.5
 62
   256
  6
BYLAYER
  0
ACDBPLACEHOLDER
  5
F
102
{ACAD_REACTORS
330
E
102
}
330
E
  0
DICTIONARYVAR
  5
713
102
{ACAD_REACTORS
330
711
102
}
330
711
100
DictionaryVariables
280
     0
  1
2
  0
DICTIONARYVAR
  5
712
102
{ACAD_REACTORS
330
711
102
}
330
711
100
DictionaryVariables
280
     0
  1
1
  0
DICTIONARYVAR
  5
714
102
{ACAD_REACTORS
330
711
102
}
330
711
100
DictionaryVariables
280
     0
  1

  0
ENDSEC
  0
EOF
