  0
SECTION
  2
HEADER
  9
$ACADVER
  1
AC1018
  9
$ACADMAINTVER
 70
     2
  9
$DWGCODEPAGE
  3
ANSI_1252
  9
$INSBASE
 10
0.0
 20
0.0
 30
0.0
  9
$EXTMIN
 10
-0.0069657386915765
 20
-0.0209516050990715
 30
-0.0000000000000053
  9
$EXTMAX
 10
210.0070924609644
 20
297.0207585827491
 30
0.0000000000000099
  9
$LIMMIN
 10
0.0
 20
0.0
  9
$LIMMAX
 10
209.9999999999999
 20
297.0000000000001
  9
$ORTHOMODE
 70
     1
  9
$REGENMODE
 70
     1
  9
$FILLMODE
 70
     1
  9
$QTEXTMODE
 70
     0
  9
$MIRRTEXT
 70
     1
  9
$LTSCALE
 40
10.0
  9
$ATTMODE
 70
     1
  9
$TEXTSIZE
 40
3.5
  9
$TRACEWID
 40
0.5
  9
$TEXTSTYLE
  7
STANDARD
  9
$CLAYER
  8
SCHRAFF
  9
$CELTYPE
  6
ByLayer
  9
$CECOLOR
 62
   256
  9
$CELTSCALE
 40
1.0
  9
$DISPSILH
 70
     0
  9
$DIMSCALE
 40
1.0
  9
$DIMASZ
 40
3.5
  9
$DIMEXO
 40
1.0
  9
$DIMDLI
 40
7.0
  9
$DIMRND
 40
0.0
  9
$DIMDLE
 40
0.0
  9
$DIMEXE
 40
1.0
  9
$DIMTP
 40
0.15
  9
$DIMTM
 40
0.15
  9
$DIMTXT
 40
3.5
  9
$DIMCEN
 40
1.5
  9
$DIMTSZ
 40
0.0
  9
$DIMTOL
 70
     0
  9
$DIMLIM
 70
     0
  9
$DIMTIH
 70
     0
  9
$DIMTOH
 70
     0
  9
$DIMSE1
 70
     0
  9
$DIMSE2
 70
     0
  9
$DIMTAD
 70
     1
  9
$DIMZIN
 70
     8
  9
$DIMBLK
  1

  9
$DIMASO
 70
     1
  9
$DIMSHO
 70
     0
  9
$DIMPOST
  1

  9
$DIMAPOST
  1

  9
$DIMALT
 70
     0
  9
$DIMALTD
 70
     2
  9
$DIMALTF
 40
25.4
  9
$DIMLFAC
 40
1.0
  9
$DIMTOFL
 70
     0
  9
$DIMTVP
 40
0.0
  9
$DIMTIX
 70
     0
  9
$DIMSOXD
 70
     0
  9
$DIMSAH
 70
     0
  9
$DIMBLK1
  1

  9
$DIMBLK2
  1

  9
$DIMSTYLE
  2
Standard
  9
$DIMCLRD
 70
     0
  9
$DIMCLRE
 70
     0
  9
$DIMCLRT
 70
     1
  9
$DIMTFAC
 40
0.5142857142857144
  9
$DIMGAP
 40
1.0
  9
$DIMJUST
 70
     0
  9
$DIMSD1
 70
     0
  9
$DIMSD2
 70
     0
  9
$DIMTOLJ
 70
     1
  9
$DIMTZIN
 70
     8
  9
$DIMALTZ
 70
     8
  9
$DIMALTTZ
 70
     8
  9
$DIMUPT
 70
     0
  9
$DIMDEC
 70
     2
  9
$DIMTDEC
 70
     2
  9
$DIMALTU
 70
     2
  9
$DIMALTTD
 70
     2
  9
$DIMTXSTY
  7
STANDARD
  9
$DIMAUNIT
 70
     0
  9
$DIMADEC
 70
     0
  9
$DIMALTRND
 40
0.0
  9
$DIMAZIN
 70
     0
  9
$DIMDSEP
 70
    46
  9
$DIMATFIT
 70
     3
  9
$DIMFRAC
 70
     0
  9
$DIMLDRBLK
  1

  9
$DIMLUNIT
 70
     2
  9
$DIMLWD
 70
    -2
  9
$DIMLWE
 70
    -2
  9
$DIMTMOVE
 70
     0
  9
$LUNITS
 70
     2
  9
$LUPREC
 70
     2
  9
$SKETCHINC
 40
1.0
  9
$FILLETRAD
 40
0.0
  9
$AUNITS
 70
     0
  9
$AUPREC
 70
     0
  9
$MENU
  1
ACAD
  9
$ELEVATION
 40
0.0
  9
$PELEVATION
 40
0.0
  9
$THICKNESS
 40
0.0
  9
$LIMCHECK
 70
     0
  9
$CHAMFERA
 40
0.0
  9
$CHAMFERB
 40
0.0
  9
$CHAMFERC
 40
0.0
  9
$CHAMFERD
 40
0.0
  9
$SKPOLY
 70
     0
  9
$TDCREATE
 40
2452951.161346065
  9
$TDUCREATE
 40
2452951.119679398
  9
$TDUPDATE
 40
2455544.574414618
  9
$TDUUPDATE
 40
2455544.532747952
  9
$TDINDWG
 40
0.0856668056
  9
$TDUSRTIMER
 40
0.0856668056
  9
$USRTIMER
 70
     1
  9
$ANGBASE
 50
0.0
  9
$ANGDIR
 70
     0
  9
$PDMODE
 70
     0
  9
$PDSIZE
 40
0.0
  9
$PLINEWID
 40
0.0
  9
$SPLFRAME
 70
     0
  9
$SPLINETYPE
 70
     6
  9
$SPLINESEGS
 70
     8
  9
$HANDSEED
  5
EA3
  9
$SURFTAB1
 70
     6
  9
$SURFTAB2
 70
     6
  9
$SURFTYPE
 70
     6
  9
$SURFU
 70
     6
  9
$SURFV
 70
     6
  9
$UCSBASE
  2

  9
$UCSNAME
  2

  9
$UCSORG
 10
0.0
 20
0.0
 30
0.0
  9
$UCSXDIR
 10
1.0
 20
0.0
 30
0.0
  9
$UCSYDIR
 10
0.0
 20
1.0
 30
0.0
  9
$UCSORTHOREF
  2

  9
$UCSORTHOVIEW
 70
     0
  9
$UCSORGTOP
 10
0.0
 20
0.0
 30
0.0
  9
$UCSORGBOTTOM
 10
0.0
 20
0.0
 30
0.0
  9
$UCSORGLEFT
 10
0.0
 20
0.0
 30
0.0
  9
$UCSORGRIGHT
 10
0.0
 20
0.0
 30
0.0
  9
$UCSORGFRONT
 10
0.0
 20
0.0
 30
0.0
  9
$UCSORGBACK
 10
0.0
 20
0.0
 30
0.0
  9
$PUCSBASE
  2

  9
$PUCSNAME
  2

  9
$PUCSORG
 10
0.0
 20
0.0
 30
0.0
  9
$PUCSXDIR
 10
1.0
 20
0.0
 30
0.0
  9
$PUCSYDIR
 10
0.0
 20
1.0
 30
0.0
  9
$PUCSORTHOREF
  2

  9
$PUCSORTHOVIEW
 70
     0
  9
$PUCSORGTOP
 10
0.0
 20
0.0
 30
0.0
  9
$PUCSORGBOTTOM
 10
0.0
 20
0.0
 30
0.0
  9
$PUCSORGLEFT
 10
0.0
 20
0.0
 30
0.0
  9
$PUCSORGRIGHT
 10
0.0
 20
0.0
 30
0.0
  9
$PUCSORGFRONT
 10
0.0
 20
0.0
 30
0.0
  9
$PUCSORGBACK
 10
0.0
 20
0.0
 30
0.0
  9
$USERI1
 70
     0
  9
$USERI2
 70
     0
  9
$USERI3
 70
     0
  9
$USERI4
 70
     0
  9
$USERI5
 70
     0
  9
$USERR1
 40
0.0
  9
$USERR2
 40
0.0
  9
$USERR3
 40
0.0
  9
$USERR4
 40
0.0
  9
$USERR5
 40
0.0
  9
$WORLDVIEW
 70
     1
  9
$SHADEDGE
 70
     3
  9
$SHADEDIF
 70
    70
  9
$TILEMODE
 70
     1
  9
$MAXACTVP
 70
    16
  9
$PINSBASE
 10
0.0
 20
0.0
 30
0.0
  9
$PLIMCHECK
 70
     0
  9
$PEXTMIN
 10
1.000000000000000E+20
 20
1.000000000000000E+20
 30
1.000000000000000E+20
  9
$PEXTMAX
 10
-1.000000000000000E+20
 20
-1.000000000000000E+20
 30
-1.000000000000000E+20
  9
$PLIMMIN
 10
0.0
 20
0.0
  9
$PLIMMAX
 10
12.0
 20
9.0
  9
$UNITMODE
 70
     0
  9
$VISRETAIN
 70
     0
  9
$PLINEGEN
 70
     0
  9
$PSLTSCALE
 70
     0
  9
$TREEDEPTH
 70
  3020
  9
$CMLSTYLE
  2
Standard
  9
$CMLJUST
 70
     0
  9
$CMLSCALE
 40
1.0
  9
$PROXYGRAPHICS
 70
     1
  9
$MEASUREMENT
 70
     0
  9
$CELWEIGHT
370
    -1
  9
$ENDCAPS
280
     0
  9
$JOINSTYLE
280
     0
  9
$LWDISPLAY
290
     0
  9
$INSUNITS
 70
     0
  9
$HYPERLINKBASE
  1

  9
$STYLESHEET
  1
monochrome1.ctb
  9
$XEDIT
290
     1
  9
$CEPSNTYPE
380
     0
  9
$PSTYLEMODE
290
     1
  9
$FINGERPRINTGUID
  2
{6A2C4017-04A6-42DC-99B1-84B9BFADE3A7}
  9
$VERSIONGUID
  2
{13A7DD51-E5E2-4FB7-8BEA-97A5B6C144D7}
  9
$EXTNAMES
290
     1
  9
$PSVPSCALE
 40
0.0
  9
$OLESTARTUP
290
     0
  9
$SORTENTS
280
   127
  9
$INDEXCTL
280
     0
  9
$HIDETEXT
280
     1
  9
$XCLIPFRAME
290
     0
  9
$HALOGAP
280
     0
  9
$OBSCOLOR
 70
   257
  9
$OBSLTYPE
280
     0
  9
$INTERSECTIONDISPLAY
280
     0
  9
$INTERSECTIONCOLOR
 70
   257
  9
$DIMASSOC
280
     2
  9
$PROJECTNAME
  1

  0
ENDSEC
  0
SECTION
  2
CLASSES
  0
CLASS
  1
ACDBDICTIONARYWDFLT
  2
AcDbDictionaryWithDefault
  3
ObjectDBX Classes
 90
        0
 91
        1
280
     0
281
     0
  0
CLASS
  1
DICTIONARYVAR
  2
AcDbDictionaryVar
  3
ObjectDBX Classes
 90
        0
 91
        3
280
     0
281
     0
  0
CLASS
  1
DIMASSOC
  2
AcDbDimAssoc
  3
"AcDbDimAssoc|Product Desc:     AcDim ARX App For Dimension|Company:          Autodesk, Inc.|WEB Address:      www.autodesk.com"
 90
        0
 91
        0
280
     0
281
     0
  0
ENDSEC
  0
SECTION
  2
TABLES
  0
TABLE
  2
VPORT
  5
8
330
0
100
AcDbSymbolTable
 70
     2
  0
VPORT
  5
EA2
330
8
100
AcDbSymbolTableRecord
100
AcDbViewportTableRecord
  2
*Active
 70
     0
 10
0.0
 20
0.0
 11
1.0
 21
1.0
 12
105.0000633611364
 22
148.499903488825
 13
0.0
 23
0.0
 14
1.0
 24
1.0
 15
10.0
 25
10.0
 16
0.0
 26
0.0
 36
1.0
 17
0.0
 27
0.0
 37
0.0
 40
299.4404319390286
 41
1.336927223719676
 42
50.0
 43
0.0
 44
0.0
 50
0.0
 51
0.0
 71
     0
 72
  1500
 73
     1
 74
     0
 75
     0
 76
     0
 77
     0
 78
     0
281
     0
 65
     1
110
0.0
120
0.0
130
0.0
111
1.0
121
0.0
131
0.0
112
0.0
122
1.0
132
0.0
 79
     0
146
0.0
  0
ENDTAB
  0
TABLE
  2
LTYPE
  5
5
330
0
100
AcDbSymbolTable
 70
     2
  0
LTYPE
  5
13
330
5
100
AcDbSymbolTableRecord
100
AcDbLinetypeTableRecord
  2
ByBlock
 70
     0
  3

 72
    65
 73
     0
 40
0.0
  0
LTYPE
  5
14
330
5
100
AcDbSymbolTableRecord
100
AcDbLinetypeTableRecord
  2
ByLayer
 70
     0
  3

 72
    65
 73
     0
 40
0.0
  0
LTYPE
  5
15
330
5
100
AcDbSymbolTableRecord
100
AcDbLinetypeTableRecord
  2
Continuous
 70
     0
  3
Solid line
 72
    65
 73
     0
 40
0.0
  0
LTYPE
  5
33
330
5
100
AcDbSymbolTableRecord
100
AcDbLinetypeTableRecord
  2
STRICHPUNKT
 70
     0
  3
__ . __ . __ . __ . __ . __ . __ . __ . __ . __
 72
    65
 73
     4
 40
1.0
 49
0.5
 74
     0
 49
-0.25
 74
     0
 49
0.0
 74
     0
 49
-0.25
 74
     0
  0
ENDTAB
  0
TABLE
  2
LAYER
  5
2
330
0
100
AcDbSymbolTable
 70
    10
  0
LAYER
  5
10
330
2
100
AcDbSymbolTableRecord
100
AcDbLayerTableRecord
  2
0
 70
     0
 62
     7
  6
Continuous
370
    -3
390
F
  0
LAYER
  5
36
330
2
100
AcDbSymbolTableRecord
100
AcDbLayerTableRecord
  2
VOLL
 70
     0
 62
     1
  6
Continuous
370
    -3
390
F
  0
LAYER
  5
37
330
2
100
AcDbSymbolTableRecord
100
AcDbLayerTableRecord
  2
HILF
 70
     0
 62
     2
  6
Continuous
370
    -3
390
F
  0
LAYER
  5
38
330
2
100
AcDbSymbolTableRecord
100
AcDbLayerTableRecord
  2
MITTEL
 70
     0
 62
     2
  6
STRICHPUNKT
370
    -3
390
F
  0
LAYER
  5
39
330
2
100
AcDbSymbolTableRecord
100
AcDbLayerTableRecord
  2
BEM
 70
     0
 62
     7
  6
Continuous
370
    -3
390
F
  0
LAYER
  5
3A
330
2
100
AcDbSymbolTableRecord
100
AcDbLayerTableRecord
  2
SCHRAFF
 70
     0
 62
     7
  6
Continuous
370
    -3
390
F
  0
LAYER
  5
3B
330
2
100
AcDbSymbolTableRecord
100
AcDbLayerTableRecord
  2
STEMPEL
 70
     0
 62
     3
  6
Continuous
370
    -3
390
F
  0
LAYER
  5
3C
330
2
100
AcDbSymbolTableRecord
100
AcDbLayerTableRecord
  2
DEFPOINTS
 70
     0
 62
     7
  6
Continuous
290
     0
370
    -3
390
F
  0
LAYER
  5
3D
330
2
100
AcDbSymbolTableRecord
100
AcDbLayerTableRecord
  2
TEXT
 70
     0
 62
     7
  6
Continuous
370
    -3
390
F
  0
LAYER
  5
3F
330
2
100
AcDbSymbolTableRecord
100
AcDbLayerTableRecord
  2
TEXT35
 70
     0
 62
     1
  6
Continuous
370
    -3
390
F
  0
ENDTAB
  0
TABLE
  2
STYLE
  5
3
330
0
100
AcDbSymbolTable
 70
     2
  0
STYLE
  5
11
330
3
100
AcDbSymbolTableRecord
100
AcDbTextStyleTableRecord
  2
STANDARD
 70
     0
 40
0.0
 41
0.8
 50
0.0
 71
     0
 42
3.5
  3
SIMPLEX.SHX
  4

  0
STYLE
  5
32
330
3
100
AcDbSymbolTableRecord
100
AcDbTextStyleTableRecord
  2
GREEKS
 70
     0
 40
0.0
 41
0.8
 50
0.0
 71
     0
 42
3.5
  3
SIMPLEX.shx
  4

  0
ENDTAB
  0
TABLE
  2
VIEW
  5
6
330
0
100
AcDbSymbolTable
 70
     0
  0
ENDTAB
  0
TABLE
  2
UCS
  5
7
330
0
100
AcDbSymbolTable
 70
     0
  0
ENDTAB
  0
TABLE
  2
APPID
  5
9
330
0
100
AcDbSymbolTable
 70
     2
  0
APPID
  5
12
330
9
100
AcDbSymbolTableRecord
100
AcDbRegAppTableRecord
  2
ACAD
 70
     0
  0
APPID
  5
252
330
9
100
AcDbSymbolTableRecord
100
AcDbRegAppTableRecord
  2
RAK
 70
     0
  0
ENDTAB
  0
TABLE
  2
DIMSTYLE
  5
A
330
0
100
AcDbSymbolTable
 70
     1
100
AcDbDimStyleTable
 71
     1
340
239
  0
DIMSTYLE
105
239
102
{ACAD_REACTORS
330
7DB
330
7DA
330
7D7
330
7D6
330
7D5
330
7C9
102
}
330
A
100
AcDbSymbolTableRecord
100
AcDbDimStyleTableRecord
  2
Standard
 70
     0
340
11
  0
ENDTAB
  0
TABLE
  2
BLOCK_RECORD
  5
1
330
0
100
AcDbSymbolTable
 70
     7
  0
BLOCK_RECORD
  5
20
330
1
100
AcDbSymbolTableRecord
100
AcDbBlockTableRecord
  2
*Model_Space
340
23
  0
BLOCK_RECORD
  5
1C
330
1
100
AcDbSymbolTableRecord
100
AcDbBlockTableRecord
  2
*Paper_Space
340
1F
  0
BLOCK_RECORD
  5
24
330
1
100
AcDbSymbolTableRecord
100
AcDbBlockTableRecord
  2
LOGO
340
0
102
{BLKREFS
331
2DB
102
}
  0
BLOCK_RECORD
  5
7E9
330
1
100
AcDbSymbolTableRecord
100
AcDbBlockTableRecord
  2
*D1
340
0
  0
BLOCK_RECORD
  5
7F5
330
1
100
AcDbSymbolTableRecord
100
AcDbBlockTableRecord
  2
*D2
340
0
  0
BLOCK_RECORD
  5
801
330
1
100
AcDbSymbolTableRecord
100
AcDbBlockTableRecord
  2
*D3
340
0
  0
BLOCK_RECORD
  5
80D
330
1
100
AcDbSymbolTableRecord
100
AcDbBlockTableRecord
  2
*D4
340
0
  0
BLOCK_RECORD
  5
819
330
1
100
AcDbSymbolTableRecord
100
AcDbBlockTableRecord
  2
*D5
340
0
  0
BLOCK_RECORD
  5
825
330
1
100
AcDbSymbolTableRecord
100
AcDbBlockTableRecord
  2
*D6
340
0
  0
ENDTAB
  0
ENDSEC
  0
SECTION
  2
BLOCKS
  0
BLOCK
  5
43
330
20
100
AcDbEntity
  8
0
100
AcDbBlockBegin
  2
*Model_Space
 70
     0
 10
0.0
 20
0.0
 30
0.0
  3
*Model_Space
  1

  0
ENDBLK
  5
44
330
20
100
AcDbEntity
  8
0
100
AcDbBlockEnd
  0
BLOCK
  5
41
330
1C
100
AcDbEntity
 67
     1
  8
0
100
AcDbBlockBegin
  2
*Paper_Space
 70
     0
 10
0.0
 20
0.0
 30
0.0
  3
*Paper_Space
  1

  0
ENDBLK
  5
42
330
1C
100
AcDbEntity
 67
     1
  8
0
100
AcDbBlockEnd
  0
BLOCK
  5
45
330
24
100
AcDbEntity
  8
0
100
AcDbBlockBegin
  2
LOGO
 70
     0
 10
0.0
 20
0.0
 30
0.0
  3
LOGO
  1

  0
ARC
  5
46
330
24
100
AcDbEntity
  8
0
100
AcDbCircle
 10
11.59973089678112
 20
-9.271599258481501
 30
0.0
 40
4.5
100
AcDbArc
 50
270.0
 51
231.0575587310159
  0
LINE
  5
47
330
24
100
AcDbEntity
  8
0
100
AcDbLine
 10
3.599730896781125
 20
-4.771599258481529
 30
0.0
 11
3.599730896781153
 21
-11.77159925848133
 31
0.0
  0
LINE
  5
48
330
24
100
AcDbEntity
  8
0
100
AcDbLine
 10
2.599730896781125
 20
-4.771599258481529
 30
0.0
 11
2.599730896781153
 21
-11.77159925848133
 31
0.0
  0
CIRCLE
  5
49
330
24
100
AcDbEntity
  8
0
100
AcDbCircle
 10
11.59973089678112
 20
-9.271599258481501
 30
0.0
 40
3.5
  0
ARC
  5
4A
330
24
100
AcDbEntity
  8
0
100
AcDbCircle
 10
31.59973089678115
 20
-9.271599258481472
 30
0.0
 40
4.5
100
AcDbArc
 50
270.0
 51
231.0575587310182
  0
LINE
  5
4B
330
24
100
AcDbEntity
  8
0
100
AcDbLine
 10
17.59973089678112
 20
-4.771599258481472
 30
0.0
 11
17.59973089678115
 21
-13.77159925848147
 31
0.0
  0
ARC
  5
4C
330
24
100
AcDbEntity
  8
0
100
AcDbCircle
 10
22.59973089678116
 20
-7.271599258481472
 30
0.0
 40
2.5
100
AcDbArc
 50
293.1161887722295
 51
90.0
  0
CIRCLE
  5
4D
330
24
100
AcDbEntity
  8
0
100
AcDbCircle
 10
31.59973089678115
 20
-9.271599258481472
 30
0.0
 40
3.5
  0
ARC
  5
4E
330
24
100
AcDbEntity
  8
0
100
AcDbCircle
 10
4.599730896781153
 20
-11.77159925848133
 30
0.0
 40
1.0
100
AcDbArc
 50
180.0
 51
270.0
  0
ARC
  5
4F
330
24
100
AcDbEntity
  8
0
100
AcDbCircle
 10
4.599730896781153
 20
-11.77159925848133
 30
0.0
 40
2.0
100
AcDbArc
 50
179.9999999999992
 51
270.0
  0
LINE
  5
50
330
24
100
AcDbEntity
  8
0
100
AcDbLine
 10
11.59973089678115
 20
-13.77159925848144
 30
0.0
 11
4.599730896781153
 21
-13.77159925848147
 31
0.0
  0
LINE
  5
51
330
24
100
AcDbEntity
  8
0
100
AcDbLine
 10
8.771303772034769
 20
-12.77159925848136
 30
0.0
 11
4.599730896781153
 21
-12.77159925848133
 31
0.0
  0
LINE
  5
52
330
24
100
AcDbEntity
  8
0
100
AcDbLine
 10
31.59973089678115
 20
-13.77159925848147
 30
0.0
 11
23.6715276665056
 21
-13.77159925848144
 31
0.0
  0
LINE
  5
53
330
24
100
AcDbEntity
  8
0
100
AcDbLine
 10
23.56565672307022
 20
-9.51278021337896
 30
0.0
 11
24.4388546544846
 21
-12.77159925848144
 31
0.0
  0
LINE
  5
54
330
24
100
AcDbEntity
  8
0
100
AcDbLine
 10
22.59973089678116
 20
-9.771599258481472
 30
0.0
 11
18.59973089678112
 21
-9.771599258481472
 31
0.0
  0
LINE
  5
55
330
24
100
AcDbEntity
  8
0
100
AcDbLine
 10
18.59973089678115
 20
-13.77159925848144
 30
0.0
 11
17.59973089678115
 21
-13.77159925848144
 31
0.0
  0
LINE
  5
56
330
24
100
AcDbEntity
  8
0
100
AcDbLine
 10
18.59973089678115
 20
-9.771599258481472
 30
0.0
 11
18.59973089678115
 21
-13.77159925848144
 31
0.0
  0
LINE
  5
57
330
24
100
AcDbEntity
  8
0
100
AcDbLine
 10
22.59973089678116
 20
-9.771599258481472
 30
0.0
 11
23.67152766650562
 21
-13.77159925848147
 31
0.0
  0
ARC
  5
58
330
24
100
AcDbEntity
  8
0
100
AcDbCircle
 10
22.59973089678116
 20
-7.271599258481472
 30
0.0
 40
2.5
100
AcDbArc
 50
270.0
 51
270.0000000000007
  0
LINE
  5
59
330
24
100
AcDbEntity
  8
0
100
AcDbLine
 10
28.77130377203494
 20
-12.77159925848147
 30
0.0
 11
24.43885465448463
 21
-12.77159925848144
 31
0.0
  0
LINE
  5
5A
330
24
100
AcDbEntity
  8
0
100
AcDbLine
 10
3.599730896781125
 20
-4.771599258481472
 30
0.0
 11
2.599730896781125
 21
-4.771599258481472
 31
0.0
  0
LINE
  5
5B
330
24
100
AcDbEntity
  8
0
100
AcDbLine
 10
22.59973089678116
 20
-8.771599258481472
 30
0.0
 11
18.59973089678115
 21
-8.771599258481472
 31
0.0
  0
LINE
  5
5C
330
24
100
AcDbEntity
  8
0
100
AcDbLine
 10
22.59973089678116
 20
-5.771599258481472
 30
0.0
 11
18.59973089678115
 21
-5.771599258481472
 31
0.0
  0
LINE
  5
5D
330
24
100
AcDbEntity
  8
0
100
AcDbLine
 10
22.59973089678116
 20
-4.771599258481472
 30
0.0
 11
17.59973089678115
 21
-4.771599258481472
 31
0.0
  0
LINE
  5
5E
330
24
100
AcDbEntity
  8
0
100
AcDbLine
 10
18.59973089678115
 20
-5.771599258481472
 30
0.0
 11
18.59973089678115
 21
-8.771599258481472
 31
0.0
  0
ARC
  5
5F
330
24
100
AcDbEntity
  8
0
100
AcDbCircle
 10
22.59973089678116
 20
-7.271599258481472
 30
0.0
 40
1.5
100
AcDbArc
 50
270.0
 51
90.0
  0
ENDBLK
  5
60
330
24
100
AcDbEntity
  8
0
100
AcDbBlockEnd
  0
BLOCK
  5
7F3
330
7E9
100
AcDbEntity
  8
0
100
AcDbBlockBegin
  2
*D1
 70
     1
 10
0.0
 20
0.0
 30
0.0
  3
*D1
  1

  0
LINE
  5
E63
330
7E9
100
AcDbEntity
  8
BEM
 62
     0
370
    -2
100
AcDbLine
 10
69.72126398895773
 20
252.7860425959092
 30
0.0
 11
69.72126398895773
 21
264.3283396551768
 31
0.0
  0
LINE
  5
E64
330
7E9
100
AcDbEntity
  8
BEM
 62
     0
370
    -2
100
AcDbLine
 10
128.7212639889577
 20
252.7860425959093
 30
0.0
 11
128.7212639889577
 21
264.3283396551768
 31
0.0
  0
LINE
  5
E65
330
7E9
100
AcDbEntity
  8
BEM
 62
     0
370
    -2
100
AcDbLine
 10
73.22126398895773
 20
263.3283396551768
 30
0.0
 11
125.2212639889577
 21
263.3283396551768
 31
0.0
  0
SOLID
  5
E66
330
7E9
100
AcDbEntity
  8
BEM
 62
     0
100
AcDbTrace
 10
73.22126398895773
 20
263.9116729885101
 30
0.0
 11
73.22126398895773
 21
262.7450063218435
 31
0.0
 12
69.72126398895773
 22
263.3283396551768
 32
0.0
 13
69.72126398895773
 23
263.3283396551768
 33
0.0
  0
SOLID
  5
E67
330
7E9
100
AcDbEntity
  8
BEM
 62
     0
100
AcDbTrace
 10
125.2212639889577
 20
263.9116729885101
 30
0.0
 11
125.2212639889577
 21
262.7450063218435
 31
0.0
 12
128.7212639889577
 22
263.3283396551768
 32
0.0
 13
128.7212639889577
 23
263.3283396551768
 33
0.0
  0
MTEXT
  5
E68
330
7E9
100
AcDbEntity
  8
BEM
 62
     1
100
AcDbMText
 10
99.22126398895773
 20
266.0783396551768
 30
0.0
 40
3.5
 41
0.0
 71
     5
 72
     1
  1
\A1;R2
 73
     1
 44
1.0
  0
POINT
  5
E69
330
7E9
100
AcDbEntity
  8
DEFPOINTS
 62
     0
100
AcDbPoint
 10
69.72126398895773
 20
251.7860425959092
 30
0.0
  0
POINT
  5
E6A
330
7E9
100
AcDbEntity
  8
DEFPOINTS
 62
     0
100
AcDbPoint
 10
128.7212639889577
 20
251.7860425959093
 30
0.0
  0
POINT
  5
E6B
330
7E9
100
AcDbEntity
  8
DEFPOINTS
 62
     0
100
AcDbPoint
 10
128.7212639889577
 20
263.3283396551768
 30
0.0
  0
ENDBLK
  5
7F4
330
7E9
100
AcDbEntity
  8
0
100
AcDbBlockEnd
  0
BLOCK
  5
7FF
330
7F5
100
AcDbEntity
  8
0
100
AcDbBlockBegin
  2
*D2
 70
     1
 10
0.0
 20
0.0
 30
0.0
  3
*D2
  1

  0
LINE
  5
E6C
330
7F5
100
AcDbEntity
  8
BEM
 62
     0
370
    -2
100
AcDbLine
 10
68.72126398895773
 20
251.7860425959092
 30
0.0
 11
48.1102921259815
 21
251.7860425959093
 31
0.0
  0
LINE
  5
E6D
330
7F5
100
AcDbEntity
  8
BEM
 62
     0
370
    -2
100
AcDbLine
 10
68.07126398895775
 20
201.7860425959094
 30
0.0
 11
48.11029212598149
 21
201.7860425959094
 31
0.0
  0
LINE
  5
E6E
330
7F5
100
AcDbEntity
  8
BEM
 62
     0
370
    -2
100
AcDbLine
 10
49.1102921259815
 20
248.2860425959092
 30
0.0
 11
49.11029212598148
 21
205.2860425959095
 31
0.0
  0
SOLID
  5
E6F
330
7F5
100
AcDbEntity
  8
BEM
 62
     0
100
AcDbTrace
 10
48.52695879264817
 20
248.2860425959092
 30
0.0
 11
49.69362545931484
 21
248.2860425959092
 31
0.0
 12
49.1102921259815
 22
251.7860425959093
 32
0.0
 13
49.1102921259815
 23
251.7860425959093
 33
0.0
  0
SOLID
  5
E70
330
7F5
100
AcDbEntity
  8
BEM
 62
     0
100
AcDbTrace
 10
48.52695879264815
 20
205.2860425959095
 30
0.0
 11
49.69362545931482
 21
205.2860425959095
 31
0.0
 12
49.11029212598148
 22
201.7860425959094
 32
0.0
 13
49.11029212598148
 23
201.7860425959094
 33
0.0
  0
MTEXT
  5
E71
330
7F5
100
AcDbEntity
  8
BEM
 62
     1
100
AcDbMText
 10
46.36029212598145
 20
226.7860425959093
 30
0.0
 40
3.5
 41
0.0
 71
     5
 72
     1
  1
\A1;50
 11
0.0000000000000001
 21
1.0
 31
0.0
 73
     1
 44
1.0
  0
POINT
  5
E72
330
7F5
100
AcDbEntity
  8
DEFPOINTS
 62
     0
100
AcDbPoint
 10
69.72126398895773
 20
251.7860425959092
 30
0.0
  0
POINT
  5
E73
330
7F5
100
AcDbEntity
  8
DEFPOINTS
 62
     0
100
AcDbPoint
 10
69.07126398895775
 20
201.7860425959094
 30
0.0
  0
POINT
  5
E74
330
7F5
100
AcDbEntity
  8
DEFPOINTS
 62
     0
100
AcDbPoint
 10
49.11029212598148
 20
201.7860425959094
 30
0.0
  0
ENDBLK
  5
800
330
7F5
100
AcDbEntity
  8
0
100
AcDbBlockEnd
  0
BLOCK
  5
80B
330
801
100
AcDbEntity
  8
0
100
AcDbBlockBegin
  2
*D3
 70
     1
 10
0.0
 20
0.0
 30
0.0
  3
*D3
  1

  0
LINE
  5
E75
330
801
100
AcDbEntity
  8
BEM
 62
     0
370
    -2
100
AcDbLine
 10
72.72126398895773
 20
115.7860425959094
 30
0.0
 11
72.72126398895773
 21
97.96741626549726
 31
0.0
  0
LINE
  5
E76
330
801
100
AcDbEntity
  8
BEM
 62
     0
370
    -2
100
AcDbLine
 10
125.7212639889577
 20
115.7860425959094
 30
0.0
 11
125.7212639889577
 21
97.96741626549726
 31
0.0
  0
LINE
  5
E77
330
801
100
AcDbEntity
  8
BEM
 62
     0
370
    -2
100
AcDbLine
 10
76.22126398895773
 20
98.96741626549726
 30
0.0
 11
122.2212639889577
 21
98.96741626549726
 31
0.0
  0
SOLID
  5
E78
330
801
100
AcDbEntity
  8
BEM
 62
     0
100
AcDbTrace
 10
76.22126398895773
 20
99.55074959883059
 30
0.0
 11
76.22126398895773
 21
98.38408293216394
 31
0.0
 12
72.72126398895773
 22
98.96741626549726
 32
0.0
 13
72.72126398895773
 23
98.96741626549726
 33
0.0
  0
SOLID
  5
E79
330
801
100
AcDbEntity
  8
BEM
 62
     0
100
AcDbTrace
 10
122.2212639889577
 20
99.55074959883059
 30
0.0
 11
122.2212639889577
 21
98.38408293216394
 31
0.0
 12
125.7212639889577
 22
98.96741626549726
 32
0.0
 13
125.7212639889577
 23
98.96741626549726
 33
0.0
  0
MTEXT
  5
E7A
330
801
100
AcDbEntity
  8
BEM
 62
     1
100
AcDbMText
 10
99.22126398895773
 20
101.7174162654972
 30
0.0
 40
3.5
 41
0.0
 71
     5
 72
     1
  1
\A1;%%c53
 73
     1
 44
1.0
  0
POINT
  5
E7B
330
801
100
AcDbEntity
  8
DEFPOINTS
 62
     0
100
AcDbPoint
 10
72.72126398895773
 20
116.7860425959094
 30
0.0
  0
POINT
  5
E7C
330
801
100
AcDbEntity
  8
DEFPOINTS
 62
     0
100
AcDbPoint
 10
125.7212639889577
 20
116.7860425959095
 30
0.0
  0
POINT
  5
E7D
330
801
100
AcDbEntity
  8
DEFPOINTS
 62
     0
100
AcDbPoint
 10
125.7212639889577
 20
98.96741626549726
 30
0.0
  0
ENDBLK
  5
80C
330
801
100
AcDbEntity
  8
0
100
AcDbBlockEnd
  0
BLOCK
  5
817
330
80D
100
AcDbEntity
  8
0
100
AcDbBlockBegin
  2
*D4
 70
     1
 10
0.0
 20
0.0
 30
0.0
  3
*D4
  1

  0
LINE
  5
E7E
330
80D
100
AcDbEntity
  8
BEM
 62
     0
370
    -2
100
AcDbLine
 10
72.22126398895773
 20
111.7860425959095
 30
0.0
 11
48.11029212598142
 21
111.7860425959095
 31
0.0
  0
LINE
  5
E7F
330
80D
100
AcDbEntity
  8
BEM
 62
     0
370
    -2
100
AcDbLine
 10
68.07126398895775
 20
201.7860425959094
 30
0.0
 11
48.11029212598143
 21
201.7860425959094
 31
0.0
  0
LINE
  5
E80
330
80D
100
AcDbEntity
  8
BEM
 62
     0
370
    -2
100
AcDbLine
 10
49.11029212598142
 20
115.2860425959095
 30
0.0
 11
49.11029212598144
 21
198.2860425959094
 31
0.0
  0
SOLID
  5
E81
330
80D
100
AcDbEntity
  8
BEM
 62
     0
100
AcDbTrace
 10
48.52695879264809
 20
115.2860425959095
 30
0.0
 11
49.69362545931476
 21
115.2860425959095
 31
0.0
 12
49.11029212598141
 22
111.7860425959095
 32
0.0
 13
49.11029212598141
 23
111.7860425959095
 33
0.0
  0
SOLID
  5
E82
330
80D
100
AcDbEntity
  8
BEM
 62
     0
100
AcDbTrace
 10
48.5269587926481
 20
198.2860425959094
 30
0.0
 11
49.69362545931478
 21
198.2860425959094
 31
0.0
 12
49.11029212598144
 22
201.7860425959094
 32
0.0
 13
49.11029212598144
 23
201.7860425959094
 33
0.0
  0
MTEXT
  5
E83
330
80D
100
AcDbEntity
  8
BEM
 62
     1
100
AcDbMText
 10
46.3602921259814
 20
153.4839353269288
 30
0.0
 40
3.5
 41
0.0
 71
     5
 72
     1
  1
\A1;90
 11
0.0000000000000001
 21
1.0
 31
0.0
 73
     1
 44
1.0
  0
POINT
  5
E84
330
80D
100
AcDbEntity
  8
DEFPOINTS
 62
     0
100
AcDbPoint
 10
73.22126398895773
 20
111.7860425959095
 30
0.0
  0
POINT
  5
E85
330
80D
100
AcDbEntity
  8
DEFPOINTS
 62
     0
100
AcDbPoint
 10
69.07126398895775
 20
201.7860425959094
 30
0.0
  0
POINT
  5
E86
330
80D
100
AcDbEntity
  8
DEFPOINTS
 62
     0
100
AcDbPoint
 10
49.11029212598144
 20
201.7860425959094
 30
0.0
  0
ENDBLK
  5
818
330
80D
100
AcDbEntity
  8
0
100
AcDbBlockEnd
  0
BLOCK
  5
823
330
819
100
AcDbEntity
  8
0
100
AcDbBlockBegin
  2
*D5
 70
     1
 10
0.0
 20
0.0
 30
0.0
  3
*D5
  1

  0
LINE
  5
E87
330
819
100
AcDbEntity
  8
BEM
 62
     0
370
    -2
100
AcDbLine
 10
68.72126398895773
 20
251.7860425959092
 30
0.0
 11
41.1102921259815
 21
251.7860425959093
 31
0.0
  0
LINE
  5
E88
330
819
100
AcDbEntity
  8
BEM
 62
     0
370
    -2
100
AcDbLine
 10
72.22126398895773
 20
111.7860425959095
 30
0.0
 11
41.11029212598146
 21
111.7860425959095
 31
0.0
  0
LINE
  5
E89
330
819
100
AcDbEntity
  8
BEM
 62
     0
370
    -2
100
AcDbLine
 10
42.11029212598149
 20
248.2860425959092
 30
0.0
 11
42.11029212598146
 21
115.2860425959095
 31
0.0
  0
SOLID
  5
E8A
330
819
100
AcDbEntity
  8
BEM
 62
     0
100
AcDbTrace
 10
41.52695879264816
 20
248.2860425959092
 30
0.0
 11
42.69362545931483
 21
248.2860425959092
 31
0.0
 12
42.11029212598149
 22
251.7860425959093
 32
0.0
 13
42.11029212598149
 23
251.7860425959093
 33
0.0
  0
SOLID
  5
E8B
330
819
100
AcDbEntity
  8
BEM
 62
     0
100
AcDbTrace
 10
41.52695879264813
 20
115.2860425959095
 30
0.0
 11
42.6936254593148
 21
115.2860425959095
 31
0.0
 12
42.11029212598146
 22
111.7860425959095
 32
0.0
 13
42.11029212598146
 23
111.7860425959095
 33
0.0
  0
MTEXT
  5
E8C
330
819
100
AcDbEntity
  8
BEM
 62
     1
100
AcDbMText
 10
39.36029212598145
 20
181.7860425959094
 30
0.0
 40
3.5
 41
0.0
 71
     5
 72
     1
  1
\A1;140
 11
0.0000000000000001
 21
1.0
 31
0.0
 73
     1
 44
1.0
  0
POINT
  5
E8D
330
819
100
AcDbEntity
  8
DEFPOINTS
 62
     0
100
AcDbPoint
 10
69.72126398895773
 20
251.7860425959092
 30
0.0
  0
POINT
  5
E8E
330
819
100
AcDbEntity
  8
DEFPOINTS
 62
     0
100
AcDbPoint
 10
73.22126398895773
 20
111.7860425959095
 30
0.0
  0
POINT
  5
E8F
330
819
100
AcDbEntity
  8
DEFPOINTS
 62
     0
100
AcDbPoint
 10
42.11029212598146
 20
111.7860425959095
 30
0.0
  0
ENDBLK
  5
824
330
819
100
AcDbEntity
  8
0
100
AcDbBlockEnd
  0
BLOCK
  5
82F
330
825
100
AcDbEntity
  8
0
100
AcDbBlockBegin
  2
*D6
 70
     1
 10
0.0
 20
0.0
 30
0.0
  3
*D6
  1

  0
LINE
  5
E90
330
825
100
AcDbEntity
  8
BEM
 62
     0
370
    -2
100
AcDbLine
 10
68.7212639889577
 20
251.7860425959092
 30
0.0
 11
55.11029212598146
 21
251.7860425959093
 31
0.0
  0
LINE
  5
E91
330
825
100
AcDbEntity
  8
BEM
 62
     0
370
    -2
100
AcDbLine
 10
68.07126398895775
 20
227.7860425959093
 30
0.0
 11
55.11029212598145
 21
227.7860425959093
 31
0.0
  0
LINE
  5
E92
330
825
100
AcDbEntity
  8
BEM
 62
     0
370
    -2
100
AcDbLine
 10
56.11029212598147
 20
248.2860425959092
 30
0.0
 11
56.11029212598146
 21
231.2860425959093
 31
0.0
  0
SOLID
  5
E93
330
825
100
AcDbEntity
  8
BEM
 62
     0
100
AcDbTrace
 10
55.52695879264813
 20
248.2860425959092
 30
0.0
 11
56.6936254593148
 21
248.2860425959092
 31
0.0
 12
56.11029212598147
 22
251.7860425959093
 32
0.0
 13
56.11029212598147
 23
251.7860425959093
 33
0.0
  0
SOLID
  5
E94
330
825
100
AcDbEntity
  8
BEM
 62
     0
100
AcDbTrace
 10
55.52695879264812
 20
231.2860425959093
 30
0.0
 11
56.6936254593148
 21
231.2860425959093
 31
0.0
 12
56.11029212598146
 22
227.7860425959093
 32
0.0
 13
56.11029212598146
 23
227.7860425959093
 33
0.0
  0
MTEXT
  5
E95
330
825
100
AcDbEntity
  8
BEM
 62
     1
100
AcDbMText
 10
53.36029212598142
 20
239.7860425959093
 30
0.0
 40
3.5
 41
0.0
 71
     5
 72
     1
  1
\A1;24
 11
0.0000000000000001
 21
1.0
 31
0.0
 73
     1
 44
1.0
  0
POINT
  5
E96
330
825
100
AcDbEntity
  8
DEFPOINTS
 62
     0
100
AcDbPoint
 10
69.7212639889577
 20
251.7860425959092
 30
0.0
  0
POINT
  5
E97
330
825
100
AcDbEntity
  8
DEFPOINTS
 62
     0
100
AcDbPoint
 10
69.07126398895775
 20
227.7860425959093
 30
0.0
  0
POINT
  5
E98
330
825
100
AcDbEntity
  8
DEFPOINTS
 62
     0
100
AcDbPoint
 10
56.11029212598146
 20
227.7860425959093
 30
0.0
  0
ENDBLK
  5
830
330
825
100
AcDbEntity
  8
0
100
AcDbBlockEnd
  0
ENDSEC
  0
SECTION
  2
ENTITIES
  0
TEXT
  5
172
330
20
100
AcDbEntity
  8
VOLL
100
AcDbText
 10
78.07675471698113
 20
31.02594776470585
 30
0.0
 40
1.8
  1

  7
GREEKS
100
AcDbText
  0
TEXT
  5
173
330
20
100
AcDbEntity
  8
TEXT
 62
     1
100
AcDbText
 10
139.8287445962294
 20
110.2988583489284
 30
0.0
 40
3.5
  1
Rohrende leicht eingezogen
 41
0.8
  7
GREEKS
100
AcDbText
  0
TEXT
  5
18B
330
20
100
AcDbEntity
  8
VOLL
100
AcDbText
 10
331.4496667944847
 20
36.36167140788151
 30
0.0
 40
1.8
  1

  7
GREEKS
100
AcDbText
  0
TEXT
  5
18C
330
20
100
AcDbEntity
  8
VOLL
100
AcDbText
 10
899.2598929781514
 20
13.50595203541629
 30
0.0
 40
1.8
  1

  7
GREEKS
100
AcDbText
  0
TEXT
  5
18D
330
20
100
AcDbEntity
  8
TEXT
100
AcDbText
 10
1231.092161181744
 20
19.06418756864183
 30
0.0
 40
2.5
  1
  
  7
GREEKS
 72
     1
 11
1233.354065943649
 21
19.06418756864183
 31
0.0
100
AcDbText
  0
TEXT
  5
18E
330
20
100
AcDbEntity
  8
BEM
100
AcDbText
 10
1475.211878494226
 20
154.6230695990441
 30
0.0
 40
2.5
  1
 
 72
     4
 11
1476.342830875179
 21
154.6230695990441
 31
0.0
100
AcDbText
  0
TEXT
  5
18F
330
20
100
AcDbEntity
  8
BEM
100
AcDbText
 10
1054.399495134947
 20
33.83936292509285
 30
0.0
 40
2.5
  1

  7
GREEKS
100
AcDbText
  0
TEXT
  5
190
330
20
100
AcDbEntity
  8
VOLL
100
AcDbText
 10
1040.333302115226
 20
13.65610226805773
 30
0.0
 40
1.8
  1

  7
GREEKS
100
AcDbText
  0
TEXT
  5
191
330
20
100
AcDbEntity
  8
BEM
100
AcDbText
 10
1074.82136695451
 20
18.38182659127833
 30
0.0
 40
2.5
  1

 41
0.8
  7
GREEKS
100
AcDbText
  0
TEXT
  5
192
330
20
100
AcDbEntity
  8
BEM
100
AcDbText
 10
1074.82136695451
 20
13.68805803722617
 30
0.0
 40
2.5
  1

 41
0.8
  7
GREEKS
100
AcDbText
  0
TEXT
  5
193
330
20
100
AcDbEntity
  8
BEM
100
AcDbText
 10
1074.82136695451
 20
8.450214218562685
 30
0.0
 40
2.5
  1

 41
0.8
  7
GREEKS
100
AcDbText
  0
TEXT
  5
194
330
20
100
AcDbEntity
  8
BEM
100
AcDbText
 10
1074.748422477136
 20
3.945025268465053
 30
0.0
 40
1.8
  1

 41
0.8
  7
GREEKS
100
AcDbText
  0
TEXT
  5
195
330
20
100
AcDbEntity
  8
BEM
100
AcDbText
 10
1062.064851597525
 20
29.53661436469034
 30
0.0
 40
2.0
  1

 41
0.8
  7
GREEKS
 72
     1
 11
1062.064851597525
 21
29.53661436469034
 31
0.0
100
AcDbText
  0
TEXT
  5
196
330
20
100
AcDbEntity
  8
TEXT
100
AcDbText
 10
1372.165570318819
 20
19.21433780128328
 30
0.0
 40
2.5
  1
  
  7
GREEKS
 72
     1
 11
1374.427475080724
 21
19.21433780128328
 31
0.0
100
AcDbText
  0
TEXT
  5
197
330
20
100
AcDbEntity
  8
BEM
100
AcDbText
 10
1616.285287631301
 20
154.7732198316855
 30
0.0
 40
2.5
  1
 
 72
     4
 11
1617.416240012253
 21
154.7732198316855
 31
0.0
100
AcDbText
  0
TEXT
  5
199
330
20
100
AcDbEntity
  8
VOLL
100
AcDbText
 10
618.200621207219
 20
12.32817802407634
 30
0.0
 40
1.8
  1

  7
GREEKS
100
AcDbText
  0
TEXT
  5
19A
330
20
100
AcDbEntity
  8
VOLL
100
AcDbText
 10
388.5203355058782
 20
34.02628420399041
 30
0.0
 40
1.8
  1

  7
GREEKS
100
AcDbText
  0
TEXT
  5
19B
330
20
100
AcDbEntity
  8
VOLL
100
AcDbText
 10
956.330561689545
 20
11.17056483152519
 30
0.0
 40
1.8
  1

  7
GREEKS
100
AcDbText
  0
TEXT
  5
19C
330
20
100
AcDbEntity
  8
TEXT
100
AcDbText
 10
1288.162829893138
 20
16.72880036475073
 30
0.0
 40
2.5
  1
  
  7
GREEKS
 72
     1
 11
1290.424734655043
 21
16.72880036475073
 31
0.0
100
AcDbText
  0
TEXT
  5
19D
330
20
100
AcDbEntity
  8
BEM
100
AcDbText
 10
1532.28254720562
 20
152.2876823951529
 30
0.0
 40
2.5
  1
 
 72
     4
 11
1533.413499586572
 21
152.2876823951529
 31
0.0
100
AcDbText
  0
TEXT
  5
19E
330
20
100
AcDbEntity
  8
BEM
100
AcDbText
 10
1111.470163846341
 20
31.50397572120175
 30
0.0
 40
2.5
  1

  7
GREEKS
100
AcDbText
  0
TEXT
  5
19F
330
20
100
AcDbEntity
  8
VOLL
100
AcDbText
 10
1097.403970826619
 20
11.32071506416663
 30
0.0
 40
1.8
  1

  7
GREEKS
100
AcDbText
  0
TEXT
  5
1A0
330
20
100
AcDbEntity
  8
BEM
100
AcDbText
 10
1131.892035665904
 20
16.04643938738723
 30
0.0
 40
2.5
  1

 41
0.8
  7
GREEKS
100
AcDbText
  0
TEXT
  5
1A1
330
20
100
AcDbEntity
  8
BEM
100
AcDbText
 10
1131.892035665904
 20
11.35267083333507
 30
0.0
 40
2.5
  1

 41
0.8
  7
GREEKS
100
AcDbText
  0
TEXT
  5
1A2
330
20
100
AcDbEntity
  8
BEM
100
AcDbText
 10
1131.892035665904
 20
6.114827014671585
 30
0.0
 40
2.5
  1

 41
0.8
  7
GREEKS
100
AcDbText
  0
TEXT
  5
1A3
330
20
100
AcDbEntity
  8
BEM
100
AcDbText
 10
1131.819091188529
 20
1.609638064573952
 30
0.0
 40
1.8
  1

 41
0.8
  7
GREEKS
100
AcDbText
  0
TEXT
  5
1A4
330
20
100
AcDbEntity
  8
BEM
100
AcDbText
 10
1119.135520308918
 20
27.20122716079924
 30
0.0
 40
2.0
  1

 41
0.8
  7
GREEKS
 72
     1
 11
1119.135520308918
 21
27.20122716079924
 31
0.0
100
AcDbText
  0
TEXT
  5
1A5
330
20
100
AcDbEntity
  8
TEXT
100
AcDbText
 10
1429.236239030212
 20
16.87895059739218
 30
0.0
 40
2.5
  1
  
  7
GREEKS
 72
     1
 11
1431.498143792117
 21
16.87895059739218
 31
0.0
100
AcDbText
  0
TEXT
  5
1A6
330
20
100
AcDbEntity
  8
BEM
100
AcDbText
 10
1673.355956342694
 20
152.4378326277944
 30
0.0
 40
2.5
  1
 
 72
     4
 11
1674.486908723647
 21
152.4378326277944
 31
0.0
100
AcDbText
  0
TEXT
  5
1B4
330
20
100
AcDbEntity
  8
VOLL
100
AcDbText
 10
675.2712899186125
 20
9.992790820185245
 30
0.0
 40
1.8
  1

  7
GREEKS
100
AcDbText
  0
TEXT
  5
1FC
330
20
100
AcDbEntity
  8
VOLL
100
AcDbText
 10
356.0670905133145
 20
64.39945427926319
 30
0.0
 40
1.8
  1

  7
GREEKS
100
AcDbText
  0
TEXT
  5
1FD
330
20
100
AcDbEntity
  8
VOLL
100
AcDbText
 10
923.8773166969814
 20
41.54373490679797
 30
0.0
 40
1.8
  1

  7
GREEKS
100
AcDbText
  0
TEXT
  5
1FE
330
20
100
AcDbEntity
  8
TEXT
100
AcDbText
 10
1255.709584900574
 20
47.10197044002351
 30
0.0
 40
2.5
  1
  
  7
GREEKS
 72
     1
 11
1257.971489662479
 21
47.10197044002351
 31
0.0
100
AcDbText
  0
TEXT
  5
1FF
330
20
100
AcDbEntity
  8
BEM
100
AcDbText
 10
1499.829302213056
 20
182.6608524704257
 30
0.0
 40
2.5
  1
 
 72
     4
 11
1500.960254594008
 21
182.6608524704257
 31
0.0
100
AcDbText
  0
TEXT
  5
200
330
20
100
AcDbEntity
  8
BEM
100
AcDbText
 10
1079.016918853777
 20
61.87714579647453
 30
0.0
 40
2.5
  1

  7
GREEKS
100
AcDbText
  0
TEXT
  5
201
330
20
100
AcDbEntity
  8
VOLL
100
AcDbText
 10
1064.950725834056
 20
41.69388513943942
 30
0.0
 40
1.8
  1

  7
GREEKS
100
AcDbText
  0
TEXT
  5
202
330
20
100
AcDbEntity
  8
BEM
100
AcDbText
 10
1099.43879067334
 20
46.41960946266002
 30
0.0
 40
2.5
  1

 41
0.8
  7
GREEKS
100
AcDbText
  0
TEXT
  5
203
330
20
100
AcDbEntity
  8
BEM
100
AcDbText
 10
1099.43879067334
 20
41.72584090860786
 30
0.0
 40
2.5
  1

 41
0.8
  7
GREEKS
100
AcDbText
  0
TEXT
  5
204
330
20
100
AcDbEntity
  8
BEM
100
AcDbText
 10
1099.43879067334
 20
36.48799708994437
 30
0.0
 40
2.5
  1

 41
0.8
  7
GREEKS
100
AcDbText
  0
TEXT
  5
205
330
20
100
AcDbEntity
  8
BEM
100
AcDbText
 10
1099.365846195966
 20
31.98280813984674
 30
0.0
 40
1.8
  1

 41
0.8
  7
GREEKS
100
AcDbText
  0
TEXT
  5
206
330
20
100
AcDbEntity
  8
BEM
100
AcDbText
 10
1086.682275316354
 20
57.57439723607202
 30
0.0
 40
2.0
  1

 41
0.8
  7
GREEKS
 72
     1
 11
1086.682275316354
 21
57.57439723607202
 31
0.0
100
AcDbText
  0
TEXT
  5
207
330
20
100
AcDbEntity
  8
TEXT
100
AcDbText
 10
1396.782994037649
 20
47.25212067266496
 30
0.0
 40
2.5
  1
  
  7
GREEKS
 72
     1
 11
1399.044898799553
 21
47.25212067266496
 31
0.0
100
AcDbText
  0
TEXT
  5
208
330
20
100
AcDbEntity
  8
BEM
100
AcDbText
 10
1640.902711350131
 20
182.8110027030671
 30
0.0
 40
2.5
  1
 
 72
     4
 11
1642.033663731083
 21
182.8110027030671
 31
0.0
100
AcDbText
  0
TEXT
  5
209
330
20
100
AcDbEntity
  8
VOLL
100
AcDbText
 10
642.8180449260487
 20
40.36596089545803
 30
0.0
 40
1.8
  1

  7
GREEKS
100
AcDbText
  0
TEXT
  5
20A
330
20
100
AcDbEntity
  8
VOLL
100
AcDbText
 10
910.8691444866948
 20
84.83362976404638
 30
0.0
 40
1.8
  1

  7
GREEKS
100
AcDbText
  0
TEXT
  5
20B
330
20
100
AcDbEntity
  8
TEXT
100
AcDbText
 10
1242.701412690288
 20
90.39186529727192
 30
0.0
 40
2.5
  1
  
  7
GREEKS
 72
     1
 11
1244.963317452193
 21
90.39186529727192
 31
0.0
100
AcDbText
  0
TEXT
  5
20C
330
20
100
AcDbEntity
  8
BEM
100
AcDbText
 10
1486.82113000277
 20
225.9507473276741
 30
0.0
 40
2.5
  1
 
 72
     4
 11
1487.952082383722
 21
225.9507473276741
 31
0.0
100
AcDbText
  0
TEXT
  5
20D
330
20
100
AcDbEntity
  8
BEM
100
AcDbText
 10
1066.008746643491
 20
105.1670406537229
 30
0.0
 40
2.5
  1

  7
GREEKS
100
AcDbText
  0
TEXT
  5
20E
330
20
100
AcDbEntity
  8
VOLL
100
AcDbText
 10
1051.942553623769
 20
84.98377999668781
 30
0.0
 40
1.8
  1

  7
GREEKS
100
AcDbText
  0
TEXT
  5
20F
330
20
100
AcDbEntity
  8
BEM
100
AcDbText
 10
1086.430618463054
 20
89.70950431990841
 30
0.0
 40
2.5
  1

 41
0.8
  7
GREEKS
100
AcDbText
  0
TEXT
  5
210
330
20
100
AcDbEntity
  8
BEM
100
AcDbText
 10
1086.430618463054
 20
85.01573576585625
 30
0.0
 40
2.5
  1

 41
0.8
  7
GREEKS
100
AcDbText
  0
TEXT
  5
211
330
20
100
AcDbEntity
  8
BEM
100
AcDbText
 10
1086.430618463054
 20
79.77789194719277
 30
0.0
 40
2.5
  1

 41
0.8
  7
GREEKS
100
AcDbText
  0
TEXT
  5
212
330
20
100
AcDbEntity
  8
BEM
100
AcDbText
 10
1086.357673985679
 20
75.27270299709513
 30
0.0
 40
1.8
  1

 41
0.8
  7
GREEKS
100
AcDbText
  0
TEXT
  5
213
330
20
100
AcDbEntity
  8
BEM
100
AcDbText
 10
1073.674103106068
 20
100.8642920933204
 30
0.0
 40
2.0
  1

 41
0.8
  7
GREEKS
 72
     1
 11
1073.674103106068
 21
100.8642920933204
 31
0.0
100
AcDbText
  0
TEXT
  5
214
330
20
100
AcDbEntity
  8
TEXT
100
AcDbText
 10
1383.774821827362
 20
90.54201552991335
 30
0.0
 40
2.5
  1
  
  7
GREEKS
 72
     1
 11
1386.036726589267
 21
90.54201552991335
 31
0.0
100
AcDbText
  0
TEXT
  5
215
330
20
100
AcDbEntity
  8
BEM
100
AcDbText
 10
1627.894539139844
 20
226.1008975603155
 30
0.0
 40
2.5
  1
 
 72
     4
 11
1629.025491520797
 21
226.1008975603155
 31
0.0
100
AcDbText
  0
TEXT
  5
216
330
20
100
AcDbEntity
  8
VOLL
100
AcDbText
 10
1232.591297152202
 20
102.0374251290535
 30
0.0
 40
1.8
  1

  7
GREEKS
100
AcDbText
  0
TEXT
  5
217
330
20
100
AcDbEntity
  8
TEXT
100
AcDbText
 10
1564.423565355795
 20
107.5956606622791
 30
0.0
 40
2.5
  1
  
  7
GREEKS
 72
     1
 11
1566.6854701177
 21
107.5956606622791
 31
0.0
100
AcDbText
  0
TEXT
  5
218
330
20
100
AcDbEntity
  8
BEM
100
AcDbText
 10
1808.543282668278
 20
243.1545426926813
 30
0.0
 40
2.5
  1
 
 72
     4
 11
1809.67423504923
 21
243.1545426926813
 31
0.0
100
AcDbText
  0
TEXT
  5
219
330
20
100
AcDbEntity
  8
BEM
100
AcDbText
 10
1387.730899308998
 20
122.3708360187301
 30
0.0
 40
2.5
  1

  7
GREEKS
100
AcDbText
  0
TEXT
  5
21A
330
20
100
AcDbEntity
  8
VOLL
100
AcDbText
 10
1373.664706289277
 20
102.187575361695
 30
0.0
 40
1.8
  1

  7
GREEKS
100
AcDbText
  0
TEXT
  5
21B
330
20
100
AcDbEntity
  8
BEM
100
AcDbText
 10
1408.152771128562
 20
106.9132996849156
 30
0.0
 40
2.5
  1

 41
0.8
  7
GREEKS
100
AcDbText
  0
TEXT
  5
21C
330
20
100
AcDbEntity
  8
BEM
100
AcDbText
 10
1408.152771128562
 20
102.2195311308634
 30
0.0
 40
2.5
  1

 41
0.8
  7
GREEKS
100
AcDbText
  0
TEXT
  5
21D
330
20
100
AcDbEntity
  8
BEM
100
AcDbText
 10
1408.152771128562
 20
96.98168731219995
 30
0.0
 40
2.5
  1

 41
0.8
  7
GREEKS
100
AcDbText
  0
TEXT
  5
21E
330
20
100
AcDbEntity
  8
BEM
100
AcDbText
 10
1408.079826651187
 20
92.47649836210232
 30
0.0
 40
1.8
  1

 41
0.8
  7
GREEKS
100
AcDbText
  0
TEXT
  5
21F
330
20
100
AcDbEntity
  8
BEM
100
AcDbText
 10
1395.396255771576
 20
118.0680874583276
 30
0.0
 40
2.0
  1

 41
0.8
  7
GREEKS
 72
     1
 11
1395.396255771576
 21
118.0680874583276
 31
0.0
100
AcDbText
  0
TEXT
  5
220
330
20
100
AcDbEntity
  8
TEXT
100
AcDbText
 10
1705.49697449287
 20
107.7458108949205
 30
0.0
 40
2.5
  1
  
  7
GREEKS
 72
     1
 11
1707.758879254775
 21
107.7458108949205
 31
0.0
100
AcDbText
  0
TEXT
  5
221
330
20
100
AcDbEntity
  8
BEM
100
AcDbText
 10
1949.616691805352
 20
243.3046929253227
 30
0.0
 40
2.5
  1
 
 72
     4
 11
1950.747644186304
 21
243.3046929253227
 31
0.0
100
AcDbText
  0
TEXT
  5
222
330
20
100
AcDbEntity
  8
VOLL
100
AcDbText
 10
951.5320253812701
 20
100.8596511177136
 30
0.0
 40
1.8
  1

  7
GREEKS
100
AcDbText
  0
LINE
  5
2A0
330
20
100
AcDbEntity
  8
STEMPEL
100
AcDbLine
 10
205.0
 20
55.00000000000003
 30
0.0
 11
19.99999999999998
 21
55.0
 31
0.0
  0
LINE
  5
2A1
330
20
100
AcDbEntity
  8
STEMPEL
100
AcDbLine
 10
68.00000000000006
 20
54.99999999999997
 30
0.0
 11
68.0
 21
4.999999999999985
 31
0.0
  0
LINE
  5
2A2
330
20
100
AcDbEntity
  8
STEMPEL
100
AcDbLine
 10
110.0
 20
55.00000000000003
 30
0.0
 11
110.0
 21
4.999999999999985
 31
0.0
  0
LINE
  5
2A3
330
20
100
AcDbEntity
  8
STEMPEL
100
AcDbLine
 10
166.0
 20
54.99999999999989
 30
0.0
 11
166.0
 21
20.0
 31
0.0
  0
LINE
  5
2A4
330
20
100
AcDbEntity
  8
STEMPEL
100
AcDbLine
 10
67.99999999999994
 20
14.99999999999998
 30
0.0
 11
19.99999999999998
 21
14.99999999999998
 31
0.0
  0
LINE
  5
2A5
330
20
100
AcDbEntity
  8
STEMPEL
100
AcDbLine
 10
205.0
 20
20.0
 30
0.0
 11
68.00000000000006
 21
19.99999999999998
 31
0.0
  0
LINE
  5
2A6
330
20
100
AcDbEntity
  8
STEMPEL
100
AcDbLine
 10
205.0
 20
40.0
 30
0.0
 11
68.00000000000006
 21
39.99999999999997
 31
0.0
  0
LINE
  5
2A7
330
20
100
AcDbEntity
  8
VOLL
100
AcDbLine
 10
27.00000000000005
 20
55.00000000000003
 30
0.0
 11
26.99999999999999
 21
4.999999999999985
 31
0.0
  0
LINE
  5
2A8
330
20
100
AcDbEntity
  8
VOLL
100
AcDbLine
 10
47.00000000000005
 20
54.99999999999997
 30
0.0
 11
47.0
 21
4.999999999999985
 31
0.0
  0
LINE
  5
2A9
330
20
100
AcDbEntity
  8
VOLL
100
AcDbLine
 10
57.00000000000006
 20
54.99999999999997
 30
0.0
 11
57.0
 21
4.999999999999985
 31
0.0
  0
LINE
  5
2AA
330
20
100
AcDbEntity
  8
VOLL
100
AcDbLine
 10
77.00000000000006
 20
39.99999999999997
 30
0.0
 11
77.00000000000006
 21
19.99999999999998
 31
0.0
  0
LINE
  5
2AB
330
20
100
AcDbEntity
  8
VOLL
100
AcDbLine
 10
90.00000000000005
 20
54.99999999999992
 30
0.0
 11
90.0
 21
19.99999999999998
 31
0.0
  0
LINE
  5
2AC
330
20
100
AcDbEntity
  8
HILF
100
AcDbLine
 10
20.00000000000004
 20
50.00000000000003
 30
0.0
 11
68.00000000000006
 21
50.00000000000003
 31
0.0
  0
LINE
  5
2AD
330
20
100
AcDbEntity
  8
HILF
100
AcDbLine
 10
20.00000000000004
 20
45.00000000000002
 30
0.0
 11
68.00000000000006
 21
45.00000000000002
 31
0.0
  0
LINE
  5
2AE
330
20
100
AcDbEntity
  8
HILF
100
AcDbLine
 10
20.00000000000004
 20
39.99999999999997
 30
0.0
 11
68.00000000000006
 21
39.99999999999997
 31
0.0
  0
LINE
  5
2AF
330
20
100
AcDbEntity
  8
HILF
100
AcDbLine
 10
20.00000000000004
 20
34.99999999999997
 30
0.0
 11
68.00000000000006
 21
34.99999999999997
 31
0.0
  0
LINE
  5
2B0
330
20
100
AcDbEntity
  8
HILF
100
AcDbLine
 10
20.00000000000004
 20
29.99999999999999
 30
0.0
 11
68.00000000000006
 21
29.99999999999999
 31
0.0
  0
LINE
  5
2B1
330
20
100
AcDbEntity
  8
HILF
100
AcDbLine
 10
20.00000000000004
 20
24.99999999999999
 30
0.0
 11
68.00000000000006
 21
24.99999999999999
 31
0.0
  0
LINE
  5
2B2
330
20
100
AcDbEntity
  8
HILF
100
AcDbLine
 10
20.00000000000004
 20
19.99999999999998
 30
0.0
 11
68.00000000000006
 21
19.99999999999998
 31
0.0
  0
LINE
  5
2B3
330
20
100
AcDbEntity
  8
HILF
100
AcDbLine
 10
68.00000000000006
 20
34.99999999999997
 30
0.0
 11
110.0
 21
34.99999999999997
 31
0.0
  0
LINE
  5
2B4
330
20
100
AcDbEntity
  8
HILF
100
AcDbLine
 10
68.00000000000006
 20
29.99999999999999
 30
0.0
 11
110.0
 21
29.99999999999999
 31
0.0
  0
LINE
  5
2B5
330
20
100
AcDbEntity
  8
HILF
100
AcDbLine
 10
68.00000000000006
 20
24.99999999999999
 30
0.0
 11
110.0
 21
24.99999999999999
 31
0.0
  0
LINE
  5
2B6
330
20
100
AcDbEntity
  8
HILF
100
AcDbLine
 10
112.3868400548474
 20
42.01879123782069
 30
0.0
 11
162.4176958278155
 21
42.01879123782069
 31
0.0
  0
LINE
  5
2B7
330
20
100
AcDbEntity
  8
HILF
100
AcDbLine
 10
112.3868400548474
 20
34.99999999999997
 30
0.0
 11
162.4176958278155
 21
34.99999999999997
 31
0.0
  0
LINE
  5
2B8
330
20
100
AcDbEntity
  8
HILF
100
AcDbLine
 10
112.3868400548474
 20
29.99999999999999
 30
0.0
 11
162.4176958278155
 21
29.99999999999999
 31
0.0
  0
LINE
  5
2B9
330
20
100
AcDbEntity
  8
HILF
100
AcDbLine
 10
112.3868400548474
 20
24.99999999999999
 30
0.0
 11
162.4176958278155
 21
24.99999999999999
 31
0.0
  0
LINE
  5
2BA
330
20
100
AcDbEntity
  8
VOLL
100
AcDbLine
 10
166.0
 20
30.0
 30
0.0
 11
205.0
 21
30.0
 31
0.0
  0
LINE
  5
2BB
330
20
100
AcDbEntity
  8
HILF
100
AcDbLine
 10
168.3619308148496
 20
41.88991818477913
 30
0.0
 11
202.4294419663364
 21
41.88991818477913
 31
0.0
  0
LINE
  5
2BC
330
20
100
AcDbEntity
  8
HILF
100
AcDbLine
 10
111.7454849644942
 20
7.446991290141568
 30
0.0
 11
202.4294419663364
 21
7.446991290141568
 31
0.0
  0
TEXT
  5
2BD
330
20
100
AcDbEntity
  8
TEXT
100
AcDbText
 10
31.62857142857143
 20
9.142857142857135
 30
0.0
 40
2.0
  1
Änderung
 41
0.8
 72
     4
 11
37.0
 21
9.999999999999992
 31
0.0
100
AcDbText
  0
TEXT
  5
2BE
330
20
100
AcDbEntity
  8
TEXT
100
AcDbText
 10
112.4389701904505
 20
51.27446640058898
 30
0.0
 40
2.5
  1
Benennung
 41
0.8
100
AcDbText
  0
TEXT
  5
2BF
330
20
100
AcDbEntity
  8
TEXT
100
AcDbText
 10
168.089377478817
 20
51.15660172685682
 30
0.0
 40
2.5
  1
Zeichnungs Nr.
 41
0.8
100
AcDbText
  0
TEXT
  5
2C0
330
20
100
AcDbEntity
  8
TEXT
100
AcDbText
 10
112.371119195568
 20
15.42280285096528
 30
0.0
 40
2.5
  1
Bauvorhaben
 41
0.8
100
AcDbText
  0
TEXT
  5
2C1
330
20
100
AcDbEntity
  8
TEXT
100
AcDbText
 10
168.3619308148496
 20
36.59059118549985
 30
0.0
 40
2.5
  1
Ersatz für:
 41
0.8
100
AcDbText
  0
TEXT
  5
2C2
330
20
100
AcDbEntity
  8
TEXT
100
AcDbText
 10
24.13320553522878
 20
6.827329230135958
 30
0.0
 40
2.0
  1
Index
 50
90.0
 41
0.8
100
AcDbText
  0
TEXT
  5
2C3
330
20
100
AcDbEntity
  8
TEXT
100
AcDbText
 10
50.13333333333334
 20
9.333333333333326
 30
0.0
 40
2.0
  1
Tag
 41
0.8
 72
     4
 11
52.00000000000001
 21
9.999999999999992
 31
0.0
100
AcDbText
  0
TEXT
  5
2C4
330
20
100
AcDbEntity
  8
TEXT
100
AcDbText
 10
59.33809523809524
 20
8.999999999999992
 30
0.0
 40
2.0
  1
Name
 41
0.8
 72
     4
 11
62.5
 21
9.999999999999992
 31
0.0
100
AcDbText
  0
TEXT
  5
2C5
330
20
100
AcDbEntity
  8
TEXT
100
AcDbText
 10
68.79180635838077
 20
31.81495184808982
 30
0.0
 40
2.0
  1
Gez.
 41
0.8
100
AcDbText
  0
TEXT
  5
2C6
330
20
100
AcDbEntity
  8
TEXT
100
AcDbText
 10
68.77575432858361
 20
26.84463145714189
 30
0.0
 40
2.0
  1
Gepr.
 41
0.8
100
AcDbText
  0
TEXT
  5
2C7
330
20
100
AcDbEntity
  8
TEXT
100
AcDbText
 10
68.80033886936519
 20
21.76473194824904
 30
0.0
 40
2.0
  1
Norm.
 41
0.8
100
AcDbText
  0
LINE
  5
2C8
330
20
100
AcDbEntity
  8
STEMPEL
100
AcDbLine
 10
24.99999999999995
 20
5.0
 30
0.0
 11
205.0
 21
5.0
 31
0.0
  0
LINE
  5
2C9
330
20
100
AcDbEntity
  8
STEMPEL
100
AcDbLine
 10
205.0
 20
55.00000000000003
 30
0.0
 11
205.0
 21
5.0
 31
0.0
  0
TEXT
  5
2CA
330
20
100
AcDbEntity
  8
TEXT
100
AcDbText
 10
168.6200430748503
 20
26.03708088939301
 30
0.0
 40
2.5
  1
ersetzt durch:
 41
0.8
100
AcDbText
  0
LINE
  5
2CB
330
20
100
AcDbEntity
  8
STEMPEL
100
AcDbLine
 10
205.0
 20
5.0
 30
0.0
 11
19.99999999999994
 21
5.0
 31
0.0
  0
LINE
  5
2CC
330
20
100
AcDbEntity
  8
STEMPEL
100
AcDbLine
 10
205.0
 20
55.00000000000003
 30
0.0
 11
205.0
 21
292.0
 31
0.0
  0
LINE
  5
2CD
330
20
100
AcDbEntity
  8
STEMPEL
100
AcDbLine
 10
20.0
 20
5.0
 30
0.0
 11
19.99999999999994
 21
292.0
 31
0.0
  0
LINE
  5
2CE
330
20
100
AcDbEntity
  8
STEMPEL
100
AcDbLine
 10
205.0
 20
292.0
 30
0.0
 11
19.99999999999994
 21
292.0
 31
0.0
  0
LINE
  5
2CF
330
20
100
AcDbEntity
  8
HILF
100
AcDbLine
 10
0.0
 20
0.0
 30
0.0
 11
-0.0000000000000568
 21
297.0
 31
0.0
  0
LINE
  5
2D0
330
20
100
AcDbEntity
  8
HILF
100
AcDbLine
 10
210.0
 20
297.0000000000001
 30
0.0
 11
0.0
 21
297.0
 31
0.0
  0
LINE
  5
2D1
330
20
100
AcDbEntity
  8
HILF
100
AcDbLine
 10
210.0
 20
0.0
 30
0.0
 11
0.0
 21
0.0
 31
0.0
  0
LINE
  5
2D2
330
20
100
AcDbEntity
  8
HILF
100
AcDbLine
 10
15.54383567856928
 20
148.5
 30
0.0
 11
0.0000000000000568
 21
148.5
 31
0.0
  0
LINE
  5
2D3
330
20
100
AcDbEntity
  8
HILF
100
AcDbLine
 10
210.0
 20
-0.0000000000000568
 30
0.0
 11
210.0
 21
297.0
 31
0.0
  0
TEXT
  5
2D4
330
20
100
AcDbEntity
  8
VOLL
100
AcDbText
 10
78.07675471698113
 20
31.02594776470585
 30
0.0
 40
1.8
  1

  7
GREEKS
100
AcDbText
  0
TEXT
  5
2D5
330
20
100
AcDbEntity
  8
TEXT
100
AcDbText
 10
20.92754975488837
 20
55.83599999999997
 30
0.0
 40
2.5
  1
Erstellt mit AUTOCAD 2004
 41
0.8
100
AcDbText
  0
TEXT
  5
2D6
330
20
100
AcDbEntity
  8
TEXT
 62
     1
100
AcDbText
 10
174.5484943734535
 20
43.48645419278827
 30
0.0
 40
3.5
  1
5700050W
 41
0.8
  7
GREEKS
 72
     1
 11
185.2151610401202
 21
43.48645419278827
 31
0.0
100
AcDbText
  0
TEXT
  5
2D7
330
20
100
AcDbEntity
  8
TEXT
 62
     1
100
AcDbText
 10
112.3868400548474
 20
43.61532724582983
 30
0.0
 40
3.5
  1
Füllstutzen DN50
 41
0.8
100
AcDbText
  0
TEXT
  5
2D8
330
20
100
AcDbEntity
  8
TEXT
100
AcDbText
 10
112.5648195562657
 20
35.75167208792644
 30
0.0
 40
2.5
  1
mit Gewinde R2
 41
0.8
100
AcDbText
  0
TEXT
  5
2DA
330
20
100
AcDbEntity
  8
TEXT
100
AcDbText
 10
112.4918750788913
 20
21.31487076511316
 30
0.0
 40
2.0
  1
5700050W.DWG
 41
0.8
100
AcDbText
  0
INSERT
  5
2DB
330
20
100
AcDbEntity
  8
STEMPEL
100
AcDbBlockReference
  2
LOGO
 10
70.4977742728897
 20
22.51052638224161
 30
0.0
  0
TEXT
  5
2DC
330
20
100
AcDbEntity
  8
TEXT
100
AcDbText
 10
93.28571428571441
 20
51.27446640058896
 30
0.0
 40
2.5
  1
Zul. Abw.
 41
0.8
 72
     1
 11
100.0000000000001
 21
51.27446640058896
 31
0.0
100
AcDbText
  0
TEXT
  5
2DD
330
20
100
AcDbEntity
  8
TEXT
100
AcDbText
 10
73.09523809523833
 20
51.27446640058899
 30
0.0
 40
2.5
  1
Maßstab
 41
0.8
 72
     1
 11
79.00000000000023
 21
51.27446640058899
 31
0.0
100
AcDbText
  0
TEXT
  5
2DE
330
20
100
AcDbEntity
  8
TEXT
 62
     1
100
AcDbText
 10
76.60000000000022
 20
43.38398716376325
 30
0.0
 40
3.5
  1
1:1
 41
0.8
 72
     1
 11
79.00000000000023
 21
43.38398716376325
 31
0.0
100
AcDbText
  0
TEXT
  5
2DF
330
20
100
AcDbEntity
  8
TEXT
100
AcDbText
 10
96.83809523809536
 20
36.50000000000002
 30
0.0
 40
2.0
  1
Name
 41
0.8
 72
     4
 11
100.0000000000001
 21
37.50000000000002
 31
0.0
100
AcDbText
  0
TEXT
  5
2E0
330
20
100
AcDbEntity
  8
TEXT
100
AcDbText
 10
97.37142857142869
 20
31.50000000000002
 30
0.0
 40
2.0
  1
Koeh
 41
0.8
 72
     4
 11
100.0000000000001
 21
32.50000000000002
 31
0.0
100
AcDbText
  0
TEXT
  5
2E1
330
20
100
AcDbEntity
  8
TEXT
100
AcDbText
 10
80.30000000000011
 20
31.50000000000002
 30
0.0
 40
2.0
  1
13.12.
 41
0.8
 72
     4
 11
83.50000000000012
 21
32.50000000000002
 31
0.0
100
AcDbText
  0
TEXT
  5
2E2
330
20
100
AcDbEntity
  8
TEXT
100
AcDbText
 10
81.63333333333346
 20
36.83333333333335
 30
0.0
 40
2.0
  1
Tag
 41
0.8
 72
     4
 11
83.50000000000012
 21
37.50000000000002
 31
0.0
100
AcDbText
  0
TEXT
  5
2E3
330
20
100
AcDbEntity
  8
TEXT
100
AcDbText
 10
69.83333333333344
 20
36.50000000000002
 30
0.0
 40
2.0
  1
2010
 41
0.8
 72
     4
 11
72.50000000000011
 21
37.50000000000002
 31
0.0
100
AcDbText
  0
TEXT
  5
2E4
330
20
100
AcDbEntity
  8
TEXT
100
AcDbText
 10
208.2905770718719
 20
6.074024076691515
 30
0.0
 40
2.0
  1
Diese Zeichnung ist urheberrechtlich geschützt und bleibt unser Eigentum. Sie darf weder ganz noch teilweise vervielfältigt und nicht an Dritte weitergegeben werden.
 50
90.0
 41
0.8
100
AcDbText
  0
TEXT
  5
2E5
330
20
100
AcDbEntity
  8
TEXT35
100
AcDbText
 10
253.07001465536
 20
252.5107486555119
 30
0.0
 40
3.5
  1

 41
0.8
100
AcDbText
  0
TEXT
  5
2E7
330
20
100
AcDbEntity
  8
TEXT
100
AcDbText
 10
91.50476190476194
 20
44.00602005199405
 30
0.0
 40
2.0
  1
DIN EN1124-3
 41
0.8
 72
     1
 11
100.0
 21
44.00602005199405
 31
0.0
100
AcDbText
  0
TEXT
  5
664
330
20
100
AcDbEntity
  8
VOLL
100
AcDbText
 10
305.0060949310899
 20
156.507131281617
 30
0.0
 40
1.8
  1

  7
GREEKS
100
AcDbText
  0
HATCH
  5
7B4
330
20
100
AcDbEntity
  8
SCHRAFF
100
AcDbHatch
 10
0.0
 20
0.0
 30
0.0
210
0.0
220
0.0
230
1.0
  2
_USER
 70
     0
 71
     1
 91
        2
 92
       23
 72
     0
 73
     1
 93
        4
 10
127.5512639889577
 20
227.7860425959093
 10
129.3712639889577
 20
227.7860425959093
 10
128.5635716812653
 20
251.7860425959093
 10
127.5512639889577
 20
251.7860425959093
 97
        4
330
7BC
330
7C0
330
7C2
330
7B8
 92
        7
 72
     0
 73
     1
 93
        7
 10
125.7212639889577
 20
201.7860425959095
 10
127.2392923557513
 20
201.7860425959095
 10
129.3712639889578
 20
201.7860425959095
 10
129.3712639889577
 20
227.7860425959093
 10
127.5512639889577
 20
227.7860425959093
 10
127.5512639889577
 20
251.7860425959093
 10
125.7212639889577
 20
251.7860425959092
 97
        7
330
7C2
330
7C0
330
7BC
330
7BD
330
7D3
330
7E5
330
7BA
 75
     0
 76
     0
 52
135.0
 41
2.0
 77
     0
 78
     1
 53
135.0
 43
5.814618203058444
 44
-0.0000000000001705
 45
-1.414213562373095
 46
-1.414213562373094
 79
     0
 47
0.18921598717325
 98
        2
 10
128.0818174769592
 20
237.2649542370438
 10
127.3243795878693
 20
223.2629712019202
  0
HATCH
  5
7B5
330
20
100
AcDbEntity
  8
SCHRAFF
100
AcDbHatch
 10
0.0
 20
0.0
 30
0.0
210
0.0
220
0.0
230
1.0
  2
_USER
 70
     0
 71
     0
 91
        2
 92
        7
 72
     1
 73
     1
 93
        5
 10
71.23907824775677
 20
201.5555530547572
 42
0.0
 10
72.72126398895739
 20
201.7860425959094
 42
0.0
 10
69.07126398895775
 20
201.7860425959094
 42
0.0
 10
69.07126398895775
 20
203.6228059968412
 42
0.6356229981656938
 10
71.77606849154028
 20
198.1023842969877
 42
0.0
 97
        0
 92
        7
 72
     1
 73
     1
 93
        5
 10
129.3712639889577
 20
203.6228059968411
 42
0.0
 10
129.3712639889578
 20
201.7860425959095
 42
0.0
 10
125.7212639889574
 20
201.7860425959095
 42
0.0
 10
127.2034497301587
 20
201.5555530547572
 42
0.0
 10
126.6664594863752
 20
198.1023842969877
 42
0.6356229981656846
 97
        0
 75
     0
 76
     0
 52
0.0
 41
0.1
 77
     0
 78
     1
 53
0.0
 43
8.062059314070666
 44
0.0
 45
0.0
 46
0.1
 79
     0
 47
0.18921598717325
 98
        2
 10
69.72705343177882
 20
200.8715005508772
 10
128.8072040734221
 20
200.6822846395717
  0
LINE
  5
7B6
330
20
100
AcDbEntity
  8
STEMPEL
100
AcDbLine
 10
72.72126398895778
 20
201.7860425959095
 30
0.0
 11
71.23907824775677
 21
201.5555530547571
 31
0.0
  0
LINE
  5
7B7
102
{ACAD_REACTORS
330
E33
102
}
330
20
100
AcDbEntity
  8
STEMPEL
100
AcDbLine
 10
125.7212639889577
 20
201.7860425959095
 30
0.0
 11
127.2034497301587
 21
201.5555530547572
 31
0.0
  0
LINE
  5
7B8
102
{ACAD_REACTORS
330
7B4
102
}
330
20
100
AcDbEntity
  8
STEMPEL
100
AcDbLine
 10
129.3712639889577
 20
227.7860425959093
 30
0.0
 11
128.5635716812654
 21
251.7860425959093
 31
0.0
  0
LINE
  5
7B9
330
20
100
AcDbEntity
  8
STEMPEL
100
AcDbLine
 10
69.07126398895775
 20
227.7860425959093
 30
0.0
 11
69.87895629665008
 21
251.7860425959093
 31
0.0
  0
LINE
  5
7BA
102
{ACAD_REACTORS
330
7B4
102
}
330
20
100
AcDbEntity
  8
STEMPEL
100
AcDbLine
 10
129.3712639889577
 20
227.7860425959093
 30
0.0
 11
129.3712639889577
 21
201.7860425959095
 31
0.0
  0
LINE
  5
7BB
330
20
100
AcDbEntity
  8
STEMPEL
100
AcDbLine
 10
69.07126398895775
 20
227.7860425959094
 30
0.0
 11
69.07126398895775
 21
201.7860425959094
 31
0.0
  0
LINE
  5
7BC
102
{ACAD_REACTORS
330
7B4
102
}
330
20
100
AcDbEntity
  8
STEMPEL
100
AcDbLine
 10
69.87895629665008
 20
251.7860425959093
 30
0.0
 11
128.5635716812654
 21
251.7860425959093
 31
0.0
  0
LINE
  5
7BD
102
{ACAD_REACTORS
330
7B4
102
}
330
20
100
AcDbEntity
  8
STEMPEL
100
AcDbLine
 10
125.7212639889577
 20
251.7860425959093
 30
0.0
 11
125.7212639889577
 21
201.7860425959095
 31
0.0
  0
LINE
  5
7BF
330
20
100
AcDbEntity
  8
STEMPEL
100
AcDbLine
 10
69.07126398895775
 20
227.7860425959093
 30
0.0
 11
99.22126398895773
 21
227.7860425959093
 31
0.0
  0
LINE
  5
7C0
102
{ACAD_REACTORS
330
7B4
102
}
330
20
100
AcDbEntity
  8
HILF
100
AcDbLine
 10
127.5512639889577
 20
251.7860425959093
 30
0.0
 11
127.5512639889577
 21
227.7860425959093
 31
0.0
  0
LINE
  5
7C1
330
20
100
AcDbEntity
  8
HILF
100
AcDbLine
 10
70.89126398895775
 20
251.7860425959093
 30
0.0
 11
70.89126398895775
 21
227.7860425959093
 31
0.0
  0
LINE
  5
7C2
102
{ACAD_REACTORS
330
7B4
102
}
330
20
100
AcDbEntity
  8
HILF
100
AcDbLine
 10
127.5512639889577
 20
227.7860425959093
 30
0.0
 11
129.3712639889577
 21
227.7860425959093
 31
0.0
  0
LINE
  5
7C3
330
20
100
AcDbEntity
  8
TEXT
 62
     2
100
AcDbLine
 10
135.6910297150387
 20
253.5318289165334
 30
0.0
 11
128.8397684282287
 21
243.5790535432842
 31
0.0
  0
LINE
  5
7C6
330
20
100
AcDbEntity
  8
HILF
100
AcDbLine
 10
74.22874533212587
 20
116.7860425959095
 30
0.0
 11
122.7063013026214
 21
116.7860425959095
 31
0.0
  0
LINE
  5
7C7
102
{ACAD_REACTORS
330
E33
102
}
330
20
100
AcDbEntity
  8
STEMPEL
100
AcDbLine
 10
125.7212639889577
 20
116.7860425959095
 30
0.0
 11
125.2212639889577
 21
111.7860425959094
 31
0.0
  0
LINE
  5
7C8
330
20
100
AcDbEntity
  8
STEMPEL
100
AcDbLine
 10
72.72126398895773
 20
116.7860425959094
 30
0.0
 11
73.22126398895773
 21
111.7860425959095
 31
0.0
  0
DIMENSION
  5
7C9
330
20
100
AcDbEntity
  8
BEM
100
AcDbDimension
  2
*D6
 10
56.11029212598146
 20
227.7860425959093
 30
0.0
 11
53.36029212598142
 21
239.7860425959093
 31
0.0
 70
    32
 71
     5
 42
23.99999999999995
  3
Standard
100
AcDbAlignedDimension
 13
69.7212639889577
 23
251.7860425959092
 33
0.0
 14
69.07126398895775
 24
227.7860425959093
 34
0.0
 50
90.0
100
AcDbRotatedDimension
1001
ACAD
1000
DSTYLE
1002
{
1070
    41
1040
3.5
1070
    42
1040
1.0
1070
    43
1040
7.0
1070
    44
1040
1.0
1070
    47
1040
0.15
1070
    48
1040
0.15
1070
    73
1070
     0
1070
    74
1070
     0
1070
    77
1070
     1
1070
    78
1070
     8
1070
   140
1040
3.5
1070
   141
1040
1.5
1070
   146
1040
0.5142857142857144
1070
   147
1040
1.0
1070
   178
1070
     1
1070
   271
1070
     2
1070
   272
1070
     2
1070
   284
1070
     8
1070
   285
1070
     8
1070
   286
1070
     8
1002
}
  0
ARC
  5
7CA
330
20
100
AcDbEntity
  8
SCHRAFF
100
AcDbCircle
 10
97.44553219467611
 20
201.4018516976527
 30
0.0
 40
3.985623198924296
100
AcDbArc
 50
134.7552545108823
 51
232.405799150231
  0
ARC
  5
7CB
330
20
100
AcDbEntity
  8
SCHRAFF
100
AcDbCircle
 10
92.83557837604712
 20
201.4018516976527
 30
0.0
 40
3.985623198924296
100
AcDbArc
 50
134.7552545108823
 51
232.405799150231
  0
ARC
  5
7CC
330
20
100
AcDbEntity
  8
SCHRAFF
100
AcDbCircle
 10
88.79766569365221
 20
201.4018516976527
 30
0.0
 40
3.985623198924296
100
AcDbArc
 50
134.7552545108823
 51
232.405799150231
  0
ARC
  5
7CD
330
20
100
AcDbEntity
  8
SCHRAFF
100
AcDbCircle
 10
84.45690449552591
 20
201.4018516976527
 30
0.0
 40
3.985623198924296
100
AcDbArc
 50
134.7552545108823
 51
232.405799150231
  0
ARC
  5
7CE
330
20
100
AcDbEntity
  8
SCHRAFF
100
AcDbCircle
 10
80.25074350346006
 20
201.4018516976527
 30
0.0
 40
3.985623198924296
100
AcDbArc
 50
134.7552545108823
 51
232.405799150231
  0
LINE
  5
7CF
330
20
100
AcDbEntity
  8
MITTEL
100
AcDbLine
 10
99.22126398895773
 20
183.3788427916534
 30
0.0
 11
99.22126398895773
 21
106.7860425959094
 31
0.0
  0
LINE
  5
7D0
102
{ACAD_REACTORS
330
E33
102
}
330
20
100
AcDbEntity
  8
STEMPEL
100
AcDbLine
 10
125.7212639889577
 20
116.7860425959095
 30
0.0
 11
125.7212639889577
 21
192.0242113702886
 31
0.0
  0
LINE
  5
7D3
102
{ACAD_REACTORS
330
7B4
102
}
330
20
100
AcDbEntity
  8
SCHRAFF
100
AcDbLine
 10
127.2392923557513
 20
201.7860425959095
 30
0.0
 11
125.7212639889577
 21
201.7860425959095
 31
0.0
  0
LINE
  5
7D4
102
{ACAD_REACTORS
330
E33
102
}
330
20
100
AcDbEntity
  8
STEMPEL
100
AcDbLine
 10
125.7212639889577
 20
192.0242113702886
 30
0.0
 11
127.2034497301587
 21
201.5555530547572
 31
0.0
  0
DIMENSION
  5
7D5
330
20
100
AcDbEntity
  8
BEM
100
AcDbDimension
  2
*D5
 10
42.11029212598146
 20
111.7860425959095
 30
0.0
 11
39.36029212598145
 21
181.7860425959094
 31
0.0
 70
    32
 71
     5
 42
139.9999999999997
  3
Standard
100
AcDbAlignedDimension
 13
69.72126398895773
 23
251.7860425959092
 33
0.0
 14
73.22126398895773
 24
111.7860425959095
 34
0.0
 50
90.0
100
AcDbRotatedDimension
1001
ACAD
1000
DSTYLE
1002
{
1070
    41
1040
3.5
1070
    42
1040
1.0
1070
    43
1040
7.0
1070
    44
1040
1.0
1070
    47
1040
0.15
1070
    48
1040
0.15
1070
    73
1070
     0
1070
    74
1070
     0
1070
    77
1070
     1
1070
    78
1070
     8
1070
   140
1040
3.5
1070
   141
1040
1.5
1070
   146
1040
0.5142857142857144
1070
   147
1040
1.0
1070
   178
1070
     1
1070
   271
1070
     2
1070
   272
1070
     2
1070
   284
1070
     8
1070
   285
1070
     8
1070
   286
1070
     8
1002
}
  0
DIMENSION
  5
7D6
330
20
100
AcDbEntity
  8
BEM
100
AcDbDimension
  2
*D4
 10
49.11029212598144
 20
201.7860425959094
 30
0.0
 11
49.1102921259814
 21
153.4839353269288
 31
0.0
 70
   160
 71
     5
 42
89.99999999999992
  3
Standard
100
AcDbAlignedDimension
 13
73.22126398895773
 23
111.7860425959095
 33
0.0
 14
69.07126398895775
 24
201.7860425959094
 34
0.0
 50
90.0
100
AcDbRotatedDimension
1001
ACAD
1000
DSTYLE
1002
{
1070
    41
1040
3.5
1070
    42
1040
1.0
1070
    43
1040
7.0
1070
    44
1040
1.0
1070
    47
1040
0.15
1070
    48
1040
0.15
1070
    73
1070
     0
1070
    74
1070
     0
1070
    77
1070
     1
1070
    78
1070
     8
1070
   140
1040
3.5
1070
   141
1040
1.5
1070
   146
1040
0.5142857142857144
1070
   147
1040
1.0
1070
   178
1070
     1
1070
   271
1070
     2
1070
   272
1070
     2
1070
   284
1070
     8
1070
   285
1070
     8
1070
   286
1070
     8
1002
}
  0
DIMENSION
  5
7D7
330
20
100
AcDbEntity
  8
BEM
100
AcDbDimension
  2
*D3
 10
125.7212639889577
 20
98.96741626549726
 30
0.0
 11
99.22126398895773
 21
101.7174162654972
 31
0.0
 70
    32
  1
%%c<>
 71
     5
 42
53.0
  3
Standard
100
AcDbAlignedDimension
 13
72.72126398895773
 23
116.7860425959094
 33
0.0
 14
125.7212639889577
 24
116.7860425959095
 34
0.0
100
AcDbRotatedDimension
1001
ACAD
1000
DSTYLE
1002
{
1070
    41
1040
3.5
1070
    42
1040
1.0
1070
    43
1040
7.0
1070
    44
1040
1.0
1070
    47
1040
0.15
1070
    48
1040
0.15
1070
    73
1070
     0
1070
    74
1070
     0
1070
    77
1070
     1
1070
    78
1070
     8
1070
   140
1040
3.5
1070
   141
1040
1.5
1070
   146
1040
0.5142857142857144
1070
   147
1040
1.0
1070
   178
1070
     1
1070
   271
1070
     2
1070
   272
1070
     2
1070
   284
1070
     8
1070
   285
1070
     8
1070
   286
1070
     8
1002
}
  0
ARC
  5
7D8
330
20
100
AcDbEntity
  8
SCHRAFF
100
AcDbCircle
 10
71.71770363616161
 20
201.4966260897077
 30
0.0
 40
3.394743554937621
100
AcDbArc
 50
141.2212060628477
 51
270.9851184920665
  0
ARC
  5
7D9
330
20
100
AcDbEntity
  8
SCHRAFF
100
AcDbCircle
 10
126.7248243417538
 20
201.4966260897077
 30
0.0
 40
3.394743554937621
100
AcDbArc
 50
269.0148815079335
 51
38.77879393715037
  0
DIMENSION
  5
7DA
330
20
100
AcDbEntity
  8
BEM
100
AcDbDimension
  2
*D2
 10
49.11029212598148
 20
201.7860425959094
 30
0.0
 11
49.11029212598146
 21
226.7860425959093
 31
0.0
 70
   160
 71
     5
 42
49.99999999999983
  3
Standard
100
AcDbAlignedDimension
 13
69.72126398895773
 23
251.7860425959092
 33
0.0
 14
69.07126398895775
 24
201.7860425959094
 34
0.0
 50
90.0
100
AcDbRotatedDimension
1001
ACAD
1000
DSTYLE
1002
{
1070
    41
1040
3.5
1070
    42
1040
1.0
1070
    43
1040
7.0
1070
    44
1040
1.0
1070
    47
1040
0.15
1070
    48
1040
0.15
1070
    73
1070
     0
1070
    74
1070
     0
1070
    77
1070
     1
1070
    78
1070
     8
1070
   140
1040
3.5
1070
   141
1040
1.5
1070
   146
1040
0.5142857142857144
1070
   147
1040
1.0
1070
   178
1070
     1
1070
   271
1070
     2
1070
   272
1070
     2
1070
   284
1070
     8
1070
   285
1070
     8
1070
   286
1070
     8
1002
}
  0
DIMENSION
  5
7DB
330
20
100
AcDbEntity
  8
BEM
100
AcDbDimension
  2
*D1
 10
128.7212639889577
 20
263.3283396551768
 30
0.0
 11
99.22126398895773
 21
266.0783396551768
 31
0.0
 70
    32
  1
R2
 71
     5
 42
59.0
  3
Standard
100
AcDbAlignedDimension
 13
69.72126398895773
 23
251.7860425959092
 33
0.0
 14
128.7212639889577
 24
251.7860425959093
 34
0.0
100
AcDbRotatedDimension
1001
ACAD
1000
DSTYLE
1002
{
1070
    41
1040
3.5
1070
    42
1040
1.0
1070
    43
1040
7.0
1070
    44
1040
1.0
1070
    47
1040
0.15
1070
    48
1040
0.15
1070
    73
1070
     0
1070
    74
1070
     0
1070
    77
1070
     1
1070
    78
1070
     8
1070
   140
1040
3.5
1070
   141
1040
1.5
1070
   146
1040
0.5142857142857144
1070
   147
1040
1.0
1070
   178
1070
     1
1070
   271
1070
     2
1070
   272
1070
     2
1070
   284
1070
     8
1070
   285
1070
     8
1070
   286
1070
     8
1002
}
  0
LINE
  5
7DC
330
20
100
AcDbEntity
  8
STEMPEL
100
AcDbLine
 10
72.72126398895773
 20
192.0242113702883
 30
0.0
 11
71.23907824775677
 21
201.5555530547571
 31
0.0
  0
TEXT
  5
7DE
330
20
100
AcDbEntity
  8
VOLL
100
AcDbText
 10
97.29538921045303
 20
136.5624583558789
 30
0.0
 40
3.5
  1
DN50
 50
90.0
 41
0.8
 72
     1
 11
97.29538921045303
 21
141.6957916892122
 31
0.0
100
AcDbText
  0
LINE
  5
7DF
330
20
100
AcDbEntity
  8
MITTEL
100
AcDbLine
 10
99.22126398895773
 20
256.7860425959093
 30
0.0
 11
99.22126398895773
 21
191.1400230224414
 31
0.0
  0
LINE
  5
7E0
330
20
100
AcDbEntity
  8
HILF
100
AcDbLine
 10
73.72800420168681
 20
192.140144562159
 30
0.0
 11
122.7212639889577
 21
192.1401445621591
 31
0.0
  0
LINE
  5
7E2
330
20
100
AcDbEntity
  8
STEMPEL
100
AcDbLine
 10
125.7212639889577
 20
192.0242113702886
 30
0.0
 11
125.7212639889577
 21
121.7860425959094
 31
0.0
  0
LINE
  5
7E3
330
20
100
AcDbEntity
  8
STEMPEL
100
AcDbLine
 10
72.72126398895773
 20
192.0242113702883
 30
0.0
 11
72.72126398895773
 21
116.7860425959094
 31
0.0
  0
LINE
  5
7E4
102
{ACAD_REACTORS
330
E33
102
}
330
20
100
AcDbEntity
  8
STEMPEL
100
AcDbLine
 10
73.22126398895773
 20
111.7860425959095
 30
0.0
 11
125.2212639889577
 21
111.7860425959094
 31
0.0
  0
LINE
  5
7E5
102
{ACAD_REACTORS
330
7B4
102
}
330
20
100
AcDbEntity
  8
STEMPEL
100
AcDbLine
 10
69.07126398895775
 20
201.7860425959094
 30
0.0
 11
129.3712639889577
 21
201.7860425959095
 31
0.0
  0
LINE
  5
7E6
330
20
100
AcDbEntity
  8
TEXT
 62
     2
100
AcDbLine
 10
135.6910297150387
 20
253.5318289165334
 30
0.0
 11
199.245561990582
 21
253.5318289165334
 31
0.0
  0
TEXT
  5
7E7
330
20
100
AcDbEntity
  8
TEXT
 62
     1
100
AcDbText
 10
137.5841879250272
 20
248.4940631098297
 30
0.0
 40
3.5
  1
mit Gewinde nach DIN 2999
 41
0.8
  7
GREEKS
100
AcDbText
  0
TEXT
  5
7E8
330
20
100
AcDbEntity
  8
TEXT
 62
     1
100
AcDbText
 10
137.5841879250272
 20
255.6023271305215
 30
0.0
 40
3.5
  1
Anschweißnippel 1.4571
 41
0.8
  7
GREEKS
100
AcDbText
  0
TEXT
  5
DCF
330
20
100
AcDbEntity
  8
TEXT
100
AcDbText
 10
112.5648195562657
 20
25.75167208792646
 30
0.0
 40
2.5
  1
EDV-Art.Nr. 5.700.050C
 41
0.8
100
AcDbText
  0
LINE
  5
E19
102
{ACAD_REACTORS
330
E33
102
}
330
20
100
AcDbEntity
  8
STEMPEL
100
AcDbLine
 10
124.7212639889577
 20
192.1015001648692
 30
0.0
 11
124.7212639889577
 21
116.8359182170301
 31
0.0
  0
LINE
  5
E1A
102
{ACAD_REACTORS
330
E33
102
}
330
20
100
AcDbEntity
  8
STEMPEL
100
AcDbLine
 10
124.7212639889577
 20
116.8359182170301
 30
0.0
 11
124.2162764268456
 21
111.7860425959094
 31
0.0
  0
LINE
  5
E1B
102
{ACAD_REACTORS
330
E33
102
}
330
20
100
AcDbEntity
  8
STEMPEL
100
AcDbLine
 10
124.7212639889577
 20
192.1015001648692
 30
0.0
 11
126.2153259026914
 21
201.7092127488588
 31
0.0
  0
HATCH
  5
E33
330
20
100
AcDbEntity
  8
SCHRAFF
100
AcDbHatch
 10
0.0
 20
0.0
 30
0.0
210
0.0
220
0.0
230
1.0
  2
_USER
 70
     0
 71
     1
 91
        1
 92
        7
 72
     0
 73
     1
 93
        8
 10
125.7212639889577
 20
192.0242113702886
 10
127.2034497301587
 20
201.5555530547571
 10
126.2153259026914
 20
201.7092127488587
 10
124.7212639889578
 20
192.1015001648692
 10
124.7212639889577
 20
116.8359182170299
 10
124.2162764268456
 20
111.7860425959094
 10
125.2212639889577
 20
111.7860425959094
 10
125.7212639889577
 20
116.7860425959093
 97
        8
330
7D4
330
7B7
330
E1B
330
E19
330
E1A
330
7E4
330
7C7
330
7D0
 75
     0
 76
     0
 52
45.0
 41
2.0
 77
     0
 78
     1
 53
45.0
 43
8.062059314070666
 44
0.0
 45
-1.414213562373094
 46
1.414213562373095
 79
     0
 47
0.20773707728413
 98
        1
 10
125.3519788488272
 20
184.7803004347461
  0
TEXT
  5
E34
330
20
100
AcDbEntity
  8
TEXT
 62
     1
100
AcDbText
 10
129.5221286109565
 20
63.08943432452252
 30
0.0
 40
3.5
  1
Werkstoff: Rohr 1.4404
 41
0.8
  7
GREEKS
100
AcDbText
  0
ENDSEC
  0
SECTION
  2
OBJECTS
  0
DICTIONARY
  5
C
330
0
100
AcDbDictionary
281
     1
  3
ACAD_COLOR
350
1B
  3
ACAD_GROUP
350
D
  3
ACAD_LAYOUT
350
19
  3
ACAD_MATERIAL
350
1A
  3
ACAD_MLINESTYLE
350
16
  3
ACAD_PLOTSETTINGS
350
18
  3
ACAD_PLOTSTYLENAME
350
E
  3
AcDbVariableDictionary
350
242
  0
DICTIONARY
  5
1B
102
{ACAD_REACTORS
330
C
102
}
330
C
100
AcDbDictionary
281
     1
  0
DICTIONARY
  5
D
102
{ACAD_REACTORS
330
C
102
}
330
C
100
AcDbDictionary
281
     1
  0
DICTIONARY
  5
19
102
{ACAD_REACTORS
330
C
102
}
330
C
100
AcDbDictionary
281
     1
  3
Layout1
350
1F
  3
Model
350
23
  0
DICTIONARY
  5
1A
102
{ACAD_REACTORS
330
C
102
}
330
C
100
AcDbDictionary
281
     1
  0
DICTIONARY
  5
16
102
{ACAD_REACTORS
330
C
102
}
330
C
100
AcDbDictionary
281
     1
  3
Standard
350
17
  0
DICTIONARY
  5
18
102
{ACAD_REACTORS
330
C
102
}
330
C
100
AcDbDictionary
281
     1
  0
ACDBDICTIONARYWDFLT
  5
E
102
{ACAD_REACTORS
330
C
102
}
330
C
100
AcDbDictionary
281
     1
  3
Normal
350
F
100
AcDbDictionaryWithDefault
340
F
  0
DICTIONARY
  5
242
102
{ACAD_REACTORS
330
C
102
}
330
C
100
AcDbDictionary
281
     1
  3
DIMASSOC
350
244
  3
HIDETEXT
350
243
  3
PROJECTNAME
350
245
  0
LAYOUT
  5
1F
102
{ACAD_REACTORS
330
19
102
}
330
19
100
AcDbPlotSettings
  1

  2
RICOH Aficio 2027 PCL 6
  4

  6

 40
0.0
 41
0.0
 42
0.0
 43
0.0
 44
0.0
 45
0.0
 46
0.0
 47
0.0
 48
0.0
 49
0.0
140
0.0
141
0.0
142
1.0
143
1.0
 70
   688
 72
     0
 73
     0
 74
     5
  7
monochrome1.ctb
 75
    16
147
1.0
 76
     0
 77
     2
 78
   300
148
0.0
149
0.0
100
AcDbLayout
  1
Layout1
 70
     0
 71
     1
 10
0.0
 20
0.0
 11
12.0
 21
9.0
 12
0.0
 22
0.0
 32
0.0
 14
1.000000000000000E+20
 24
1.000000000000000E+20
 34
1.000000000000000E+20
 15
-1.000000000000000E+20
 25
-1.000000000000000E+20
 35
-1.000000000000000E+20
146
0.0
 13
0.0
 23
0.0
 33
0.0
 16
1.0
 26
0.0
 36
0.0
 17
0.0
 27
1.0
 37
0.0
 76
     0
330
1C
  0
LAYOUT
  5
23
102
{ACAD_REACTORS
330
19
102
}
330
19
100
AcDbPlotSettings
  1

  2
RICOH Aficio 2027 PCL 6
  4
A4
  6

 40
5.027083396911621
 41
5.027085304260253
 42
5.027084350585937
 43
5.027069091796875
 44
209.9733276367187
 45
296.9259948730469
 46
0.0
 47
2.06
 48
0.0
 49
0.0
140
210.0
141
297.0000000000001
142
1.0
143
1.050424582197947
 70
 11956
 72
     1
 73
     0
 74
     2
  7
monochrome1.ctb
 75
     0
147
0.9519959994724823
 76
     0
 77
     2
 78
   300
148
0.0
149
0.0
100
AcDbLayout
  1
Model
 70
     1
 71
     0
 10
0.0
 20
0.0
 11
12.0
 21
9.0
 12
0.0
 22
0.0
 32
0.0
 14
0.0
 24
0.0
 34
0.0
 15
0.0
 25
0.0
 35
0.0
146
0.0
 13
0.0
 23
0.0
 33
0.0
 16
1.0
 26
0.0
 36
0.0
 17
0.0
 27
1.0
 37
0.0
 76
     0
330
20
  0
MLINESTYLE
  5
17
102
{ACAD_REACTORS
330
16
102
}
330
16
100
AcDbMlineStyle
  2
STANDARD
 70
     0
  3

 62
   256
 51
90.0
 52
90.0
 71
     2
 49
0.5
 62
   256
  6
BYLAYER
 49
-0.5
 62
   256
  6
BYLAYER
  0
ACDBPLACEHOLDER
  5
F
102
{ACAD_REACTORS
330
E
102
}
330
E
  0
DICTIONARYVAR
  5
244
102
{ACAD_REACTORS
330
242
102
}
330
242
100
DictionaryVariables
280
     0
  1
2
  0
DICTIONARYVAR
  5
243
102
{ACAD_REACTORS
330
242
102
}
330
242
100
DictionaryVariables
280
     0
  1
1
  0
DICTIONARYVAR
  5
245
102
{ACAD_REACTORS
330
242
102
}
330
242
100
DictionaryVariables
280
     0
  1

  0
ENDSEC
  0
EOF
