  0
SECTION
  2
HEADER
  9
$ACADVER
  1
AC1018
  9
$ACADMAINTVER
 70
     2
  9
$DWGCODEPAGE
  3
ANSI_1252
  9
$INSBASE
 10
0.0
 20
0.0
 30
0.0
  9
$EXTMIN
 10
-0.0031957397357587
 20
-0.0045196890552006
 30
-0.0000000000000129
  9
$EXTMAX
 10
210.003207964225
 20
297.004536977975
 30
0.0000000000000023
  9
$LIMMIN
 10
0.0
 20
0.0
  9
$LIMMAX
 10
210.0
 20
297.0
  9
$ORTHOMODE
 70
     1
  9
$REGENMODE
 70
     1
  9
$FILLMODE
 70
     1
  9
$QTEXTMODE
 70
     0
  9
$MIRRTEXT
 70
     1
  9
$LTSCALE
 40
10.0
  9
$ATTMODE
 70
     1
  9
$TEXTSIZE
 40
3.5
  9
$TRACEWID
 40
0.5
  9
$TEXTSTYLE
  7
STANDARD
  9
$CLAYER
  8
SCHRAFF
  9
$CELTYPE
  6
ByLayer
  9
$CECOLOR
 62
   256
  9
$CELTSCALE
 40
1.0
  9
$DISPSILH
 70
     0
  9
$DIMSCALE
 40
1.0
  9
$DIMASZ
 40
3.5
  9
$DIMEXO
 40
1.0
  9
$DIMDLI
 40
7.0
  9
$DIMRND
 40
0.0
  9
$DIMDLE
 40
0.0
  9
$DIMEXE
 40
1.0
  9
$DIMTP
 40
2.0
  9
$DIMTM
 40
1.0
  9
$DIMTXT
 40
3.5
  9
$DIMCEN
 40
1.5
  9
$DIMTSZ
 40
0.0
  9
$DIMTOL
 70
     0
  9
$DIMLIM
 70
     0
  9
$DIMTIH
 70
     0
  9
$DIMTOH
 70
     0
  9
$DIMSE1
 70
     0
  9
$DIMSE2
 70
     0
  9
$DIMTAD
 70
     1
  9
$DIMZIN
 70
     8
  9
$DIMBLK
  1

  9
$DIMASO
 70
     1
  9
$DIMSHO
 70
     0
  9
$DIMPOST
  1

  9
$DIMAPOST
  1

  9
$DIMALT
 70
     0
  9
$DIMALTD
 70
     2
  9
$DIMALTF
 40
25.4
  9
$DIMLFAC
 40
1.0
  9
$DIMTOFL
 70
     1
  9
$DIMTVP
 40
0.0
  9
$DIMTIX
 70
     0
  9
$DIMSOXD
 70
     0
  9
$DIMSAH
 70
     0
  9
$DIMBLK1
  1

  9
$DIMBLK2
  1

  9
$DIMSTYLE
  2
Standard
  9
$DIMCLRD
 70
     0
  9
$DIMCLRE
 70
     0
  9
$DIMCLRT
 70
     1
  9
$DIMTFAC
 40
0.5
  9
$DIMGAP
 40
1.5
  9
$DIMJUST
 70
     0
  9
$DIMSD1
 70
     0
  9
$DIMSD2
 70
     0
  9
$DIMTOLJ
 70
     1
  9
$DIMTZIN
 70
     8
  9
$DIMALTZ
 70
     8
  9
$DIMALTTZ
 70
     8
  9
$DIMUPT
 70
     0
  9
$DIMDEC
 70
     2
  9
$DIMTDEC
 70
     2
  9
$DIMALTU
 70
     2
  9
$DIMALTTD
 70
     2
  9
$DIMTXSTY
  7
STANDARD
  9
$DIMAUNIT
 70
     0
  9
$DIMADEC
 70
     2
  9
$DIMALTRND
 40
0.0
  9
$DIMAZIN
 70
     2
  9
$DIMDSEP
 70
    46
  9
$DIMATFIT
 70
     3
  9
$DIMFRAC
 70
     0
  9
$DIMLDRBLK
  1

  9
$DIMLUNIT
 70
     2
  9
$DIMLWD
 70
    -2
  9
$DIMLWE
 70
    -2
  9
$DIMTMOVE
 70
     0
  9
$LUNITS
 70
     2
  9
$LUPREC
 70
     2
  9
$SKETCHINC
 40
1.0
  9
$FILLETRAD
 40
0.0
  9
$AUNITS
 70
     0
  9
$AUPREC
 70
     0
  9
$MENU
  1
ACAD
  9
$ELEVATION
 40
0.0
  9
$PELEVATION
 40
0.0
  9
$THICKNESS
 40
0.0
  9
$LIMCHECK
 70
     0
  9
$CHAMFERA
 40
0.0
  9
$CHAMFERB
 40
0.0
  9
$CHAMFERC
 40
0.0
  9
$CHAMFERD
 40
0.0
  9
$SKPOLY
 70
     0
  9
$TDCREATE
 40
2455397.864709028
  9
$TDUCREATE
 40
2455397.781375695
  9
$TDUPDATE
 40
2455663.527125753
  9
$TDUUPDATE
 40
2455663.443792419
  9
$TDINDWG
 40
0.1485735995
  9
$TDUSRTIMER
 40
0.1485735995
  9
$USRTIMER
 70
     1
  9
$ANGBASE
 50
0.0
  9
$ANGDIR
 70
     0
  9
$PDMODE
 70
     0
  9
$PDSIZE
 40
0.0
  9
$PLINEWID
 40
0.0
  9
$SPLFRAME
 70
     0
  9
$SPLINETYPE
 70
     6
  9
$SPLINESEGS
 70
     8
  9
$HANDSEED
  5
1126
  9
$SURFTAB1
 70
     6
  9
$SURFTAB2
 70
     6
  9
$SURFTYPE
 70
     6
  9
$SURFU
 70
     6
  9
$SURFV
 70
     6
  9
$UCSBASE
  2

  9
$UCSNAME
  2

  9
$UCSORG
 10
0.0
 20
0.0
 30
0.0
  9
$UCSXDIR
 10
1.0
 20
0.0
 30
0.0
  9
$UCSYDIR
 10
0.0
 20
1.0
 30
0.0
  9
$UCSORTHOREF
  2

  9
$UCSORTHOVIEW
 70
     0
  9
$UCSORGTOP
 10
0.0
 20
0.0
 30
0.0
  9
$UCSORGBOTTOM
 10
0.0
 20
0.0
 30
0.0
  9
$UCSORGLEFT
 10
0.0
 20
0.0
 30
0.0
  9
$UCSORGRIGHT
 10
0.0
 20
0.0
 30
0.0
  9
$UCSORGFRONT
 10
0.0
 20
0.0
 30
0.0
  9
$UCSORGBACK
 10
0.0
 20
0.0
 30
0.0
  9
$PUCSBASE
  2

  9
$PUCSNAME
  2

  9
$PUCSORG
 10
0.0
 20
0.0
 30
0.0
  9
$PUCSXDIR
 10
1.0
 20
0.0
 30
0.0
  9
$PUCSYDIR
 10
0.0
 20
1.0
 30
0.0
  9
$PUCSORTHOREF
  2

  9
$PUCSORTHOVIEW
 70
     0
  9
$PUCSORGTOP
 10
0.0
 20
0.0
 30
0.0
  9
$PUCSORGBOTTOM
 10
0.0
 20
0.0
 30
0.0
  9
$PUCSORGLEFT
 10
0.0
 20
0.0
 30
0.0
  9
$PUCSORGRIGHT
 10
0.0
 20
0.0
 30
0.0
  9
$PUCSORGFRONT
 10
0.0
 20
0.0
 30
0.0
  9
$PUCSORGBACK
 10
0.0
 20
0.0
 30
0.0
  9
$USERI1
 70
     0
  9
$USERI2
 70
     0
  9
$USERI3
 70
     0
  9
$USERI4
 70
     0
  9
$USERI5
 70
     0
  9
$USERR1
 40
0.0
  9
$USERR2
 40
0.0
  9
$USERR3
 40
0.0
  9
$USERR4
 40
0.0
  9
$USERR5
 40
0.0
  9
$WORLDVIEW
 70
     1
  9
$SHADEDGE
 70
     3
  9
$SHADEDIF
 70
    70
  9
$TILEMODE
 70
     1
  9
$MAXACTVP
 70
    16
  9
$PINSBASE
 10
0.0
 20
0.0
 30
0.0
  9
$PLIMCHECK
 70
     0
  9
$PEXTMIN
 10
1.000000000000000E+20
 20
1.000000000000000E+20
 30
1.000000000000000E+20
  9
$PEXTMAX
 10
-1.000000000000000E+20
 20
-1.000000000000000E+20
 30
-1.000000000000000E+20
  9
$PLIMMIN
 10
0.0
 20
0.0
  9
$PLIMMAX
 10
12.0
 20
9.0
  9
$UNITMODE
 70
     0
  9
$VISRETAIN
 70
     0
  9
$PLINEGEN
 70
     0
  9
$PSLTSCALE
 70
     0
  9
$TREEDEPTH
 70
  3020
  9
$CMLSTYLE
  2
Standard
  9
$CMLJUST
 70
     0
  9
$CMLSCALE
 40
1.0
  9
$PROXYGRAPHICS
 70
     1
  9
$MEASUREMENT
 70
     0
  9
$CELWEIGHT
370
    -1
  9
$ENDCAPS
280
     0
  9
$JOINSTYLE
280
     0
  9
$LWDISPLAY
290
     0
  9
$INSUNITS
 70
     0
  9
$HYPERLINKBASE
  1

  9
$STYLESHEET
  1
monochrome 1.ctb
  9
$XEDIT
290
     1
  9
$CEPSNTYPE
380
     0
  9
$PSTYLEMODE
290
     1
  9
$FINGERPRINTGUID
  2
{D68B0D02-A558-11D7-B632-000102183313}
  9
$VERSIONGUID
  2
{AD91D211-2764-4E08-81FB-1A995A6B2C56}
  9
$EXTNAMES
290
     1
  9
$PSVPSCALE
 40
0.0
  9
$OLESTARTUP
290
     0
  9
$SORTENTS
280
   127
  9
$INDEXCTL
280
     0
  9
$HIDETEXT
280
     0
  9
$XCLIPFRAME
290
     0
  9
$HALOGAP
280
     0
  9
$OBSCOLOR
 70
   257
  9
$OBSLTYPE
280
     0
  9
$INTERSECTIONDISPLAY
280
     0
  9
$INTERSECTIONCOLOR
 70
   257
  9
$DIMASSOC
280
     1
  9
$PROJECTNAME
  1

  0
ENDSEC
  0
SECTION
  2
CLASSES
  0
CLASS
  1
ACDBDICTIONARYWDFLT
  2
AcDbDictionaryWithDefault
  3
ObjectDBX Classes
 90
        0
 91
        1
280
     0
281
     0
  0
CLASS
  1
DICTIONARYVAR
  2
AcDbDictionaryVar
  3
ObjectDBX Classes
 90
        0
 91
        2
280
     0
281
     0
  0
ENDSEC
  0
SECTION
  2
TABLES
  0
TABLE
  2
VPORT
  5
8
330
0
100
AcDbSymbolTable
 70
     3
  0
VPORT
  5
1125
330
8
100
AcDbSymbolTableRecord
100
AcDbViewportTableRecord
  2
*Active
 70
     0
 10
0.0
 20
0.0
 11
1.0
 21
1.0
 12
105.0
 22
148.5
 13
0.0
 23
0.0
 14
1.0
 24
1.0
 15
10.0
 25
10.0
 16
0.0
 26
0.0
 36
1.0
 17
0.0
 27
0.0
 37
0.0
 40
297.0
 41
1.334231805929919
 42
50.0
 43
0.0
 44
0.0
 50
0.0
 51
0.0
 71
     0
 72
  1500
 73
     1
 74
     0
 75
     0
 76
     0
 77
     0
 78
     0
281
     0
 65
     1
110
0.0
120
0.0
130
0.0
111
1.0
121
0.0
131
0.0
112
0.0
122
1.0
132
0.0
 79
     0
146
0.0
  0
ENDTAB
  0
TABLE
  2
LTYPE
  5
5
330
0
100
AcDbSymbolTable
 70
     3
  0
LTYPE
  5
13
330
5
100
AcDbSymbolTableRecord
100
AcDbLinetypeTableRecord
  2
ByBlock
 70
     0
  3

 72
    65
 73
     0
 40
0.0
  0
LTYPE
  5
14
330
5
100
AcDbSymbolTableRecord
100
AcDbLinetypeTableRecord
  2
ByLayer
 70
     0
  3

 72
    65
 73
     0
 40
0.0
  0
LTYPE
  5
15
330
5
100
AcDbSymbolTableRecord
100
AcDbLinetypeTableRecord
  2
Continuous
 70
     0
  3
Solid line
 72
    65
 73
     0
 40
0.0
  0
LTYPE
  5
25
330
5
100
AcDbSymbolTableRecord
100
AcDbLinetypeTableRecord
  2
STRICHPUNKT
 70
     0
  3
__ . __ . __ . __ . __ . __ . __ . __ . __ . __
 72
    65
 73
     4
 40
1.0
 49
0.5
 74
     0
 49
-0.25
 74
     0
 49
0.0
 74
     0
 49
-0.25
 74
     0
  0
LTYPE
  5
32
330
5
100
AcDbSymbolTableRecord
100
AcDbLinetypeTableRecord
  2
AUSGEZOGEN
 70
     0
  3
Ausgezogene Linie
 72
    65
 73
     0
 40
0.0
  0
ENDTAB
  0
TABLE
  2
LAYER
  5
2
330
0
100
AcDbSymbolTable
 70
     9
  0
LAYER
  5
10
330
2
100
AcDbSymbolTableRecord
100
AcDbLayerTableRecord
  2
0
 70
     0
 62
     7
  6
Continuous
370
    -3
390
F
  0
LAYER
  5
2A
330
2
100
AcDbSymbolTableRecord
100
AcDbLayerTableRecord
  2
VOLL
 70
     0
 62
     1
  6
Continuous
370
    -3
390
F
  0
LAYER
  5
2B
330
2
100
AcDbSymbolTableRecord
100
AcDbLayerTableRecord
  2
HILF
 70
     0
 62
     2
  6
Continuous
370
    -3
390
F
  0
LAYER
  5
2C
330
2
100
AcDbSymbolTableRecord
100
AcDbLayerTableRecord
  2
MITTEL
 70
     0
 62
     2
  6
STRICHPUNKT
370
    -3
390
F
  0
LAYER
  5
2F
330
2
100
AcDbSymbolTableRecord
100
AcDbLayerTableRecord
  2
BEM
 70
     0
 62
     7
  6
Continuous
370
    -3
390
F
  0
LAYER
  5
30
330
2
100
AcDbSymbolTableRecord
100
AcDbLayerTableRecord
  2
STEMPEL
 70
     0
 62
     3
  6
Continuous
370
    -3
390
F
  0
LAYER
  5
31
330
2
100
AcDbSymbolTableRecord
100
AcDbLayerTableRecord
  2
TEXT
 70
     0
 62
     7
  6
Continuous
370
    -3
390
F
  0
LAYER
  5
19E
330
2
100
AcDbSymbolTableRecord
100
AcDbLayerTableRecord
  2
DEFPOINTS
 70
     0
 62
     7
  6
AUSGEZOGEN
290
     0
370
    -3
390
F
  0
LAYER
  5
404
330
2
100
AcDbSymbolTableRecord
100
AcDbLayerTableRecord
  2
SCHRAFF
 70
     0
 62
     7
  6
Continuous
370
    -3
390
F
  0
ENDTAB
  0
TABLE
  2
STYLE
  5
3
330
0
100
AcDbSymbolTable
 70
     2
  0
STYLE
  5
11
330
3
100
AcDbSymbolTableRecord
100
AcDbTextStyleTableRecord
  2
STANDARD
 70
     0
 40
0.0
 41
0.8
 50
0.0
 71
     0
 42
3.5
  3
simplex.shx
  4

  0
STYLE
  5
24
330
3
100
AcDbSymbolTableRecord
100
AcDbTextStyleTableRecord
  2
GREEKS
 70
     0
 40
0.0
 41
0.8
 50
0.0
 71
     0
 42
2.5
  3
SIMPLEX.shx
  4

  0
ENDTAB
  0
TABLE
  2
VIEW
  5
6
330
0
100
AcDbSymbolTable
 70
     0
  0
ENDTAB
  0
TABLE
  2
UCS
  5
7
330
0
100
AcDbSymbolTable
 70
     0
  0
ENDTAB
  0
TABLE
  2
APPID
  5
9
330
0
100
AcDbSymbolTable
 70
     1
  0
APPID
  5
12
330
9
100
AcDbSymbolTableRecord
100
AcDbRegAppTableRecord
  2
ACAD
 70
     0
  0
ENDTAB
  0
TABLE
  2
DIMSTYLE
  5
A
330
0
100
AcDbSymbolTable
 70
     1
100
AcDbDimStyleTable
 71
     1
340
9D
  0
DIMSTYLE
105
9D
102
{ACAD_REACTORS
330
D07
330
D02
330
CF6
330
FDD
102
}
330
A
100
AcDbSymbolTableRecord
100
AcDbDimStyleTableRecord
  2
Standard
 70
     0
340
11
  0
ENDTAB
  0
TABLE
  2
BLOCK_RECORD
  5
1
330
0
100
AcDbSymbolTable
 70
    10
  0
BLOCK_RECORD
  5
1E
102
{ACAD_XDICTIONARY
360
A0
102
}
330
1
100
AcDbSymbolTableRecord
100
AcDbBlockTableRecord
  2
*Model_Space
340
21
  0
BLOCK_RECORD
  5
1A
102
{ACAD_XDICTIONARY
360
A2
102
}
330
1
100
AcDbSymbolTableRecord
100
AcDbBlockTableRecord
  2
*Paper_Space
340
1D
  0
BLOCK_RECORD
  5
22
330
1
100
AcDbSymbolTableRecord
100
AcDbBlockTableRecord
  2
LOGO
340
0
102
{BLKREFS
331
9B
102
}
  0
BLOCK_RECORD
  5
C2E
330
1
100
AcDbSymbolTableRecord
100
AcDbBlockTableRecord
  2
*X1
340
0
102
{BLKREFS
331
CF3
331
CF4
102
}
  0
BLOCK_RECORD
  5
D2B
330
1
100
AcDbSymbolTableRecord
100
AcDbBlockTableRecord
  2
*D2
340
0
  0
BLOCK_RECORD
  5
D79
330
1
100
AcDbSymbolTableRecord
100
AcDbBlockTableRecord
  2
*D3
340
0
  0
BLOCK_RECORD
  5
DBA
330
1
100
AcDbSymbolTableRecord
100
AcDbBlockTableRecord
  2
*D6
340
0
  0
BLOCK_RECORD
  5
FDE
330
1
100
AcDbSymbolTableRecord
100
AcDbBlockTableRecord
  2
*D7
340
0
  0
ENDTAB
  0
ENDSEC
  0
SECTION
  2
BLOCKS
  0
BLOCK
  5
35
330
1E
100
AcDbEntity
  8
0
100
AcDbBlockBegin
  2
*Model_Space
 70
     0
 10
0.0
 20
0.0
 30
0.0
  3
*Model_Space
  1

  0
ENDBLK
  5
36
330
1E
100
AcDbEntity
  8
0
100
AcDbBlockEnd
  0
BLOCK
  5
33
330
1A
100
AcDbEntity
 67
     1
  8
0
100
AcDbBlockBegin
  2
*Paper_Space
 70
     0
 10
0.0
 20
0.0
 30
0.0
  3
*Paper_Space
  1

  0
ENDBLK
  5
34
330
1A
100
AcDbEntity
 67
     1
  8
0
100
AcDbBlockEnd
  0
BLOCK
  5
37
330
22
100
AcDbEntity
  8
0
100
AcDbBlockBegin
  2
LOGO
 70
     0
 10
0.0
 20
0.0
 30
0.0
  3
LOGO
  1

  0
ARC
  5
38
330
22
100
AcDbEntity
  8
0
100
AcDbCircle
 10
11.59973089678112
 20
-9.271599258481501
 30
0.0
 40
4.5
100
AcDbArc
 50
270.0
 51
231.0575587310159
  0
LINE
  5
39
330
22
100
AcDbEntity
  8
0
100
AcDbLine
 10
3.599730896781125
 20
-4.771599258481529
 30
0.0
 11
3.599730896781153
 21
-11.77159925848133
 31
0.0
  0
LINE
  5
3A
330
22
100
AcDbEntity
  8
0
100
AcDbLine
 10
2.599730896781125
 20
-4.771599258481529
 30
0.0
 11
2.599730896781153
 21
-11.77159925848133
 31
0.0
  0
CIRCLE
  5
3B
330
22
100
AcDbEntity
  8
0
100
AcDbCircle
 10
11.59973089678112
 20
-9.271599258481501
 30
0.0
 40
3.5
  0
ARC
  5
3C
330
22
100
AcDbEntity
  8
0
100
AcDbCircle
 10
31.59973089678115
 20
-9.271599258481472
 30
0.0
 40
4.5
100
AcDbArc
 50
270.0
 51
231.0575587310182
  0
LINE
  5
3D
330
22
100
AcDbEntity
  8
0
100
AcDbLine
 10
17.59973089678112
 20
-4.771599258481472
 30
0.0
 11
17.59973089678115
 21
-13.77159925848147
 31
0.0
  0
ARC
  5
3E
330
22
100
AcDbEntity
  8
0
100
AcDbCircle
 10
22.59973089678116
 20
-7.271599258481472
 30
0.0
 40
2.5
100
AcDbArc
 50
293.1161887722295
 51
90.0
  0
CIRCLE
  5
3F
330
22
100
AcDbEntity
  8
0
100
AcDbCircle
 10
31.59973089678115
 20
-9.271599258481472
 30
0.0
 40
3.5
  0
ARC
  5
40
330
22
100
AcDbEntity
  8
0
100
AcDbCircle
 10
4.599730896781153
 20
-11.77159925848133
 30
0.0
 40
1.0
100
AcDbArc
 50
180.0
 51
270.0
  0
ARC
  5
41
330
22
100
AcDbEntity
  8
0
100
AcDbCircle
 10
4.599730896781153
 20
-11.77159925848133
 30
0.0
 40
2.0
100
AcDbArc
 50
179.9999999999992
 51
270.0
  0
LINE
  5
42
330
22
100
AcDbEntity
  8
0
100
AcDbLine
 10
11.59973089678115
 20
-13.77159925848144
 30
0.0
 11
4.599730896781153
 21
-13.77159925848147
 31
0.0
  0
LINE
  5
43
330
22
100
AcDbEntity
  8
0
100
AcDbLine
 10
8.771303772034769
 20
-12.77159925848136
 30
0.0
 11
4.599730896781153
 21
-12.77159925848133
 31
0.0
  0
LINE
  5
44
330
22
100
AcDbEntity
  8
0
100
AcDbLine
 10
31.59973089678115
 20
-13.77159925848147
 30
0.0
 11
23.6715276665056
 21
-13.77159925848144
 31
0.0
  0
LINE
  5
45
330
22
100
AcDbEntity
  8
0
100
AcDbLine
 10
23.56565672307022
 20
-9.51278021337896
 30
0.0
 11
24.4388546544846
 21
-12.77159925848144
 31
0.0
  0
LINE
  5
46
330
22
100
AcDbEntity
  8
0
100
AcDbLine
 10
22.59973089678116
 20
-9.771599258481472
 30
0.0
 11
18.59973089678112
 21
-9.771599258481472
 31
0.0
  0
LINE
  5
47
330
22
100
AcDbEntity
  8
0
100
AcDbLine
 10
18.59973089678115
 20
-13.77159925848144
 30
0.0
 11
17.59973089678115
 21
-13.77159925848144
 31
0.0
  0
LINE
  5
48
330
22
100
AcDbEntity
  8
0
100
AcDbLine
 10
18.59973089678115
 20
-9.771599258481472
 30
0.0
 11
18.59973089678115
 21
-13.77159925848144
 31
0.0
  0
LINE
  5
49
330
22
100
AcDbEntity
  8
0
100
AcDbLine
 10
22.59973089678116
 20
-9.771599258481472
 30
0.0
 11
23.67152766650562
 21
-13.77159925848147
 31
0.0
  0
ARC
  5
4A
330
22
100
AcDbEntity
  8
0
100
AcDbCircle
 10
22.59973089678116
 20
-7.271599258481472
 30
0.0
 40
2.5
100
AcDbArc
 50
270.0
 51
270.0000000000007
  0
LINE
  5
4B
330
22
100
AcDbEntity
  8
0
100
AcDbLine
 10
28.77130377203494
 20
-12.77159925848147
 30
0.0
 11
24.43885465448463
 21
-12.77159925848144
 31
0.0
  0
LINE
  5
4C
330
22
100
AcDbEntity
  8
0
100
AcDbLine
 10
3.599730896781125
 20
-4.771599258481472
 30
0.0
 11
2.599730896781125
 21
-4.771599258481472
 31
0.0
  0
LINE
  5
4D
330
22
100
AcDbEntity
  8
0
100
AcDbLine
 10
22.59973089678116
 20
-8.771599258481472
 30
0.0
 11
18.59973089678115
 21
-8.771599258481472
 31
0.0
  0
LINE
  5
4E
330
22
100
AcDbEntity
  8
0
100
AcDbLine
 10
22.59973089678116
 20
-5.771599258481472
 30
0.0
 11
18.59973089678115
 21
-5.771599258481472
 31
0.0
  0
LINE
  5
4F
330
22
100
AcDbEntity
  8
0
100
AcDbLine
 10
22.59973089678116
 20
-4.771599258481472
 30
0.0
 11
17.59973089678115
 21
-4.771599258481472
 31
0.0
  0
LINE
  5
50
330
22
100
AcDbEntity
  8
0
100
AcDbLine
 10
18.59973089678115
 20
-5.771599258481472
 30
0.0
 11
18.59973089678115
 21
-8.771599258481472
 31
0.0
  0
ARC
  5
51
330
22
100
AcDbEntity
  8
0
100
AcDbCircle
 10
22.59973089678116
 20
-7.271599258481472
 30
0.0
 40
1.5
100
AcDbArc
 50
270.0
 51
90.0
  0
ENDBLK
  5
52
330
22
100
AcDbEntity
  8
0
100
AcDbBlockEnd
  0
BLOCK
  5
C2F
330
C2E
100
AcDbEntity
  8
0
100
AcDbBlockBegin
  2
*X1
 70
     1
 10
0.0
 20
0.0
 30
0.0
  3
*X1
  1

  0
LINE
  5
C30
330
C2E
100
AcDbEntity
  8
0
 62
     0
100
AcDbLine
 10
178.3905115087339
 20
362.0
 30
0.0
 11
180.4790226672853
 21
362.0
 31
0.0
  0
LINE
  5
C31
330
C2E
100
AcDbEntity
  8
0
 62
     0
100
AcDbLine
 10
178.4090055356429
 20
362.1
 30
0.0
 11
180.4999999999999
 21
362.1
 31
0.0
  0
LINE
  5
C32
330
C2E
100
AcDbEntity
  8
0
 62
     0
100
AcDbLine
 10
178.429913374953
 20
362.2
 30
0.0
 11
180.4999999999999
 21
362.2
 31
0.0
  0
LINE
  5
C33
330
C2E
100
AcDbEntity
  8
0
 62
     0
100
AcDbLine
 10
178.4532705674433
 20
362.3
 30
0.0
 11
180.4999999999999
 21
362.3
 31
0.0
  0
LINE
  5
C34
330
C2E
100
AcDbEntity
  8
0
 62
     0
100
AcDbLine
 10
178.4791176480176
 20
362.4
 30
0.0
 11
180.4999999999999
 21
362.4
 31
0.0
  0
LINE
  5
C35
330
C2E
100
AcDbEntity
  8
0
 62
     0
100
AcDbLine
 10
178.5075005226465
 20
362.5
 30
0.0
 11
180.4999999999999
 21
362.5
 31
0.0
  0
LINE
  5
C36
330
C2E
100
AcDbEntity
  8
0
 62
     0
100
AcDbLine
 10
178.5384709112452
 20
362.6
 30
0.0
 11
180.4999999999999
 21
362.6
 31
0.0
  0
LINE
  5
C37
330
C2E
100
AcDbEntity
  8
0
 62
     0
100
AcDbLine
 10
178.5720868672099
 20
362.7000000000001
 30
0.0
 11
180.4999999999999
 21
362.7000000000001
 31
0.0
  0
LINE
  5
C38
330
C2E
100
AcDbEntity
  8
0
 62
     0
100
AcDbLine
 10
178.6084133868437
 20
362.8
 30
0.0
 11
180.4999999999999
 21
362.8
 31
0.0
  0
LINE
  5
C39
330
C2E
100
AcDbEntity
  8
0
 62
     0
100
AcDbLine
 10
178.6475231250657
 20
362.9
 30
0.0
 11
180.4999999999999
 21
362.9
 31
0.0
  0
LINE
  5
C3A
330
C2E
100
AcDbEntity
  8
0
 62
     0
100
AcDbLine
 10
178.6894972378106
 20
363.0
 30
0.0
 11
180.4999999999999
 21
363.0
 31
0.0
  0
LINE
  5
C3B
330
C2E
100
AcDbEntity
  8
0
 62
     0
100
AcDbLine
 10
178.7344263766728
 20
363.1
 30
0.0
 11
180.4999999999999
 21
363.1
 31
0.0
  0
LINE
  5
C3C
330
C2E
100
AcDbEntity
  8
0
 62
     0
100
AcDbLine
 10
178.7824118680131
 20
363.2000000000001
 30
0.0
 11
180.4999999999999
 21
363.2000000000001
 31
0.0
  0
LINE
  5
C3D
330
C2E
100
AcDbEntity
  8
0
 62
     0
100
AcDbLine
 10
178.8335671174643
 20
363.3
 30
0.0
 11
180.4999999999999
 21
363.3
 31
0.0
  0
LINE
  5
C3E
330
C2E
100
AcDbEntity
  8
0
 62
     0
100
AcDbLine
 10
178.8880192922916
 20
363.4
 30
0.0
 11
180.4999999999999
 21
363.4
 31
0.0
  0
LINE
  5
C3F
330
C2E
100
AcDbEntity
  8
0
 62
     0
100
AcDbLine
 10
178.9459113494669
 20
363.5
 30
0.0
 11
180.4999999999999
 21
363.5
 31
0.0
  0
LINE
  5
C40
330
C2E
100
AcDbEntity
  8
0
 62
     0
100
AcDbLine
 10
179.0074044981649
 20
363.6
 30
0.0
 11
180.4999999999999
 21
363.6
 31
0.0
  0
LINE
  5
C41
330
C2E
100
AcDbEntity
  8
0
 62
     0
100
AcDbLine
 10
179.0726812139651
 20
363.7
 30
0.0
 11
180.4999999999999
 21
363.7
 31
0.0
  0
LINE
  5
C42
330
C2E
100
AcDbEntity
  8
0
 62
     0
100
AcDbLine
 10
179.1419489618013
 20
363.8
 30
0.0
 11
180.4999999999999
 21
363.8
 31
0.0
  0
LINE
  5
C43
330
C2E
100
AcDbEntity
  8
0
 62
     0
100
AcDbLine
 10
179.2154448408505
 20
363.9
 30
0.0
 11
180.4999999999999
 21
363.9
 31
0.0
  0
LINE
  5
C44
330
C2E
100
AcDbEntity
  8
0
 62
     0
100
AcDbLine
 10
179.2934414452459
 20
364.0
 30
0.0
 11
180.4999999999999
 21
364.0
 31
0.0
  0
LINE
  5
C45
330
C2E
100
AcDbEntity
  8
0
 62
     0
100
AcDbLine
 10
179.3762543526588
 20
364.1
 30
0.0
 11
180.4999999999999
 21
364.1
 31
0.0
  0
LINE
  5
C46
330
C2E
100
AcDbEntity
  8
0
 62
     0
100
AcDbLine
 10
179.4642518294681
 20
364.2
 30
0.0
 11
180.4999999999999
 21
364.2
 31
0.0
  0
LINE
  5
C47
330
C2E
100
AcDbEntity
  8
0
 62
     0
100
AcDbLine
 10
179.5578676116765
 20
364.3
 30
0.0
 11
180.4999999999999
 21
364.3
 31
0.0
  0
LINE
  5
C48
330
C2E
100
AcDbEntity
  8
0
 62
     0
100
AcDbLine
 10
179.6576180457244
 20
364.4000000000001
 30
0.0
 11
180.4999999999999
 21
364.4000000000001
 31
0.0
  0
LINE
  5
C49
330
C2E
100
AcDbEntity
  8
0
 62
     0
100
AcDbLine
 10
179.7641255614661
 20
364.5
 30
0.0
 11
180.4999999999999
 21
364.5
 31
0.0
  0
LINE
  5
C4A
330
C2E
100
AcDbEntity
  8
0
 62
     0
100
AcDbLine
 10
179.8781516024891
 20
364.6
 30
0.0
 11
180.4999999999999
 21
364.6
 31
0.0
  0
LINE
  5
C4B
330
C2E
100
AcDbEntity
  8
0
 62
     0
100
AcDbLine
 10
180.0006441485344
 20
364.7000000000001
 30
0.0
 11
180.4999999999999
 21
364.7000000000001
 31
0.0
  0
LINE
  5
C4C
330
C2E
100
AcDbEntity
  8
0
 62
     0
100
AcDbLine
 10
180.1328086338268
 20
364.8
 30
0.0
 11
180.4999999999999
 21
364.8
 31
0.0
  0
LINE
  5
C4D
330
C2E
100
AcDbEntity
  8
0
 62
     0
100
AcDbLine
 10
180.2762181438119
 20
364.9
 30
0.0
 11
180.4999999999999
 21
364.9
 31
0.0
  0
LINE
  5
C4E
330
C2E
100
AcDbEntity
  8
0
 62
     0
100
AcDbLine
 10
180.4329933741505
 20
365.0
 30
0.0
 11
180.4999999999999
 21
365.0
 31
0.0
  0
LINE
  5
C4F
330
C2E
100
AcDbEntity
  8
0
 62
     0
100
AcDbLine
 10
178.3744004278602
 20
361.9
 30
0.0
 11
180.4265226672854
 21
361.9
 31
0.0
  0
LINE
  5
C50
330
C2E
100
AcDbEntity
  8
0
 62
     0
100
AcDbLine
 10
178.3606458315152
 20
361.8
 30
0.0
 11
180.3740226672853
 21
361.8
 31
0.0
  0
LINE
  5
C51
330
C2E
100
AcDbEntity
  8
0
 62
     0
100
AcDbLine
 10
178.3492254379178
 20
361.7
 30
0.0
 11
180.3215226672854
 21
361.7
 31
0.0
  0
LINE
  5
C52
330
C2E
100
AcDbEntity
  8
0
 62
     0
100
AcDbLine
 10
178.3401209596754
 20
361.6
 30
0.0
 11
180.2690226672854
 21
361.6
 31
0.0
  0
LINE
  5
C53
330
C2E
100
AcDbEntity
  8
0
 62
     0
100
AcDbLine
 10
178.333317954546
 20
361.5
 30
0.0
 11
180.2165226672854
 21
361.5
 31
0.0
  0
LINE
  5
C54
330
C2E
100
AcDbEntity
  8
0
 62
     0
100
AcDbLine
 10
178.328805709404
 20
361.4
 30
0.0
 11
180.1640226672854
 21
361.4
 31
0.0
  0
LINE
  5
C55
330
C2E
100
AcDbEntity
  8
0
 62
     0
100
AcDbLine
 10
178.3265771552019
 20
361.3
 30
0.0
 11
180.1115226672854
 21
361.3
 31
0.0
  0
LINE
  5
C56
330
C2E
100
AcDbEntity
  8
0
 62
     0
100
AcDbLine
 10
178.3266288113398
 20
361.2
 30
0.0
 11
180.0590226672854
 21
361.2
 31
0.0
  0
LINE
  5
C57
330
C2E
100
AcDbEntity
  8
0
 62
     0
100
AcDbLine
 10
178.3289607584151
 20
361.1
 30
0.0
 11
180.0065226672854
 21
361.1
 31
0.0
  0
LINE
  5
C58
330
C2E
100
AcDbEntity
  8
0
 62
     0
100
AcDbLine
 10
178.3335766388526
 20
361.0
 30
0.0
 11
179.9540226672853
 21
361.0
 31
0.0
  0
LINE
  5
C59
330
C2E
100
AcDbEntity
  8
0
 62
     0
100
AcDbLine
 10
178.3404836854259
 20
360.9
 30
0.0
 11
179.9015226672854
 21
360.9
 31
0.0
  0
LINE
  5
C5A
330
C2E
100
AcDbEntity
  8
0
 62
     0
100
AcDbLine
 10
178.3496927781949
 20
360.8
 30
0.0
 11
179.8490226672853
 21
360.8
 31
0.0
  0
LINE
  5
C5B
330
C2E
100
AcDbEntity
  8
0
 62
     0
100
AcDbLine
 10
178.3612185309093
 20
360.7000000000001
 30
0.0
 11
179.7965226672854
 21
360.7000000000001
 31
0.0
  0
LINE
  5
C5C
330
C2E
100
AcDbEntity
  8
0
 62
     0
100
AcDbLine
 10
178.3750794084957
 20
360.6
 30
0.0
 11
179.7440226672853
 21
360.6
 31
0.0
  0
LINE
  5
C5D
330
C2E
100
AcDbEntity
  8
0
 62
     0
100
AcDbLine
 10
178.3912978778623
 20
360.5
 30
0.0
 11
179.6915226672853
 21
360.5
 31
0.0
  0
LINE
  5
C5E
330
C2E
100
AcDbEntity
  8
0
 62
     0
100
AcDbLine
 10
178.4099005949544
 20
360.4
 30
0.0
 11
179.6390226672854
 21
360.4
 31
0.0
  0
LINE
  5
C5F
330
C2E
100
AcDbEntity
  8
0
 62
     0
100
AcDbLine
 10
178.430918631792
 20
360.3
 30
0.0
 11
179.5865226672854
 21
360.3
 31
0.0
  0
LINE
  5
C60
330
C2E
100
AcDbEntity
  8
0
 62
     0
100
AcDbLine
 10
178.4543877481646
 20
360.2
 30
0.0
 11
179.5340226672854
 21
360.2
 31
0.0
  0
LINE
  5
C61
330
C2E
100
AcDbEntity
  8
0
 62
     0
100
AcDbLine
 10
178.4803487137722
 20
360.1
 30
0.0
 11
179.4815226672854
 21
360.1
 31
0.0
  0
LINE
  5
C62
330
C2E
100
AcDbEntity
  8
0
 62
     0
100
AcDbLine
 10
178.508847687953
 20
360.0
 30
0.0
 11
179.4290226672853
 21
360.0
 31
0.0
  0
LINE
  5
C63
330
C2E
100
AcDbEntity
  8
0
 62
     0
100
AcDbLine
 10
178.5399366657872
 20
359.9
 30
0.0
 11
179.3765226672853
 21
359.9
 31
0.0
  0
LINE
  5
C64
330
C2E
100
AcDbEntity
  8
0
 62
     0
100
AcDbLine
 10
178.573674001399
 20
359.8
 30
0.0
 11
179.3240226672853
 21
359.8
 31
0.0
  0
LINE
  5
C65
330
C2E
100
AcDbEntity
  8
0
 62
     0
100
AcDbLine
 10
178.6101250218182
 20
359.7
 30
0.0
 11
179.2715226672854
 21
359.7
 31
0.0
  0
LINE
  5
C66
330
C2E
100
AcDbEntity
  8
0
 62
     0
100
AcDbLine
 10
178.6493627479554
 20
359.6
 30
0.0
 11
179.2190226672853
 21
359.6
 31
0.0
  0
LINE
  5
C67
330
C2E
100
AcDbEntity
  8
0
 62
     0
100
AcDbLine
 10
178.6914687433038
 20
359.5
 30
0.0
 11
179.1665226672853
 21
359.5
 31
0.0
  0
LINE
  5
C68
330
C2E
100
AcDbEntity
  8
0
 62
     0
100
AcDbLine
 10
178.7365341161893
 20
359.4
 30
0.0
 11
179.1140226672854
 21
359.4
 31
0.0
  0
LINE
  5
C69
330
C2E
100
AcDbEntity
  8
0
 62
     0
100
AcDbLine
 10
178.7846607081314
 20
359.3
 30
0.0
 11
179.0615226672853
 21
359.3
 31
0.0
  0
LINE
  5
C6A
330
C2E
100
AcDbEntity
  8
0
 62
     0
100
AcDbLine
 10
178.8359625097062
 20
359.2
 30
0.0
 11
179.0090226672854
 21
359.2
 31
0.0
  0
LINE
  5
C6B
330
C2E
100
AcDbEntity
  8
0
 62
     0
100
AcDbLine
 10
178.8905673569716
 20
359.1
 30
0.0
 11
178.9565226672854
 21
359.1
 31
0.0
  0
ENDBLK
  5
C6C
330
C2E
100
AcDbEntity
  8
0
100
AcDbBlockEnd
  0
BLOCK
  5
D36
330
D2B
100
AcDbEntity
  8
0
100
AcDbBlockBegin
  2
*D2
 70
     1
 10
0.0
 20
0.0
 30
0.0
  3
*D2
  1

  0
LINE
  5
111B
330
D2B
100
AcDbEntity
  8
BEM
 62
     0
370
    -2
100
AcDbLine
 10
57.11242064468144
 20
92.69467539466608
 30
0.0
 11
39.57909445969246
 21
92.69467539466608
 31
0.0
  0
LINE
  5
111C
330
D2B
100
AcDbEntity
  8
BEM
 62
     0
370
    -2
100
AcDbLine
 10
63.73459532966005
 20
272.694675394666
 30
0.0
 11
39.5790944596925
 21
272.694675394666
 31
0.0
  0
LINE
  5
111D
330
D2B
100
AcDbEntity
  8
BEM
 62
     0
370
    -2
100
AcDbLine
 10
40.57909445969245
 20
96.1946753946661
 30
0.0
 11
40.57909445969249
 21
269.194675394666
 31
0.0
  0
SOLID
  5
111E
330
D2B
100
AcDbEntity
  8
BEM
 62
     0
100
AcDbTrace
 10
39.99576112635912
 20
96.1946753946661
 30
0.0
 11
41.16242779302579
 21
96.1946753946661
 31
0.0
 12
40.57909445969245
 22
92.69467539466608
 32
0.0
 13
40.57909445969245
 23
92.69467539466608
 33
0.0
  0
SOLID
  5
111F
330
D2B
100
AcDbEntity
  8
BEM
 62
     0
100
AcDbTrace
 10
39.99576112635916
 20
269.194675394666
 30
0.0
 11
41.16242779302583
 21
269.194675394666
 31
0.0
 12
40.5790944596925
 22
272.694675394666
 32
0.0
 13
40.5790944596925
 23
272.694675394666
 33
0.0
  0
MTEXT
  5
1120
330
D2B
100
AcDbEntity
  8
BEM
 62
     1
100
AcDbMText
 10
37.32909445969245
 20
182.694675394666
 30
0.0
 40
3.5
 41
0.0
 71
     5
 72
     1
  1
\A1;180
 11
0.0000000000000001
 21
1.0
 31
0.0
 73
     1
 44
1.0
  0
POINT
  5
1121
330
D2B
100
AcDbEntity
  8
DEFPOINTS
 62
     0
100
AcDbPoint
 10
58.11242064468143
 20
92.69467539466608
 30
0.0
  0
POINT
  5
1122
330
D2B
100
AcDbEntity
  8
DEFPOINTS
 62
     0
100
AcDbPoint
 10
64.73459532966003
 20
272.694675394666
 30
0.0
  0
POINT
  5
1123
330
D2B
100
AcDbEntity
  8
DEFPOINTS
 62
     0
100
AcDbPoint
 10
40.5790944596925
 20
272.694675394666
 30
0.0
  0
ENDBLK
  5
D37
330
D2B
100
AcDbEntity
  8
0
100
AcDbBlockEnd
  0
BLOCK
  5
D84
330
D79
100
AcDbEntity
  8
0
100
AcDbBlockBegin
  2
*D3
 70
     1
 10
0.0
 20
0.0
 30
0.0
  3
*D3
  1

  0
LINE
  5
1112
330
D79
100
AcDbEntity
  8
BEM
 62
     0
370
    -2
100
AcDbLine
 10
57.49999999999997
 20
98.6946753946661
 30
0.0
 11
57.49999999999997
 21
78.17508306741411
 31
0.0
  0
LINE
  5
1113
330
D79
100
AcDbEntity
  8
BEM
 62
     0
370
    -2
100
AcDbLine
 10
167.5
 20
98.69467539466633
 30
0.0
 11
167.5
 21
78.17508306741411
 31
0.0
  0
LINE
  5
1114
330
D79
100
AcDbEntity
  8
BEM
 62
     0
370
    -2
100
AcDbLine
 10
60.99999999999997
 20
79.1750830674141
 30
0.0
 11
163.9999999999999
 21
79.1750830674141
 31
0.0
  0
SOLID
  5
1115
330
D79
100
AcDbEntity
  8
BEM
 62
     0
100
AcDbTrace
 10
60.99999999999997
 20
79.75841640074744
 30
0.0
 11
60.99999999999997
 21
78.59174973408078
 31
0.0
 12
57.49999999999997
 22
79.1750830674141
 32
0.0
 13
57.49999999999997
 23
79.1750830674141
 33
0.0
  0
SOLID
  5
1116
330
D79
100
AcDbEntity
  8
BEM
 62
     0
100
AcDbTrace
 10
163.9999999999999
 20
79.75841640074744
 30
0.0
 11
163.9999999999999
 21
78.59174973408078
 31
0.0
 12
167.5
 22
79.1750830674141
 32
0.0
 13
167.5
 23
79.1750830674141
 33
0.0
  0
MTEXT
  5
1117
330
D79
100
AcDbEntity
  8
BEM
 62
     1
100
AcDbMText
 10
112.5
 20
82.42508306741411
 30
0.0
 40
3.5
 41
0.0
 71
     5
 72
     1
  1
\A1;%%c110
 73
     1
 44
1.0
  0
POINT
  5
1118
330
D79
100
AcDbEntity
  8
DEFPOINTS
 62
     0
100
AcDbPoint
 10
57.49999999999997
 20
99.69467539466609
 30
0.0
  0
POINT
  5
1119
330
D79
100
AcDbEntity
  8
DEFPOINTS
 62
     0
100
AcDbPoint
 10
167.5
 20
99.69467539466632
 30
0.0
  0
POINT
  5
111A
330
D79
100
AcDbEntity
  8
DEFPOINTS
 62
     0
100
AcDbPoint
 10
167.5
 20
79.1750830674141
 30
0.0
  0
ENDBLK
  5
D85
330
D79
100
AcDbEntity
  8
0
100
AcDbBlockEnd
  0
BLOCK
  5
DC5
330
DBA
100
AcDbEntity
  8
0
100
AcDbBlockBegin
  2
*D6
 70
     1
 10
0.0
 20
0.0
 30
0.0
  3
*D6
  1

  0
LINE
  5
1109
330
DBA
100
AcDbEntity
  8
BEM
 62
     0
370
    -2
100
AcDbLine
 10
57.11242064468144
 20
92.69467539466608
 30
0.0
 11
47.22388355231756
 21
92.69467539466608
 31
0.0
  0
LINE
  5
110A
330
DBA
100
AcDbEntity
  8
BEM
 62
     0
370
    -2
100
AcDbLine
 10
56.87042139308019
 20
172.6946753946661
 30
0.0
 11
47.22388355231757
 21
172.6946753946661
 31
0.0
  0
LINE
  5
110B
330
DBA
100
AcDbEntity
  8
BEM
 62
     0
370
    -2
100
AcDbLine
 10
48.22388355231756
 20
96.1946753946661
 30
0.0
 11
48.22388355231757
 21
169.1946753946661
 31
0.0
  0
SOLID
  5
110C
330
DBA
100
AcDbEntity
  8
BEM
 62
     0
100
AcDbTrace
 10
47.64055021898422
 20
96.1946753946661
 30
0.0
 11
48.80721688565089
 21
96.1946753946661
 31
0.0
 12
48.22388355231756
 22
92.69467539466608
 32
0.0
 13
48.22388355231756
 23
92.69467539466608
 33
0.0
  0
SOLID
  5
110D
330
DBA
100
AcDbEntity
  8
BEM
 62
     0
100
AcDbTrace
 10
47.64055021898424
 20
169.1946753946661
 30
0.0
 11
48.80721688565091
 21
169.1946753946661
 31
0.0
 12
48.22388355231757
 22
172.6946753946661
 32
0.0
 13
48.22388355231757
 23
172.6946753946661
 33
0.0
  0
MTEXT
  5
110E
330
DBA
100
AcDbEntity
  8
BEM
 62
     1
100
AcDbMText
 10
44.97388355231755
 20
132.6946753946661
 30
0.0
 40
3.5
 41
0.0
 71
     5
 72
     1
  1
\A1;80
 11
0.0000000000000001
 21
1.0
 31
0.0
 73
     1
 44
1.0
  0
POINT
  5
110F
330
DBA
100
AcDbEntity
  8
DEFPOINTS
 62
     0
100
AcDbPoint
 10
58.11242064468143
 20
92.69467539466608
 30
0.0
  0
POINT
  5
1110
330
DBA
100
AcDbEntity
  8
DEFPOINTS
 62
     0
100
AcDbPoint
 10
57.87042139308019
 20
172.6946753946661
 30
0.0
  0
POINT
  5
1111
330
DBA
100
AcDbEntity
  8
DEFPOINTS
 62
     0
100
AcDbPoint
 10
48.22388355231757
 20
172.6946753946661
 30
0.0
  0
ENDBLK
  5
DC6
330
DBA
100
AcDbEntity
  8
0
100
AcDbBlockEnd
  0
BLOCK
  5
FE8
330
FDE
100
AcDbEntity
  8
0
100
AcDbBlockBegin
  2
*D7
 70
     1
 10
0.0
 20
0.0
 30
0.0
  3
*D7
  1

  0
LINE
  5
1100
330
FDE
100
AcDbEntity
  8
BEM
 62
     0
370
    -2
100
AcDbLine
 10
67.99999999999997
 20
193.694675394666
 30
0.0
 11
67.99999999999997
 21
201.2684271982849
 31
0.0
  0
LINE
  5
1101
330
FDE
100
AcDbEntity
  8
BEM
 62
     0
370
    -2
100
AcDbLine
 10
157.0
 20
193.694675394666
 30
0.0
 11
157.0
 21
201.2684271982849
 31
0.0
  0
LINE
  5
1102
330
FDE
100
AcDbEntity
  8
BEM
 62
     0
370
    -2
100
AcDbLine
 10
71.49999999999997
 20
200.2684271982849
 30
0.0
 11
153.4999999999999
 21
200.2684271982849
 31
0.0
  0
SOLID
  5
1103
330
FDE
100
AcDbEntity
  8
BEM
 62
     0
100
AcDbTrace
 10
71.49999999999997
 20
200.8517605316182
 30
0.0
 11
71.49999999999997
 21
199.6850938649515
 31
0.0
 12
67.99999999999997
 22
200.2684271982849
 32
0.0
 13
67.99999999999997
 23
200.2684271982849
 33
0.0
  0
SOLID
  5
1104
330
FDE
100
AcDbEntity
  8
BEM
 62
     0
100
AcDbTrace
 10
153.4999999999999
 20
200.8517605316182
 30
0.0
 11
153.4999999999999
 21
199.6850938649515
 31
0.0
 12
157.0
 22
200.2684271982849
 32
0.0
 13
157.0
 23
200.2684271982849
 33
0.0
  0
MTEXT
  5
1105
330
FDE
100
AcDbEntity
  8
BEM
 62
     1
100
AcDbMText
 10
112.5
 20
203.5184271982849
 30
0.0
 40
3.5
 41
0.0
 71
     5
 72
     1
  1
\A1;%%c89
 73
     1
 44
1.0
  0
POINT
  5
1106
330
FDE
100
AcDbEntity
  8
DEFPOINTS
 62
     0
100
AcDbPoint
 10
67.99999999999997
 20
192.694675394666
 30
0.0
  0
POINT
  5
1107
330
FDE
100
AcDbEntity
  8
DEFPOINTS
 62
     0
100
AcDbPoint
 10
157.0
 20
192.694675394666
 30
0.0
  0
POINT
  5
1108
330
FDE
100
AcDbEntity
  8
DEFPOINTS
 62
     0
100
AcDbPoint
 10
157.0
 20
200.2684271982849
 30
0.0
  0
ENDBLK
  5
FE9
330
FDE
100
AcDbEntity
  8
0
100
AcDbBlockEnd
  0
ENDSEC
  0
SECTION
  2
ENTITIES
  0
LINE
  5
57
330
1E
100
AcDbEntity
  8
STEMPEL
100
AcDbLine
 10
205.0
 20
55.00000000000003
 30
0.0
 11
19.99999999999998
 21
55.0
 31
0.0
  0
LINE
  5
58
330
1E
100
AcDbEntity
  8
STEMPEL
100
AcDbLine
 10
68.00000000000006
 20
54.99999999999997
 30
0.0
 11
68.0
 21
4.999999999999985
 31
0.0
  0
LINE
  5
59
330
1E
100
AcDbEntity
  8
STEMPEL
100
AcDbLine
 10
110.0
 20
55.00000000000003
 30
0.0
 11
110.0
 21
4.999999999999985
 31
0.0
  0
LINE
  5
5A
330
1E
100
AcDbEntity
  8
STEMPEL
100
AcDbLine
 10
166.0
 20
54.99999999999989
 30
0.0
 11
166.0
 21
20.0
 31
0.0
  0
LINE
  5
5B
330
1E
100
AcDbEntity
  8
STEMPEL
100
AcDbLine
 10
67.99999999999994
 20
14.99999999999998
 30
0.0
 11
19.99999999999998
 21
14.99999999999998
 31
0.0
  0
LINE
  5
5C
330
1E
100
AcDbEntity
  8
STEMPEL
100
AcDbLine
 10
205.0
 20
20.0
 30
0.0
 11
68.00000000000006
 21
19.99999999999998
 31
0.0
  0
LINE
  5
5D
330
1E
100
AcDbEntity
  8
STEMPEL
100
AcDbLine
 10
205.0
 20
40.0
 30
0.0
 11
68.00000000000006
 21
39.99999999999997
 31
0.0
  0
LINE
  5
5E
330
1E
100
AcDbEntity
  8
VOLL
100
AcDbLine
 10
27.00000000000005
 20
55.00000000000003
 30
0.0
 11
26.99999999999999
 21
4.999999999999985
 31
0.0
  0
LINE
  5
5F
330
1E
100
AcDbEntity
  8
VOLL
100
AcDbLine
 10
47.00000000000005
 20
54.99999999999997
 30
0.0
 11
47.0
 21
4.999999999999985
 31
0.0
  0
LINE
  5
60
330
1E
100
AcDbEntity
  8
VOLL
100
AcDbLine
 10
57.00000000000006
 20
54.99999999999997
 30
0.0
 11
57.0
 21
4.999999999999985
 31
0.0
  0
LINE
  5
61
330
1E
100
AcDbEntity
  8
VOLL
100
AcDbLine
 10
77.00000000000006
 20
39.99999999999997
 30
0.0
 11
77.00000000000006
 21
19.99999999999998
 31
0.0
  0
LINE
  5
62
330
1E
100
AcDbEntity
  8
VOLL
100
AcDbLine
 10
90.00000000000005
 20
54.99999999999992
 30
0.0
 11
90.0
 21
19.99999999999998
 31
0.0
  0
LINE
  5
63
330
1E
100
AcDbEntity
  8
HILF
100
AcDbLine
 10
20.00000000000004
 20
50.00000000000003
 30
0.0
 11
68.00000000000006
 21
50.00000000000003
 31
0.0
  0
LINE
  5
64
330
1E
100
AcDbEntity
  8
HILF
100
AcDbLine
 10
20.00000000000004
 20
45.00000000000002
 30
0.0
 11
68.00000000000006
 21
45.00000000000002
 31
0.0
  0
LINE
  5
65
330
1E
100
AcDbEntity
  8
HILF
100
AcDbLine
 10
20.00000000000004
 20
39.99999999999997
 30
0.0
 11
68.00000000000006
 21
39.99999999999997
 31
0.0
  0
LINE
  5
66
330
1E
100
AcDbEntity
  8
HILF
100
AcDbLine
 10
20.00000000000004
 20
34.99999999999997
 30
0.0
 11
68.00000000000006
 21
34.99999999999997
 31
0.0
  0
LINE
  5
67
330
1E
100
AcDbEntity
  8
HILF
100
AcDbLine
 10
20.00000000000004
 20
29.99999999999999
 30
0.0
 11
68.00000000000006
 21
29.99999999999999
 31
0.0
  0
LINE
  5
68
330
1E
100
AcDbEntity
  8
HILF
100
AcDbLine
 10
20.00000000000004
 20
24.99999999999999
 30
0.0
 11
68.00000000000006
 21
24.99999999999999
 31
0.0
  0
LINE
  5
69
330
1E
100
AcDbEntity
  8
HILF
100
AcDbLine
 10
20.00000000000004
 20
19.99999999999998
 30
0.0
 11
68.00000000000006
 21
19.99999999999998
 31
0.0
  0
LINE
  5
6A
330
1E
100
AcDbEntity
  8
HILF
100
AcDbLine
 10
68.00000000000006
 20
34.99999999999997
 30
0.0
 11
110.0
 21
34.99999999999997
 31
0.0
  0
LINE
  5
6B
330
1E
100
AcDbEntity
  8
HILF
100
AcDbLine
 10
68.00000000000006
 20
29.99999999999999
 30
0.0
 11
110.0
 21
29.99999999999999
 31
0.0
  0
LINE
  5
6C
330
1E
100
AcDbEntity
  8
HILF
100
AcDbLine
 10
68.00000000000006
 20
24.99999999999999
 30
0.0
 11
110.0
 21
24.99999999999999
 31
0.0
  0
LINE
  5
6D
330
1E
100
AcDbEntity
  8
HILF
100
AcDbLine
 10
112.3868400548474
 20
42.01879123782069
 30
0.0
 11
162.4176958278155
 21
42.01879123782069
 31
0.0
  0
LINE
  5
6E
330
1E
100
AcDbEntity
  8
HILF
100
AcDbLine
 10
112.3868400548474
 20
34.99999999999997
 30
0.0
 11
162.4176958278155
 21
34.99999999999997
 31
0.0
  0
LINE
  5
6F
330
1E
100
AcDbEntity
  8
HILF
100
AcDbLine
 10
112.3868400548474
 20
29.99999999999999
 30
0.0
 11
162.4176958278155
 21
29.99999999999999
 31
0.0
  0
LINE
  5
70
330
1E
100
AcDbEntity
  8
HILF
100
AcDbLine
 10
112.3868400548474
 20
24.99999999999999
 30
0.0
 11
162.4176958278155
 21
24.99999999999999
 31
0.0
  0
LINE
  5
71
330
1E
100
AcDbEntity
  8
VOLL
100
AcDbLine
 10
166.0
 20
30.0
 30
0.0
 11
205.0
 21
30.0
 31
0.0
  0
LINE
  5
72
330
1E
100
AcDbEntity
  8
HILF
100
AcDbLine
 10
168.3619308148496
 20
41.88991818477913
 30
0.0
 11
202.4294419663364
 21
41.88991818477913
 31
0.0
  0
LINE
  5
73
330
1E
100
AcDbEntity
  8
HILF
100
AcDbLine
 10
111.7454849644942
 20
7.446991290141568
 30
0.0
 11
202.4294419663364
 21
7.446991290141568
 31
0.0
  0
TEXT
  5
74
330
1E
100
AcDbEntity
  8
TEXT
100
AcDbText
 10
31.38191383106503
 20
9.336909474920659
 30
0.0
 40
2.0
  1
Änderung
 41
0.8
  7
GREEKS
 72
     1
 11
36.7533424024936
 21
9.336909474920659
 31
0.0
100
AcDbText
  0
TEXT
  5
75
330
1E
100
AcDbEntity
  8
TEXT
100
AcDbText
 10
71.75817860751886
 20
51.23104475435443
 30
0.0
 40
2.5
  1
Maßstab
 41
0.8
  7
GREEKS
100
AcDbText
  0
TEXT
  5
76
330
1E
100
AcDbEntity
  8
TEXT
100
AcDbText
 10
92.14294773670257
 20
51.20920842174095
 30
0.0
 40
2.5
  1
Zul. Abw.
 41
0.8
  7
GREEKS
100
AcDbText
  0
TEXT
  5
77
330
1E
100
AcDbEntity
  8
TEXT
100
AcDbText
 10
112.4389701904505
 20
51.27446640058898
 30
0.0
 40
2.5
  1
Benennung
 41
0.8
  7
GREEKS
100
AcDbText
  0
TEXT
  5
78
330
1E
100
AcDbEntity
  8
TEXT
100
AcDbText
 10
168.089377478817
 20
51.15660172685682
 30
0.0
 40
2.5
  1
Zeichnungs Nr.
 41
0.8
  7
GREEKS
100
AcDbText
  0
TEXT
  5
79
330
1E
100
AcDbEntity
  8
TEXT
100
AcDbText
 10
112.371119195568
 20
15.42280285096528
 30
0.0
 40
2.5
  1
Bauvorhaben
 41
0.8
  7
GREEKS
100
AcDbText
  0
TEXT
  5
7A
330
1E
100
AcDbEntity
  8
TEXT
100
AcDbText
 10
168.3619308148496
 20
36.59059118549985
 30
0.0
 40
2.5
  1
Ersatz für:
 41
0.8
  7
GREEKS
100
AcDbText
  0
TEXT
  5
7B
330
1E
100
AcDbEntity
  8
TEXT
100
AcDbText
 10
24.13320553522878
 20
6.827329230135958
 30
0.0
 40
2.0
  1
Index
 50
90.0
 41
0.8
  7
GREEKS
100
AcDbText
  0
TEXT
  5
7C
330
1E
100
AcDbEntity
  8
TEXT
100
AcDbText
 10
49.79027596647531
 20
9.33578134669905
 30
0.0
 40
2.0
  1
Tag
 41
0.8
  7
GREEKS
 72
     1
 11
51.65694263314198
 21
9.33578134669905
 31
0.0
100
AcDbText
  0
TEXT
  5
7D
330
1E
100
AcDbEntity
  8
TEXT
100
AcDbText
 10
59.50613721932963
 20
9.29662108483204
 30
0.0
 40
2.0
  1
Name
 41
0.8
  7
GREEKS
 72
     1
 11
62.66804198123439
 21
9.29662108483204
 31
0.0
100
AcDbText
  0
TEXT
  5
7E
330
1E
100
AcDbEntity
  8
TEXT
100
AcDbText
 10
81.16558365768254
 20
36.65940250614963
 30
0.0
 40
2.0
  1
Tag
 41
0.8
  7
GREEKS
100
AcDbText
  0
TEXT
  5
7F
330
1E
100
AcDbEntity
  8
TEXT
100
AcDbText
 10
96.23132921131475
 20
36.65480545957612
 30
0.0
 40
2.0
  1
Name
 41
0.8
  7
GREEKS
100
AcDbText
  0
TEXT
  5
80
330
1E
100
AcDbEntity
  8
TEXT
100
AcDbText
 10
68.79180635838077
 20
31.81495184808982
 30
0.0
 40
2.0
  1
Gez.
 41
0.8
  7
GREEKS
100
AcDbText
  0
TEXT
  5
81
330
1E
100
AcDbEntity
  8
TEXT
100
AcDbText
 10
68.77575432858361
 20
26.84463145714189
 30
0.0
 40
2.0
  1
Gepr.
 41
0.8
  7
GREEKS
100
AcDbText
  0
TEXT
  5
82
330
1E
100
AcDbEntity
  8
TEXT
100
AcDbText
 10
68.80033886936519
 20
21.76473194824904
 30
0.0
 40
2.0
  1
Norm.
 41
0.8
  7
GREEKS
100
AcDbText
  0
LINE
  5
83
330
1E
100
AcDbEntity
  8
STEMPEL
100
AcDbLine
 10
24.99999999999995
 20
5.0
 30
0.0
 11
205.0
 21
5.0
 31
0.0
  0
TEXT
  5
84
330
1E
100
AcDbEntity
  8
TEXT
100
AcDbText
 10
168.6200430748503
 20
26.03708088939301
 30
0.0
 40
2.5
  1
ersetzt durch:
 41
0.8
  7
GREEKS
100
AcDbText
  0
LINE
  5
85
330
1E
100
AcDbEntity
  8
STEMPEL
100
AcDbLine
 10
205.0
 20
5.0
 30
0.0
 11
19.99999999999994
 21
5.0
 31
0.0
  0
LINE
  5
86
330
1E
100
AcDbEntity
  8
STEMPEL
100
AcDbLine
 10
205.0
 20
5.0
 30
0.0
 11
205.0
 21
292.0
 31
0.0
  0
LINE
  5
87
330
1E
100
AcDbEntity
  8
STEMPEL
100
AcDbLine
 10
20.0
 20
5.0
 30
0.0
 11
19.99999999999994
 21
292.0
 31
0.0
  0
LINE
  5
88
330
1E
100
AcDbEntity
  8
STEMPEL
100
AcDbLine
 10
205.0
 20
292.0
 30
0.0
 11
19.99999999999994
 21
292.0
 31
0.0
  0
LINE
  5
89
330
1E
100
AcDbEntity
  8
HILF
100
AcDbLine
 10
0.0
 20
0.0
 30
0.0
 11
-0.0000000000000568
 21
297.0
 31
0.0
  0
LINE
  5
8A
330
1E
100
AcDbEntity
  8
HILF
100
AcDbLine
 10
210.0
 20
297.0000000000001
 30
0.0
 11
0.0
 21
297.0
 31
0.0
  0
LINE
  5
8B
330
1E
100
AcDbEntity
  8
HILF
100
AcDbLine
 10
210.0
 20
0.0
 30
0.0
 11
0.0
 21
0.0
 31
0.0
  0
LINE
  5
8C
330
1E
100
AcDbEntity
  8
HILF
100
AcDbLine
 10
15.54383567856928
 20
148.5
 30
0.0
 11
0.0000000000000568
 21
148.5
 31
0.0
  0
TEXT
  5
8D
330
1E
100
AcDbEntity
  8
TEXT
100
AcDbText
 10
69.31105491105199
 20
36.57012735575833
 30
0.0
 40
2.0
  1
2011
 41
0.8
  7
GREEKS
100
AcDbText
  0
LINE
  5
8E
330
1E
100
AcDbEntity
  8
HILF
100
AcDbLine
 10
210.0
 20
-0.0000000000000568
 30
0.0
 11
210.0
 21
297.0
 31
0.0
  0
TEXT
  5
8F
330
1E
100
AcDbEntity
  8
VOLL
100
AcDbText
 10
78.07675471698113
 20
31.02594776470585
 30
0.0
 40
1.8
  1

  7
GREEKS
100
AcDbText
  0
TEXT
  5
90
330
1E
100
AcDbEntity
  8
TEXT
100
AcDbText
 10
20.92754975488837
 20
55.83599999999997
 30
0.0
 40
2.5
  1
Erstellt mit AUTOCAD 2004
 41
0.8
  7
GREEKS
100
AcDbText
  0
TEXT
  5
91
330
1E
100
AcDbEntity
  8
TEXT
100
AcDbText
 10
97.21080242906285
 20
31.54481959861755
 30
0.0
 40
2.0
  1
Koeh
 41
0.8
  7
GREEKS
 72
     1
 11
99.83937385763429
 21
31.54481959861755
 31
0.0
100
AcDbText
  0
TEXT
  5
92
330
1E
100
AcDbEntity
  8
TEXT
 62
     1
100
AcDbText
 10
174.0752520510554
 20
44.07450714456979
 30
0.0
 40
3.5
  1
5630080W
 41
0.8
  7
GREEKS
 72
     1
 11
184.741918717722
 21
44.07450714456979
 31
0.0
100
AcDbText
  0
TEXT
  5
93
330
1E
100
AcDbEntity
  8
TEXT
 62
     1
100
AcDbText
 10
75.25031532409435
 20
44.07450714456979
 30
0.0
 40
3.5
  1
1:1
 41
0.8
  7
GREEKS
100
AcDbText
  0
TEXT
  5
94
330
1E
100
AcDbEntity
  8
TEXT
100
AcDbText
 10
80.50426045887993
 20
31.55382520412866
 30
0.0
 40
2.0
  1
11.04.
 41
0.8
  7
GREEKS
 72
     1
 11
83.70426045887993
 21
31.55382520412866
 31
0.0
100
AcDbText
  0
TEXT
  5
95
330
1E
100
AcDbEntity
  8
TEXT
 62
     1
100
AcDbText
 10
113.4467865528701
 20
43.70874394626889
 30
0.0
 40
3.5
  1
Anschlußstück DN80
 41
0.8
  7
GREEKS
100
AcDbText
  0
TEXT
  5
96
330
1E
100
AcDbEntity
  8
TEXT
100
AcDbText
 10
112.5648195562657
 20
35.75167208792644
 30
0.0
 40
2.5
  1
zum Anschluß an verschiedene
 41
0.8
  7
GREEKS
100
AcDbText
  0
TEXT
  5
97
330
1E
100
AcDbEntity
  8
TEXT
100
AcDbText
 10
112.5648195562657
 20
31.05790353387428
 30
0.0
 40
2.5
  1
Abflußrohre DN100
 41
0.8
  7
GREEKS
100
AcDbText
  0
TEXT
  5
98
330
1E
100
AcDbEntity
  8
TEXT
100
AcDbText
 10
112.5648195562657
 20
25.82005971521079
 30
0.0
 40
2.5
  1
EDV-Art.Nr. 5.630.080C
 41
0.8
  7
GREEKS
100
AcDbText
  0
TEXT
  5
99
330
1E
100
AcDbEntity
  8
TEXT
100
AcDbText
 10
112.4918750788913
 20
21.31487076511316
 30
0.0
 40
2.0
  1
5630080W.DWG
 41
0.8
  7
GREEKS
100
AcDbText
  0
TEXT
  5
9A
330
1E
100
AcDbEntity
  8
TEXT
100
AcDbText
 10
91.31306610404202
 20
45.38181920511511
 30
0.0
 40
2.0
  1
DIN EN1124-3
 41
0.8
  7
GREEKS
 72
     1
 11
99.80830419928011
 21
45.38181920511511
 31
0.0
100
AcDbText
  0
INSERT
  5
9B
330
1E
100
AcDbEntity
  8
STEMPEL
100
AcDbBlockReference
  2
LOGO
 10
70.4977742728897
 20
22.51052638224161
 30
0.0
  0
TEXT
  5
118
330
1E
100
AcDbEntity
  8
BEM
100
AcDbText
 10
208.6511461928583
 20
5.083950539994247
 30
0.0
 40
2.0
  1
Diese Zeichnung ist urheberrechtlich geschützt und bleibt unser Eigentum. Sie darf weder ganz noch teilweise verfielfältigt und nicht an Dritte weitergegeben werden.
 50
90.0
 41
0.8
  7
GREEKS
100
AcDbText
  0
TEXT
  5
3F8
330
1E
100
AcDbEntity
  8
TEXT
 62
     1
100
AcDbText
 10
147.7244849560548
 20
62.6938741512522
 30
0.0
 40
3.5
  1
Werkstoff: 1.4571
 41
0.8
  7
GREEKS
100
AcDbText
  0
TEXT
  5
3F9
330
1E
100
AcDbEntity
  8
TEXT
 62
     1
100
AcDbText
 10
28.72028760750493
 20
70.89517476188825
 30
0.0
 40
3.5
  1
Rohrende leicht eingezogen
 41
0.8
  7
GREEKS
100
AcDbText
  0
TEXT
  5
581
330
1E
100
AcDbEntity
  8
TEXT
 62
     1
100
AcDbText
 10
109.4505479813809
 20
124.0937063976958
 30
0.0
 40
3.5
  1
DN100
 50
90.0
 41
0.8
  7
GREEKS
100
AcDbText
  0
TEXT
  5
5A2
330
1E
100
AcDbEntity
  8
TEXT
 62
     1
100
AcDbText
 10
109.4505479813809
 20
256.0366124477345
 30
0.0
 40
3.5
  1
DN80
 50
90.0
 41
0.8
  7
GREEKS
100
AcDbText
  0
ARC
  5
CE1
330
1E
100
AcDbEntity
  8
SCHRAFF
100
AcDbCircle
 10
144.6140524968783
 20
192.694675394666
 30
0.0
 40
3.666384914966113
100
AcDbArc
 50
305.090535126001
 51
54.90946487399575
  0
ARC
  5
CE2
330
1E
100
AcDbEntity
  8
SCHRAFF
100
AcDbCircle
 10
149.6140524968784
 20
192.694675394666
 30
0.0
 40
3.666384914966113
100
AcDbArc
 50
305.090535126001
 51
54.90946487399575
  0
ARC
  5
CE3
330
1E
100
AcDbEntity
  8
SCHRAFF
100
AcDbCircle
 10
129.6140524968783
 20
192.694675394666
 30
0.0
 40
3.666384914966113
100
AcDbArc
 50
305.090535126001
 51
54.90946487399575
  0
ARC
  5
CE4
330
1E
100
AcDbEntity
  8
SCHRAFF
100
AcDbCircle
 10
124.6140524968783
 20
192.694675394666
 30
0.0
 40
3.666384914966113
100
AcDbArc
 50
305.090535126001
 51
54.90946487399575
  0
ARC
  5
CE5
330
1E
100
AcDbEntity
  8
SCHRAFF
100
AcDbCircle
 10
134.6140524968783
 20
192.694675394666
 30
0.0
 40
3.666384914966113
100
AcDbArc
 50
305.090535126001
 51
54.90946487399575
  0
ARC
  5
CE6
330
1E
100
AcDbEntity
  8
SCHRAFF
100
AcDbCircle
 10
139.6140524968783
 20
192.694675394666
 30
0.0
 40
3.666384914966113
100
AcDbArc
 50
305.090535126001
 51
54.90946487399575
  0
ARC
  5
CE7
330
1E
100
AcDbEntity
  8
SCHRAFF
100
AcDbCircle
 10
114.6140524968783
 20
192.694675394666
 30
0.0
 40
3.666384914966113
100
AcDbArc
 50
305.090535126001
 51
54.90946487399575
  0
ARC
  5
CE8
330
1E
100
AcDbEntity
  8
SCHRAFF
100
AcDbCircle
 10
119.6140524968783
 20
192.694675394666
 30
0.0
 40
3.666384914966113
100
AcDbArc
 50
305.090535126001
 51
54.90946487399575
  0
ARC
  5
CE9
330
1E
100
AcDbEntity
  8
SCHRAFF
100
AcDbCircle
 10
109.6140524968783
 20
192.694675394666
 30
0.0
 40
3.666384914966113
100
AcDbArc
 50
305.090535126001
 51
54.90946487399575
  0
ARC
  5
CEA
330
1E
100
AcDbEntity
  8
SCHRAFF
100
AcDbCircle
 10
104.6140524968783
 20
192.694675394666
 30
0.0
 40
3.666384914966113
100
AcDbArc
 50
305.090535126001
 51
54.90946487399575
  0
ARC
  5
CEB
330
1E
100
AcDbEntity
  8
SCHRAFF
100
AcDbCircle
 10
94.61405249687834
 20
192.694675394666
 30
0.0
 40
3.666384914966113
100
AcDbArc
 50
305.090535126001
 51
54.90946487399575
  0
ARC
  5
CEC
330
1E
100
AcDbEntity
  8
SCHRAFF
100
AcDbCircle
 10
99.61405249687835
 20
192.694675394666
 30
0.0
 40
3.666384914966113
100
AcDbArc
 50
305.090535126001
 51
54.90946487399575
  0
ARC
  5
CED
330
1E
100
AcDbEntity
  8
SCHRAFF
100
AcDbCircle
 10
84.61405249687834
 20
192.694675394666
 30
0.0
 40
3.666384914966113
100
AcDbArc
 50
305.090535126001
 51
54.90946487399575
  0
ARC
  5
CEE
330
1E
100
AcDbEntity
  8
SCHRAFF
100
AcDbCircle
 10
89.61405249687834
 20
192.694675394666
 30
0.0
 40
3.666384914966113
100
AcDbArc
 50
305.090535126001
 51
54.90946487399575
  0
ARC
  5
CEF
330
1E
100
AcDbEntity
  8
SCHRAFF
100
AcDbCircle
 10
79.61405249687834
 20
192.694675394666
 30
0.0
 40
3.666384914966113
100
AcDbArc
 50
305.090535126001
 51
54.90946487399575
  0
ARC
  5
CF0
330
1E
100
AcDbEntity
  8
SCHRAFF
100
AcDbCircle
 10
74.61405249687834
 20
192.694675394666
 30
0.0
 40
3.666384914966113
100
AcDbArc
 50
305.090535126001
 51
54.90946487399575
  0
ARC
  5
CF1
330
1E
100
AcDbEntity
  8
SCHRAFF
100
AcDbCircle
 10
69.61405249687834
 20
192.694675394666
 30
0.0
 40
3.666384914966113
100
AcDbArc
 50
305.090535126001
 51
54.90946487399575
  0
ARC
  5
CF2
330
1E
100
AcDbEntity
  8
SCHRAFF
100
AcDbCircle
 10
154.7867729005111
 20
191.9069845310502
 30
0.0
 40
4.386909649426416
100
AcDbArc
 50
329.7152463470066
 51
59.70136145235852
  0
INSERT
  5
CF3
330
1E
100
AcDbEntity
  8
SCHRAFF
100
AcDbBlockReference
  2
*X1
 10
337.4999999999999
 20
-169.3452814295522
 30
0.0
 41
-1.0
1001
ACAD
1000
HATCH
1002
{
1070
    16
1000
_U,I
1040
0.1
1040
0.0
1070
     0
1002
}
  0
INSERT
  5
CF4
330
1E
100
AcDbEntity
  8
SCHRAFF
100
AcDbBlockReference
  2
*X1
 10
-112.5
 20
-169.3452814295522
 30
0.0
1001
ACAD
1000
HATCH
1002
{
1070
    16
1000
_U,I
1040
0.1
1040
0.0
1070
     0
1002
}
  0
ARC
  5
CF5
330
1E
100
AcDbEntity
  8
SCHRAFF
100
AcDbCircle
 10
70.21322709948885
 20
191.9069845310502
 30
0.0
 40
4.386909649426416
100
AcDbArc
 50
120.2986385476414
 51
210.2847536529933
  0
DIMENSION
  5
CF6
330
1E
100
AcDbEntity
  8
BEM
100
AcDbDimension
  2
*D2
 10
40.5790944596925
 20
272.694675394666
 30
0.0
 11
37.32909445969245
 21
182.694675394666
 31
0.0
 70
    32
 71
     5
 42
179.9999999999999
  3
Standard
100
AcDbAlignedDimension
 13
58.11242064468143
 23
92.69467539466608
 33
0.0
 14
64.73459532966003
 24
272.694675394666
 34
0.0
 50
90.0
100
AcDbRotatedDimension
1001
ACAD
1000
DSTYLE
1002
{
1070
    41
1040
3.5
1070
    42
1040
1.0
1070
    43
1040
7.0
1070
    44
1040
1.0
1070
    47
1040
2.0
1070
    48
1040
1.0
1070
    73
1070
     0
1070
    74
1070
     0
1070
    77
1070
     1
1070
    78
1070
     8
1070
    79
1070
     2
1070
   140
1040
3.5
1070
   141
1040
1.5
1070
   146
1040
0.5
1070
   147
1040
1.5
1070
   172
1070
     1
1070
   178
1070
     1
1070
   179
1070
     2
1070
   271
1070
     2
1070
   272
1070
     2
1070
   284
1070
     8
1070
   285
1070
     8
1070
   286
1070
     8
1002
}
  0
DIMENSION
  5
D02
330
1E
100
AcDbEntity
  8
BEM
100
AcDbDimension
  2
*D3
 10
167.5
 20
79.1750830674141
 30
0.0
 11
112.5
 21
82.42508306741411
 31
0.0
 70
    32
  1
%%c<>
 71
     5
 42
110.0
  3
Standard
100
AcDbAlignedDimension
 13
57.49999999999997
 23
99.69467539466609
 33
0.0
 14
167.5
 24
99.69467539466632
 34
0.0
100
AcDbRotatedDimension
1001
ACAD
1000
DSTYLE
1002
{
1070
    41
1040
3.5
1070
    42
1040
1.0
1070
    43
1040
7.0
1070
    44
1040
1.0
1070
    47
1040
2.0
1070
    48
1040
1.0
1070
    73
1070
     0
1070
    74
1070
     0
1070
    77
1070
     1
1070
    78
1070
     8
1070
    79
1070
     2
1070
   140
1040
3.5
1070
   141
1040
1.5
1070
   146
1040
0.5
1070
   147
1040
1.5
1070
   172
1070
     1
1070
   178
1070
     1
1070
   179
1070
     2
1070
   271
1070
     2
1070
   272
1070
     2
1070
   284
1070
     8
1070
   285
1070
     8
1070
   286
1070
     8
1002
}
  0
DIMENSION
  5
D07
330
1E
100
AcDbEntity
  8
BEM
100
AcDbDimension
  2
*D6
 10
48.22388355231757
 20
172.6946753946661
 30
0.0
 11
44.97388355231755
 21
132.6946753946661
 31
0.0
 70
    32
 71
     5
 42
79.99999999999999
  3
Standard
100
AcDbAlignedDimension
 13
58.11242064468143
 23
92.69467539466608
 33
0.0
 14
57.87042139308019
 24
172.6946753946661
 34
0.0
 50
90.0
100
AcDbRotatedDimension
1001
ACAD
1000
DSTYLE
1002
{
1070
    41
1040
3.5
1070
    42
1040
1.0
1070
    43
1040
7.0
1070
    44
1040
1.0
1070
    47
1040
2.0
1070
    48
1040
1.0
1070
    73
1070
     0
1070
    74
1070
     0
1070
    77
1070
     1
1070
    78
1070
     8
1070
    79
1070
     2
1070
   140
1040
3.5
1070
   141
1040
1.5
1070
   146
1040
0.5
1070
   147
1040
1.5
1070
   172
1070
     1
1070
   178
1070
     1
1070
   179
1070
     2
1070
   271
1070
     2
1070
   272
1070
     2
1070
   284
1070
     8
1070
   285
1070
     8
1070
   286
1070
     8
1002
}
  0
ARC
  5
D08
330
1E
100
AcDbEntity
  8
STEMPEL
100
AcDbCircle
 10
155.4999999999999
 20
169.7361451133482
 30
0.0
 40
12.0
100
AcDbArc
 50
0.0
 51
27.69947280805493
  0
ARC
  5
D09
330
1E
100
AcDbEntity
  8
STEMPEL
100
AcDbCircle
 10
69.49999999999997
 20
169.7361451133483
 30
0.0
 40
12.0
100
AcDbArc
 50
152.3005271919447
 51
180.0
  0
LINE
  5
D0A
330
1E
100
AcDbEntity
  8
STEMPEL
100
AcDbLine
 10
167.5
 20
99.69467539466632
 30
0.0
 11
166.8875793553185
 21
92.69467539466603
 31
0.0
  0
LINE
  5
D0B
330
1E
100
AcDbEntity
  8
STEMPEL
100
AcDbLine
 10
57.49999999999997
 20
99.69467539466609
 30
0.0
 11
58.11242064468143
 21
92.69467539466608
 31
0.0
  0
LINE
  5
D0C
330
1E
100
AcDbEntity
  8
HILF
100
AcDbLine
 10
165.4923603249132
 20
99.69467539466604
 30
0.0
 11
59.50763967508667
 21
99.69467539466609
 31
0.0
  0
LINE
  5
D0D
330
1E
100
AcDbEntity
  8
STEMPEL
100
AcDbLine
 10
67.99999999999997
 20
192.694675394666
 30
0.0
 11
58.87522516594464
 21
175.3141519012274
 31
0.0
  0
LINE
  5
D0E
330
1E
100
AcDbEntity
  8
STEMPEL
100
AcDbLine
 10
157.0
 20
192.694675394666
 30
0.0
 11
166.1247748340552
 21
175.3141519012272
 31
0.0
  0
LINE
  5
D0F
330
1E
100
AcDbEntity
  8
HILF
100
AcDbLine
 10
165.0523347185133
 20
172.694675394666
 30
0.0
 11
59.94766528148653
 21
172.6946753946661
 31
0.0
  0
LINE
  5
D10
330
1E
100
AcDbEntity
  8
STEMPEL
100
AcDbLine
 10
167.5
 20
169.7361451133482
 30
0.0
 11
167.5
 21
99.69467539466632
 31
0.0
  0
LINE
  5
D11
330
1E
100
AcDbEntity
  8
STEMPEL
100
AcDbLine
 10
57.49999999999997
 20
169.7361451133483
 30
0.0
 11
57.49999999999997
 21
99.69467539466609
 31
0.0
  0
LINE
  5
D16
330
1E
100
AcDbEntity
  8
STEMPEL
100
AcDbLine
 10
160.2654046703399
 20
272.694675394666
 30
0.0
 11
64.73459532966003
 21
272.694675394666
 31
0.0
  0
LINE
  5
D26
330
1E
100
AcDbEntity
  8
MITTEL
100
AcDbLine
 10
112.5
 20
277.694675394666
 30
0.0
 11
112.5
 21
206.5163410319147
 31
0.0
  0
LINE
  5
D29
330
1E
100
AcDbEntity
  8
STEMPEL
100
AcDbLine
 10
157.0
 20
192.694675394666
 30
0.0
 11
67.99999999999997
 21
192.694675394666
 31
0.0
  0
LINE
  5
D2A
330
1E
100
AcDbEntity
  8
STEMPEL
100
AcDbLine
 10
166.8875793553185
 20
92.69467539466603
 30
0.0
 11
58.11242064468143
 21
92.69467539466608
 31
0.0
  0
DIMENSION
  5
FDD
330
1E
100
AcDbEntity
  8
BEM
100
AcDbDimension
  2
*D7
 10
157.0
 20
200.2684271982849
 30
0.0
 11
112.5
 21
203.5184271982849
 31
0.0
 70
    32
  1
%%c<>
 71
     5
 42
89.0
  3
Standard
100
AcDbAlignedDimension
 13
67.99999999999997
 23
192.694675394666
 33
0.0
 14
157.0
 24
192.694675394666
 34
0.0
100
AcDbRotatedDimension
1001
ACAD
1000
DSTYLE
1002
{
1070
    41
1040
3.5
1070
    42
1040
1.0
1070
    43
1040
7.0
1070
    44
1040
1.0
1070
    47
1040
2.0
1070
    48
1040
1.0
1070
    73
1070
     0
1070
    74
1070
     0
1070
    77
1070
     1
1070
    78
1070
     8
1070
    79
1070
     2
1070
   140
1040
3.5
1070
   141
1040
1.5
1070
   146
1040
0.5
1070
   147
1040
1.5
1070
   172
1070
     1
1070
   178
1070
     1
1070
   179
1070
     2
1070
   271
1070
     2
1070
   272
1070
     2
1070
   284
1070
     8
1070
   285
1070
     8
1070
   286
1070
     8
1002
}
  0
LINE
  5
1005
330
1E
100
AcDbEntity
  8
MITTEL
100
AcDbLine
 10
112.5
 20
198.8511485370291
 30
0.0
 11
112.5
 21
87.69467539466603
 31
0.0
  0
LINE
  5
104D
330
1E
100
AcDbEntity
  8
STEMPEL
100
AcDbLine
 10
160.1550668784437
 20
272.694675394666
 30
0.0
 11
64.73459532966001
 21
272.694675394666
 31
0.0
  0
LINE
  5
104E
330
1E
100
AcDbEntity
  8
HILF
  6
Continuous
100
AcDbLine
 10
66.17011334199711
 20
240.3318048141132
 30
0.0
 11
158.8298866580028
 21
240.3318048141132
 31
0.0
  0
LINE
  5
104F
330
1E
100
AcDbEntity
  8
HILF
  6
Continuous
100
AcDbLine
 10
66.91112618960474
 20
215.1881643434113
 30
0.0
 11
158.0888738103952
 21
215.1881643434113
 31
0.0
  0
LINE
  5
1050
330
1E
100
AcDbEntity
  8
HILF
  6
Continuous
100
AcDbLine
 10
69.22049890190331
 20
210.0606026242558
 30
0.0
 11
155.7795010980967
 21
210.0606026242558
 31
0.0
  0
LINE
  5
1051
330
1E
100
AcDbEntity
  8
STEMPEL
100
AcDbLine
 10
64.99999999999994
 20
237.3545423314709
 30
0.0
 11
64.99999999999994
 21
217.8952161593482
 31
0.0
  0
ARC
  5
1052
330
1E
100
AcDbEntity
  8
STEMPEL
100
AcDbCircle
 10
76.89999999999995
 20
217.8952161593482
 30
0.0
 40
11.9
100
AcDbArc
 50
180.0
 51
211.8702202597707
  0
ARC
  5
1053
330
1E
100
AcDbEntity
  8
STEMPEL
100
AcDbCircle
 10
59.99999999999997
 20
207.3880757300974
 30
0.0
 40
8.0
100
AcDbArc
 50
0.0
 51
32.32806412216127
  0
ARC
  5
1054
330
1E
100
AcDbEntity
  8
STEMPEL
  6
Continuous
100
AcDbCircle
 10
85.99999999999997
 20
260.089923932095
 30
0.0
 40
24.5
100
AcDbArc
 50
155.0000000000109
 51
180.0
  0
ARC
  5
1055
330
1E
100
AcDbEntity
  8
STEMPEL
100
AcDbCircle
 10
52.89999999999995
 20
237.3545423314709
 30
0.0
 40
12.1
100
AcDbArc
 50
0.0
 51
25.30772309802054
  0
ARC
  5
1056
330
1E
100
AcDbEntity
  8
STEMPEL
100
AcDbCircle
 10
86.39999999999995
 20
253.0628204038758
 30
0.0
 40
24.90009324312573
100
AcDbArc
 50
179.8435140456526
 51
205.0329424415662
  0
LINE
  5
1057
330
1E
100
AcDbEntity
  8
STEMPEL
100
AcDbLine
 10
61.49999999999995
 20
260.089923932095
 30
0.0
 11
61.49999999999995
 21
253.131100452065
 31
0.0
  0
LINE
  5
1058
330
1E
100
AcDbEntity
  8
STEMPEL
  6
Continuous
100
AcDbLine
 10
64.8449331215562
 20
272.694675394666
 30
0.0
 11
63.79545921760208
 21
270.4440713447421
 31
0.0
  0
LINE
  5
1059
330
1E
100
AcDbEntity
  8
STEMPEL
100
AcDbLine
 10
160.0
 20
237.3545423314709
 30
0.0
 11
160.0
 21
217.8952161593482
 31
0.0
  0
ARC
  5
105A
330
1E
100
AcDbEntity
  8
STEMPEL
100
AcDbCircle
 10
148.1
 20
217.8952161593482
 30
0.0
 40
11.9
100
AcDbArc
 50
328.1297797402293
 51
0.0
  0
ARC
  5
105B
330
1E
100
AcDbEntity
  8
STEMPEL
100
AcDbCircle
 10
164.9999999999999
 20
207.3880757300974
 30
0.0
 40
8.0
100
AcDbArc
 50
147.6719358778387
 51
180.0
  0
ARC
  5
105C
330
1E
100
AcDbEntity
  8
STEMPEL
  6
Continuous
100
AcDbCircle
 10
138.9999999999999
 20
260.089923932095
 30
0.0
 40
24.5
100
AcDbArc
 50
0.0
 51
24.99999999998912
  0
ARC
  5
105D
330
1E
100
AcDbEntity
  8
STEMPEL
100
AcDbCircle
 10
138.6
 20
253.0628204038758
 30
0.0
 40
24.90009324312573
100
AcDbArc
 50
334.9670575584338
 51
0.1564859543473726
  0
ARC
  5
105E
330
1E
100
AcDbEntity
  8
STEMPEL
100
AcDbCircle
 10
172.1
 20
237.3545423314709
 30
0.0
 40
12.1
100
AcDbArc
 50
154.6922769019795
 51
180.0
  0
LINE
  5
105F
330
1E
100
AcDbEntity
  8
STEMPEL
100
AcDbLine
 10
163.5
 20
260.089923932095
 30
0.0
 11
163.5
 21
253.131100452065
 31
0.0
  0
LINE
  5
1060
330
1E
100
AcDbEntity
  8
STEMPEL
  6
Continuous
100
AcDbLine
 10
160.1550668784437
 20
272.694675394666
 30
0.0
 11
161.2045407823978
 21
270.4440713447421
 31
0.0
  0
LINE
  5
1061
330
1E
100
AcDbEntity
  8
STEMPEL
100
AcDbLine
 10
157.0
 20
207.3880757300974
 30
0.0
 11
156.9999999999999
 21
192.694675394666
 31
0.0
  0
LINE
  5
1062
330
1E
100
AcDbEntity
  8
STEMPEL
100
AcDbLine
 10
67.99999999999997
 20
207.3880757300974
 30
0.0
 11
67.99999999999997
 21
192.694675394666
 31
0.0
  0
ENDSEC
  0
SECTION
  2
OBJECTS
  0
DICTIONARY
  5
C
330
0
100
AcDbDictionary
281
     1
  3
ACAD_COLOR
350
DF
  3
ACAD_GROUP
350
D
  3
ACAD_LAYOUT
350
19
  3
ACAD_MATERIAL
350
DE
  3
ACAD_MLINESTYLE
350
16
  3
ACAD_PLOTSETTINGS
350
18
  3
ACAD_PLOTSTYLENAME
350
E
  3
AcDbVariableDictionary
350
EA
  0
DICTIONARY
  5
A0
330
1E
100
AcDbDictionary
280
     1
281
     1
  3
ACAD_LAYOUTSELFREF
360
D4
  0
DICTIONARY
  5
A2
330
1A
100
AcDbDictionary
280
     1
281
     1
  3
ACAD_LAYOUTSELFREF
360
D3
  0
DICTIONARY
  5
DF
102
{ACAD_REACTORS
330
C
102
}
330
C
100
AcDbDictionary
281
     1
  0
DICTIONARY
  5
D
102
{ACAD_REACTORS
330
C
102
}
330
C
100
AcDbDictionary
281
     1
  0
DICTIONARY
  5
19
102
{ACAD_REACTORS
330
C
102
}
330
C
100
AcDbDictionary
281
     1
  3
Layout1
350
1D
  3
Model
350
21
  0
DICTIONARY
  5
DE
102
{ACAD_REACTORS
330
C
102
}
330
C
100
AcDbDictionary
281
     1
  0
DICTIONARY
  5
16
102
{ACAD_REACTORS
330
C
102
}
330
C
100
AcDbDictionary
281
     1
  3
Standard
350
17
  0
DICTIONARY
  5
18
102
{ACAD_REACTORS
330
C
102
}
330
C
100
AcDbDictionary
281
     1
  0
ACDBDICTIONARYWDFLT
  5
E
102
{ACAD_REACTORS
330
C
102
}
330
C
100
AcDbDictionary
281
     1
  3
Normal
350
F
100
AcDbDictionaryWithDefault
340
F
  0
DICTIONARY
  5
EA
102
{ACAD_REACTORS
330
C
102
}
330
C
100
AcDbDictionary
281
     1
  3
DIMASSOC
350
EB
  3
PROJECTNAME
350
EC
  0
XRECORD
  5
D4
102
{ACAD_REACTORS
330
A0
102
}
330
A0
100
AcDbXrecord
280
     1
340
1E
  0
XRECORD
  5
D3
102
{ACAD_REACTORS
330
A2
102
}
330
A2
100
AcDbXrecord
280
     1
340
1A
  0
LAYOUT
  5
1D
102
{ACAD_REACTORS
330
19
102
}
330
19
100
AcDbPlotSettings
  1

  2
\\NT_WORK01\HP LaserJet 5000 PCL 6
  4

  6

 40
0.0
 41
0.0
 42
0.0
 43
0.0
 44
0.0
 45
0.0
 46
0.0
 47
0.0
 48
0.0
 49
0.0
140
0.0
141
0.0
142
1.0
143
1.0
 70
   688
 72
     0
 73
     0
 74
     5
  7

 75
    16
147
1.0
 76
     0
 77
     2
 78
   300
148
0.0
149
0.0
100
AcDbLayout
  1
Layout1
 70
     0
 71
     1
 10
0.0
 20
0.0
 11
12.0
 21
9.0
 12
0.0
 22
0.0
 32
0.0
 14
1.000000000000000E+20
 24
1.000000000000000E+20
 34
1.000000000000000E+20
 15
-1.000000000000000E+20
 25
-1.000000000000000E+20
 35
-1.000000000000000E+20
146
0.0
 13
0.0
 23
0.0
 33
0.0
 16
1.0
 26
0.0
 36
0.0
 17
0.0
 27
1.0
 37
0.0
 76
     0
330
1A
  0
LAYOUT
  5
21
102
{ACAD_REACTORS
330
19
102
}
330
19
100
AcDbPlotSettings
  1

  2
none_device
  4
Letter_(8.50_x_11.00_Inches)
  6

 40
6.349999904632568
 41
6.349999904632568
 42
6.350006103515625
 43
6.350006103515625
 44
215.8999938964844
 45
279.3999938964844
 46
0.0
 47
0.0
 48
0.0
 49
0.0
140
0.0
141
0.0
142
1.0
143
1.0
 70
 11952
 72
     0
 73
     1
 74
     0
  7

 75
     0
147
1.0
 76
     0
 77
     2
 78
   300
148
1151.641831603024
149
46.74179687150638
100
AcDbLayout
  1
Model
 70
     1
 71
     0
 10
0.0
 20
0.0
 11
12.0
 21
9.0
 12
0.0
 22
0.0
 32
0.0
 14
0.0
 24
0.0
 34
0.0
 15
0.0
 25
0.0
 35
0.0
146
0.0
 13
0.0
 23
0.0
 33
0.0
 16
1.0
 26
0.0
 36
0.0
 17
0.0
 27
1.0
 37
0.0
 76
     0
330
1E
  0
MLINESTYLE
  5
17
102
{ACAD_REACTORS
330
16
102
}
330
16
100
AcDbMlineStyle
  2
STANDARD
 70
     0
  3

 62
   256
 51
90.0
 52
90.0
 71
     2
 49
0.5
 62
   256
  6
BYLAYER
 49
-0.5
 62
   256
  6
BYLAYER
  0
ACDBPLACEHOLDER
  5
F
102
{ACAD_REACTORS
330
E
102
}
330
E
  0
DICTIONARYVAR
  5
EB
102
{ACAD_REACTORS
330
EA
102
}
330
EA
100
DictionaryVariables
280
     0
  1
1
  0
DICTIONARYVAR
  5
EC
102
{ACAD_REACTORS
330
EA
102
}
330
EA
100
DictionaryVariables
280
     0
  1

  0
ENDSEC
  0
EOF
