  0
SECTION
  2
HEADER
  9
$ACADVER
  1
AC1018
  9
$ACADMAINTVER
 70
     2
  9
$DWGCODEPAGE
  3
ANSI_1252
  9
$INSBASE
 10
0.0
 20
0.0
 30
0.0
  9
$EXTMIN
 10
-0.0065361597738161
 20
-0.0137049447630489
 30
-0.0000000000000053
  9
$EXTMAX
 10
210.0106575657237
 20
297.0130378669369
 30
0.0000000000000099
  9
$LIMMIN
 10
0.0
 20
0.0
  9
$LIMMAX
 10
210.0
 20
297.0
  9
$ORTHOMODE
 70
     1
  9
$REGENMODE
 70
     1
  9
$FILLMODE
 70
     1
  9
$QTEXTMODE
 70
     0
  9
$MIRRTEXT
 70
     1
  9
$LTSCALE
 40
10.0
  9
$ATTMODE
 70
     1
  9
$TEXTSIZE
 40
3.5
  9
$TRACEWID
 40
0.5
  9
$TEXTSTYLE
  7
STANDARD
  9
$CLAYER
  8
SCHRAFF
  9
$CELTYPE
  6
ByLayer
  9
$CECOLOR
 62
   256
  9
$CELTSCALE
 40
1.0
  9
$DISPSILH
 70
     0
  9
$DIMSCALE
 40
1.0
  9
$DIMASZ
 40
3.5
  9
$DIMEXO
 40
1.0
  9
$DIMDLI
 40
7.0
  9
$DIMRND
 40
0.0
  9
$DIMDLE
 40
0.0
  9
$DIMEXE
 40
1.0
  9
$DIMTP
 40
0.0
  9
$DIMTM
 40
0.0
  9
$DIMTXT
 40
3.5
  9
$DIMCEN
 40
1.5
  9
$DIMTSZ
 40
0.0
  9
$DIMTOL
 70
     0
  9
$DIMLIM
 70
     0
  9
$DIMTIH
 70
     0
  9
$DIMTOH
 70
     0
  9
$DIMSE1
 70
     0
  9
$DIMSE2
 70
     0
  9
$DIMTAD
 70
     1
  9
$DIMZIN
 70
     8
  9
$DIMBLK
  1

  9
$DIMASO
 70
     1
  9
$DIMSHO
 70
     0
  9
$DIMPOST
  1

  9
$DIMAPOST
  1

  9
$DIMALT
 70
     0
  9
$DIMALTD
 70
     2
  9
$DIMALTF
 40
25.4
  9
$DIMLFAC
 40
1.0
  9
$DIMTOFL
 70
     1
  9
$DIMTVP
 40
0.0
  9
$DIMTIX
 70
     0
  9
$DIMSOXD
 70
     0
  9
$DIMSAH
 70
     0
  9
$DIMBLK1
  1

  9
$DIMBLK2
  1

  9
$DIMSTYLE
  2
Standard
  9
$DIMCLRD
 70
     0
  9
$DIMCLRE
 70
     0
  9
$DIMCLRT
 70
     1
  9
$DIMTFAC
 40
0.5142857142857144
  9
$DIMGAP
 40
1.5
  9
$DIMJUST
 70
     0
  9
$DIMSD1
 70
     0
  9
$DIMSD2
 70
     0
  9
$DIMTOLJ
 70
     1
  9
$DIMTZIN
 70
     8
  9
$DIMALTZ
 70
     8
  9
$DIMALTTZ
 70
     8
  9
$DIMUPT
 70
     0
  9
$DIMDEC
 70
     2
  9
$DIMTDEC
 70
     2
  9
$DIMALTU
 70
     2
  9
$DIMALTTD
 70
     2
  9
$DIMTXSTY
  7
STANDARD
  9
$DIMAUNIT
 70
     0
  9
$DIMADEC
 70
     2
  9
$DIMALTRND
 40
0.0
  9
$DIMAZIN
 70
     2
  9
$DIMDSEP
 70
    46
  9
$DIMATFIT
 70
     3
  9
$DIMFRAC
 70
     0
  9
$DIMLDRBLK
  1

  9
$DIMLUNIT
 70
     2
  9
$DIMLWD
 70
    -2
  9
$DIMLWE
 70
    -2
  9
$DIMTMOVE
 70
     0
  9
$LUNITS
 70
     2
  9
$LUPREC
 70
     2
  9
$SKETCHINC
 40
1.0
  9
$FILLETRAD
 40
0.0
  9
$AUNITS
 70
     1
  9
$AUPREC
 70
     3
  9
$MENU
  1
ACAD
  9
$ELEVATION
 40
0.0
  9
$PELEVATION
 40
0.0
  9
$THICKNESS
 40
0.0
  9
$LIMCHECK
 70
     0
  9
$CHAMFERA
 40
0.0
  9
$CHAMFERB
 40
0.0
  9
$CHAMFERC
 40
0.0
  9
$CHAMFERD
 40
0.0
  9
$SKPOLY
 70
     0
  9
$TDCREATE
 40
2452040.637099653
  9
$TDUCREATE
 40
2452040.553766320
  9
$TDUPDATE
 40
2455663.465692766
  9
$TDUUPDATE
 40
2455663.382359433
  9
$TDINDWG
 40
0.3025702894
  9
$TDUSRTIMER
 40
0.3025702894
  9
$USRTIMER
 70
     1
  9
$ANGBASE
 50
0.0
  9
$ANGDIR
 70
     0
  9
$PDMODE
 70
     0
  9
$PDSIZE
 40
0.0
  9
$PLINEWID
 40
0.0
  9
$SPLFRAME
 70
     0
  9
$SPLINETYPE
 70
     6
  9
$SPLINESEGS
 70
     8
  9
$HANDSEED
  5
1957
  9
$SURFTAB1
 70
     6
  9
$SURFTAB2
 70
     6
  9
$SURFTYPE
 70
     6
  9
$SURFU
 70
     6
  9
$SURFV
 70
     6
  9
$UCSBASE
  2

  9
$UCSNAME
  2

  9
$UCSORG
 10
0.0
 20
0.0
 30
0.0
  9
$UCSXDIR
 10
1.0
 20
0.0
 30
0.0
  9
$UCSYDIR
 10
0.0
 20
1.0
 30
0.0
  9
$UCSORTHOREF
  2

  9
$UCSORTHOVIEW
 70
     0
  9
$UCSORGTOP
 10
0.0
 20
0.0
 30
0.0
  9
$UCSORGBOTTOM
 10
0.0
 20
0.0
 30
0.0
  9
$UCSORGLEFT
 10
0.0
 20
0.0
 30
0.0
  9
$UCSORGRIGHT
 10
0.0
 20
0.0
 30
0.0
  9
$UCSORGFRONT
 10
0.0
 20
0.0
 30
0.0
  9
$UCSORGBACK
 10
0.0
 20
0.0
 30
0.0
  9
$PUCSBASE
  2

  9
$PUCSNAME
  2

  9
$PUCSORG
 10
0.0
 20
0.0
 30
0.0
  9
$PUCSXDIR
 10
1.0
 20
0.0
 30
0.0
  9
$PUCSYDIR
 10
0.0
 20
1.0
 30
0.0
  9
$PUCSORTHOREF
  2

  9
$PUCSORTHOVIEW
 70
     0
  9
$PUCSORGTOP
 10
0.0
 20
0.0
 30
0.0
  9
$PUCSORGBOTTOM
 10
0.0
 20
0.0
 30
0.0
  9
$PUCSORGLEFT
 10
0.0
 20
0.0
 30
0.0
  9
$PUCSORGRIGHT
 10
0.0
 20
0.0
 30
0.0
  9
$PUCSORGFRONT
 10
0.0
 20
0.0
 30
0.0
  9
$PUCSORGBACK
 10
0.0
 20
0.0
 30
0.0
  9
$USERI1
 70
     0
  9
$USERI2
 70
     0
  9
$USERI3
 70
     0
  9
$USERI4
 70
     0
  9
$USERI5
 70
     0
  9
$USERR1
 40
0.0
  9
$USERR2
 40
0.0
  9
$USERR3
 40
0.0
  9
$USERR4
 40
0.0
  9
$USERR5
 40
0.0
  9
$WORLDVIEW
 70
     1
  9
$SHADEDGE
 70
     3
  9
$SHADEDIF
 70
    70
  9
$TILEMODE
 70
     1
  9
$MAXACTVP
 70
    16
  9
$PINSBASE
 10
0.0
 20
0.0
 30
0.0
  9
$PLIMCHECK
 70
     0
  9
$PEXTMIN
 10
1.000000000000000E+20
 20
1.000000000000000E+20
 30
1.000000000000000E+20
  9
$PEXTMAX
 10
-1.000000000000000E+20
 20
-1.000000000000000E+20
 30
-1.000000000000000E+20
  9
$PLIMMIN
 10
0.0
 20
0.0
  9
$PLIMMAX
 10
12.0
 20
9.0
  9
$UNITMODE
 70
     0
  9
$VISRETAIN
 70
     0
  9
$PLINEGEN
 70
     0
  9
$PSLTSCALE
 70
     0
  9
$TREEDEPTH
 70
  3020
  9
$CMLSTYLE
  2
Standard
  9
$CMLJUST
 70
     0
  9
$CMLSCALE
 40
1.0
  9
$PROXYGRAPHICS
 70
     1
  9
$MEASUREMENT
 70
     0
  9
$CELWEIGHT
370
    -1
  9
$ENDCAPS
280
     0
  9
$JOINSTYLE
280
     0
  9
$LWDISPLAY
290
     0
  9
$INSUNITS
 70
     0
  9
$HYPERLINKBASE
  1

  9
$STYLESHEET
  1
monochrome 1.ctb
  9
$XEDIT
290
     1
  9
$CEPSNTYPE
380
     0
  9
$PSTYLEMODE
290
     1
  9
$FINGERPRINTGUID
  2
{7AADB5C8-6110-11D8-B72B-000102183313}
  9
$VERSIONGUID
  2
{266C6327-1A75-4927-A072-EE08647916DC}
  9
$EXTNAMES
290
     1
  9
$PSVPSCALE
 40
0.0
  9
$OLESTARTUP
290
     0
  9
$SORTENTS
280
    96
  9
$INDEXCTL
280
     0
  9
$HIDETEXT
280
     0
  9
$XCLIPFRAME
290
     0
  9
$HALOGAP
280
     0
  9
$OBSCOLOR
 70
   257
  9
$OBSLTYPE
280
     0
  9
$INTERSECTIONDISPLAY
280
     0
  9
$INTERSECTIONCOLOR
 70
   257
  9
$DIMASSOC
280
     1
  9
$PROJECTNAME
  1

  0
ENDSEC
  0
SECTION
  2
CLASSES
  0
CLASS
  1
ACDBDICTIONARYWDFLT
  2
AcDbDictionaryWithDefault
  3
ObjectDBX Classes
 90
        0
 91
        1
280
     0
281
     0
  0
CLASS
  1
DICTIONARYVAR
  2
AcDbDictionaryVar
  3
ObjectDBX Classes
 90
        0
 91
        3
280
     0
281
     0
  0
ENDSEC
  0
SECTION
  2
TABLES
  0
TABLE
  2
VPORT
  5
8
330
0
100
AcDbSymbolTable
 70
     3
  0
VPORT
  5
1956
330
8
100
AcDbSymbolTableRecord
100
AcDbViewportTableRecord
  2
*Active
 70
     0
 10
0.0
 20
0.0
 11
1.0
 21
1.0
 12
105.0
 22
148.5
 13
0.0
 23
0.0
 14
1.0
 24
1.0
 15
10.0
 25
10.0
 16
0.0
 26
0.0
 36
1.0
 17
0.0
 27
0.0
 37
0.0
 40
297.0
 41
1.334231805929919
 42
50.0
 43
0.0
 44
0.0
 50
0.0
 51
0.0
 71
     0
 72
  1500
 73
     1
 74
     0
 75
     0
 76
     0
 77
     0
 78
     0
281
     0
 65
     1
110
0.0
120
0.0
130
0.0
111
1.0
121
0.0
131
0.0
112
0.0
122
1.0
132
0.0
 79
     0
146
0.0
  0
ENDTAB
  0
TABLE
  2
LTYPE
  5
5
330
0
100
AcDbSymbolTable
 70
     2
  0
LTYPE
  5
13
330
5
100
AcDbSymbolTableRecord
100
AcDbLinetypeTableRecord
  2
ByBlock
 70
     0
  3

 72
    65
 73
     0
 40
0.0
  0
LTYPE
  5
14
330
5
100
AcDbSymbolTableRecord
100
AcDbLinetypeTableRecord
  2
ByLayer
 70
     0
  3

 72
    65
 73
     0
 40
0.0
  0
LTYPE
  5
15
330
5
100
AcDbSymbolTableRecord
100
AcDbLinetypeTableRecord
  2
Continuous
 70
     0
  3
Solid line
 72
    65
 73
     0
 40
0.0
  0
LTYPE
  5
35
330
5
100
AcDbSymbolTableRecord
100
AcDbLinetypeTableRecord
  2
STRICHPUNKT
 70
     0
  3
__ . __ . __ . __ . __ . __ . __ . __ . __ . __
 72
    65
 73
     4
 40
1.0
 49
0.5
 74
     0
 49
-0.25
 74
     0
 49
0.0
 74
     0
 49
-0.25
 74
     0
  0
ENDTAB
  0
TABLE
  2
LAYER
  5
2
330
0
100
AcDbSymbolTable
 70
     9
  0
LAYER
  5
10
330
2
100
AcDbSymbolTableRecord
100
AcDbLayerTableRecord
  2
0
 70
     0
 62
     7
  6
Continuous
370
    -3
390
F
  0
LAYER
  5
38
330
2
100
AcDbSymbolTableRecord
100
AcDbLayerTableRecord
  2
VOLL
 70
     0
 62
     1
  6
Continuous
370
    -3
390
F
  0
LAYER
  5
39
330
2
100
AcDbSymbolTableRecord
100
AcDbLayerTableRecord
  2
HILF
 70
     0
 62
     2
  6
Continuous
370
    -3
390
F
  0
LAYER
  5
3A
330
2
100
AcDbSymbolTableRecord
100
AcDbLayerTableRecord
  2
MITTEL
 70
     0
 62
     2
  6
STRICHPUNKT
370
    -3
390
F
  0
LAYER
  5
3B
330
2
100
AcDbSymbolTableRecord
100
AcDbLayerTableRecord
  2
BEM
 70
     0
 62
     7
  6
Continuous
370
    -3
390
F
  0
LAYER
  5
3C
330
2
100
AcDbSymbolTableRecord
100
AcDbLayerTableRecord
  2
STEMPEL
 70
     0
 62
     3
  6
Continuous
370
    -3
390
F
  0
LAYER
  5
3D
330
2
100
AcDbSymbolTableRecord
100
AcDbLayerTableRecord
  2
TEXT
 70
     0
 62
     7
  6
Continuous
370
    -3
390
F
  0
LAYER
  5
3E
330
2
100
AcDbSymbolTableRecord
100
AcDbLayerTableRecord
  2
DEFPOINTS
 70
     0
 62
     7
  6
Continuous
290
     0
370
    -3
390
F
  0
LAYER
  5
3F
330
2
100
AcDbSymbolTableRecord
100
AcDbLayerTableRecord
  2
SCHRAFF
 70
     0
 62
     7
  6
Continuous
370
    -3
390
F
  0
ENDTAB
  0
TABLE
  2
STYLE
  5
3
330
0
100
AcDbSymbolTable
 70
     2
  0
STYLE
  5
11
330
3
100
AcDbSymbolTableRecord
100
AcDbTextStyleTableRecord
  2
STANDARD
 70
     0
 40
0.0
 41
0.8
 50
0.0
 71
     0
 42
3.5
  3
simplex.shx
  4

  0
STYLE
  5
34
330
3
100
AcDbSymbolTableRecord
100
AcDbTextStyleTableRecord
  2
GREEKS
 70
     0
 40
0.0
 41
0.8
 50
0.0
 71
     0
 42
2.5
  3
SIMPLEX.shx
  4

  0
ENDTAB
  0
TABLE
  2
VIEW
  5
6
330
0
100
AcDbSymbolTable
 70
     0
  0
ENDTAB
  0
TABLE
  2
UCS
  5
7
330
0
100
AcDbSymbolTable
 70
     0
  0
ENDTAB
  0
TABLE
  2
APPID
  5
9
330
0
100
AcDbSymbolTable
 70
     1
  0
APPID
  5
12
330
9
100
AcDbSymbolTableRecord
100
AcDbRegAppTableRecord
  2
ACAD
 70
     0
  0
ENDTAB
  0
TABLE
  2
DIMSTYLE
  5
A
330
0
100
AcDbSymbolTable
 70
     1
100
AcDbDimStyleTable
 71
     1
340
1CB
  0
DIMSTYLE
105
1CB
102
{ACAD_REACTORS
330
160B
330
163E
330
1770
102
}
330
A
100
AcDbSymbolTableRecord
100
AcDbDimStyleTableRecord
  2
Standard
 70
     0
340
11
  0
ENDTAB
  0
TABLE
  2
BLOCK_RECORD
  5
1
330
0
100
AcDbSymbolTable
 70
     8
  0
BLOCK_RECORD
  5
1E
330
1
100
AcDbSymbolTableRecord
100
AcDbBlockTableRecord
  2
*Model_Space
340
21
  0
BLOCK_RECORD
  5
1A
330
1
100
AcDbSymbolTableRecord
100
AcDbBlockTableRecord
  2
*Paper_Space
340
1D
  0
BLOCK_RECORD
  5
22
330
1
100
AcDbSymbolTableRecord
100
AcDbBlockTableRecord
  2
LOGO
340
0
102
{BLKREFS
331
135
102
}
  0
BLOCK_RECORD
  5
164B
330
1
100
AcDbSymbolTableRecord
100
AcDbBlockTableRecord
  2
*D2
340
0
  0
BLOCK_RECORD
  5
1657
330
1
100
AcDbSymbolTableRecord
100
AcDbBlockTableRecord
  2
*D3
340
0
  0
BLOCK_RECORD
  5
1771
330
1
100
AcDbSymbolTableRecord
100
AcDbBlockTableRecord
  2
*D5
340
0
  0
ENDTAB
  0
ENDSEC
  0
SECTION
  2
BLOCKS
  0
BLOCK
  5
43
330
1E
100
AcDbEntity
  8
0
100
AcDbBlockBegin
  2
*Model_Space
 70
     0
 10
0.0
 20
0.0
 30
0.0
  3
*Model_Space
  1

  0
ENDBLK
  5
44
330
1E
100
AcDbEntity
  8
0
100
AcDbBlockEnd
  0
BLOCK
  5
41
330
1A
100
AcDbEntity
 67
     1
  8
0
100
AcDbBlockBegin
  2
*Paper_Space
 70
     0
 10
0.0
 20
0.0
 30
0.0
  3
*Paper_Space
  1

  0
ENDBLK
  5
42
330
1A
100
AcDbEntity
 67
     1
  8
0
100
AcDbBlockEnd
  0
BLOCK
  5
45
330
22
100
AcDbEntity
  8
0
100
AcDbBlockBegin
  2
LOGO
 70
     0
 10
0.0
 20
0.0
 30
0.0
  3
LOGO
  1

  0
ARC
  5
46
330
22
100
AcDbEntity
  8
0
100
AcDbCircle
 10
11.59973089678112
 20
-9.271599258481501
 30
0.0
 40
4.5
100
AcDbArc
 50
270.0
 51
231.0575587310159
  0
LINE
  5
47
330
22
100
AcDbEntity
  8
0
100
AcDbLine
 10
3.599730896781125
 20
-4.771599258481529
 30
0.0
 11
3.599730896781153
 21
-11.77159925848133
 31
0.0
  0
LINE
  5
48
330
22
100
AcDbEntity
  8
0
100
AcDbLine
 10
2.599730896781125
 20
-4.771599258481529
 30
0.0
 11
2.599730896781153
 21
-11.77159925848133
 31
0.0
  0
CIRCLE
  5
49
330
22
100
AcDbEntity
  8
0
100
AcDbCircle
 10
11.59973089678112
 20
-9.271599258481501
 30
0.0
 40
3.5
  0
ARC
  5
4A
330
22
100
AcDbEntity
  8
0
100
AcDbCircle
 10
31.59973089678115
 20
-9.271599258481472
 30
0.0
 40
4.5
100
AcDbArc
 50
270.0
 51
231.0575587310182
  0
LINE
  5
4B
330
22
100
AcDbEntity
  8
0
100
AcDbLine
 10
17.59973089678112
 20
-4.771599258481472
 30
0.0
 11
17.59973089678115
 21
-13.77159925848147
 31
0.0
  0
ARC
  5
4C
330
22
100
AcDbEntity
  8
0
100
AcDbCircle
 10
22.59973089678116
 20
-7.271599258481472
 30
0.0
 40
2.5
100
AcDbArc
 50
293.1161887722295
 51
90.0
  0
CIRCLE
  5
4D
330
22
100
AcDbEntity
  8
0
100
AcDbCircle
 10
31.59973089678115
 20
-9.271599258481472
 30
0.0
 40
3.5
  0
ARC
  5
4E
330
22
100
AcDbEntity
  8
0
100
AcDbCircle
 10
4.599730896781153
 20
-11.77159925848133
 30
0.0
 40
1.0
100
AcDbArc
 50
180.0
 51
270.0
  0
ARC
  5
4F
330
22
100
AcDbEntity
  8
0
100
AcDbCircle
 10
4.599730896781153
 20
-11.77159925848133
 30
0.0
 40
2.0
100
AcDbArc
 50
179.9999999999992
 51
270.0
  0
LINE
  5
50
330
22
100
AcDbEntity
  8
0
100
AcDbLine
 10
11.59973089678115
 20
-13.77159925848144
 30
0.0
 11
4.599730896781153
 21
-13.77159925848147
 31
0.0
  0
LINE
  5
51
330
22
100
AcDbEntity
  8
0
100
AcDbLine
 10
8.771303772034769
 20
-12.77159925848136
 30
0.0
 11
4.599730896781153
 21
-12.77159925848133
 31
0.0
  0
LINE
  5
52
330
22
100
AcDbEntity
  8
0
100
AcDbLine
 10
31.59973089678115
 20
-13.77159925848147
 30
0.0
 11
23.6715276665056
 21
-13.77159925848144
 31
0.0
  0
LINE
  5
53
330
22
100
AcDbEntity
  8
0
100
AcDbLine
 10
23.56565672307022
 20
-9.51278021337896
 30
0.0
 11
24.4388546544846
 21
-12.77159925848144
 31
0.0
  0
LINE
  5
54
330
22
100
AcDbEntity
  8
0
100
AcDbLine
 10
22.59973089678116
 20
-9.771599258481472
 30
0.0
 11
18.59973089678112
 21
-9.771599258481472
 31
0.0
  0
LINE
  5
55
330
22
100
AcDbEntity
  8
0
100
AcDbLine
 10
18.59973089678115
 20
-13.77159925848144
 30
0.0
 11
17.59973089678115
 21
-13.77159925848144
 31
0.0
  0
LINE
  5
56
330
22
100
AcDbEntity
  8
0
100
AcDbLine
 10
18.59973089678115
 20
-9.771599258481472
 30
0.0
 11
18.59973089678115
 21
-13.77159925848144
 31
0.0
  0
LINE
  5
57
330
22
100
AcDbEntity
  8
0
100
AcDbLine
 10
22.59973089678116
 20
-9.771599258481472
 30
0.0
 11
23.67152766650562
 21
-13.77159925848147
 31
0.0
  0
ARC
  5
58
330
22
100
AcDbEntity
  8
0
100
AcDbCircle
 10
22.59973089678116
 20
-7.271599258481472
 30
0.0
 40
2.5
100
AcDbArc
 50
270.0
 51
270.0000000000007
  0
LINE
  5
59
330
22
100
AcDbEntity
  8
0
100
AcDbLine
 10
28.77130377203494
 20
-12.77159925848147
 30
0.0
 11
24.43885465448463
 21
-12.77159925848144
 31
0.0
  0
LINE
  5
5A
330
22
100
AcDbEntity
  8
0
100
AcDbLine
 10
3.599730896781125
 20
-4.771599258481472
 30
0.0
 11
2.599730896781125
 21
-4.771599258481472
 31
0.0
  0
LINE
  5
5B
330
22
100
AcDbEntity
  8
0
100
AcDbLine
 10
22.59973089678116
 20
-8.771599258481472
 30
0.0
 11
18.59973089678115
 21
-8.771599258481472
 31
0.0
  0
LINE
  5
5C
330
22
100
AcDbEntity
  8
0
100
AcDbLine
 10
22.59973089678116
 20
-5.771599258481472
 30
0.0
 11
18.59973089678115
 21
-5.771599258481472
 31
0.0
  0
LINE
  5
5D
330
22
100
AcDbEntity
  8
0
100
AcDbLine
 10
22.59973089678116
 20
-4.771599258481472
 30
0.0
 11
17.59973089678115
 21
-4.771599258481472
 31
0.0
  0
LINE
  5
5E
330
22
100
AcDbEntity
  8
0
100
AcDbLine
 10
18.59973089678115
 20
-5.771599258481472
 30
0.0
 11
18.59973089678115
 21
-8.771599258481472
 31
0.0
  0
ARC
  5
5F
330
22
100
AcDbEntity
  8
0
100
AcDbCircle
 10
22.59973089678116
 20
-7.271599258481472
 30
0.0
 40
1.5
100
AcDbArc
 50
270.0
 51
90.0
  0
ENDBLK
  5
60
330
22
100
AcDbEntity
  8
0
100
AcDbBlockEnd
  0
BLOCK
  5
1655
330
164B
100
AcDbEntity
  8
0
100
AcDbBlockBegin
  2
*D2
 70
     1
 10
0.0
 20
0.0
 30
0.0
  3
*D2
  1

  0
LINE
  5
194C
330
164B
100
AcDbEntity
  8
BEM
 62
     0
370
    -2
100
AcDbLine
 10
68.10041072505203
 20
193.9247140125477
 30
0.0
 11
68.10041072505203
 21
198.7168672794375
 31
0.0
  0
LINE
  5
194D
330
164B
100
AcDbEntity
  8
BEM
 62
     0
370
    -2
100
AcDbLine
 10
157.0004107250521
 20
193.9247140125507
 30
0.0
 11
157.0004107250521
 21
198.7168672794375
 31
0.0
  0
LINE
  5
194E
330
164B
100
AcDbEntity
  8
BEM
 62
     0
370
    -2
100
AcDbLine
 10
71.60041072505203
 20
197.7168672794375
 30
0.0
 11
153.5004107250521
 21
197.7168672794375
 31
0.0
  0
SOLID
  5
194F
330
164B
100
AcDbEntity
  8
BEM
 62
     0
100
AcDbTrace
 10
71.60041072505203
 20
198.3002006127709
 30
0.0
 11
71.60041072505203
 21
197.1335339461042
 31
0.0
 12
68.10041072505203
 22
197.7168672794375
 32
0.0
 13
68.10041072505203
 23
197.7168672794375
 33
0.0
  0
SOLID
  5
1950
330
164B
100
AcDbEntity
  8
BEM
 62
     0
100
AcDbTrace
 10
153.5004107250521
 20
198.3002006127709
 30
0.0
 11
153.5004107250521
 21
197.1335339461042
 31
0.0
 12
157.0004107250521
 22
197.7168672794375
 32
0.0
 13
157.0004107250521
 23
197.7168672794375
 33
0.0
  0
MTEXT
  5
1951
330
164B
100
AcDbEntity
  8
BEM
 62
     1
100
AcDbMText
 10
112.550410725052
 20
200.9668672794375
 30
0.0
 40
3.5
 41
0.0
 71
     5
 72
     1
  1
\A1;%%c88.9
 73
     1
 44
1.0
  0
POINT
  5
1952
330
164B
100
AcDbEntity
  8
DEFPOINTS
 62
     0
100
AcDbPoint
 10
68.10041072505203
 20
192.9247140125477
 30
0.0
  0
POINT
  5
1953
330
164B
100
AcDbEntity
  8
DEFPOINTS
 62
     0
100
AcDbPoint
 10
157.0004107250521
 20
192.9247140125507
 30
0.0
  0
POINT
  5
1954
330
164B
100
AcDbEntity
  8
DEFPOINTS
 62
     0
100
AcDbPoint
 10
157.0004107250521
 20
197.7168672794375
 30
0.0
  0
ENDBLK
  5
1656
330
164B
100
AcDbEntity
  8
0
100
AcDbBlockEnd
  0
BLOCK
  5
1661
330
1657
100
AcDbEntity
  8
0
100
AcDbBlockBegin
  2
*D3
 70
     1
 10
0.0
 20
0.0
 30
0.0
  3
*D3
  1

  0
LINE
  5
17A1
330
1657
100
AcDbEntity
  8
BEM
 62
     0
370
    -2
100
AcDbLine
 10
61.62529736031121
 20
80.59932208908128
 30
0.0
 11
36.85182474086325
 21
80.59932208908128
 31
0.0
  0
LINE
  5
17A2
330
1657
100
AcDbEntity
  8
BEM
 62
     0
370
    -2
100
AcDbLine
 10
64.29849693707558
 20
280.6026149934114
 30
0.0
 11
36.85182474086329
 21
280.6026149934114
 31
0.0
  0
LINE
  5
17A3
330
1657
100
AcDbEntity
  8
BEM
 62
     0
370
    -2
100
AcDbLine
 10
37.85182474086325
 20
84.09932208908129
 30
0.0
 11
37.8518247408633
 21
277.1026149934114
 31
0.0
  0
SOLID
  5
17A4
330
1657
100
AcDbEntity
  8
BEM
 62
     0
100
AcDbTrace
 10
37.26849140752992
 20
84.09932208908129
 30
0.0
 11
38.43515807419659
 21
84.09932208908129
 31
0.0
 12
37.85182474086325
 22
80.59932208908128
 32
0.0
 13
37.85182474086325
 23
80.59932208908128
 33
0.0
  0
SOLID
  5
17A5
330
1657
100
AcDbEntity
  8
BEM
 62
     0
100
AcDbTrace
 10
37.26849140752996
 20
277.1026149934114
 30
0.0
 11
38.43515807419663
 21
277.1026149934114
 31
0.0
 12
37.8518247408633
 22
280.6026149934114
 32
0.0
 13
37.8518247408633
 23
280.6026149934114
 33
0.0
  0
MTEXT
  5
17A6
330
1657
100
AcDbEntity
  8
BEM
 62
     1
100
AcDbMText
 10
34.60182474086324
 20
180.6009685412463
 30
0.0
 40
3.5
 41
0.0
 71
     5
 72
     1
  1
\A1;200
 11
0.0000000000000001
 21
1.0
 31
0.0
 73
     1
 44
1.0
  0
POINT
  5
17A7
330
1657
100
AcDbEntity
  8
DEFPOINTS
 62
     0
100
AcDbPoint
 10
62.62529736031121
 20
80.59932208908128
 30
0.0
  0
POINT
  5
17A8
330
1657
100
AcDbEntity
  8
DEFPOINTS
 62
     0
100
AcDbPoint
 10
65.29849693707558
 20
280.6026149934114
 30
0.0
  0
POINT
  5
17A9
330
1657
100
AcDbEntity
  8
DEFPOINTS
 62
     0
100
AcDbPoint
 10
37.8518247408633
 20
280.6026149934114
 30
0.0
  0
ENDBLK
  5
1662
330
1657
100
AcDbEntity
  8
0
100
AcDbBlockEnd
  0
BLOCK
  5
177B
330
1771
100
AcDbEntity
  8
0
100
AcDbBlockBegin
  2
*D5
 70
     1
 10
0.0
 20
0.0
 30
0.0
  3
*D5
  1

  0
LINE
  5
17AA
330
1771
100
AcDbEntity
  8
BEM
 62
     0
370
    -2
100
AcDbLine
 10
61.75041072505201
 20
89.5993220890811
 30
0.0
 11
61.75041072505201
 21
65.17536584165259
 31
0.0
  0
LINE
  5
17AB
330
1771
100
AcDbEntity
  8
BEM
 62
     0
370
    -2
100
AcDbLine
 10
163.350410725052
 20
89.59932208908112
 30
0.0
 11
163.350410725052
 21
65.17536584165259
 31
0.0
  0
LINE
  5
17AC
330
1771
100
AcDbEntity
  8
BEM
 62
     0
370
    -2
100
AcDbLine
 10
65.250410725052
 20
66.17536584165259
 30
0.0
 11
159.8504107250519
 21
66.17536584165259
 31
0.0
  0
SOLID
  5
17AD
330
1771
100
AcDbEntity
  8
BEM
 62
     0
100
AcDbTrace
 10
65.250410725052
 20
66.75869917498592
 30
0.0
 11
65.250410725052
 21
65.59203250831926
 31
0.0
 12
61.75041072505201
 22
66.17536584165259
 32
0.0
 13
61.75041072505201
 23
66.17536584165259
 33
0.0
  0
SOLID
  5
17AE
330
1771
100
AcDbEntity
  8
BEM
 62
     0
100
AcDbTrace
 10
159.8504107250519
 20
66.75869917498592
 30
0.0
 11
159.8504107250519
 21
65.59203250831926
 31
0.0
 12
163.350410725052
 22
66.17536584165259
 32
0.0
 13
163.350410725052
 23
66.17536584165259
 33
0.0
  0
MTEXT
  5
17AF
330
1771
100
AcDbEntity
  8
BEM
 62
     1
100
AcDbMText
 10
112.550410725052
 20
69.42536584165259
 30
0.0
 40
3.5
 41
0.0
 71
     5
 72
     1
  1
\A1;%%c101.6
 73
     1
 44
1.0
  0
POINT
  5
17B0
330
1771
100
AcDbEntity
  8
DEFPOINTS
 62
     0
100
AcDbPoint
 10
61.75041072505201
 20
90.5993220890811
 30
0.0
  0
POINT
  5
17B1
330
1771
100
AcDbEntity
  8
DEFPOINTS
 62
     0
100
AcDbPoint
 10
163.350410725052
 20
90.59932208908112
 30
0.0
  0
POINT
  5
17B2
330
1771
100
AcDbEntity
  8
DEFPOINTS
 62
     0
100
AcDbPoint
 10
163.350410725052
 20
66.17536584165259
 30
0.0
  0
ENDBLK
  5
177C
330
1771
100
AcDbEntity
  8
0
100
AcDbBlockEnd
  0
ENDSEC
  0
SECTION
  2
ENTITIES
  0
TEXT
  5
134
330
1E
100
AcDbEntity
  8
TEXT
100
AcDbText
 10
102.2108024290628
 20
31.54481959861755
 30
0.0
 40
2.0
  1
Koeh
 41
0.8
  7
GREEKS
 72
     1
 11
104.8393738576343
 21
31.54481959861755
 31
0.0
100
AcDbText
  0
INSERT
  5
135
330
1E
100
AcDbEntity
  8
STEMPEL
100
AcDbBlockReference
  2
LOGO
 10
75.4977742728897
 20
22.51052638224161
 30
0.0
  0
LINE
  5
136
330
1E
100
AcDbEntity
  8
HILF
100
AcDbLine
 10
210.0
 20
0.0
 30
0.0
 11
0.0
 21
0.0
 31
0.0
  0
LINE
  5
137
330
1E
100
AcDbEntity
  8
HILF
100
AcDbLine
 10
210.0
 20
297.0000000000001
 30
0.0
 11
0.0
 21
297.0
 31
0.0
  0
LINE
  5
138
330
1E
100
AcDbEntity
  8
STEMPEL
100
AcDbLine
 10
205.0
 20
292.0
 30
0.0
 11
19.99999999999994
 21
292.0
 31
0.0
  0
LINE
  5
139
330
1E
100
AcDbEntity
  8
STEMPEL
100
AcDbLine
 10
205.0
 20
5.0
 30
0.0
 11
19.99999999999994
 21
5.0
 31
0.0
  0
LINE
  5
13A
330
1E
100
AcDbEntity
  8
STEMPEL
100
AcDbLine
 10
24.99999999999995
 20
5.0
 30
0.0
 11
205.0
 21
5.0
 31
0.0
  0
TEXT
  5
13B
330
1E
100
AcDbEntity
  8
TEXT
100
AcDbText
 10
101.2313292113147
 20
36.65480545957612
 30
0.0
 40
2.0
  1
Name
 41
0.8
  7
GREEKS
100
AcDbText
  0
TEXT
  5
13C
330
1E
100
AcDbEntity
  8
TEXT
100
AcDbText
 10
98.27491395507747
 20
51.32531138882947
 30
0.0
 40
2.5
  1
Zul. Abw.
 41
0.8
  7
GREEKS
 72
     4
 11
104.9891996693631
 21
52.57531138882947
 31
0.0
100
AcDbText
  0
LINE
  5
13D
330
1E
100
AcDbEntity
  8
HILF
100
AcDbLine
 10
73.00000000000006
 20
24.99999999999999
 30
0.0
 11
115.0
 21
24.99999999999999
 31
0.0
  0
LINE
  5
13E
330
1E
100
AcDbEntity
  8
HILF
100
AcDbLine
 10
73.00000000000006
 20
29.99999999999999
 30
0.0
 11
115.0
 21
29.99999999999999
 31
0.0
  0
LINE
  5
13F
330
1E
100
AcDbEntity
  8
HILF
100
AcDbLine
 10
73.00000000000006
 20
34.99999999999997
 30
0.0
 11
115.0
 21
34.99999999999997
 31
0.0
  0
LINE
  5
140
330
1E
100
AcDbEntity
  8
STEMPEL
100
AcDbLine
 10
205.0
 20
40.0
 30
0.0
 11
73.00000000000006
 21
39.99999999999997
 31
0.0
  0
LINE
  5
141
330
1E
100
AcDbEntity
  8
STEMPEL
100
AcDbLine
 10
205.0
 20
20.0
 30
0.0
 11
73.00000000000006
 21
19.99999999999998
 31
0.0
  0
LINE
  5
142
330
1E
100
AcDbEntity
  8
STEMPEL
100
AcDbLine
 10
205.0
 20
55.00000000000003
 30
0.0
 11
19.99999999999998
 21
55.0
 31
0.0
  0
LINE
  5
144
330
1E
100
AcDbEntity
  8
HILF
100
AcDbLine
 10
0.0
 20
0.0
 30
0.0
 11
-0.0000000000000568
 21
297.0
 31
0.0
  0
LINE
  5
145
330
1E
100
AcDbEntity
  8
STEMPEL
100
AcDbLine
 10
20.0
 20
5.0
 30
0.0
 11
19.99999999999994
 21
292.0
 31
0.0
  0
LINE
  5
148
330
1E
100
AcDbEntity
  8
HILF
100
AcDbLine
 10
20.00000000000004
 20
19.99999999999998
 30
0.0
 11
73.00000000000006
 21
19.99999999999998
 31
0.0
  0
LINE
  5
149
330
1E
100
AcDbEntity
  8
HILF
100
AcDbLine
 10
20.00000000000004
 20
24.99999999999999
 30
0.0
 11
73.00000000000006
 21
24.99999999999999
 31
0.0
  0
LINE
  5
14A
330
1E
100
AcDbEntity
  8
HILF
100
AcDbLine
 10
20.00000000000004
 20
29.99999999999999
 30
0.0
 11
73.00000000000006
 21
29.99999999999999
 31
0.0
  0
LINE
  5
14B
330
1E
100
AcDbEntity
  8
HILF
100
AcDbLine
 10
20.00000000000004
 20
34.99999999999997
 30
0.0
 11
73.00000000000006
 21
34.99999999999997
 31
0.0
  0
LINE
  5
14C
330
1E
100
AcDbEntity
  8
HILF
100
AcDbLine
 10
20.00000000000004
 20
39.99999999999997
 30
0.0
 11
73.00000000000006
 21
39.99999999999997
 31
0.0
  0
LINE
  5
14D
330
1E
100
AcDbEntity
  8
HILF
100
AcDbLine
 10
20.00000000000004
 20
45.00000000000002
 30
0.0
 11
73.00000000000006
 21
45.00000000000002
 31
0.0
  0
LINE
  5
14E
330
1E
100
AcDbEntity
  8
HILF
100
AcDbLine
 10
20.00000000000004
 20
50.00000000000003
 30
0.0
 11
73.00000000000006
 21
50.00000000000003
 31
0.0
  0
LINE
  5
14F
330
1E
100
AcDbEntity
  8
STEMPEL
100
AcDbLine
 10
72.99999999999994
 20
14.99999999999998
 30
0.0
 11
19.99999999999998
 21
14.99999999999998
 31
0.0
  0
TEXT
  5
150
330
1E
100
AcDbEntity
  8
TEXT
100
AcDbText
 10
24.13320553522878
 20
6.827329230135958
 30
0.0
 40
2.0
  1
Index
 50
90.0
 41
0.8
  7
GREEKS
100
AcDbText
  0
LINE
  5
151
330
1E
100
AcDbEntity
  8
VOLL
100
AcDbLine
 10
27.00000000000005
 20
55.00000000000003
 30
0.0
 11
26.99999999999999
 21
4.999999999999985
 31
0.0
  0
LINE
  5
152
330
1E
100
AcDbEntity
  8
HILF
100
AcDbLine
 10
15.54383567856928
 20
148.5
 30
0.0
 11
0.0000000000000568
 21
148.5
 31
0.0
  0
LINE
  5
154
330
1E
100
AcDbEntity
  8
VOLL
100
AcDbLine
 10
62.00000000000006
 20
54.99999999999997
 30
0.0
 11
62.0
 21
4.999999999999985
 31
0.0
  0
LINE
  5
155
330
1E
100
AcDbEntity
  8
VOLL
100
AcDbLine
 10
52.00000000000006
 20
54.99999999999997
 30
0.0
 11
52.0
 21
4.999999999999985
 31
0.0
  0
LINE
  5
157
330
1E
100
AcDbEntity
  8
STEMPEL
100
AcDbLine
 10
73.00000000000006
 20
54.99999999999997
 30
0.0
 11
73.0
 21
4.999999999999985
 31
0.0
  0
TEXT
  5
159
330
1E
100
AcDbEntity
  8
TEXT
100
AcDbText
 10
86.16558365768254
 20
36.65940250614963
 30
0.0
 40
2.0
  1
Tag
 41
0.8
  7
GREEKS
100
AcDbText
  0
TEXT
  5
15A
330
1E
100
AcDbEntity
  8
TEXT
100
AcDbText
 10
73.79180635838077
 20
31.81495184808982
 30
0.0
 40
2.0
  1
Gez.
 41
0.8
  7
GREEKS
100
AcDbText
  0
LINE
  5
15B
330
1E
100
AcDbEntity
  8
VOLL
100
AcDbLine
 10
82.00000000000006
 20
39.99999999999997
 30
0.0
 11
82.00000000000006
 21
19.99999999999998
 31
0.0
  0
TEXT
  5
15C
330
1E
100
AcDbEntity
  8
TEXT
100
AcDbText
 10
73.80033886936519
 20
21.76473194824904
 30
0.0
 40
2.0
  1
Norm.
 41
0.8
  7
GREEKS
100
AcDbText
  0
TEXT
  5
15D
330
1E
100
AcDbEntity
  8
TEXT
100
AcDbText
 10
73.77575432858361
 20
26.84463145714189
 30
0.0
 40
2.0
  1
Gepr.
 41
0.8
  7
GREEKS
100
AcDbText
  0
TEXT
  5
15E
330
1E
100
AcDbEntity
  8
TEXT
 62
     1
100
AcDbText
 10
80.25031532409434
 20
44.07450714456979
 30
0.0
 40
3.5
  1
1:1
 41
0.8
  7
GREEKS
100
AcDbText
  0
TEXT
  5
160
330
1E
100
AcDbEntity
  8
TEXT
100
AcDbText
 10
74.31105491105199
 20
36.57012735575833
 30
0.0
 40
2.0
  1
2006
 41
0.8
  7
GREEKS
100
AcDbText
  0
LINE
  5
161
330
1E
100
AcDbEntity
  8
VOLL
100
AcDbLine
 10
95.00000000000005
 20
54.99999999999992
 30
0.0
 11
95.0
 21
19.99999999999998
 31
0.0
  0
LINE
  5
186
330
1E
100
AcDbEntity
  8
HILF
100
AcDbLine
 10
210.0
 20
-0.0000000000000568
 30
0.0
 11
210.0
 21
297.0
 31
0.0
  0
LINE
  5
187
330
1E
100
AcDbEntity
  8
STEMPEL
100
AcDbLine
 10
205.0
 20
5.0
 30
0.0
 11
205.0
 21
292.0
 31
0.0
  0
TEXT
  5
188
330
1E
100
AcDbEntity
  8
TEXT
100
AcDbText
 10
168.6200430748503
 20
26.03708088939301
 30
0.0
 40
2.5
  1
ersetzt durch:
 41
0.8
  7
GREEKS
100
AcDbText
  0
TEXT
  5
18A
330
1E
100
AcDbEntity
  8
TEXT
100
AcDbText
 10
168.089377478817
 20
51.15660172685682
 30
0.0
 40
2.5
  1
Zeichnungs Nr.
 41
0.8
  7
GREEKS
100
AcDbText
  0
LINE
  5
18B
330
1E
100
AcDbEntity
  8
HILF
100
AcDbLine
 10
116.7454849644942
 20
7.446991290141568
 30
0.0
 11
202.4294419663364
 21
7.446991290141568
 31
0.0
  0
LINE
  5
18C
330
1E
100
AcDbEntity
  8
HILF
100
AcDbLine
 10
168.3619308148496
 20
41.88991818477913
 30
0.0
 11
202.4294419663364
 21
41.88991818477913
 31
0.0
  0
LINE
  5
18D
330
1E
100
AcDbEntity
  8
VOLL
100
AcDbLine
 10
166.0
 20
30.0
 30
0.0
 11
205.0
 21
30.0
 31
0.0
  0
TEXT
  5
18E
330
1E
100
AcDbEntity
  8
TEXT
 62
     1
100
AcDbText
 10
117.4641932160007
 20
43.70874394626889
 30
0.0
 40
3.5
  1
Übergangsrohr DN80/100
 41
0.65
  7
GREEKS
100
AcDbText
  0
LINE
  5
18F
330
1E
100
AcDbEntity
  8
HILF
100
AcDbLine
 10
117.3868400548473
 20
24.99999999999999
 30
0.0
 11
162.4176958278155
 21
24.99999999999999
 31
0.0
  0
LINE
  5
190
330
1E
100
AcDbEntity
  8
HILF
100
AcDbLine
 10
117.3868400548473
 20
29.99999999999999
 30
0.0
 11
162.4176958278155
 21
29.99999999999999
 31
0.0
  0
LINE
  5
191
330
1E
100
AcDbEntity
  8
HILF
100
AcDbLine
 10
117.3868400548473
 20
34.99999999999997
 30
0.0
 11
162.4176958278155
 21
34.99999999999997
 31
0.0
  0
LINE
  5
192
330
1E
100
AcDbEntity
  8
HILF
100
AcDbLine
 10
117.3868400548473
 20
42.01879123782069
 30
0.0
 11
162.4176958278155
 21
42.01879123782069
 31
0.0
  0
LINE
  5
193
330
1E
100
AcDbEntity
  8
STEMPEL
100
AcDbLine
 10
115.0
 20
55.00000000000003
 30
0.0
 11
115.0
 21
4.999999999999985
 31
0.0
  0
TEXT
  5
194
330
1E
100
AcDbEntity
  8
TEXT
100
AcDbText
 10
117.5648195562657
 20
35.75167208792644
 30
0.0
 40
2.5
  1
konzentrisches-Red.-Stück
 41
0.8
  7
GREEKS
100
AcDbText
  0
TEXT
  5
195
330
1E
100
AcDbEntity
  8
TEXT
100
AcDbText
 10
117.4918750788913
 20
21.31487076511316
 30
0.0
 40
2.0
  1
5600MD0W.DWG
 41
0.8
  7
GREEKS
100
AcDbText
  0
TEXT
  5
196
330
1E
100
AcDbEntity
  8
TEXT
100
AcDbText
 10
117.371119195568
 20
15.42280285096528
 30
0.0
 40
2.5
  1
Bauvorhaben
 41
0.8
  7
GREEKS
100
AcDbText
  0
TEXT
  5
197
330
1E
100
AcDbEntity
  8
TEXT
100
AcDbText
 10
117.4389701904505
 20
51.27446640058898
 30
0.0
 40
2.5
  1
Benennung
 41
0.8
  7
GREEKS
100
AcDbText
  0
LINE
  5
198
330
1E
100
AcDbEntity
  8
STEMPEL
100
AcDbLine
 10
166.0
 20
54.99999999999989
 30
0.0
 11
166.0
 21
20.0
 31
0.0
  0
TEXT
  5
19A
330
1E
100
AcDbEntity
  8
TEXT
 62
     1
100
AcDbText
 10
173.9022693952247
 20
44.07450714456979
 30
0.0
 40
3.5
  1
5600MD0W
 41
0.8
  7
GREEKS
 72
     1
 11
184.9022693952248
 21
44.07450714456979
 31
0.0
100
AcDbText
  0
TEXT
  5
212
330
1E
100
AcDbEntity
  8
TEXT
100
AcDbText
 10
117.5648195562657
 20
25.75167208792646
 30
0.0
 40
2.5
  1
EDV-Art.Nr. 5.600.MD0C
 41
0.8
  7
GREEKS
100
AcDbText
  0
TEXT
  5
255
330
1E
100
AcDbEntity
  8
TEXT
 62
     1
100
AcDbText
 10
149.7321124285224
 20
59.49841138945249
 30
0.0
 40
3.5
  1
Werkstoff: 1.4404
 41
0.8
  7
GREEKS
100
AcDbText
  0
TEXT
  5
101A
330
1E
100
AcDbEntity
  8
TEXT
 62
     1
100
AcDbText
 10
109.5513887018737
 20
127.0576824145332
 30
0.0
 40
3.5
  1
DN100
 50
90.0
 41
0.8
  7
GREEKS
100
AcDbText
  0
TEXT
  5
103F
330
1E
100
AcDbEntity
  8
TEXT
100
AcDbText
 10
117.5648195562657
 20
30.75167208792646
 30
0.0
 40
2.5
  1
dünnwandig
 41
0.8
  7
GREEKS
100
AcDbText
  0
LINE
  5
160A
330
1E
100
AcDbEntity
  8
STEMPEL
100
AcDbLine
 10
68.10041072505203
 20
215.7528727322186
 30
0.0
 11
68.10041072505203
 21
192.9247140125477
 31
0.0
  0
DIMENSION
  5
160B
330
1E
100
AcDbEntity
  8
BEM
100
AcDbDimension
  2
*D3
 10
37.8518247408633
 20
280.6026149934114
 30
0.0
 11
34.60182474086324
 21
180.6009685412463
 31
0.0
 70
    32
 71
     5
 42
200.0032929043301
  3
Standard
100
AcDbAlignedDimension
 13
62.62529736031121
 23
80.59932208908128
 33
0.0
 14
65.29849693707558
 24
280.6026149934114
 34
0.0
 50
90.0
100
AcDbRotatedDimension
1001
ACAD
1000
DSTYLE
1002
{
1070
    41
1040
3.5
1070
    42
1040
1.0
1070
    43
1040
7.0
1070
    44
1040
1.0
1070
    73
1070
     0
1070
    74
1070
     0
1070
    77
1070
     1
1070
    78
1070
     8
1070
    79
1070
     2
1070
   140
1040
3.5
1070
   141
1040
1.5
1070
   146
1040
0.5142857142857144
1070
   147
1040
1.5
1070
   172
1070
     1
1070
   178
1070
     1
1070
   179
1070
     2
1070
   271
1070
     2
1070
   272
1070
     2
1070
   284
1070
     8
1070
   285
1070
     8
1070
   286
1070
     8
1002
}
  0
LINE
  5
160C
330
1E
100
AcDbEntity
  8
MITTEL
100
AcDbLine
 10
112.5504107250519
 20
285.6026149934113
 30
0.0
 11
112.5504107250519
 21
203.9763689812576
 31
0.0
  0
LINE
  5
160D
330
1E
100
AcDbEntity
  8
HILF
100
AcDbLine
 10
154.8307141591801
 20
218.0528727322185
 30
0.0
 11
69.04289562767826
 21
218.0528727322186
 31
0.0
  0
LINE
  5
160E
330
1E
100
AcDbEntity
  8
HILF
100
AcDbLine
 10
157.987902902771
 20
222.9226294323578
 30
0.0
 11
67.11291854733303
 21
222.9226294323578
 31
0.0
  0
LINE
  5
160F
330
1E
100
AcDbEntity
  8
HILF
100
AcDbLine
 10
158.6925839740518
 20
247.7433410721385
 30
0.0
 11
66.40823747605224
 21
247.7433410721385
 31
0.0
  0
LINE
  5
1610
330
1E
100
AcDbEntity
  8
STEMPEL
100
AcDbLine
 10
159.8023245130284
 20
280.6026149934114
 30
0.0
 11
65.29849693707558
 21
280.6026149934114
 31
0.0
  0
LINE
  5
1611
330
1E
100
AcDbEntity
  8
STEMPEL
100
AcDbLine
 10
62.000410725052
 20
268.406304075761
 30
0.0
 11
62.00041072505212
 21
260.7026149934116
 31
0.0
  0
LINE
  5
1613
330
1E
100
AcDbEntity
  8
STEMPEL
100
AcDbLine
 10
65.50041072505201
 20
244.8170869883373
 30
0.0
 11
65.50041072505201
 21
225.8226294323577
 31
0.0
  0
ARC
  5
1614
330
1E
100
AcDbEntity
  8
STEMPEL
100
AcDbCircle
 10
77.10041072505214
 20
225.8226294323577
 30
0.0
 40
11.6
100
AcDbArc
 50
180.0
 51
208.9550243718594
  0
ARC
  5
1615
330
1E
100
AcDbEntity
  8
STEMPEL
100
AcDbCircle
 10
58.90041072505209
 20
215.7528727322186
 30
0.0
 40
9.200000000000001
100
AcDbArc
 50
0.0
 51
28.95502437185938
  0
ARC
  5
1616
330
1E
100
AcDbEntity
  8
STEMPEL
100
AcDbCircle
 10
86.20041072505205
 20
260.7026149934116
 30
0.0
 40
24.2
100
AcDbArc
 50
180.0
 51
204.850502340228
  0
ARC
  5
1617
330
1E
100
AcDbEntity
  8
STEMPEL
100
AcDbCircle
 10
51.90041072505209
 20
244.8170869883373
 30
0.0
 40
13.6
100
AcDbArc
 50
0.0
 51
24.85050234022803
  0
ARC
  5
1618
330
1E
100
AcDbEntity
  8
STEMPEL
100
AcDbCircle
 10
86.20041072505205
 20
268.406304075761
 30
0.0
 40
24.2
100
AcDbArc
 50
149.7363480579029
 51
180.0
  0
LINE
  5
1619
330
1E
100
AcDbEntity
  8
STEMPEL
100
AcDbLine
 10
163.1004107250519
 20
268.406304075761
 30
0.0
 11
163.1004107250519
 21
260.7026149934116
 31
0.0
  0
LINE
  5
161A
330
1E
100
AcDbEntity
  8
STEMPEL
100
AcDbLine
 10
159.6004107250519
 20
244.8170869883373
 30
0.0
 11
159.6004107250519
 21
225.8226294323578
 31
0.0
  0
ARC
  5
161B
330
1E
100
AcDbEntity
  8
STEMPEL
100
AcDbCircle
 10
148.0004107250519
 20
225.8226294323577
 30
0.0
 40
11.6
100
AcDbArc
 50
331.0449756281406
 51
0.0
  0
ARC
  5
161C
330
1E
100
AcDbEntity
  8
STEMPEL
100
AcDbCircle
 10
166.2004107250521
 20
215.7528727322187
 30
0.0
 40
9.200000000000001
100
AcDbArc
 50
151.0449756281406
 51
180.0
  0
ARC
  5
161D
330
1E
100
AcDbEntity
  8
STEMPEL
100
AcDbCircle
 10
138.900410725052
 20
260.7026149934116
 30
0.0
 40
24.2
100
AcDbArc
 50
335.149497659772
 51
0.0
  0
ARC
  5
161E
330
1E
100
AcDbEntity
  8
STEMPEL
100
AcDbCircle
 10
173.2004107250519
 20
244.8170869883373
 30
0.0
 40
13.6
100
AcDbArc
 50
155.1494976597719
 51
180.0
  0
ARC
  5
161F
330
1E
100
AcDbEntity
  8
STEMPEL
100
AcDbCircle
 10
138.900410725052
 20
268.406304075761
 30
0.0
 40
24.2
100
AcDbArc
 50
0.0
 51
30.26365194209708
  0
LINE
  5
1620
330
1E
100
AcDbEntity
  8
STEMPEL
100
AcDbLine
 10
157.0004107250517
 20
215.7528727322187
 30
0.0
 11
157.0004107250517
 21
192.924714012547
 31
0.0
  0
DIMENSION
  5
163E
330
1E
100
AcDbEntity
  8
BEM
100
AcDbDimension
  2
*D2
 10
157.0004107250521
 20
197.7168672794375
 30
0.0
 11
112.550410725052
 21
200.9668672794375
 31
0.0
 70
    32
  1
%%c<>
 71
     5
 42
88.90000000000009
  3
Standard
100
AcDbAlignedDimension
 13
68.10041072505203
 23
192.9247140125477
 33
0.0
 14
157.0004107250521
 24
192.9247140125507
 34
0.0
100
AcDbRotatedDimension
1001
ACAD
1000
DSTYLE
1002
{
1070
    41
1040
3.5
1070
    42
1040
1.0
1070
    43
1040
7.0
1070
    44
1040
1.0
1070
    73
1070
     0
1070
    74
1070
     0
1070
    77
1070
     1
1070
    78
1070
     8
1070
    79
1070
     2
1070
   140
1040
3.5
1070
   141
1040
1.5
1070
   146
1040
0.5142857142857144
1070
   147
1040
1.5
1070
   172
1070
     1
1070
   178
1070
     1
1070
   179
1070
     2
1070
   271
1070
     2
1070
   272
1070
     2
1070
   284
1070
     8
1070
   285
1070
     8
1070
   286
1070
     8
1002
}
  0
LINE
  5
1640
330
1E
100
AcDbEntity
  8
STEMPEL
100
AcDbLine
 10
162.4755240897926
 20
80.59932208908151
 30
0.0
 11
62.62529736031121
 21
80.59932208908128
 31
0.0
  0
TEXT
  5
16FD
330
1E
100
AcDbEntity
  8
TEXT
 62
     1
100
AcDbText
 10
106.555585425877
 20
256.9092541183683
 30
0.0
 40
3.5
  1
DN80
 50
90.0
 41
0.8
  7
GREEKS
100
AcDbText
  0
LINE
  5
16FF
330
1E
100
AcDbEntity
  8
STEMPEL
100
AcDbLine
 10
61.75041072505196
 20
170.5993220890814
 30
0.0
 11
61.75041072505201
 21
90.59932208908112
 31
0.0
  0
LINE
  5
1700
330
1E
100
AcDbEntity
  8
STEMPEL
100
AcDbLine
 10
163.3504107250519
 20
170.5993220890819
 30
0.0
 11
163.3504107250518
 21
90.59932208908112
 31
0.0
  0
LINE
  5
170B
330
1E
100
AcDbEntity
  8
HILF
100
AcDbLine
 10
69.00167762377339
 20
190.5993220890813
 30
0.0
 11
156.0991438263299
 21
190.5993220890813
 31
0.0
  0
ARC
  5
171B
330
1E
100
AcDbEntity
  8
STEMPEL
100
AcDbCircle
 10
165.0004107250518
 20
192.924714012547
 30
0.0
 40
8.0
100
AcDbArc
 50
180.0000000000001
 51
205.6813715957289
  0
ARC
  5
1722
330
1E
100
AcDbEntity
  8
STEMPEL
100
AcDbCircle
 10
60.10041072505174
 20
192.9247140125477
 30
0.0
 40
8.0
100
AcDbArc
 50
334.3186284042754
 51
359.9999999999992
  0
LINE
  5
172D
330
1E
100
AcDbEntity
  8
HILF
100
AcDbLine
 10
63.00041072505201
 20
90.59932208908112
 30
0.0
 11
162.1004107250518
 21
90.59932208908112
 31
0.0
  0
LINE
  5
172E
330
1E
100
AcDbEntity
  8
STEMPEL
100
AcDbLine
 10
61.75041072505201
 20
90.59932208908112
 30
0.0
 11
62.62529736031121
 21
80.59932208908128
 31
0.0
  0
LINE
  5
172F
330
1E
100
AcDbEntity
  8
STEMPEL
100
AcDbLine
 10
163.350410725052
 20
90.59932208908112
 30
0.0
 11
162.4755240897926
 21
80.59932208908151
 31
0.0
  0
LINE
  5
176F
330
1E
100
AcDbEntity
  8
MITTEL
100
AcDbLine
 10
112.5504107250519
 20
195.2238196611138
 30
0.0
 11
112.5504107250519
 21
75.59932208908157
 31
0.0
  0
DIMENSION
  5
1770
330
1E
100
AcDbEntity
  8
BEM
100
AcDbDimension
  2
*D5
 10
163.350410725052
 20
66.17536584165259
 30
0.0
 11
112.550410725052
 21
69.42536584165259
 31
0.0
 70
    32
  1
%%c<>
 71
     5
 42
101.5999999999999
  3
Standard
100
AcDbAlignedDimension
 13
61.75041072505201
 23
90.5993220890811
 33
0.0
 14
163.350410725052
 24
90.59932208908112
 34
0.0
100
AcDbRotatedDimension
1001
ACAD
1000
DSTYLE
1002
{
1070
    41
1040
3.5
1070
    42
1040
1.0
1070
    43
1040
7.0
1070
    44
1040
1.0
1070
    73
1070
     0
1070
    74
1070
     0
1070
    77
1070
     1
1070
    78
1070
     8
1070
    79
1070
     2
1070
   140
1040
3.5
1070
   141
1040
1.5
1070
   146
1040
0.5142857142857144
1070
   147
1040
1.5
1070
   172
1070
     1
1070
   178
1070
     1
1070
   179
1070
     2
1070
   271
1070
     2
1070
   272
1070
     2
1070
   284
1070
     8
1070
   285
1070
     8
1070
   286
1070
     8
1002
}
  0
TEXT
  5
17DA
330
1E
100
AcDbEntity
  8
BEM
100
AcDbText
 10
208.2905770718718
 20
6.074024076691515
 30
0.0
 40
2.0
  1
Diese Zeichnung ist urheberrechtlich geschützt und bleibt unser Eigentum. Sie darf weder ganz noch teilweise vervielfältigt und nicht an Dritte weitergegeben werden.
 50
90.0
 41
0.8
  7
GREEKS
100
AcDbText
  0
TEXT
  5
17DB
330
1E
100
AcDbEntity
  8
TEXT
100
AcDbText
 10
168.3619308148496
 20
36.59059118549985
 30
0.0
 40
2.5
  1
Ersatz für:
 41
0.8
  7
GREEKS
100
AcDbText
  0
TEXT
  5
17DC
330
1E
100
AcDbEntity
  8
TEXT
100
AcDbText
 10
96.34413576239619
 20
44.75075346779021
 30
0.0
 40
2.0
  1
DIN EN1124-3
 41
0.8
  7
GREEKS
 72
     1
 11
104.8393738576343
 21
44.75075346779021
 31
0.0
100
AcDbText
  0
TEXT
  5
17DD
330
1E
100
AcDbEntity
  8
TEXT
100
AcDbText
 10
76.75817860751886
 20
51.23104475435443
 30
0.0
 40
2.5
  1
Maßstab
 41
0.8
  7
GREEKS
100
AcDbText
  0
TEXT
  5
17DE
330
1E
100
AcDbEntity
  8
TEXT
100
AcDbText
 10
20.92754975488837
 20
55.83599999999997
 30
0.0
 40
2.5
  1
Erstellt mit AUTOCAD 2004
 41
0.8
  7
GREEKS
100
AcDbText
  0
TEXT
  5
17DF
330
1E
100
AcDbEntity
  8
TEXT
100
AcDbText
 10
64.65101857829231
 20
9.29662108483204
 30
0.0
 40
2.0
  1
Name
 41
0.8
  7
GREEKS
 72
     1
 11
67.81292334019707
 21
9.29662108483204
 31
0.0
100
AcDbText
  0
TEXT
  5
17E0
330
1E
100
AcDbEntity
  8
TEXT
100
AcDbText
 10
55.12341772494927
 20
9.33578134669905
 30
0.0
 40
2.0
  1
Tag
 41
0.8
  7
GREEKS
 72
     1
 11
56.99008439161594
 21
9.33578134669905
 31
0.0
100
AcDbText
  0
TEXT
  5
17E1
330
1E
100
AcDbEntity
  8
TEXT
100
AcDbText
 10
33.36234733388268
 20
9.336909474920659
 30
0.0
 40
2.0
  1
Änderung
 41
0.8
  7
GREEKS
 72
     1
 11
38.73377590531125
 21
9.336909474920659
 31
0.0
100
AcDbText
  0
LINE
  5
181E
330
1E
100
AcDbEntity
  8
STEMPEL
100
AcDbLine
 10
162.0504107250519
 20
180.5993220890815
 30
0.0
 11
63.05041072505196
 21
180.5993220890813
 31
0.0
  0
LINE
  5
1824
330
1E
100
AcDbEntity
  8
HILF
100
AcDbLine
 10
62.96050824178355
 20
170.5993220890813
 30
0.0
 11
162.1403132083203
 21
170.5993220890819
 31
0.0
  0
LINE
  5
182E
102
{ACAD_REACTORS
330
18DC
102
}
330
1E
100
AcDbEntity
  8
STEMPEL
100
AcDbLine
 10
163.3504107250519
 20
170.5993220890819
 30
0.0
 11
162.0504107250519
 21
180.5993220890815
 31
0.0
  0
LINE
  5
182F
330
1E
100
AcDbEntity
  8
STEMPEL
100
AcDbLine
 10
61.75041072505196
 20
170.5993220890814
 30
0.0
 11
63.05041072505196
 21
180.5993220890813
 31
0.0
  0
LINE
  5
1834
102
{ACAD_REACTORS
330
18DC
102
}
330
1E
100
AcDbEntity
  8
STEMPEL
100
AcDbLine
 10
162.0504107250519
 20
180.5993220890815
 30
0.0
 11
157.7906669813184
 21
189.4577852348394
 31
0.0
  0
LINE
  5
1835
330
1E
100
AcDbEntity
  8
STEMPEL
100
AcDbLine
 10
63.05041072505196
 20
180.5993220890813
 30
0.0
 11
67.31015446878538
 21
189.4577852348406
 31
0.0
  0
ARC
  5
18C0
330
1E
100
AcDbEntity
  8
SCHRAFF
100
AcDbCircle
 10
60.56712826481657
 20
180.5993220890813
 30
0.0
 40
5.0
100
AcDbArc
 50
336.4218215217978
 51
23.57817847820218
  0
ARC
  5
18C1
330
1E
100
AcDbEntity
  8
SCHRAFF
100
AcDbCircle
 10
65.56712826481657
 20
180.5993220890813
 30
0.0
 40
5.0
100
AcDbArc
 50
336.4218215217978
 51
23.57817847820218
  0
ARC
  5
18C2
330
1E
100
AcDbEntity
  8
SCHRAFF
100
AcDbCircle
 10
70.56712826481657
 20
180.5993220890813
 30
0.0
 40
5.0
100
AcDbArc
 50
336.4218215217978
 51
23.57817847820218
  0
ARC
  5
18C3
330
1E
100
AcDbEntity
  8
SCHRAFF
100
AcDbCircle
 10
75.56712826481657
 20
180.5993220890813
 30
0.0
 40
5.0
100
AcDbArc
 50
336.4218215217978
 51
23.57817847820218
  0
ARC
  5
18C4
330
1E
100
AcDbEntity
  8
SCHRAFF
100
AcDbCircle
 10
80.56712826481657
 20
180.5993220890813
 30
0.0
 40
5.0
100
AcDbArc
 50
336.4218215217978
 51
23.57817847820218
  0
ARC
  5
18C5
330
1E
100
AcDbEntity
  8
SCHRAFF
100
AcDbCircle
 10
85.56712826481657
 20
180.5993220890813
 30
0.0
 40
5.0
100
AcDbArc
 50
336.4218215217978
 51
23.57817847820218
  0
ARC
  5
18C6
330
1E
100
AcDbEntity
  8
SCHRAFF
100
AcDbCircle
 10
90.56712826481657
 20
180.5993220890813
 30
0.0
 40
5.0
100
AcDbArc
 50
336.4218215217978
 51
23.57817847820218
  0
ARC
  5
18C7
330
1E
100
AcDbEntity
  8
SCHRAFF
100
AcDbCircle
 10
95.56712826481657
 20
180.5993220890813
 30
0.0
 40
5.0
100
AcDbArc
 50
336.4218215217978
 51
23.57817847820218
  0
ARC
  5
18C8
330
1E
100
AcDbEntity
  8
SCHRAFF
100
AcDbCircle
 10
100.5671282648165
 20
180.5993220890813
 30
0.0
 40
5.0
100
AcDbArc
 50
336.4218215217978
 51
23.57817847820218
  0
ARC
  5
18C9
330
1E
100
AcDbEntity
  8
SCHRAFF
100
AcDbCircle
 10
105.5671282648165
 20
180.5993220890813
 30
0.0
 40
5.0
100
AcDbArc
 50
336.4218215217978
 51
23.57817847820218
  0
ARC
  5
18CA
330
1E
100
AcDbEntity
  8
SCHRAFF
100
AcDbCircle
 10
110.5671282648165
 20
180.5993220890814
 30
0.0
 40
5.0
100
AcDbArc
 50
336.4218215217978
 51
23.57817847820218
  0
ARC
  5
18CB
330
1E
100
AcDbEntity
  8
SCHRAFF
100
AcDbCircle
 10
115.5671282648165
 20
180.5993220890814
 30
0.0
 40
5.0
100
AcDbArc
 50
336.4218215217978
 51
23.57817847820218
  0
ARC
  5
18CC
330
1E
100
AcDbEntity
  8
SCHRAFF
100
AcDbCircle
 10
120.5671282648165
 20
180.5993220890814
 30
0.0
 40
5.0
100
AcDbArc
 50
336.4218215217978
 51
23.57817847820218
  0
ARC
  5
18CD
330
1E
100
AcDbEntity
  8
SCHRAFF
100
AcDbCircle
 10
125.5671282648165
 20
180.5993220890814
 30
0.0
 40
5.0
100
AcDbArc
 50
336.4218215217978
 51
23.57817847820218
  0
ARC
  5
18CE
330
1E
100
AcDbEntity
  8
SCHRAFF
100
AcDbCircle
 10
130.5671282648166
 20
180.5993220890814
 30
0.0
 40
5.0
100
AcDbArc
 50
336.4218215217978
 51
23.57817847820218
  0
ARC
  5
18CF
330
1E
100
AcDbEntity
  8
SCHRAFF
100
AcDbCircle
 10
135.5671282648166
 20
180.5993220890814
 30
0.0
 40
5.0
100
AcDbArc
 50
336.4218215217978
 51
23.57817847820218
  0
ARC
  5
18D0
330
1E
100
AcDbEntity
  8
SCHRAFF
100
AcDbCircle
 10
140.5671282648166
 20
180.5993220890814
 30
0.0
 40
5.0
100
AcDbArc
 50
336.4218215217978
 51
23.57817847820218
  0
ARC
  5
18D1
330
1E
100
AcDbEntity
  8
SCHRAFF
100
AcDbCircle
 10
145.5671282648165
 20
180.5993220890814
 30
0.0
 40
5.0
100
AcDbArc
 50
336.4218215217978
 51
23.57817847820218
  0
ARC
  5
18D2
330
1E
100
AcDbEntity
  8
SCHRAFF
100
AcDbCircle
 10
150.5671282648165
 20
180.5993220890814
 30
0.0
 40
5.0
100
AcDbArc
 50
336.4218215217978
 51
23.57817847820218
  0
ARC
  5
18D3
330
1E
100
AcDbEntity
  8
SCHRAFF
100
AcDbCircle
 10
155.5671282648165
 20
180.5993220890814
 30
0.0
 40
5.0
100
AcDbArc
 50
336.4218215217978
 51
23.57817847820218
  0
ARC
  5
18D7
102
{ACAD_REACTORS
330
18DC
102
}
330
1E
100
AcDbEntity
  8
SCHRAFF
100
AcDbCircle
 10
160.3502074996487
 20
180.1871895553035
 30
0.0
 40
2.522641428179441
100
AcDbArc
 50
320.9907121683144
 51
72.97814855775569
  0
HATCH
  5
18DC
330
1E
100
AcDbEntity
  8
SCHRAFF
100
AcDbHatch
 10
0.0
 20
0.0
 30
0.0
210
0.0
220
0.0
230
1.0
  2
_USER
 70
     0
 71
     1
 91
        1
 92
        7
 72
     1
 73
     1
 93
        3
 10
161.0886764662661
 20
182.5993220890815
 42
0.0
 10
162.0504107250519
 20
180.5993220890815
 42
0.0
 10
162.3104107250519
 20
178.5993220890815
 42
0.5316391164430577
 97
        3
330
1834
330
182E
330
18D7
 75
     0
 76
     0
 52
0.0
 41
0.1
 77
     0
 78
     1
 53
0.0
 43
0.0
 44
0.0
 45
0.0
 46
0.1
 79
     0
 47
0.0226071619638707
 98
        1
 10
161.8639575699512
 20
181.130340269093
  0
ARC
  5
18DD
330
1E
100
AcDbEntity
  8
SCHRAFF
100
AcDbCircle
 10
64.7506139504552
 20
180.1871895553035
 30
0.0
 40
2.522641428179441
100
AcDbArc
 50
107.0218514422443
 51
219.0092878316857
  0
HATCH
  5
18DE
330
1E
100
AcDbEntity
  8
SCHRAFF
100
AcDbHatch
 10
0.0
 20
0.0
 30
0.0
210
0.0
220
0.0
230
1.0
  2
_USER
 70
     0
 71
     0
 91
        1
 92
        7
 72
     1
 73
     1
 93
        3
 10
64.01214498383779
 20
182.5993220890815
 42
0.0
 10
63.05041072505201
 20
180.5993220890815
 42
0.0
 10
62.79041072505203
 20
178.5993220890815
 42
-0.5316391164430577
 97
        0
 75
     0
 76
     0
 52
0.0
 41
0.1
 77
     0
 78
     1
 53
180.0
 43
225.1008214501039
 44
0.0
 45
0.0
 46
0.1
 79
     0
 47
0.0226071619638707
 98
        1
 10
63.23686388015267
 20
181.130340269093
  0
TEXT
  5
1941
330
1E
100
AcDbEntity
  8
TEXT
100
AcDbText
 10
85.19949855411802
 20
31.55382520412866
 30
0.0
 40
2.0
  1
28.08.
 41
0.8
  7
GREEKS
 72
     1
 11
88.70426045887993
 21
31.55382520412866
 31
0.0
100
AcDbText
  0
ENDSEC
  0
SECTION
  2
OBJECTS
  0
DICTIONARY
  5
C
330
0
100
AcDbDictionary
281
     1
  3
ACAD_COLOR
350
1518
  3
ACAD_GROUP
350
D
  3
ACAD_LAYOUT
350
19
  3
ACAD_MATERIAL
350
1517
  3
ACAD_MLINESTYLE
350
16
  3
ACAD_PLOTSETTINGS
350
18
  3
ACAD_PLOTSTYLENAME
350
E
  3
AcDbVariableDictionary
350
246
  0
DICTIONARY
  5
1518
102
{ACAD_REACTORS
330
C
102
}
330
C
100
AcDbDictionary
281
     1
  0
DICTIONARY
  5
D
102
{ACAD_REACTORS
330
C
102
}
330
C
100
AcDbDictionary
281
     1
  0
DICTIONARY
  5
19
102
{ACAD_REACTORS
330
C
102
}
330
C
100
AcDbDictionary
281
     1
  3
Layout1
350
1D
  3
Model
350
21
  0
DICTIONARY
  5
1517
102
{ACAD_REACTORS
330
C
102
}
330
C
100
AcDbDictionary
281
     1
  0
DICTIONARY
  5
16
102
{ACAD_REACTORS
330
C
102
}
330
C
100
AcDbDictionary
281
     1
  3
Standard
350
17
  0
DICTIONARY
  5
18
102
{ACAD_REACTORS
330
C
102
}
330
C
100
AcDbDictionary
281
     1
  0
ACDBDICTIONARYWDFLT
  5
E
102
{ACAD_REACTORS
330
C
102
}
330
C
100
AcDbDictionary
281
     1
  3
Normal
350
F
100
AcDbDictionaryWithDefault
340
F
  0
DICTIONARY
  5
246
102
{ACAD_REACTORS
330
C
102
}
330
C
100
AcDbDictionary
281
     1
  3
DIMASSOC
350
16F9
  3
PROJECTNAME
350
16FA
  3
SORTENTS
350
247
  0
LAYOUT
  5
1D
102
{ACAD_REACTORS
330
19
102
}
330
19
100
AcDbPlotSettings
  1

  2
Tektronix Phaser 740
  4

  6

 40
0.0
 41
0.0
 42
0.0
 43
0.0
 44
0.0
 45
0.0
 46
0.0
 47
0.0
 48
0.0
 49
0.0
140
0.0
141
0.0
142
1.0
143
1.0
 70
   688
 72
     0
 73
     0
 74
     5
  7
monochrome.ctb
 75
    16
147
1.0
 76
     0
 77
     2
 78
   300
148
0.0
149
0.0
100
AcDbLayout
  1
Layout1
 70
     0
 71
     1
 10
0.0
 20
0.0
 11
12.0
 21
9.0
 12
0.0
 22
0.0
 32
0.0
 14
1.000000000000000E+20
 24
1.000000000000000E+20
 34
1.000000000000000E+20
 15
-1.000000000000000E+20
 25
-1.000000000000000E+20
 35
-1.000000000000000E+20
146
0.0
 13
0.0
 23
0.0
 33
0.0
 16
1.0
 26
0.0
 36
0.0
 17
0.0
 27
1.0
 37
0.0
 76
     0
330
1A
  0
LAYOUT
  5
21
102
{ACAD_REACTORS
330
19
102
}
330
19
100
AcDbPlotSettings
  1

  2
Tektronix Phaser 740
  4
A4
  6

 40
5.873749732971191
 41
6.085414409637451
 42
5.577407836914062
 43
5.662078857421875
 44
209.9733276367187
 45
296.9683227539062
 46
0.0
 47
0.0
 48
0.0
 49
0.0
140
0.0
141
0.0
142
1.0
143
1.0
 70
 11952
 72
     0
 73
     1
 74
     0
  7
monochrome.ctb
 75
     0
147
1.0
 76
     0
 77
     2
 78
   300
148
1150.120678237584
149
45.30495740799864
100
AcDbLayout
  1
Model
 70
     1
 71
     0
 10
0.0
 20
0.0
 11
12.0
 21
9.0
 12
0.0
 22
0.0
 32
0.0
 14
0.0
 24
0.0
 34
0.0
 15
0.0
 25
0.0
 35
0.0
146
0.0
 13
0.0
 23
0.0
 33
0.0
 16
1.0
 26
0.0
 36
0.0
 17
0.0
 27
1.0
 37
0.0
 76
     0
330
1E
  0
MLINESTYLE
  5
17
102
{ACAD_REACTORS
330
16
102
}
330
16
100
AcDbMlineStyle
  2
STANDARD
 70
     0
  3

 62
   256
 51
90.0
 52
90.0
 71
     2
 49
0.5
 62
   256
  6
BYLAYER
 49
-0.5
 62
   256
  6
BYLAYER
  0
ACDBPLACEHOLDER
  5
F
102
{ACAD_REACTORS
330
E
102
}
330
E
  0
DICTIONARYVAR
  5
16F9
102
{ACAD_REACTORS
330
246
102
}
330
246
100
DictionaryVariables
280
     0
  1
1
  0
DICTIONARYVAR
  5
16FA
102
{ACAD_REACTORS
330
246
102
}
330
246
100
DictionaryVariables
280
     0
  1

  0
DICTIONARYVAR
  5
247
102
{ACAD_REACTORS
330
246
102
}
330
246
100
DictionaryVariables
280
     0
  1
96
  0
ENDSEC
  0
EOF
