  0
SECTION
  2
HEADER
  9
$ACADVER
  1
AC1018
  9
$ACADMAINTVER
 70
     2
  9
$DWGCODEPAGE
  3
ANSI_1252
  9
$INSBASE
 10
0.0
 20
0.0
 30
0.0
  9
$EXTMIN
 10
-0.0128100481844058
 20
-0.0181170681471485
 30
-0.0000000000000023
  9
$EXTMAX
 10
420.0128212946063
 20
594.0181329738
 30
0.000000000000013
  9
$LIMMIN
 10
0.0
 20
0.0
  9
$LIMMAX
 10
419.9999999999999
 20
594.0
  9
$ORTHOMODE
 70
     1
  9
$REGENMODE
 70
     1
  9
$FILLMODE
 70
     1
  9
$QTEXTMODE
 70
     0
  9
$MIRRTEXT
 70
     1
  9
$LTSCALE
 40
20.0
  9
$ATTMODE
 70
     1
  9
$TEXTSIZE
 40
3.5
  9
$TRACEWID
 40
0.5
  9
$TEXTSTYLE
  7
STANDARD
  9
$CLAYER
  8
BEM
  9
$CELTYPE
  6
ByLayer
  9
$CECOLOR
 62
   256
  9
$CELTSCALE
 40
1.0
  9
$DISPSILH
 70
     0
  9
$DIMSCALE
 40
2.0
  9
$DIMASZ
 40
3.5
  9
$DIMEXO
 40
1.0
  9
$DIMDLI
 40
7.0
  9
$DIMRND
 40
0.0
  9
$DIMDLE
 40
0.0
  9
$DIMEXE
 40
1.0
  9
$DIMTP
 40
0.0
  9
$DIMTM
 40
0.0
  9
$DIMTXT
 40
3.5
  9
$DIMCEN
 40
1.5
  9
$DIMTSZ
 40
0.0
  9
$DIMTOL
 70
     0
  9
$DIMLIM
 70
     0
  9
$DIMTIH
 70
     0
  9
$DIMTOH
 70
     0
  9
$DIMSE1
 70
     0
  9
$DIMSE2
 70
     0
  9
$DIMTAD
 70
     1
  9
$DIMZIN
 70
     8
  9
$DIMBLK
  1

  9
$DIMASO
 70
     1
  9
$DIMSHO
 70
     0
  9
$DIMPOST
  1

  9
$DIMAPOST
  1

  9
$DIMALT
 70
     0
  9
$DIMALTD
 70
     2
  9
$DIMALTF
 40
25.4
  9
$DIMLFAC
 40
1.0
  9
$DIMTOFL
 70
     1
  9
$DIMTVP
 40
0.0
  9
$DIMTIX
 70
     0
  9
$DIMSOXD
 70
     0
  9
$DIMSAH
 70
     0
  9
$DIMBLK1
  1

  9
$DIMBLK2
  1

  9
$DIMSTYLE
  2
Standard
  9
$DIMCLRD
 70
     0
  9
$DIMCLRE
 70
     0
  9
$DIMCLRT
 70
     1
  9
$DIMTFAC
 40
0.5142857142857144
  9
$DIMGAP
 40
1.5
  9
$DIMJUST
 70
     0
  9
$DIMSD1
 70
     0
  9
$DIMSD2
 70
     0
  9
$DIMTOLJ
 70
     1
  9
$DIMTZIN
 70
     8
  9
$DIMALTZ
 70
     8
  9
$DIMALTTZ
 70
     8
  9
$DIMUPT
 70
     0
  9
$DIMDEC
 70
     2
  9
$DIMTDEC
 70
     2
  9
$DIMALTU
 70
     2
  9
$DIMALTTD
 70
     2
  9
$DIMTXSTY
  7
STANDARD
  9
$DIMAUNIT
 70
     0
  9
$DIMADEC
 70
     2
  9
$DIMALTRND
 40
0.0
  9
$DIMAZIN
 70
     2
  9
$DIMDSEP
 70
    46
  9
$DIMATFIT
 70
     3
  9
$DIMFRAC
 70
     0
  9
$DIMLDRBLK
  1

  9
$DIMLUNIT
 70
     2
  9
$DIMLWD
 70
    -2
  9
$DIMLWE
 70
    -2
  9
$DIMTMOVE
 70
     0
  9
$LUNITS
 70
     2
  9
$LUPREC
 70
     2
  9
$SKETCHINC
 40
1.0
  9
$FILLETRAD
 40
0.0
  9
$AUNITS
 70
     1
  9
$AUPREC
 70
     3
  9
$MENU
  1
ACAD
  9
$ELEVATION
 40
0.0
  9
$PELEVATION
 40
0.0
  9
$THICKNESS
 40
0.0
  9
$LIMCHECK
 70
     0
  9
$CHAMFERA
 40
0.0
  9
$CHAMFERB
 40
0.0
  9
$CHAMFERC
 40
0.0
  9
$CHAMFERD
 40
0.0
  9
$SKPOLY
 70
     0
  9
$TDCREATE
 40
2452040.637099653
  9
$TDUCREATE
 40
2452040.553766320
  9
$TDUPDATE
 40
2455663.460217500
  9
$TDUUPDATE
 40
2455663.376884167
  9
$TDINDWG
 40
0.2272196875
  9
$TDUSRTIMER
 40
0.2272196875
  9
$USRTIMER
 70
     1
  9
$ANGBASE
 50
0.0
  9
$ANGDIR
 70
     0
  9
$PDMODE
 70
     0
  9
$PDSIZE
 40
0.0
  9
$PLINEWID
 40
0.0
  9
$SPLFRAME
 70
     0
  9
$SPLINETYPE
 70
     6
  9
$SPLINESEGS
 70
     8
  9
$HANDSEED
  5
CEB
  9
$SURFTAB1
 70
     6
  9
$SURFTAB2
 70
     6
  9
$SURFTYPE
 70
     6
  9
$SURFU
 70
     6
  9
$SURFV
 70
     6
  9
$UCSBASE
  2

  9
$UCSNAME
  2

  9
$UCSORG
 10
0.0
 20
0.0
 30
0.0
  9
$UCSXDIR
 10
1.0
 20
0.0
 30
0.0
  9
$UCSYDIR
 10
0.0
 20
1.0
 30
0.0
  9
$UCSORTHOREF
  2

  9
$UCSORTHOVIEW
 70
     0
  9
$UCSORGTOP
 10
0.0
 20
0.0
 30
0.0
  9
$UCSORGBOTTOM
 10
0.0
 20
0.0
 30
0.0
  9
$UCSORGLEFT
 10
0.0
 20
0.0
 30
0.0
  9
$UCSORGRIGHT
 10
0.0
 20
0.0
 30
0.0
  9
$UCSORGFRONT
 10
0.0
 20
0.0
 30
0.0
  9
$UCSORGBACK
 10
0.0
 20
0.0
 30
0.0
  9
$PUCSBASE
  2

  9
$PUCSNAME
  2

  9
$PUCSORG
 10
0.0
 20
0.0
 30
0.0
  9
$PUCSXDIR
 10
1.0
 20
0.0
 30
0.0
  9
$PUCSYDIR
 10
0.0
 20
1.0
 30
0.0
  9
$PUCSORTHOREF
  2

  9
$PUCSORTHOVIEW
 70
     0
  9
$PUCSORGTOP
 10
0.0
 20
0.0
 30
0.0
  9
$PUCSORGBOTTOM
 10
0.0
 20
0.0
 30
0.0
  9
$PUCSORGLEFT
 10
0.0
 20
0.0
 30
0.0
  9
$PUCSORGRIGHT
 10
0.0
 20
0.0
 30
0.0
  9
$PUCSORGFRONT
 10
0.0
 20
0.0
 30
0.0
  9
$PUCSORGBACK
 10
0.0
 20
0.0
 30
0.0
  9
$USERI1
 70
     0
  9
$USERI2
 70
     0
  9
$USERI3
 70
     0
  9
$USERI4
 70
     0
  9
$USERI5
 70
     0
  9
$USERR1
 40
0.0
  9
$USERR2
 40
0.0
  9
$USERR3
 40
0.0
  9
$USERR4
 40
0.0
  9
$USERR5
 40
0.0
  9
$WORLDVIEW
 70
     1
  9
$SHADEDGE
 70
     3
  9
$SHADEDIF
 70
    70
  9
$TILEMODE
 70
     1
  9
$MAXACTVP
 70
    16
  9
$PINSBASE
 10
0.0
 20
0.0
 30
0.0
  9
$PLIMCHECK
 70
     0
  9
$PEXTMIN
 10
1.000000000000000E+20
 20
1.000000000000000E+20
 30
1.000000000000000E+20
  9
$PEXTMAX
 10
-1.000000000000000E+20
 20
-1.000000000000000E+20
 30
-1.000000000000000E+20
  9
$PLIMMIN
 10
0.0
 20
0.0
  9
$PLIMMAX
 10
12.0
 20
9.0
  9
$UNITMODE
 70
     0
  9
$VISRETAIN
 70
     0
  9
$PLINEGEN
 70
     0
  9
$PSLTSCALE
 70
     0
  9
$TREEDEPTH
 70
  3020
  9
$CMLSTYLE
  2
Standard
  9
$CMLJUST
 70
     0
  9
$CMLSCALE
 40
1.0
  9
$PROXYGRAPHICS
 70
     1
  9
$MEASUREMENT
 70
     0
  9
$CELWEIGHT
370
    -1
  9
$ENDCAPS
280
     0
  9
$JOINSTYLE
280
     0
  9
$LWDISPLAY
290
     0
  9
$INSUNITS
 70
     0
  9
$HYPERLINKBASE
  1

  9
$STYLESHEET
  1
monochrome 1.ctb
  9
$XEDIT
290
     1
  9
$CEPSNTYPE
380
     0
  9
$PSTYLEMODE
290
     1
  9
$FINGERPRINTGUID
  2
{7AADB5C8-6110-11D8-B72B-000102183313}
  9
$VERSIONGUID
  2
{78C1FA50-577E-4C0D-BDC4-8EDA42FAF441}
  9
$EXTNAMES
290
     1
  9
$PSVPSCALE
 40
0.0
  9
$OLESTARTUP
290
     0
  9
$SORTENTS
280
    96
  9
$INDEXCTL
280
     0
  9
$HIDETEXT
280
     0
  9
$XCLIPFRAME
290
     0
  9
$HALOGAP
280
     0
  9
$OBSCOLOR
 70
   257
  9
$OBSLTYPE
280
     0
  9
$INTERSECTIONDISPLAY
280
     0
  9
$INTERSECTIONCOLOR
 70
   257
  9
$DIMASSOC
280
     1
  9
$PROJECTNAME
  1

  0
ENDSEC
  0
SECTION
  2
CLASSES
  0
CLASS
  1
ACDBDICTIONARYWDFLT
  2
AcDbDictionaryWithDefault
  3
ObjectDBX Classes
 90
        0
 91
        1
280
     0
281
     0
  0
CLASS
  1
DICTIONARYVAR
  2
AcDbDictionaryVar
  3
ObjectDBX Classes
 90
        0
 91
        3
280
     0
281
     0
  0
ENDSEC
  0
SECTION
  2
TABLES
  0
TABLE
  2
VPORT
  5
8
330
0
100
AcDbSymbolTable
 70
     3
  0
VPORT
  5
CEA
330
8
100
AcDbSymbolTableRecord
100
AcDbViewportTableRecord
  2
*Active
 70
     0
 10
0.0
 20
0.0
 11
1.0
 21
1.0
 12
210.0
 22
297.0
 13
0.0
 23
0.0
 14
1.0
 24
1.0
 15
10.0
 25
10.0
 16
0.0
 26
0.0
 36
1.0
 17
0.0
 27
0.0
 37
0.0
 40
594.0
 41
1.334231805929919
 42
50.0
 43
0.0
 44
0.0
 50
0.0
 51
0.0
 71
     0
 72
  1500
 73
     1
 74
     0
 75
     0
 76
     0
 77
     0
 78
     0
281
     0
 65
     1
110
0.0
120
0.0
130
0.0
111
1.0
121
0.0
131
0.0
112
0.0
122
1.0
132
0.0
 79
     0
146
0.0
  0
ENDTAB
  0
TABLE
  2
LTYPE
  5
5
330
0
100
AcDbSymbolTable
 70
     2
  0
LTYPE
  5
13
330
5
100
AcDbSymbolTableRecord
100
AcDbLinetypeTableRecord
  2
ByBlock
 70
     0
  3

 72
    65
 73
     0
 40
0.0
  0
LTYPE
  5
14
330
5
100
AcDbSymbolTableRecord
100
AcDbLinetypeTableRecord
  2
ByLayer
 70
     0
  3

 72
    65
 73
     0
 40
0.0
  0
LTYPE
  5
15
330
5
100
AcDbSymbolTableRecord
100
AcDbLinetypeTableRecord
  2
Continuous
 70
     0
  3
Solid line
 72
    65
 73
     0
 40
0.0
  0
LTYPE
  5
35
330
5
100
AcDbSymbolTableRecord
100
AcDbLinetypeTableRecord
  2
STRICHPUNKT
 70
     0
  3
__ . __ . __ . __ . __ . __ . __ . __ . __ . __
 72
    65
 73
     4
 40
1.0
 49
0.5
 74
     0
 49
-0.25
 74
     0
 49
0.0
 74
     0
 49
-0.25
 74
     0
  0
ENDTAB
  0
TABLE
  2
LAYER
  5
2
330
0
100
AcDbSymbolTable
 70
     9
  0
LAYER
  5
10
330
2
100
AcDbSymbolTableRecord
100
AcDbLayerTableRecord
  2
0
 70
     0
 62
     7
  6
Continuous
370
    -3
390
F
  0
LAYER
  5
38
330
2
100
AcDbSymbolTableRecord
100
AcDbLayerTableRecord
  2
VOLL
 70
     0
 62
     1
  6
Continuous
370
    -3
390
F
  0
LAYER
  5
39
330
2
100
AcDbSymbolTableRecord
100
AcDbLayerTableRecord
  2
HILF
 70
     0
 62
     2
  6
Continuous
370
    -3
390
F
  0
LAYER
  5
3A
330
2
100
AcDbSymbolTableRecord
100
AcDbLayerTableRecord
  2
MITTEL
 70
     0
 62
     2
  6
STRICHPUNKT
370
    -3
390
F
  0
LAYER
  5
3B
330
2
100
AcDbSymbolTableRecord
100
AcDbLayerTableRecord
  2
BEM
 70
     0
 62
     7
  6
Continuous
370
    -3
390
F
  0
LAYER
  5
3C
330
2
100
AcDbSymbolTableRecord
100
AcDbLayerTableRecord
  2
STEMPEL
 70
     0
 62
     3
  6
Continuous
370
    -3
390
F
  0
LAYER
  5
3D
330
2
100
AcDbSymbolTableRecord
100
AcDbLayerTableRecord
  2
TEXT
 70
     0
 62
     7
  6
Continuous
370
    -3
390
F
  0
LAYER
  5
3E
330
2
100
AcDbSymbolTableRecord
100
AcDbLayerTableRecord
  2
DEFPOINTS
 70
     0
 62
     7
  6
Continuous
290
     0
370
    -3
390
F
  0
LAYER
  5
3F
330
2
100
AcDbSymbolTableRecord
100
AcDbLayerTableRecord
  2
SCHRAFF
 70
     0
 62
     7
  6
Continuous
370
    -3
390
F
  0
ENDTAB
  0
TABLE
  2
STYLE
  5
3
330
0
100
AcDbSymbolTable
 70
     2
  0
STYLE
  5
11
330
3
100
AcDbSymbolTableRecord
100
AcDbTextStyleTableRecord
  2
STANDARD
 70
     0
 40
0.0
 41
0.8
 50
0.0
 71
     0
 42
3.5
  3
simplex.shx
  4

  0
STYLE
  5
34
330
3
100
AcDbSymbolTableRecord
100
AcDbTextStyleTableRecord
  2
GREEKS
 70
     0
 40
0.0
 41
0.8
 50
0.0
 71
     0
 42
2.5
  3
SIMPLEX.shx
  4

  0
ENDTAB
  0
TABLE
  2
VIEW
  5
6
330
0
100
AcDbSymbolTable
 70
     0
  0
ENDTAB
  0
TABLE
  2
UCS
  5
7
330
0
100
AcDbSymbolTable
 70
     0
  0
ENDTAB
  0
TABLE
  2
APPID
  5
9
330
0
100
AcDbSymbolTable
 70
     1
  0
APPID
  5
12
330
9
100
AcDbSymbolTableRecord
100
AcDbRegAppTableRecord
  2
ACAD
 70
     0
  0
ENDTAB
  0
TABLE
  2
DIMSTYLE
  5
A
330
0
100
AcDbSymbolTable
 70
     1
100
AcDbDimStyleTable
 71
     1
340
1CB
  0
DIMSTYLE
105
1CB
102
{ACAD_REACTORS
330
1DB
330
A99
330
BE4
330
C25
102
}
330
A
100
AcDbSymbolTableRecord
100
AcDbDimStyleTableRecord
  2
Standard
 70
     0
340
11
  0
ENDTAB
  0
TABLE
  2
BLOCK_RECORD
  5
1
330
0
100
AcDbSymbolTable
 70
    10
  0
BLOCK_RECORD
  5
1E
330
1
100
AcDbSymbolTableRecord
100
AcDbBlockTableRecord
  2
*Model_Space
340
21
  0
BLOCK_RECORD
  5
1A
330
1
100
AcDbSymbolTableRecord
100
AcDbBlockTableRecord
  2
*Paper_Space
340
1D
  0
BLOCK_RECORD
  5
22
330
1
100
AcDbSymbolTableRecord
100
AcDbBlockTableRecord
  2
LOGO
340
0
102
{BLKREFS
331
135
102
}
  0
BLOCK_RECORD
  5
1DC
330
1
100
AcDbSymbolTableRecord
100
AcDbBlockTableRecord
  2
*D1
340
0
  0
BLOCK_RECORD
  5
AA3
330
1
100
AcDbSymbolTableRecord
100
AcDbBlockTableRecord
  2
*D3
340
0
  0
BLOCK_RECORD
  5
B0B
330
1
100
AcDbSymbolTableRecord
100
AcDbBlockTableRecord
  2
*X5
340
0
102
{BLKREFS
331
BB3
102
}
  0
BLOCK_RECORD
  5
BE5
330
1
100
AcDbSymbolTableRecord
100
AcDbBlockTableRecord
  2
*D6
340
0
  0
BLOCK_RECORD
  5
C26
330
1
100
AcDbSymbolTableRecord
100
AcDbBlockTableRecord
  2
*D7
340
0
  0
ENDTAB
  0
ENDSEC
  0
SECTION
  2
BLOCKS
  0
BLOCK
  5
43
330
1E
100
AcDbEntity
  8
0
100
AcDbBlockBegin
  2
*Model_Space
 70
     0
 10
0.0
 20
0.0
 30
0.0
  3
*Model_Space
  1

  0
ENDBLK
  5
44
330
1E
100
AcDbEntity
  8
0
100
AcDbBlockEnd
  0
BLOCK
  5
41
330
1A
100
AcDbEntity
 67
     1
  8
0
100
AcDbBlockBegin
  2
*Paper_Space
 70
     0
 10
0.0
 20
0.0
 30
0.0
  3
*Paper_Space
  1

  0
ENDBLK
  5
42
330
1A
100
AcDbEntity
 67
     1
  8
0
100
AcDbBlockEnd
  0
BLOCK
  5
45
330
22
100
AcDbEntity
  8
0
100
AcDbBlockBegin
  2
LOGO
 70
     0
 10
0.0
 20
0.0
 30
0.0
  3
LOGO
  1

  0
ARC
  5
46
330
22
100
AcDbEntity
  8
0
100
AcDbCircle
 10
11.59973089678112
 20
-9.271599258481501
 30
0.0
 40
4.5
100
AcDbArc
 50
270.0
 51
231.0575587310159
  0
LINE
  5
47
330
22
100
AcDbEntity
  8
0
100
AcDbLine
 10
3.599730896781125
 20
-4.771599258481529
 30
0.0
 11
3.599730896781153
 21
-11.77159925848133
 31
0.0
  0
LINE
  5
48
330
22
100
AcDbEntity
  8
0
100
AcDbLine
 10
2.599730896781125
 20
-4.771599258481529
 30
0.0
 11
2.599730896781153
 21
-11.77159925848133
 31
0.0
  0
CIRCLE
  5
49
330
22
100
AcDbEntity
  8
0
100
AcDbCircle
 10
11.59973089678112
 20
-9.271599258481501
 30
0.0
 40
3.5
  0
ARC
  5
4A
330
22
100
AcDbEntity
  8
0
100
AcDbCircle
 10
31.59973089678115
 20
-9.271599258481472
 30
0.0
 40
4.5
100
AcDbArc
 50
270.0
 51
231.0575587310182
  0
LINE
  5
4B
330
22
100
AcDbEntity
  8
0
100
AcDbLine
 10
17.59973089678112
 20
-4.771599258481472
 30
0.0
 11
17.59973089678115
 21
-13.77159925848147
 31
0.0
  0
ARC
  5
4C
330
22
100
AcDbEntity
  8
0
100
AcDbCircle
 10
22.59973089678116
 20
-7.271599258481472
 30
0.0
 40
2.5
100
AcDbArc
 50
293.1161887722295
 51
90.0
  0
CIRCLE
  5
4D
330
22
100
AcDbEntity
  8
0
100
AcDbCircle
 10
31.59973089678115
 20
-9.271599258481472
 30
0.0
 40
3.5
  0
ARC
  5
4E
330
22
100
AcDbEntity
  8
0
100
AcDbCircle
 10
4.599730896781153
 20
-11.77159925848133
 30
0.0
 40
1.0
100
AcDbArc
 50
180.0
 51
270.0
  0
ARC
  5
4F
330
22
100
AcDbEntity
  8
0
100
AcDbCircle
 10
4.599730896781153
 20
-11.77159925848133
 30
0.0
 40
2.0
100
AcDbArc
 50
179.9999999999992
 51
270.0
  0
LINE
  5
50
330
22
100
AcDbEntity
  8
0
100
AcDbLine
 10
11.59973089678115
 20
-13.77159925848144
 30
0.0
 11
4.599730896781153
 21
-13.77159925848147
 31
0.0
  0
LINE
  5
51
330
22
100
AcDbEntity
  8
0
100
AcDbLine
 10
8.771303772034769
 20
-12.77159925848136
 30
0.0
 11
4.599730896781153
 21
-12.77159925848133
 31
0.0
  0
LINE
  5
52
330
22
100
AcDbEntity
  8
0
100
AcDbLine
 10
31.59973089678115
 20
-13.77159925848147
 30
0.0
 11
23.6715276665056
 21
-13.77159925848144
 31
0.0
  0
LINE
  5
53
330
22
100
AcDbEntity
  8
0
100
AcDbLine
 10
23.56565672307022
 20
-9.51278021337896
 30
0.0
 11
24.4388546544846
 21
-12.77159925848144
 31
0.0
  0
LINE
  5
54
330
22
100
AcDbEntity
  8
0
100
AcDbLine
 10
22.59973089678116
 20
-9.771599258481472
 30
0.0
 11
18.59973089678112
 21
-9.771599258481472
 31
0.0
  0
LINE
  5
55
330
22
100
AcDbEntity
  8
0
100
AcDbLine
 10
18.59973089678115
 20
-13.77159925848144
 30
0.0
 11
17.59973089678115
 21
-13.77159925848144
 31
0.0
  0
LINE
  5
56
330
22
100
AcDbEntity
  8
0
100
AcDbLine
 10
18.59973089678115
 20
-9.771599258481472
 30
0.0
 11
18.59973089678115
 21
-13.77159925848144
 31
0.0
  0
LINE
  5
57
330
22
100
AcDbEntity
  8
0
100
AcDbLine
 10
22.59973089678116
 20
-9.771599258481472
 30
0.0
 11
23.67152766650562
 21
-13.77159925848147
 31
0.0
  0
ARC
  5
58
330
22
100
AcDbEntity
  8
0
100
AcDbCircle
 10
22.59973089678116
 20
-7.271599258481472
 30
0.0
 40
2.5
100
AcDbArc
 50
270.0
 51
270.0000000000007
  0
LINE
  5
59
330
22
100
AcDbEntity
  8
0
100
AcDbLine
 10
28.77130377203494
 20
-12.77159925848147
 30
0.0
 11
24.43885465448463
 21
-12.77159925848144
 31
0.0
  0
LINE
  5
5A
330
22
100
AcDbEntity
  8
0
100
AcDbLine
 10
3.599730896781125
 20
-4.771599258481472
 30
0.0
 11
2.599730896781125
 21
-4.771599258481472
 31
0.0
  0
LINE
  5
5B
330
22
100
AcDbEntity
  8
0
100
AcDbLine
 10
22.59973089678116
 20
-8.771599258481472
 30
0.0
 11
18.59973089678115
 21
-8.771599258481472
 31
0.0
  0
LINE
  5
5C
330
22
100
AcDbEntity
  8
0
100
AcDbLine
 10
22.59973089678116
 20
-5.771599258481472
 30
0.0
 11
18.59973089678115
 21
-5.771599258481472
 31
0.0
  0
LINE
  5
5D
330
22
100
AcDbEntity
  8
0
100
AcDbLine
 10
22.59973089678116
 20
-4.771599258481472
 30
0.0
 11
17.59973089678115
 21
-4.771599258481472
 31
0.0
  0
LINE
  5
5E
330
22
100
AcDbEntity
  8
0
100
AcDbLine
 10
18.59973089678115
 20
-5.771599258481472
 30
0.0
 11
18.59973089678115
 21
-8.771599258481472
 31
0.0
  0
ARC
  5
5F
330
22
100
AcDbEntity
  8
0
100
AcDbCircle
 10
22.59973089678116
 20
-7.271599258481472
 30
0.0
 40
1.5
100
AcDbArc
 50
270.0
 51
90.0
  0
ENDBLK
  5
60
330
22
100
AcDbEntity
  8
0
100
AcDbBlockEnd
  0
BLOCK
  5
1E6
330
1DC
100
AcDbEntity
  8
0
100
AcDbBlockBegin
  2
*D1
 70
     1
 10
0.0
 20
0.0
 30
0.0
  3
*D1
  1

  0
LINE
  5
CE0
330
1DC
100
AcDbEntity
  8
BEM
 62
     0
370
    -2
100
AcDbLine
 10
144.3748866352593
 20
243.9532119623558
 30
0.0
 11
108.6824475427197
 21
243.9532119623558
 31
0.0
  0
LINE
  5
CE1
330
1DC
100
AcDbEntity
  8
BEM
 62
     0
370
    -2
100
AcDbLine
 10
151.3449331215562
 20
468.9565048666858
 30
0.0
 11
108.6824475427197
 21
468.9565048666859
 31
0.0
  0
LINE
  5
CE2
330
1DC
100
AcDbEntity
  8
BEM
 62
     0
370
    -2
100
AcDbLine
 10
110.6824475427197
 20
250.9532119623559
 30
0.0
 11
110.6824475427197
 21
461.9565048666859
 31
0.0
  0
SOLID
  5
CE3
330
1DC
100
AcDbEntity
  8
BEM
 62
     0
100
AcDbTrace
 10
109.515780876053
 20
250.9532119623559
 30
0.0
 11
111.8491142093863
 21
250.9532119623559
 31
0.0
 12
110.6824475427197
 22
243.9532119623558
 32
0.0
 13
110.6824475427197
 23
243.9532119623558
 33
0.0
  0
SOLID
  5
CE4
330
1DC
100
AcDbEntity
  8
BEM
 62
     0
100
AcDbTrace
 10
109.515780876053
 20
461.9565048666859
 30
0.0
 11
111.8491142093864
 21
461.9565048666859
 31
0.0
 12
110.6824475427197
 22
468.9565048666859
 32
0.0
 13
110.6824475427197
 23
468.9565048666859
 33
0.0
  0
MTEXT
  5
CE5
330
1DC
100
AcDbEntity
  8
BEM
 62
     1
100
AcDbMText
 10
104.1824475427197
 20
356.4548584145209
 30
0.0
 40
7.0
 41
0.0
 71
     5
 72
     1
  1
\A1;225
 11
0.0000000000000001
 21
1.0
 31
0.0
 73
     1
 44
1.0
  0
POINT
  5
CE6
330
1DC
100
AcDbEntity
  8
DEFPOINTS
 62
     0
100
AcDbPoint
 10
146.3748866352593
 20
243.9532119623558
 30
0.0
  0
POINT
  5
CE7
330
1DC
100
AcDbEntity
  8
DEFPOINTS
 62
     0
100
AcDbPoint
 10
153.3449331215562
 20
468.9565048666858
 30
0.0
  0
POINT
  5
CE8
330
1DC
100
AcDbEntity
  8
DEFPOINTS
 62
     0
100
AcDbPoint
 10
110.6824475427197
 20
468.9565048666859
 30
0.0
  0
ENDBLK
  5
1E7
330
1DC
100
AcDbEntity
  8
0
100
AcDbBlockEnd
  0
BLOCK
  5
AAD
330
AA3
100
AcDbEntity
  8
0
100
AcDbBlockBegin
  2
*D3
 70
     1
 10
0.0
 20
0.0
 30
0.0
  3
*D3
  1

  0
LINE
  5
AD8
330
AA3
100
AcDbEntity
  8
BEM
 62
     0
370
    -2
100
AcDbLine
 10
145.5000000000001
 20
251.9532119623564
 30
0.0
 11
145.5000000000001
 21
220.8907794504403
 31
0.0
  0
LINE
  5
AD9
330
AA3
100
AcDbEntity
  8
BEM
 62
     0
370
    -2
100
AcDbLine
 10
304.5000000000003
 20
251.9532119623554
 30
0.0
 11
304.5000000000003
 21
220.8907794504403
 31
0.0
  0
LINE
  5
ADA
330
AA3
100
AcDbEntity
  8
BEM
 62
     0
370
    -2
100
AcDbLine
 10
152.5000000000001
 20
222.8907794504404
 30
0.0
 11
297.5000000000004
 21
222.8907794504404
 31
0.0
  0
SOLID
  5
ADB
330
AA3
100
AcDbEntity
  8
BEM
 62
     0
100
AcDbTrace
 10
152.5000000000001
 20
224.057446117107
 30
0.0
 11
152.5000000000001
 21
221.7241127837737
 31
0.0
 12
145.5000000000001
 22
222.8907794504404
 32
0.0
 13
145.5000000000001
 23
222.8907794504404
 33
0.0
  0
SOLID
  5
ADC
330
AA3
100
AcDbEntity
  8
BEM
 62
     0
100
AcDbTrace
 10
297.5000000000004
 20
224.057446117107
 30
0.0
 11
297.5000000000004
 21
221.7241127837737
 31
0.0
 12
304.5000000000003
 22
222.8907794504404
 32
0.0
 13
304.5000000000003
 23
222.8907794504404
 33
0.0
  0
MTEXT
  5
ADD
330
AA3
100
AcDbEntity
  8
BEM
 62
     1
100
AcDbMText
 10
225.0000000000002
 20
229.3907794504403
 30
0.0
 40
7.0
 41
0.0
 71
     5
 72
     1
  1
\A1;%%c159
 73
     1
 44
1.0
  0
POINT
  5
ADE
330
AA3
100
AcDbEntity
  8
DEFPOINTS
 62
     0
100
AcDbPoint
 10
145.5000000000001
 20
253.9532119623564
 30
0.0
  0
POINT
  5
ADF
330
AA3
100
AcDbEntity
  8
DEFPOINTS
 62
     0
100
AcDbPoint
 10
304.5000000000003
 20
253.9532119623554
 30
0.0
  0
POINT
  5
AE0
330
AA3
100
AcDbEntity
  8
DEFPOINTS
 62
     0
100
AcDbPoint
 10
304.5000000000003
 20
222.8907794504404
 30
0.0
  0
ENDBLK
  5
AAE
330
AA3
100
AcDbEntity
  8
0
100
AcDbBlockEnd
  0
BLOCK
  5
B7A
330
B0B
100
AcDbEntity
  8
0
100
AcDbBlockBegin
  2
*X5
 70
     1
 10
0.0
 20
0.0
 30
0.0
  3
*X5
  1

  0
LINE
  5
B0C
330
B0B
100
AcDbEntity
  8
0
 62
     0
100
AcDbLine
 10
158.0974766193748
 20
348.3324000664306
 30
0.0
 11
157.9779012889968
 21
348.4519753968084
 31
0.0
  0
LINE
  5
B0D
330
B0B
100
AcDbEntity
  8
0
 62
     0
100
AcDbLine
 10
158.0638048678897
 20
348.2246504616783
 30
0.0
 11
157.8308344078516
 21
348.4576209217163
 31
0.0
  0
LINE
  5
B0E
330
B0B
100
AcDbEntity
  8
0
 62
     0
100
AcDbLine
 10
158.0301331164046
 20
348.1169008569261
 30
0.0
 11
157.6883672304861
 21
348.4586667428446
 31
0.0
  0
LINE
  5
B0F
330
B0B
100
AcDbEntity
  8
0
 62
     0
100
AcDbLine
 10
157.9964613649195
 20
348.0091512521739
 30
0.0
 11
157.5500905289771
 21
348.4555220881163
 31
0.0
  0
LINE
  5
B10
330
B0B
100
AcDbEntity
  8
0
 62
     0
100
AcDbLine
 10
157.9627896134345
 20
347.9014016474217
 30
0.0
 11
157.4156622676688
 21
348.4485289931873
 31
0.0
  0
LINE
  5
B11
330
B0B
100
AcDbEntity
  8
0
 62
     0
100
AcDbLine
 10
157.9291178619494
 20
347.7936520426693
 30
0.0
 11
157.284793229401
 21
348.4379766752178
 31
0.0
  0
LINE
  5
B12
330
B0B
100
AcDbEntity
  8
0
 62
     0
100
AcDbLine
 10
157.8954461104643
 20
347.6859024379171
 30
0.0
 11
157.1572363962455
 21
348.4241121521359
 31
0.0
  0
LINE
  5
B13
330
B0B
100
AcDbEntity
  8
0
 62
     0
100
AcDbLine
 10
157.8617743589793
 20
347.5781528331649
 30
0.0
 11
157.032778950328
 21
348.4071482418162
 31
0.0
  0
LINE
  5
B14
330
B0B
100
AcDbEntity
  8
0
 62
     0
100
AcDbLine
 10
157.8281026074942
 20
347.4704032284126
 30
0.0
 11
156.9112361448593
 21
348.3872696910475
 31
0.0
  0
LINE
  5
B15
330
B0B
100
AcDbEntity
  8
0
 62
     0
100
AcDbLine
 10
157.7944308560091
 20
347.3626536236604
 30
0.0
 11
156.7924465369804
 21
348.3646379426892
 31
0.0
  0
LINE
  5
B16
330
B0B
100
AcDbEntity
  8
0
 62
     0
100
AcDbLine
 10
157.760759104524
 20
347.2549040189082
 30
0.0
 11
156.6762682299364
 21
348.3393948934959
 31
0.0
  0
LINE
  5
B17
330
B0B
100
AcDbEntity
  8
0
 62
     0
100
AcDbLine
 10
157.7270873530389
 20
347.1471544141559
 30
0.0
 11
156.5625758752885
 21
348.3116658919063
 31
0.0
  0
LINE
  5
B18
330
B0B
100
AcDbEntity
  8
0
 62
     0
100
AcDbLine
 10
157.6934156015539
 20
347.0394048094037
 30
0.0
 11
156.4512582556791
 21
348.2815621552786
 31
0.0
  0
LINE
  5
B19
330
B0B
100
AcDbEntity
  8
0
 62
     0
100
AcDbLine
 10
157.6597438500688
 20
346.9316552046515
 30
0.0
 11
156.342216316835
 21
348.2491827378852
 31
0.0
  0
LINE
  5
B1A
330
B0B
100
AcDbEntity
  8
0
 62
     0
100
AcDbLine
 10
157.6260720985838
 20
346.8239055998993
 30
0.0
 11
156.2353615513366
 21
348.2146161471464
 31
0.0
  0
LINE
  5
B1B
330
B0B
100
AcDbEntity
  8
0
 62
     0
100
AcDbLine
 10
157.5924003470987
 20
346.716155995147
 30
0.0
 11
156.1306146608293
 21
348.1779416814164
 31
0.0
  0
LINE
  5
B1C
330
B0B
100
AcDbEntity
  8
0
 62
     0
100
AcDbLine
 10
157.5587285956136
 20
346.6084063903947
 30
0.0
 11
156.0279044408652
 21
348.1392305451431
 31
0.0
  0
LINE
  5
B1D
330
B0B
100
AcDbEntity
  8
0
 62
     0
100
AcDbLine
 10
157.5250568441285
 20
346.5006567856426
 30
0.0
 11
155.9271668454137
 21
348.0985467843574
 31
0.0
  0
LINE
  5
B1E
330
B0B
100
AcDbEntity
  8
0
 62
     0
100
AcDbLine
 10
157.4913850926434
 20
346.3929071808903
 30
0.0
 11
155.8283441976392
 21
348.0559480758945
 31
0.0
  0
LINE
  5
B1F
330
B0B
100
AcDbEntity
  8
0
 62
     0
100
AcDbLine
 10
157.4577133411584
 20
346.2851575761381
 30
0.0
 11
155.731384520742
 21
348.0114863965545
 31
0.0
  0
LINE
  5
B20
330
B0B
100
AcDbEntity
  8
0
 62
     0
100
AcDbLine
 10
157.4240415896733
 20
346.1774079713858
 30
0.0
 11
155.6362409681198
 21
347.9652085929394
 31
0.0
  0
LINE
  5
B21
330
B0B
100
AcDbEntity
  8
0
 62
     0
100
AcDbLine
 10
157.3903698381882
 20
346.0696583666336
 30
0.0
 11
155.5428713363177
 21
347.917156868504
 31
0.0
  0
LINE
  5
B22
330
B0B
100
AcDbEntity
  8
0
 62
     0
100
AcDbLine
 10
157.3566980867032
 20
345.9619087618814
 30
0.0
 11
155.4512376474864
 21
347.8673692010981
 31
0.0
  0
LINE
  5
B23
330
B0B
100
AcDbEntity
  8
0
 62
     0
100
AcDbLine
 10
157.3230263352181
 20
345.8541591571291
 30
0.0
 11
155.3613057906196
 21
347.8158797017276
 31
0.0
  0
LINE
  5
B24
330
B0B
100
AcDbEntity
  8
0
 62
     0
100
AcDbLine
 10
157.289354583733
 20
345.7464095523769
 30
0.0
 11
155.2730452128576
 21
347.7627189232523
 31
0.0
  0
LINE
  5
B25
330
B0B
100
AcDbEntity
  8
0
 62
     0
100
AcDbLine
 10
157.255682832248
 20
345.6386599476247
 30
0.0
 11
155.1864286537389
 21
347.7079141261337
 31
0.0
  0
LINE
  5
B26
330
B0B
100
AcDbEntity
  8
0
 62
     0
100
AcDbLine
 10
157.2220110807629
 20
345.5309103428724
 30
0.0
 11
155.1014319165746
 21
347.6514895070606
 31
0.0
  0
LINE
  5
B27
330
B0B
100
AcDbEntity
  8
0
 62
     0
100
AcDbLine
 10
157.1883393292778
 20
345.4231607381202
 30
0.0
 11
155.0180336721544
 21
347.5934663952436
 31
0.0
  0
LINE
  5
B28
330
B0B
100
AcDbEntity
  8
0
 62
     0
100
AcDbLine
 10
157.1546675777927
 20
345.315411133368
 30
0.0
 11
154.9362152908461
 21
347.5338634203146
 31
0.0
  0
LINE
  5
B29
330
B0B
100
AcDbEntity
  8
0
 62
     0
100
AcDbLine
 10
157.0846287251558
 20
345.2440286297676
 30
0.0
 11
154.855960699849
 21
347.4726966550744
 31
0.0
  0
LINE
  5
B2A
330
B0B
100
AcDbEntity
  8
0
 62
     0
100
AcDbLine
 10
156.9432073689185
 20
345.2440286297676
 30
0.0
 11
154.7772562629411
 21
347.4099797357449
 31
0.0
  0
LINE
  5
B2B
330
B0B
100
AcDbEntity
  8
0
 62
     0
100
AcDbLine
 10
156.8017860126811
 20
345.2440286297676
 30
0.0
 11
154.700090680553
 21
347.3457239618956
 31
0.0
  0
LINE
  5
B2C
330
B0B
100
AcDbEntity
  8
0
 62
     0
100
AcDbLine
 10
156.6603646564439
 20
345.2440286297676
 30
0.0
 11
154.6244549084143
 21
347.2799383777971
 31
0.0
  0
LINE
  5
B2D
330
B0B
100
AcDbEntity
  8
0
 62
     0
100
AcDbLine
 10
156.5189433002065
 20
345.2440286297676
 30
0.0
 11
154.5503420933798
 21
347.2126298365943
 31
0.0
  0
LINE
  5
B2E
330
B0B
100
AcDbEntity
  8
0
 62
     0
100
AcDbLine
 10
156.3775219439692
 20
345.2440286297676
 30
0.0
 11
154.4777475253603
 21
347.1438030483766
 31
0.0
  0
LINE
  5
B2F
330
B0B
100
AcDbEntity
  8
0
 62
     0
100
AcDbLine
 10
156.2361005877319
 20
345.2440286297676
 30
0.0
 11
154.4066686045608
 21
347.0734606129386
 31
0.0
  0
LINE
  5
B30
330
B0B
100
AcDbEntity
  8
0
 62
     0
100
AcDbLine
 10
156.1140029822244
 20
345.2247048790378
 30
0.0
 11
154.3371048234955
 21
347.0016030377666
 31
0.0
  0
LINE
  5
B31
330
B0B
100
AcDbEntity
  8
0
 62
     0
100
AcDbLine
 10
156.0451053984164
 20
345.1521811066085
 30
0.0
 11
154.2690577634839
 21
346.9282287415409
 31
0.0
  0
LINE
  5
B32
330
B0B
100
AcDbEntity
  8
0
 62
     0
100
AcDbLine
 10
155.9762078146085
 20
345.079657334179
 30
0.0
 11
154.2025311055749
 21
346.8533340432127
 31
0.0
  0
LINE
  5
B33
330
B0B
100
AcDbEntity
  8
0
 62
     0
100
AcDbLine
 10
155.9073102308006
 20
345.0071335617497
 30
0.0
 11
154.1375306560737
 21
346.7769131364767
 31
0.0
  0
LINE
  5
B34
330
B0B
100
AcDbEntity
  8
0
 62
     0
100
AcDbLine
 10
155.8384126469927
 20
344.9346097893203
 30
0.0
 11
154.074064387087
 21
346.6989580492259
 31
0.0
  0
LINE
  5
B35
330
B0B
100
AcDbEntity
  8
0
 62
     0
100
AcDbLine
 10
155.7695150631847
 20
344.8620860168909
 30
0.0
 11
154.0121424927519
 21
346.6194585873237
 31
0.0
  0
LINE
  5
B36
330
B0B
100
AcDbEntity
  8
0
 62
     0
100
AcDbLine
 10
155.7006174793768
 20
344.7895622444615
 30
0.0
 11
153.9517774620838
 21
346.5384022617545
 31
0.0
  0
LINE
  5
B37
330
B0B
100
AcDbEntity
  8
0
 62
     0
100
AcDbLine
 10
155.6317198955689
 20
344.7170384720321
 30
0.0
 11
153.8929841696787
 21
346.4557741979223
 31
0.0
  0
LINE
  5
B38
330
B0B
100
AcDbEntity
  8
0
 62
     0
100
AcDbLine
 10
155.562822311761
 20
344.6445146996027
 30
0.0
 11
153.8357799858411
 21
346.3715570255226
 31
0.0
  0
LINE
  5
B39
330
B0B
100
AcDbEntity
  8
0
 62
     0
100
AcDbLine
 10
155.4939247279531
 20
344.5719909271733
 30
0.0
 11
153.7801849080954
 21
346.285730747031
 31
0.0
  0
LINE
  5
B3A
330
B0B
100
AcDbEntity
  8
0
 62
     0
100
AcDbLine
 10
155.4250271441451
 20
344.4994671547439
 30
0.0
 11
153.7262217164928
 21
346.1982725823963
 31
0.0
  0
LINE
  5
B3B
330
B0B
100
AcDbEntity
  8
0
 62
     0
100
AcDbLine
 10
155.3561295603373
 20
344.4269433823146
 30
0.0
 11
153.6739161556563
 21
346.1091567869954
 31
0.0
  0
LINE
  5
B3C
330
B0B
100
AcDbEntity
  8
0
 62
     0
100
AcDbLine
 10
155.2872319765293
 20
344.3544196098851
 30
0.0
 11
153.6232971471476
 21
346.0183544392668
 31
0.0
  0
LINE
  5
B3D
330
B0B
100
AcDbEntity
  8
0
 62
     0
100
AcDbLine
 10
155.2183343927214
 20
344.2818958374558
 30
0.0
 11
153.5743970365103
 21
345.9258331936669
 31
0.0
  0
LINE
  5
B3E
330
B0B
100
AcDbEntity
  8
0
 62
     0
100
AcDbLine
 10
155.1494368089135
 20
344.2093720650264
 30
0.0
 11
153.5272518802853
 21
345.8315569936545
 31
0.0
  0
LINE
  5
B3F
330
B0B
100
AcDbEntity
  8
0
 62
     0
100
AcDbLine
 10
155.0805392251056
 20
344.136848292597
 30
0.0
 11
153.4819017794545
 21
345.7354857382479
 31
0.0
  0
LINE
  5
B40
330
B0B
100
AcDbEntity
  8
0
 62
     0
100
AcDbLine
 10
155.0116416412977
 20
344.0643245201676
 30
0.0
 11
153.4383912672031
 21
345.6375748942622
 31
0.0
  0
LINE
  5
B41
330
B0B
100
AcDbEntity
  8
0
 62
     0
100
AcDbLine
 10
154.9427440574897
 20
343.9918007477382
 30
0.0
 11
153.3967697606932
 21
345.5377750445347
 31
0.0
  0
LINE
  5
B42
330
B0B
100
AcDbEntity
  8
0
 62
     0
100
AcDbLine
 10
154.8738464736818
 20
343.9192769753088
 30
0.0
 11
153.3570920888126
 21
345.436031360178
 31
0.0
  0
LINE
  5
B43
330
B0B
100
AcDbEntity
  8
0
 62
     0
100
AcDbLine
 10
154.8049488898739
 20
343.8467532028794
 30
0.0
 11
153.3194191107457
 21
345.3322829820075
 31
0.0
  0
LINE
  5
B44
330
B0B
100
AcDbEntity
  8
0
 62
     0
100
AcDbLine
 10
154.736051306066
 20
343.77422943045
 30
0.0
 11
153.2838184439295
 21
345.2264622925865
 31
0.0
  0
LINE
  5
B45
330
B0B
100
AcDbEntity
  8
0
 62
     0
100
AcDbLine
 10
154.667153722258
 20
343.7017056580207
 30
0.0
 11
153.2503653247581
 21
345.1184940555206
 31
0.0
  0
LINE
  5
B46
330
B0B
100
AcDbEntity
  8
0
 62
     0
100
AcDbLine
 10
154.5982561384501
 20
343.6291818855913
 30
0.0
 11
153.2191436316901
 21
345.0082943923512
 31
0.0
  0
LINE
  5
B47
330
B0B
100
AcDbEntity
  8
0
 62
     0
100
AcDbLine
 10
154.5293585546422
 20
343.5566581131619
 30
0.0
 11
153.1902471087243
 21
344.8957695590797
 31
0.0
  0
LINE
  5
B48
330
B0B
100
AcDbEntity
  8
0
 62
     0
100
AcDbLine
 10
154.4604609708343
 20
343.4841343407325
 30
0.0
 11
153.163780838326
 21
344.7808144732407
 31
0.0
  0
LINE
  5
B49
330
B0B
100
AcDbEntity
  8
0
 62
     0
100
AcDbLine
 10
154.3915633870263
 20
343.4116105683031
 30
0.0
 11
153.1398630279257
 21
344.6633109274038
 31
0.0
  0
LINE
  5
B4A
330
B0B
100
AcDbEntity
  8
0
 62
     0
100
AcDbLine
 10
154.3226658032185
 20
343.3390867958737
 30
0.0
 11
153.1186271947302
 21
344.543125404362
 31
0.0
  0
LINE
  5
B4B
330
B0B
100
AcDbEntity
  8
0
 62
     0
100
AcDbLine
 10
154.2537682194105
 20
343.2665630234443
 30
0.0
 11
153.1002248622563
 21
344.4201063805985
 31
0.0
  0
LINE
  5
B4C
330
B0B
100
AcDbEntity
  8
0
 62
     0
100
AcDbLine
 10
154.1848706356026
 20
343.194039251015
 30
0.0
 11
153.0848289224799
 21
344.2940809641377
 31
0.0
  0
LINE
  5
B4D
330
B0B
100
AcDbEntity
  8
0
 62
     0
100
AcDbLine
 10
154.1159730517947
 20
343.1215154785856
 30
0.0
 11
153.072637875649
 21
344.1648506547312
 31
0.0
  0
LINE
  5
B4E
330
B0B
100
AcDbEntity
  8
0
 62
     0
100
AcDbLine
 10
154.0470754679868
 20
343.0489917061561
 30
0.0
 11
153.0638812449195
 21
344.0321859292234
 31
0.0
  0
LINE
  5
B4F
330
B0B
100
AcDbEntity
  8
0
 62
     0
100
AcDbLine
 10
153.9781778841789
 20
342.9764679337268
 30
0.0
 11
153.0588265901738
 21
343.8958192277318
 31
0.0
  0
LINE
  5
B50
330
B0B
100
AcDbEntity
  8
0
 62
     0
100
AcDbLine
 10
153.9092803003709
 20
342.9039441612974
 30
0.0
 11
153.0577887399627
 21
343.7554357217055
 31
0.0
  0
LINE
  5
B51
330
B0B
100
AcDbEntity
  8
0
 62
     0
100
AcDbLine
 10
153.840382716563
 20
342.831420388868
 30
0.0
 11
153.0611421660788
 21
343.6106609393522
 31
0.0
  0
LINE
  5
B52
330
B0B
100
AcDbEntity
  8
0
 62
     0
100
AcDbLine
 10
153.7714851327551
 20
342.7588966164386
 30
0.0
 11
153.0693379196148
 21
343.4610438295789
 31
0.0
  0
LINE
  5
B53
330
B0B
100
AcDbEntity
  8
0
 62
     0
100
AcDbLine
 10
153.7025875489472
 20
342.6863728440092
 30
0.0
 11
153.0829273748252
 21
343.3060330181311
 31
0.0
  0
LINE
  5
B54
330
B0B
100
AcDbEntity
  8
0
 62
     0
100
AcDbLine
 10
153.6336899651392
 20
342.6138490715798
 30
0.0
 11
153.1025964677986
 21
343.1449425689204
 31
0.0
  0
LINE
  5
B55
330
B0B
100
AcDbEntity
  8
0
 62
     0
100
AcDbLine
 10
153.5647923813313
 20
342.5413252991504
 30
0.0
 11
153.1292167437951
 21
342.9769009366865
 31
0.0
  0
LINE
  5
B56
330
B0B
100
AcDbEntity
  8
0
 62
     0
100
AcDbLine
 10
153.4958947975234
 20
342.4688015267211
 30
0.0
 11
153.1639245868613
 21
342.8007717373831
 31
0.0
  0
LINE
  5
B57
330
B0B
100
AcDbEntity
  8
0
 62
     0
100
AcDbLine
 10
153.4269972137155
 20
342.3962777542917
 30
0.0
 11
153.2082504213028
 21
342.6150245467043
 31
0.0
  0
LINE
  5
B58
330
B0B
100
AcDbEntity
  8
0
 62
     0
100
AcDbLine
 10
153.3580996299076
 20
342.3237539818622
 30
0.0
 11
153.2643429603158
 21
342.4175106514539
 31
0.0
  0
LINE
  5
B59
330
B0B
100
AcDbEntity
  8
0
 62
     0
100
AcDbLine
 10
295.2532937690074
 20
345.2440286297674
 30
0.0
 11
295.0773908983314
 21
345.4199315004434
 31
0.0
  0
LINE
  5
B5A
330
B0B
100
AcDbEntity
  8
0
 62
     0
100
AcDbLine
 10
295.3947151252446
 20
345.2440286297674
 30
0.0
 11
295.0131084636781
 21
345.6256352913339
 31
0.0
  0
LINE
  5
B5B
330
B0B
100
AcDbEntity
  8
0
 62
     0
100
AcDbLine
 10
295.536136481482
 20
345.2440286297674
 30
0.0
 11
294.9488260290248
 21
345.8313390822246
 31
0.0
  0
LINE
  5
B5C
330
B0B
100
AcDbEntity
  8
0
 62
     0
100
AcDbLine
 10
295.6775578377192
 20
345.2440286297674
 30
0.0
 11
294.8845435943715
 21
346.0370428731152
 31
0.0
  0
LINE
  5
B5D
330
B0B
100
AcDbEntity
  8
0
 62
     0
100
AcDbLine
 10
295.8189791939566
 20
345.2440286297674
 30
0.0
 11
294.8202611597181
 21
346.2427466640058
 31
0.0
  0
LINE
  5
B5E
330
B0B
100
AcDbEntity
  8
0
 62
     0
100
AcDbLine
 10
295.9604005501939
 20
345.2440286297674
 30
0.0
 11
294.7559787250648
 21
346.4484504548965
 31
0.0
  0
LINE
  5
B5F
330
B0B
100
AcDbEntity
  8
0
 62
     0
100
AcDbLine
 10
298.9831357397668
 20
342.3627147964318
 30
0.0
 11
296.7125946861601
 21
344.6332558500385
 31
0.0
  0
LINE
  5
B60
330
B0B
100
AcDbEntity
  8
0
 62
     0
100
AcDbLine
 10
296.1018219064312
 20
345.2440286297674
 30
0.0
 11
294.6916962904115
 21
346.6541542457871
 31
0.0
  0
LINE
  5
B61
330
B0B
100
AcDbEntity
  8
0
 62
     0
100
AcDbLine
 10
299.0164469413224
 20
342.4708249511135
 30
0.0
 11
294.6274138557582
 21
346.8598580366777
 31
0.0
  0
LINE
  5
B62
330
B0B
100
AcDbEntity
  8
0
 62
     0
100
AcDbLine
 10
299.0475209570623
 20
342.5811722916109
 30
0.0
 11
294.5631314211049
 21
347.0655618275683
 31
0.0
  0
LINE
  5
B63
330
B0B
100
AcDbEntity
  8
0
 62
     0
100
AcDbLine
 10
299.0762633560711
 20
342.6938512488395
 30
0.0
 11
294.4988489864516
 21
347.271265618459
 31
0.0
  0
LINE
  5
B64
330
B0B
100
AcDbEntity
  8
0
 62
     0
100
AcDbLine
 10
299.1025682635213
 20
342.8089676976265
 30
0.0
 11
294.4345665517982
 21
347.4769694093496
 31
0.0
  0
LINE
  5
B65
330
B0B
100
AcDbEntity
  8
0
 62
     0
100
AcDbLine
 10
299.1263165511981
 20
342.926640766187
 30
0.0
 11
294.370284117145
 21
347.6826732002402
 31
0.0
  0
LINE
  5
B66
330
B0B
100
AcDbEntity
  8
0
 62
     0
100
AcDbLine
 10
299.1473736233364
 20
343.0470050502861
 30
0.0
 11
294.3060016824916
 21
347.8883769911309
 31
0.0
  0
LINE
  5
B67
330
B0B
100
AcDbEntity
  8
0
 62
     0
100
AcDbLine
 10
299.1655866821469
 20
343.1702133477128
 30
0.0
 11
294.2417192478383
 21
348.0940807820214
 31
0.0
  0
LINE
  5
B68
330
B0B
100
AcDbEntity
  8
0
 62
     0
100
AcDbLine
 10
299.1807813159832
 20
343.2964400701139
 30
0.0
 11
294.177436813185
 21
348.2997845729121
 31
0.0
  0
LINE
  5
B69
330
B0B
100
AcDbEntity
  8
0
 62
     0
100
AcDbLine
 10
299.1927571935295
 20
343.4258855488049
 30
0.0
 11
294.174141151122
 21
348.4445015912125
 31
0.0
  0
LINE
  5
B6A
330
B0B
100
AcDbEntity
  8
0
 62
     0
100
AcDbLine
 10
299.2012825600932
 20
343.5587815384784
 30
0.0
 11
294.3070371407955
 21
348.4530269577762
 31
0.0
  0
LINE
  5
B6B
330
B0B
100
AcDbEntity
  8
0
 62
     0
100
AcDbLine
 10
299.2060871014267
 20
343.6953983533823
 30
0.0
 11
294.4436539556993
 21
348.4578314991097
 31
0.0
  0
LINE
  5
B6C
330
B0B
100
AcDbEntity
  8
0
 62
     0
100
AcDbLine
 10
299.2068525403165
 20
343.8360542707297
 30
0.0
 11
294.5843098730467
 21
348.4585969379995
 31
0.0
  0
LINE
  5
B6D
330
B0B
100
AcDbEntity
  8
0
 62
     0
100
AcDbLine
 10
299.2032000162362
 20
343.9811281510475
 30
0.0
 11
294.7293837533645
 21
348.4549444139192
 31
0.0
  0
LINE
  5
B6E
330
B0B
100
AcDbEntity
  8
0
 62
     0
100
AcDbLine
 10
299.1946727877878
 20
344.1310767357332
 30
0.0
 11
294.8793323380502
 21
348.4464171854708
 31
0.0
  0
LINE
  5
B6F
330
B0B
100
AcDbEntity
  8
0
 62
     0
100
AcDbLine
 10
299.18071194101
 20
344.2864589387482
 30
0.0
 11
295.0347145410652
 21
348.432456338693
 31
0.0
  0
LINE
  5
B70
330
B0B
100
AcDbEntity
  8
0
 62
     0
100
AcDbLine
 10
299.160621290986
 20
344.4479709450096
 30
0.0
 11
295.1962265473266
 21
348.412365688669
 31
0.0
  0
LINE
  5
B71
330
B0B
100
AcDbEntity
  8
0
 62
     0
100
AcDbLine
 10
299.13351492823
 20
344.6164986640028
 30
0.0
 11
295.3647542663198
 21
348.385259325913
 31
0.0
  0
LINE
  5
B72
330
B0B
100
AcDbEntity
  8
0
 62
     0
100
AcDbLine
 10
299.0982355707146
 20
344.7931993777556
 30
0.0
 11
295.5414549800726
 21
348.3499799683976
 31
0.0
  0
LINE
  5
B73
330
B0B
100
AcDbEntity
  8
0
 62
     0
100
AcDbLine
 10
299.0532209387975
 20
344.9796353659101
 30
0.0
 11
295.7278909682271
 21
348.3049653364805
 31
0.0
  0
LINE
  5
B74
330
B0B
100
AcDbEntity
  8
0
 62
     0
100
AcDbLine
 10
298.9962707567377
 20
345.1780069042071
 30
0.0
 11
295.926262506524
 21
348.2480151544207
 31
0.0
  0
LINE
  5
B75
330
B0B
100
AcDbEntity
  8
0
 62
     0
100
AcDbLine
 10
298.9241053480049
 20
345.3915936691773
 30
0.0
 11
296.1398492714943
 21
348.1758497456878
 31
0.0
  0
LINE
  5
B76
330
B0B
100
AcDbEntity
  8
0
 62
     0
100
AcDbLine
 10
298.8314285160914
 20
345.625691857328
 30
0.0
 11
296.3739474596449
 21
348.0831729137744
 31
0.0
  0
LINE
  5
B77
330
B0B
100
AcDbEntity
  8
0
 62
     0
100
AcDbLine
 10
298.7085730940423
 20
345.8899686356145
 30
0.0
 11
296.6382242379315
 21
347.9603174917253
 31
0.0
  0
LINE
  5
B78
330
B0B
100
AcDbEntity
  8
0
 62
     0
100
AcDbLine
 10
298.5336464916175
 20
346.2063165942766
 30
0.0
 11
296.9545721965936
 21
347.7853908893004
 31
0.0
  0
LINE
  5
B79
330
B0B
100
AcDbEntity
  8
0
 62
     0
100
AcDbLine
 10
298.221208651621
 20
346.6601757905103
 30
0.0
 11
297.4084313928273
 21
347.472953049304
 31
0.0
  0
ENDBLK
  5
B7B
330
B0B
100
AcDbEntity
  8
0
100
AcDbBlockEnd
  0
BLOCK
  5
BF0
330
BE5
100
AcDbEntity
  8
0
100
AcDbBlockBegin
  2
*D6
 70
     1
 10
0.0
 20
0.0
 30
0.0
  3
*D6
  1

  0
LINE
  5
BFC
330
BE5
100
AcDbEntity
  8
BEM
 62
     0
370
    -2
100
AcDbLine
 10
144.8123299528887
 20
243.9532119623559
 30
0.0
 11
125.2321533509146
 21
243.9532119623559
 31
0.0
  0
LINE
  5
BFD
330
BE5
100
AcDbEntity
  8
BEM
 62
     0
370
    -2
100
AcDbLine
 10
144.9970395764539
 20
353.9532119623558
 30
0.0
 11
125.2321533509146
 21
353.9532119623558
 31
0.0
  0
LINE
  5
BFE
330
BE5
100
AcDbEntity
  8
BEM
 62
     0
370
    -2
100
AcDbLine
 10
127.2321533509146
 20
250.9532119623559
 30
0.0
 11
127.2321533509146
 21
346.9532119623559
 31
0.0
  0
SOLID
  5
BFF
330
BE5
100
AcDbEntity
  8
BEM
 62
     0
100
AcDbTrace
 10
126.0654866842479
 20
250.9532119623559
 30
0.0
 11
128.3988200175812
 21
250.9532119623559
 31
0.0
 12
127.2321533509146
 22
243.9532119623559
 32
0.0
 13
127.2321533509146
 23
243.9532119623559
 33
0.0
  0
SOLID
  5
C00
330
BE5
100
AcDbEntity
  8
BEM
 62
     0
100
AcDbTrace
 10
126.0654866842479
 20
346.9532119623559
 30
0.0
 11
128.3988200175812
 21
346.9532119623558
 31
0.0
 12
127.2321533509146
 22
353.9532119623558
 32
0.0
 13
127.2321533509146
 23
353.9532119623558
 33
0.0
  0
MTEXT
  5
C01
330
BE5
100
AcDbEntity
  8
BEM
 62
     1
100
AcDbMText
 10
120.7321533509145
 20
298.9532119623559
 30
0.0
 40
7.0
 41
0.0
 71
     5
 72
     1
  1
\A1;110
 11
0.0000000000000001
 21
1.0
 31
0.0
 73
     1
 44
1.0
  0
POINT
  5
C02
330
BE5
100
AcDbEntity
  8
DEFPOINTS
 62
     0
100
AcDbPoint
 10
146.8123299528888
 20
243.9532119623559
 30
0.0
  0
POINT
  5
C03
330
BE5
100
AcDbEntity
  8
DEFPOINTS
 62
     0
100
AcDbPoint
 10
146.9970395764539
 20
353.9532119623558
 30
0.0
  0
POINT
  5
C04
330
BE5
100
AcDbEntity
  8
DEFPOINTS
 62
     0
100
AcDbPoint
 10
127.2321533509146
 20
353.9532119623558
 30
0.0
  0
ENDBLK
  5
BF1
330
BE5
100
AcDbEntity
  8
0
100
AcDbBlockEnd
  0
BLOCK
  5
C30
330
C26
100
AcDbEntity
  8
0
100
AcDbBlockBegin
  2
*D7
 70
     1
 10
0.0
 20
0.0
 30
0.0
  3
*D7
  1

  0
LINE
  5
CD7
330
C26
100
AcDbEntity
  8
BEM
 62
     0
370
    -2
100
AcDbLine
 10
158.4999999999999
 20
375.4793211908364
 30
0.0
 11
158.4999999999999
 21
379.3217116064188
 31
0.0
  0
LINE
  5
CD8
330
C26
100
AcDbEntity
  8
BEM
 62
     0
370
    -2
100
AcDbLine
 10
291.5000000000001
 20
375.4793211908362
 30
0.0
 11
291.5000000000001
 21
379.3217116064188
 31
0.0
  0
LINE
  5
CD9
330
C26
100
AcDbEntity
  8
BEM
 62
     0
370
    -2
100
AcDbLine
 10
165.5
 20
377.3217116064188
 30
0.0
 11
284.5000000000001
 21
377.3217116064188
 31
0.0
  0
SOLID
  5
CDA
330
C26
100
AcDbEntity
  8
BEM
 62
     0
100
AcDbTrace
 10
165.5
 20
378.4883782730855
 30
0.0
 11
165.5
 21
376.1550449397522
 31
0.0
 12
158.4999999999999
 22
377.3217116064188
 32
0.0
 13
158.4999999999999
 23
377.3217116064188
 33
0.0
  0
SOLID
  5
CDB
330
C26
100
AcDbEntity
  8
BEM
 62
     0
100
AcDbTrace
 10
284.5000000000001
 20
378.4883782730855
 30
0.0
 11
284.5000000000001
 21
376.1550449397522
 31
0.0
 12
291.5000000000001
 22
377.3217116064188
 32
0.0
 13
291.5000000000001
 23
377.3217116064188
 33
0.0
  0
MTEXT
  5
CDC
330
C26
100
AcDbEntity
  8
BEM
 62
     1
100
AcDbMText
 10
225.0
 20
383.8217116064188
 30
0.0
 40
7.0
 41
0.0
 71
     5
 72
     1
  1
\A1;%%c133
 73
     1
 44
1.0
  0
POINT
  5
CDD
330
C26
100
AcDbEntity
  8
DEFPOINTS
 62
     0
100
AcDbPoint
 10
158.4999999999999
 20
373.4793211908363
 30
0.0
  0
POINT
  5
CDE
330
C26
100
AcDbEntity
  8
DEFPOINTS
 62
     0
100
AcDbPoint
 10
291.5000000000001
 20
373.4793211908362
 30
0.0
  0
POINT
  5
CDF
330
C26
100
AcDbEntity
  8
DEFPOINTS
 62
     0
100
AcDbPoint
 10
291.5000000000001
 20
377.3217116064188
 30
0.0
  0
ENDBLK
  5
C31
330
C26
100
AcDbEntity
  8
0
100
AcDbBlockEnd
  0
ENDSEC
  0
SECTION
  2
ENTITIES
  0
LINE
  5
12A
330
1E
100
AcDbEntity
  8
STEMPEL
100
AcDbLine
 10
296.6550668784439
 20
468.9565048666858
 30
0.0
 11
153.3449331215562
 21
468.9565048666858
 31
0.0
  0
TEXT
  5
134
330
1E
100
AcDbEntity
  8
TEXT
100
AcDbText
 10
204.4216048581257
 20
63.0896391972351
 30
0.0
 40
4.0
  1
Koeh
 41
0.8
  7
GREEKS
 72
     1
 11
209.6787477152686
 21
63.0896391972351
 31
0.0
100
AcDbText
  0
INSERT
  5
135
330
1E
100
AcDbEntity
  8
STEMPEL
100
AcDbBlockReference
  2
LOGO
 10
150.9955485457794
 20
45.02105276448322
 30
0.0
 41
2.0
 42
2.0
 43
2.0
  0
LINE
  5
136
330
1E
100
AcDbEntity
  8
HILF
100
AcDbLine
 10
420.0
 20
0.0
 30
0.0
 11
0.0
 21
0.0
 31
0.0
  0
LINE
  5
137
330
1E
100
AcDbEntity
  8
HILF
100
AcDbLine
 10
419.9999999999999
 20
594.0000000000002
 30
0.0
 11
0.0
 21
594.0
 31
0.0
  0
LINE
  5
138
330
1E
100
AcDbEntity
  8
STEMPEL
100
AcDbLine
 10
410.0
 20
584.0
 30
0.0
 11
39.99999999999989
 21
584.0
 31
0.0
  0
LINE
  5
139
330
1E
100
AcDbEntity
  8
STEMPEL
100
AcDbLine
 10
410.0
 20
10.0
 30
0.0
 11
39.99999999999989
 21
10.0
 31
0.0
  0
LINE
  5
13A
330
1E
100
AcDbEntity
  8
STEMPEL
100
AcDbLine
 10
49.99999999999989
 20
10.0
 30
0.0
 11
410.0
 21
10.0
 31
0.0
  0
TEXT
  5
13B
330
1E
100
AcDbEntity
  8
TEXT
100
AcDbText
 10
202.4626584226295
 20
73.30961091915225
 30
0.0
 40
4.0
  1
Name
 41
0.8
  7
GREEKS
100
AcDbText
  0
TEXT
  5
13C
330
1E
100
AcDbEntity
  8
TEXT
100
AcDbText
 10
196.5498279101549
 20
102.6506227776589
 30
0.0
 40
5.0
  1
Zul. Abw.
 41
0.8
  7
GREEKS
 72
     4
 11
209.9783993387263
 21
105.1506227776589
 31
0.0
100
AcDbText
  0
LINE
  5
13D
330
1E
100
AcDbEntity
  8
HILF
100
AcDbLine
 10
146.0000000000001
 20
49.99999999999997
 30
0.0
 11
230.0
 21
49.99999999999997
 31
0.0
  0
LINE
  5
13E
330
1E
100
AcDbEntity
  8
HILF
100
AcDbLine
 10
146.0000000000001
 20
59.99999999999997
 30
0.0
 11
230.0
 21
59.99999999999997
 31
0.0
  0
LINE
  5
13F
330
1E
100
AcDbEntity
  8
HILF
100
AcDbLine
 10
146.0000000000001
 20
69.99999999999994
 30
0.0
 11
230.0
 21
69.99999999999994
 31
0.0
  0
LINE
  5
140
330
1E
100
AcDbEntity
  8
STEMPEL
100
AcDbLine
 10
410.0
 20
80.0
 30
0.0
 11
146.0000000000001
 21
79.99999999999994
 31
0.0
  0
LINE
  5
141
330
1E
100
AcDbEntity
  8
STEMPEL
100
AcDbLine
 10
410.0
 20
40.0
 30
0.0
 11
146.0000000000001
 21
39.99999999999997
 31
0.0
  0
LINE
  5
142
330
1E
100
AcDbEntity
  8
STEMPEL
100
AcDbLine
 10
410.0
 20
110.0
 30
0.0
 11
39.99999999999997
 21
110.0
 31
0.0
  0
LINE
  5
143
330
1E
100
AcDbEntity
  8
MITTEL
100
AcDbLine
 10
224.9999999999999
 20
473.9565048666859
 30
0.0
 11
224.9999999999999
 21
390.1535029295246
 31
0.0
  0
LINE
  5
144
330
1E
100
AcDbEntity
  8
HILF
100
AcDbLine
 10
0.0
 20
0.0
 30
0.0
 11
-0.0000000000001137
 21
594.0
 31
0.0
  0
LINE
  5
145
330
1E
100
AcDbEntity
  8
STEMPEL
100
AcDbLine
 10
40.0
 20
10.0
 30
0.0
 11
39.99999999999989
 21
584.0
 31
0.0
  0
LINE
  5
148
330
1E
100
AcDbEntity
  8
HILF
100
AcDbLine
 10
40.00000000000008
 20
39.99999999999997
 30
0.0
 11
146.0000000000001
 21
39.99999999999997
 31
0.0
  0
LINE
  5
149
330
1E
100
AcDbEntity
  8
HILF
100
AcDbLine
 10
40.00000000000008
 20
49.99999999999997
 30
0.0
 11
146.0000000000001
 21
49.99999999999997
 31
0.0
  0
LINE
  5
14A
330
1E
100
AcDbEntity
  8
HILF
100
AcDbLine
 10
40.00000000000008
 20
59.99999999999997
 30
0.0
 11
146.0000000000001
 21
59.99999999999997
 31
0.0
  0
LINE
  5
14B
330
1E
100
AcDbEntity
  8
HILF
100
AcDbLine
 10
40.00000000000008
 20
69.99999999999994
 30
0.0
 11
146.0000000000001
 21
69.99999999999994
 31
0.0
  0
LINE
  5
14C
330
1E
100
AcDbEntity
  8
HILF
100
AcDbLine
 10
40.00000000000008
 20
79.99999999999994
 30
0.0
 11
146.0000000000001
 21
79.99999999999994
 31
0.0
  0
LINE
  5
14D
330
1E
100
AcDbEntity
  8
HILF
100
AcDbLine
 10
40.00000000000008
 20
90.00000000000005
 30
0.0
 11
146.0000000000001
 21
90.00000000000005
 31
0.0
  0
LINE
  5
14E
330
1E
100
AcDbEntity
  8
HILF
100
AcDbLine
 10
40.00000000000008
 20
100.0
 30
0.0
 11
146.0000000000001
 21
100.0
 31
0.0
  0
LINE
  5
14F
330
1E
100
AcDbEntity
  8
STEMPEL
100
AcDbLine
 10
145.9999999999999
 20
29.99999999999997
 30
0.0
 11
39.99999999999997
 21
29.99999999999997
 31
0.0
  0
TEXT
  5
150
330
1E
100
AcDbEntity
  8
TEXT
100
AcDbText
 10
48.26641107045756
 20
13.65465846027192
 30
0.0
 40
4.0
  1
Index
 50
90.0
 41
0.8
  7
GREEKS
100
AcDbText
  0
LINE
  5
151
330
1E
100
AcDbEntity
  8
VOLL
100
AcDbLine
 10
54.00000000000009
 20
110.0
 30
0.0
 11
53.99999999999997
 21
9.999999999999971
 31
0.0
  0
LINE
  5
152
330
1E
100
AcDbEntity
  8
HILF
100
AcDbLine
 10
31.08767135713856
 20
297.0
 30
0.0
 11
0.0000000000001137
 21
297.0
 31
0.0
  0
LINE
  5
154
330
1E
100
AcDbEntity
  8
VOLL
100
AcDbLine
 10
124.0000000000001
 20
109.9999999999999
 30
0.0
 11
124.0
 21
9.999999999999971
 31
0.0
  0
LINE
  5
155
330
1E
100
AcDbEntity
  8
VOLL
100
AcDbLine
 10
104.0000000000001
 20
109.9999999999999
 30
0.0
 11
104.0
 21
9.999999999999971
 31
0.0
  0
LINE
  5
157
330
1E
100
AcDbEntity
  8
STEMPEL
100
AcDbLine
 10
146.0000000000001
 20
109.9999999999999
 30
0.0
 11
146.0
 21
9.999999999999971
 31
0.0
  0
TEXT
  5
159
330
1E
100
AcDbEntity
  8
TEXT
100
AcDbText
 10
172.331167315365
 20
73.31880501229926
 30
0.0
 40
4.0
  1
Tag
 41
0.8
  7
GREEKS
100
AcDbText
  0
TEXT
  5
15A
330
1E
100
AcDbEntity
  8
TEXT
100
AcDbText
 10
147.5836127167615
 20
63.62990369617964
 30
0.0
 40
4.0
  1
Gez.
 41
0.8
  7
GREEKS
100
AcDbText
  0
LINE
  5
15B
330
1E
100
AcDbEntity
  8
VOLL
100
AcDbLine
 10
164.0000000000001
 20
79.99999999999994
 30
0.0
 11
164.0000000000001
 21
39.99999999999997
 31
0.0
  0
TEXT
  5
15C
330
1E
100
AcDbEntity
  8
TEXT
100
AcDbText
 10
147.6006777387303
 20
43.52946389649807
 30
0.0
 40
4.0
  1
Norm.
 41
0.8
  7
GREEKS
100
AcDbText
  0
TEXT
  5
15D
330
1E
100
AcDbEntity
  8
TEXT
100
AcDbText
 10
147.5515086571672
 20
53.68926291428377
 30
0.0
 40
4.0
  1
Gepr.
 41
0.8
  7
GREEKS
100
AcDbText
  0
TEXT
  5
15E
330
1E
100
AcDbEntity
  8
TEXT
 62
     1
100
AcDbText
 10
160.5006306481887
 20
88.14901428913959
 30
0.0
 40
7.0
  1
1:2
 41
0.8
  7
GREEKS
100
AcDbText
  0
TEXT
  5
160
330
1E
100
AcDbEntity
  8
TEXT
100
AcDbText
 10
148.622109822104
 20
73.14025471151666
 30
0.0
 40
4.0
  1
2011
 41
0.8
  7
GREEKS
100
AcDbText
  0
LINE
  5
161
330
1E
100
AcDbEntity
  8
VOLL
100
AcDbLine
 10
190.0000000000001
 20
109.9999999999998
 30
0.0
 11
190.0
 21
39.99999999999997
 31
0.0
  0
LINE
  5
186
330
1E
100
AcDbEntity
  8
HILF
100
AcDbLine
 10
420.0
 20
-0.0000000000001137
 30
0.0
 11
419.9999999999999
 21
594.0
 31
0.0
  0
LINE
  5
187
330
1E
100
AcDbEntity
  8
STEMPEL
100
AcDbLine
 10
410.0
 20
10.0
 30
0.0
 11
410.0
 21
584.0
 31
0.0
  0
TEXT
  5
188
330
1E
100
AcDbEntity
  8
TEXT
100
AcDbText
 10
337.2400861497006
 20
52.07416177878602
 30
0.0
 40
5.0
  1
ersetzt durch:
 41
0.8
  7
GREEKS
100
AcDbText
  0
TEXT
  5
18A
330
1E
100
AcDbEntity
  8
TEXT
100
AcDbText
 10
336.178754957634
 20
102.3132034537136
 30
0.0
 40
5.0
  1
Zeichnungs Nr.
 41
0.8
  7
GREEKS
100
AcDbText
  0
LINE
  5
18B
330
1E
100
AcDbEntity
  8
HILF
100
AcDbLine
 10
233.4909699289885
 20
14.89398258028314
 30
0.0
 11
404.8588839326728
 21
14.89398258028314
 31
0.0
  0
LINE
  5
18C
330
1E
100
AcDbEntity
  8
HILF
100
AcDbLine
 10
336.7238616296993
 20
83.77983636955827
 30
0.0
 11
404.8588839326728
 21
83.77983636955827
 31
0.0
  0
LINE
  5
18D
330
1E
100
AcDbEntity
  8
VOLL
100
AcDbLine
 10
332.0
 20
60.0
 30
0.0
 11
410.0
 21
60.0
 31
0.0
  0
TEXT
  5
18E
330
1E
100
AcDbEntity
  8
TEXT
 62
     1
100
AcDbText
 10
234.9283864320014
 20
87.41748789253779
 30
0.0
 40
7.0
  1
Übergangsrohr DN125/150
 41
0.6200000000000001
  7
GREEKS
100
AcDbText
  0
LINE
  5
18F
330
1E
100
AcDbEntity
  8
HILF
100
AcDbLine
 10
234.7736801096947
 20
49.99999999999997
 30
0.0
 11
324.835391655631
 21
49.99999999999997
 31
0.0
  0
LINE
  5
190
330
1E
100
AcDbEntity
  8
HILF
100
AcDbLine
 10
234.7736801096947
 20
59.99999999999997
 30
0.0
 11
324.835391655631
 21
59.99999999999997
 31
0.0
  0
LINE
  5
191
330
1E
100
AcDbEntity
  8
HILF
100
AcDbLine
 10
234.7736801096947
 20
69.99999999999994
 30
0.0
 11
324.835391655631
 21
69.99999999999994
 31
0.0
  0
LINE
  5
192
330
1E
100
AcDbEntity
  8
HILF
100
AcDbLine
 10
234.7736801096947
 20
84.03758247564139
 30
0.0
 11
324.8353916556311
 21
84.03758247564139
 31
0.0
  0
LINE
  5
193
330
1E
100
AcDbEntity
  8
STEMPEL
100
AcDbLine
 10
230.0
 20
110.0
 30
0.0
 11
230.0
 21
9.999999999999971
 31
0.0
  0
TEXT
  5
194
330
1E
100
AcDbEntity
  8
TEXT
100
AcDbText
 10
235.1296391125315
 20
71.50334417585288
 30
0.0
 40
5.0
  1
konzentrisches Red.-Stück
 41
0.8
  7
GREEKS
100
AcDbText
  0
TEXT
  5
195
330
1E
100
AcDbEntity
  8
TEXT
100
AcDbText
 10
234.9837501577827
 20
42.62974153022632
 30
0.0
 40
4.0
  1
5600EF0W.DWG
 41
0.8
  7
GREEKS
100
AcDbText
  0
TEXT
  5
196
330
1E
100
AcDbEntity
  8
TEXT
100
AcDbText
 10
234.742238391136
 20
30.84560570193057
 30
0.0
 40
5.0
  1
Bauvorhaben
 41
0.8
  7
GREEKS
100
AcDbText
  0
TEXT
  5
197
330
1E
100
AcDbEntity
  8
TEXT
100
AcDbText
 10
234.877940380901
 20
102.5489328011779
 30
0.0
 40
5.0
  1
Benennung
 41
0.8
  7
GREEKS
100
AcDbText
  0
LINE
  5
198
330
1E
100
AcDbEntity
  8
STEMPEL
100
AcDbLine
 10
332.0
 20
109.9999999999997
 30
0.0
 11
332.0
 21
40.0
 31
0.0
  0
TEXT
  5
19A
330
1E
100
AcDbEntity
  8
TEXT
 62
     1
100
AcDbText
 10
349.7323567030428
 20
88.14901428913959
 30
0.0
 40
7.0
  1
5600EF0W
 41
0.8
  7
GREEKS
 72
     1
 11
370.6656900363761
 21
88.14901428913959
 31
0.0
100
AcDbText
  0
DIMENSION
  5
1DB
330
1E
100
AcDbEntity
  8
BEM
100
AcDbDimension
  2
*D1
 10
110.6824475427197
 20
468.9565048666859
 30
0.0
 11
104.1824475427197
 21
356.4548584145209
 31
0.0
 70
    32
 71
     5
 42
225.0032929043301
  3
Standard
100
AcDbAlignedDimension
 13
146.3748866352593
 23
243.9532119623558
 33
0.0
 14
153.3449331215562
 24
468.9565048666858
 34
0.0
 50
90.0
100
AcDbRotatedDimension
1001
ACAD
1000
DSTYLE
1002
{
1070
    40
1040
2.0
1070
    41
1040
3.5
1070
    42
1040
1.0
1070
    43
1040
7.0
1070
    44
1040
1.0
1070
    73
1070
     0
1070
    74
1070
     0
1070
    77
1070
     1
1070
    78
1070
     8
1070
    79
1070
     2
1070
   140
1040
3.5
1070
   141
1040
1.5
1070
   146
1040
0.5142857142857144
1070
   147
1040
1.5
1070
   172
1070
     1
1070
   178
1070
     1
1070
   179
1070
     2
1070
   271
1070
     2
1070
   272
1070
     2
1070
   284
1070
     8
1070
   285
1070
     8
1070
   286
1070
     8
1002
}
  0
TEXT
  5
212
330
1E
100
AcDbEntity
  8
TEXT
100
AcDbText
 10
235.1296391125315
 20
51.50334417585291
 30
0.0
 40
5.0
  1
EDV-Art.Nr. 5.600.EFOC
 41
0.8
  7
GREEKS
100
AcDbText
  0
TEXT
  5
255
330
1E
100
AcDbEntity
  8
TEXT
 62
     1
100
AcDbText
 10
297.9974873842989
 20
131.2276367653921
 30
0.0
 40
7.0
  1
Werkstoff: 1.4404
 41
0.8
  7
GREEKS
100
AcDbText
  0
TEXT
  5
25D
330
1E
100
AcDbEntity
  8
TEXT
 62
     1
100
AcDbText
 10
210.18157758338
 20
431.8968448089671
 30
0.0
 40
7.0
  1
DN125
 50
90.0
 41
0.8
  7
GREEKS
100
AcDbText
  0
LINE
  5
7B6
330
1E
100
AcDbEntity
  8
STEMPEL
100
AcDbLine
 10
296.6550668784437
 20
468.9565048666858
 30
0.0
 11
297.2829258240628
 21
467.610057012702
 31
0.0
  0
ARC
  5
7B7
330
1E
100
AcDbEntity
  8
STEMPEL
100
AcDbCircle
 10
270.9999999999999
 20
455.3541274222216
 30
0.0
 40
29.0
100
AcDbArc
 50
0.0
 51
24.99999999999304
  0
LINE
  5
7B8
330
1E
100
AcDbEntity
  8
STEMPEL
100
AcDbLine
 10
300.0
 20
455.3541274222216
 30
0.0
 11
300.0
 21
436.2475048666858
 31
0.0
  0
ARC
  5
7B9
330
1E
100
AcDbEntity
  8
STEMPEL
100
AcDbCircle
 10
270.9999999999999
 20
436.2475048666858
 30
0.0
 40
29.0
100
AcDbArc
 50
334.8288522569422
 51
0.0
  0
ARC
  5
7BA
330
1E
100
AcDbEntity
  8
STEMPEL
100
AcDbCircle
 10
314.5
 20
415.9565048666859
 30
0.0
 40
19.0
100
AcDbArc
 50
154.772855634092
 51
180.0
  0
LINE
  5
7BB
330
1E
100
AcDbEntity
  8
STEMPEL
100
AcDbLine
 10
295.5
 20
415.9565048666859
 30
0.0
 11
295.5
 21
402.4197321446165
 31
0.0
  0
ARC
  5
7C0
330
1E
100
AcDbEntity
  8
STEMPEL
100
AcDbCircle
 10
278.5000000000001
 20
402.4197321446165
 30
0.0
 40
17.0
100
AcDbArc
 50
328.4136619034719
 51
0.0
  0
ARC
  5
7C1
330
1E
100
AcDbEntity
  8
STEMPEL
100
AcDbCircle
 10
301.5
 20
388.2775965208856
 30
0.0
 40
10.0
100
AcDbArc
 50
148.413661903472
 51
180.0
  0
ARC
  5
7F3
330
1E
100
AcDbEntity
  8
STEMPEL
100
AcDbCircle
 10
178.9999999999999
 20
436.2475048666858
 30
0.0
 40
29.0
100
AcDbArc
 50
180.0
 51
204.8534197500294
  0
ARC
  5
7F7
330
1E
100
AcDbEntity
  8
STEMPEL
100
AcDbCircle
 10
135.4999999999999
 20
415.9565048666859
 30
0.0
 40
19.0
100
AcDbArc
 50
0.0
 51
25.24181234301172
  0
LINE
  5
7F8
330
1E
100
AcDbEntity
  8
STEMPEL
100
AcDbLine
 10
154.4999999999999
 20
415.9565048666859
 30
0.0
 11
154.4999999999999
 21
402.4197321446165
 31
0.0
  0
ARC
  5
7FB
330
1E
100
AcDbEntity
  8
STEMPEL
100
AcDbCircle
 10
171.4999999999999
 20
402.4197321446165
 30
0.0
 40
17.0
100
AcDbArc
 50
180.0
 51
211.5863380965281
  0
ARC
  5
7FC
330
1E
100
AcDbEntity
  8
STEMPEL
100
AcDbCircle
 10
148.4999999999999
 20
388.2775965208856
 30
0.0
 40
10.0
100
AcDbArc
 50
0.0
 51
31.586338096528
  0
LINE
  5
7FF
330
1E
100
AcDbEntity
  8
STEMPEL
100
AcDbLine
 10
153.3449331215562
 20
468.9565048666858
 30
0.0
 11
152.7170741759373
 21
467.610057012702
 31
0.0
  0
POINT
  5
802
330
1E
100
AcDbEntity
  8
STEMPEL
100
AcDbPoint
 10
154.9999999999999
 20
468.9565048666858
 30
0.0
  0
ARC
  5
803
330
1E
100
AcDbEntity
  8
STEMPEL
100
AcDbCircle
 10
178.9999999999999
 20
455.3541274222216
 30
0.0
 40
29.0
100
AcDbArc
 50
155.0000000000069
 51
180.0
  0
LINE
  5
804
330
1E
100
AcDbEntity
  8
STEMPEL
100
AcDbLine
 10
150.0000000000001
 20
455.3541274222216
 30
0.0
 11
150.0000000000001
 21
436.2475048666858
 31
0.0
  0
LINE
  5
806
330
1E
100
AcDbEntity
  8
HILF
100
AcDbLine
 10
293.4148819540654
 20
398.2011664764899
 30
0.0
 11
156.5851180459346
 21
398.2011664764899
 31
0.0
  0
LINE
  5
807
330
1E
100
AcDbEntity
  8
HILF
100
AcDbLine
 10
290.4341198405321
 20
391.4075000811085
 30
0.0
 11
159.5658801594677
 21
391.4075000811085
 31
0.0
  0
LINE
  5
808
330
1E
100
AcDbEntity
  8
HILF
100
AcDbLine
 10
294.4947662506229
 20
420.4331802662192
 30
0.0
 11
155.5052337493769
 21
420.4331802662192
 31
0.0
  0
LINE
  5
952
330
1E
100
AcDbEntity
  8
STEMPEL
100
AcDbLine
 10
158.4999999999999
 20
388.2775965208856
 30
0.0
 11
158.4999999999999
 21
373.4793211908363
 31
0.0
  0
LINE
  5
953
330
1E
100
AcDbEntity
  8
STEMPEL
100
AcDbLine
 10
291.4999999999999
 20
388.2775965208856
 30
0.0
 11
291.5
 21
373.4793211908362
 31
0.0
  0
LINE
  5
A98
330
1E
100
AcDbEntity
  8
HILF
100
AcDbLine
 10
302.9999999999998
 20
253.9532119623554
 30
0.0
 11
147.0000000000001
 21
253.9532119623568
 31
0.0
  0
DIMENSION
  5
A99
330
1E
100
AcDbEntity
  8
BEM
100
AcDbDimension
  2
*D3
 10
304.5000000000003
 20
222.8907794504404
 30
0.0
 11
225.0000000000002
 21
229.3907794504403
 31
0.0
 70
    32
  1
%%c<>
 71
     5
 42
159.0000000000002
  3
Standard
100
AcDbAlignedDimension
 13
145.5000000000001
 23
253.9532119623564
 33
0.0
 14
304.5000000000003
 24
253.9532119623554
 34
0.0
100
AcDbRotatedDimension
1001
ACAD
1000
DSTYLE
1002
{
1070
    40
1040
2.0
1070
    41
1040
3.5
1070
    42
1040
1.0
1070
    43
1040
7.0
1070
    44
1040
1.0
1070
    73
1070
     0
1070
    74
1070
     0
1070
    77
1070
     1
1070
    78
1070
     8
1070
    79
1070
     2
1070
   140
1040
3.5
1070
   141
1040
1.5
1070
   146
1040
0.5142857142857144
1070
   147
1040
1.5
1070
   172
1070
     1
1070
   178
1070
     1
1070
   179
1070
     2
1070
   271
1070
     2
1070
   272
1070
     2
1070
   284
1070
     8
1070
   285
1070
     8
1070
   286
1070
     8
1002
}
  0
LINE
  5
A9A
330
1E
100
AcDbEntity
  8
STEMPEL
100
AcDbLine
 10
303.6251133647408
 20
243.953211962356
 30
0.0
 11
146.3748866352593
 21
243.9532119623558
 31
0.0
  0
LINE
  5
A9B
330
1E
100
AcDbEntity
  8
STEMPEL
100
AcDbLine
 10
145.5000000000001
 20
253.9532119623565
 30
0.0
 11
146.3748866352593
 21
243.9532119623565
 31
0.0
  0
LINE
  5
AA0
330
1E
100
AcDbEntity
  8
STEMPEL
100
AcDbLine
 10
304.4999999999999
 20
253.953211962356
 30
0.0
 11
303.6251133647407
 21
243.9532119623554
 31
0.0
  0
LINE
  5
AA1
330
1E
100
AcDbEntity
  8
STEMPEL
100
AcDbLine
 10
304.4999999999998
 20
346.7662586955762
 30
0.0
 11
304.4999999999998
 21
253.953211962355
 31
0.0
  0
LINE
  5
AA2
330
1E
100
AcDbEntity
  8
STEMPEL
100
AcDbLine
 10
145.5000000000001
 20
346.7662586955762
 30
0.0
 11
145.5000000000001
 21
253.9532119623564
 31
0.0
  0
TEXT
  5
AFD
330
1E
100
AcDbEntity
  8
TEXT
 62
     1
100
AcDbText
 10
210.18157758338
 20
284.0391849539651
 30
0.0
 40
7.0
  1
DN150
 50
90.0
 41
0.8
  7
GREEKS
100
AcDbText
  0
INSERT
  5
BB3
330
1E
100
AcDbEntity
  8
SCHRAFF
100
AcDbBlockReference
  2
*X5
 10
-1.132360545417697
 20
18.70918333258842
 30
0.0
1001
ACAD
1000
HATCH
1002
{
1070
    16
1000
_U,I
1040
0.1
1040
2.356194490192344
1070
     0
1002
}
  0
LINE
  5
BB4
330
1E
100
AcDbEntity
  8
HILF
100
AcDbLine
 10
289.0935101409486
 20
371.9532119623558
 30
0.0
 11
160.9064898590513
 21
371.953211962356
 31
0.0
  0
LINE
  5
BB5
330
1E
100
AcDbEntity
  8
HILF
  6
Continuous
100
AcDbLine
 10
300.2330878807762
 20
353.953211962356
 30
0.0
 11
149.7669121192236
 21
353.9532119623558
 31
0.0
  0
LINE
  5
BB6
330
1E
100
AcDbEntity
  8
STEMPEL
  6
Continuous
100
AcDbLine
 10
295.0
 20
363.9532119623558
 30
0.0
 11
154.9999999999999
 21
363.953211962356
 31
0.0
  0
ARC
  5
BB7
330
1E
100
AcDbEntity
  8
SCHRAFF
100
AcDbCircle
 10
156.5929806796371
 20
362.5003075960519
 30
0.0
 40
4.667688922056902
100
AcDbArc
 50
85.008719927997
 51
198.9646725278572
  0
LINE
  5
BB8
330
1E
100
AcDbEntity
  8
STEMPEL
100
AcDbLine
 10
154.9999999999999
 20
363.953211962356
 30
0.0
 11
150.4500101953004
 21
359.1637490100406
 31
0.0
  0
ARC
  5
BB9
330
1E
100
AcDbEntity
  8
STEMPEL
100
AcDbCircle
 10
163.4999999999999
 20
346.7662586955762
 30
0.0
 40
18.0
100
AcDbArc
 50
136.468800714387
 51
180.0
  0
ARC
  5
BBA
330
1E
100
AcDbEntity
  8
SCHRAFF
100
AcDbCircle
 10
167.1178775019273
 20
363.953211962356
 30
0.0
 40
4.039292500642456
100
AcDbArc
 50
312.0377052613632
 51
47.96229473863676
  0
ARC
  5
BBB
330
1E
100
AcDbEntity
  8
SCHRAFF
100
AcDbCircle
 10
159.0392925006424
 20
363.953211962356
 30
0.0
 40
4.039292500642456
100
AcDbArc
 50
312.0377052613632
 51
47.96229473863676
  0
LINE
  5
BBD
330
1E
100
AcDbEntity
  8
STEMPEL
100
AcDbLine
 10
158.0447997803501
 20
370.496571259477
 30
0.0
 11
155.9999999999999
 21
363.953211962356
 31
0.0
  0
ARC
  5
BBE
330
1E
100
AcDbEntity
  8
STEMPEL
100
AcDbCircle
 10
148.4999999999998
 20
373.4793211908363
 30
0.0
 40
10.0
100
AcDbArc
 50
342.6459753637388
 51
0.0
  0
ARC
  5
BC1
330
1E
100
AcDbEntity
  8
SCHRAFF
100
AcDbCircle
 10
175.1964625032122
 20
363.953211962356
 30
0.0
 40
4.039292500642456
100
AcDbArc
 50
312.0377052613632
 51
47.96229473863676
  0
ARC
  5
BC3
330
1E
100
AcDbEntity
  8
SCHRAFF
100
AcDbCircle
 10
183.2750475044971
 20
363.953211962356
 30
0.0
 40
4.039292500642456
100
AcDbArc
 50
312.0377052613632
 51
47.96229473863676
  0
ARC
  5
BC6
330
1E
100
AcDbEntity
  8
SCHRAFF
100
AcDbCircle
 10
191.3536325057821
 20
363.953211962356
 30
0.0
 40
4.039292500642456
100
AcDbArc
 50
312.0377052613632
 51
47.96229473863676
  0
ARC
  5
BC8
330
1E
100
AcDbEntity
  8
SCHRAFF
100
AcDbCircle
 10
199.432217507067
 20
363.953211962356
 30
0.0
 40
4.039292500642456
100
AcDbArc
 50
312.0377052613632
 51
47.96229473863676
  0
ARC
  5
BCA
330
1E
100
AcDbEntity
  8
SCHRAFF
100
AcDbCircle
 10
207.5108025083519
 20
363.953211962356
 30
0.0
 40
4.039292500642456
100
AcDbArc
 50
312.0377052613632
 51
47.96229473863676
  0
ARC
  5
BCC
330
1E
100
AcDbEntity
  8
SCHRAFF
100
AcDbCircle
 10
215.5893875096368
 20
363.953211962356
 30
0.0
 40
4.039292500642456
100
AcDbArc
 50
312.0377052613632
 51
47.96229473863676
  0
ARC
  5
BCD
330
1E
100
AcDbEntity
  8
SCHRAFF
100
AcDbCircle
 10
293.4070193203628
 20
362.5003075960519
 30
0.0
 40
4.667688922056902
100
AcDbArc
 50
341.0353274721428
 51
94.99128007200299
  0
ARC
  5
BCE
330
1E
100
AcDbEntity
  8
SCHRAFF
100
AcDbCircle
 10
255.9823125160614
 20
363.9532119623559
 30
0.0
 40
4.039292500642456
100
AcDbArc
 50
312.0377052613632
 51
47.96229473863676
  0
ARC
  5
BD1
330
1E
100
AcDbEntity
  8
SCHRAFF
100
AcDbCircle
 10
223.6679725109218
 20
363.9532119623559
 30
0.0
 40
4.039292500642456
100
AcDbArc
 50
312.0377052613632
 51
47.96229473863676
  0
ARC
  5
BD3
330
1E
100
AcDbEntity
  8
SCHRAFF
100
AcDbCircle
 10
231.7465575122067
 20
363.9532119623559
 30
0.0
 40
4.039292500642456
100
AcDbArc
 50
312.0377052613632
 51
47.96229473863676
  0
ARC
  5
BD5
330
1E
100
AcDbEntity
  8
SCHRAFF
100
AcDbCircle
 10
239.8251425134916
 20
363.9532119623559
 30
0.0
 40
4.039292500642456
100
AcDbArc
 50
312.0377052613632
 51
47.96229473863676
  0
ARC
  5
BD7
330
1E
100
AcDbEntity
  8
SCHRAFF
100
AcDbCircle
 10
247.9037275147765
 20
363.9532119623559
 30
0.0
 40
4.039292500642456
100
AcDbArc
 50
312.0377052613632
 51
47.96229473863676
  0
ARC
  5
BD8
330
1E
100
AcDbEntity
  8
SCHRAFF
100
AcDbCircle
 10
264.0608975173464
 20
363.9532119623559
 30
0.0
 40
4.039292500642456
100
AcDbArc
 50
312.0377052613632
 51
47.96229473863676
  0
ARC
  5
BDA
330
1E
100
AcDbEntity
  8
SCHRAFF
100
AcDbCircle
 10
272.1394825186313
 20
363.9532119623559
 30
0.0
 40
4.039292500642456
100
AcDbArc
 50
312.0377052613632
 51
47.96229473863676
  0
ARC
  5
BDC
330
1E
100
AcDbEntity
  8
SCHRAFF
100
AcDbCircle
 10
280.2180675199162
 20
363.9532119623559
 30
0.0
 40
4.039292500642456
100
AcDbArc
 50
312.0377052613632
 51
47.96229473863676
  0
ARC
  5
BDE
330
1E
100
AcDbEntity
  8
SCHRAFF
100
AcDbCircle
 10
288.296652521201
 20
363.9532119623559
 30
0.0
 40
4.039292500642456
100
AcDbArc
 50
312.0377052613632
 51
47.96229473863676
  0
LINE
  5
BE0
330
1E
100
AcDbEntity
  8
STEMPEL
100
AcDbLine
 10
294.0
 20
363.9532119623558
 30
0.0
 11
291.9552002196498
 21
370.4965712594768
 31
0.0
  0
ARC
  5
BE1
330
1E
100
AcDbEntity
  8
STEMPEL
100
AcDbCircle
 10
301.5000000000001
 20
373.4793211908362
 30
0.0
 40
10.0
100
AcDbArc
 50
180.0
 51
197.3540246362612
  0
ARC
  5
BE2
330
1E
100
AcDbEntity
  8
STEMPEL
100
AcDbCircle
 10
286.5
 20
346.7662586955762
 30
0.0
 40
18.0
100
AcDbArc
 50
0.0
 51
43.53119928561524
  0
LINE
  5
BE3
330
1E
100
AcDbEntity
  8
STEMPEL
100
AcDbLine
 10
299.5499898046993
 20
359.1637490100408
 30
0.0
 11
295.0
 21
363.9532119623558
 31
0.0
  0
DIMENSION
  5
BE4
330
1E
100
AcDbEntity
  8
BEM
100
AcDbDimension
  2
*D6
 10
127.2321533509146
 20
353.9532119623558
 30
0.0
 11
120.7321533509145
 21
298.9532119623559
 31
0.0
 70
    32
 71
     5
 42
109.9999999999999
  3
Standard
100
AcDbAlignedDimension
 13
146.8123299528888
 23
243.9532119623559
 33
0.0
 14
146.9970395764539
 24
353.9532119623558
 34
0.0
 50
90.0
100
AcDbRotatedDimension
1001
ACAD
1000
DSTYLE
1002
{
1070
    40
1040
2.0
1070
    41
1040
3.5
1070
    42
1040
1.0
1070
    43
1040
7.0
1070
    44
1040
1.0
1070
    73
1070
     0
1070
    74
1070
     0
1070
    77
1070
     1
1070
    78
1070
     8
1070
    79
1070
     2
1070
   140
1040
3.5
1070
   141
1040
1.5
1070
   146
1040
0.5142857142857144
1070
   147
1040
1.5
1070
   172
1070
     1
1070
   178
1070
     1
1070
   179
1070
     2
1070
   271
1070
     2
1070
   272
1070
     2
1070
   284
1070
     8
1070
   285
1070
     8
1070
   286
1070
     8
1002
}
  0
DIMENSION
  5
C25
330
1E
100
AcDbEntity
  8
BEM
100
AcDbDimension
  2
*D7
 10
291.5000000000001
 20
377.3217116064188
 30
0.0
 11
225.0
 21
383.8217116064188
 31
0.0
 70
    32
  1
%%c<>
 71
     5
 42
133.0000000000001
  3
Standard
100
AcDbAlignedDimension
 13
158.4999999999999
 23
373.4793211908363
 33
0.0
 14
291.5000000000001
 24
373.4793211908362
 34
0.0
100
AcDbRotatedDimension
1001
ACAD
1000
DSTYLE
1002
{
1070
    40
1040
2.0
1070
    41
1040
3.5
1070
    42
1040
1.0
1070
    43
1040
7.0
1070
    44
1040
1.0
1070
    73
1070
     0
1070
    74
1070
     0
1070
    77
1070
     1
1070
    78
1070
     8
1070
    79
1070
     2
1070
   140
1040
3.5
1070
   141
1040
1.5
1070
   146
1040
0.5142857142857144
1070
   147
1040
1.5
1070
   172
1070
     1
1070
   178
1070
     1
1070
   179
1070
     2
1070
   271
1070
     2
1070
   272
1070
     2
1070
   284
1070
     8
1070
   285
1070
     8
1070
   286
1070
     8
1002
}
  0
LINE
  5
C3B
330
1E
100
AcDbEntity
  8
MITTEL
100
AcDbLine
 10
225.0
 20
372.7389297907862
 30
0.0
 11
225.0
 21
238.9532119623561
 31
0.0
  0
TEXT
  5
C3D
330
1E
100
AcDbEntity
  8
TEXT
100
AcDbText
 10
235.1296391125315
 20
61.50334417585291
 30
0.0
 40
5.0
  1
dünnwandig
 41
0.8
  7
GREEKS
100
AcDbText
  0
TEXT
  5
C8B
330
1E
100
AcDbEntity
  8
BEM
100
AcDbText
 10
416.5811541437436
 20
12.14804815338303
 30
0.0
 40
4.0
  1
Diese Zeichnung ist urheberrechtlich geschützt und bleibt unser Eigentum. Sie darf weder ganz noch teilweise vervielfältigt und nicht an Dritte weitergegeben werden.
 50
90.0
 41
0.8
  7
GREEKS
100
AcDbText
  0
TEXT
  5
C8C
330
1E
100
AcDbEntity
  8
TEXT
100
AcDbText
 10
336.7238616296993
 20
73.1811823709997
 30
0.0
 40
5.0
  1
Ersatz für:
 41
0.8
  7
GREEKS
100
AcDbText
  0
TEXT
  5
C8D
330
1E
100
AcDbEntity
  8
TEXT
100
AcDbText
 10
192.6882715247924
 20
89.7791437153694
 30
0.0
 40
4.0
  1
DIN EN1124-3
 41
0.8
  7
GREEKS
 72
     1
 11
209.6787477152686
 21
89.7791437153694
 31
0.0
100
AcDbText
  0
TEXT
  5
C8E
330
1E
100
AcDbEntity
  8
TEXT
100
AcDbText
 10
153.5163572150377
 20
102.4620895087088
 30
0.0
 40
5.0
  1
Maßstab
 41
0.8
  7
GREEKS
100
AcDbText
  0
TEXT
  5
C8F
330
1E
100
AcDbEntity
  8
TEXT
100
AcDbText
 10
41.85509950977674
 20
111.6719999999999
 30
0.0
 40
5.0
  1
Erstellt mit AUTOCAD 2004
 41
0.8
  7
GREEKS
100
AcDbText
  0
TEXT
  5
C90
330
1E
100
AcDbEntity
  8
TEXT
100
AcDbText
 10
128.9002860979178
 20
18.59324216966408
 30
0.0
 40
4.0
  1
Name
 41
0.8
  7
GREEKS
 72
     1
 11
135.2240956217273
 21
18.59324216966408
 31
0.0
100
AcDbText
  0
TEXT
  5
C91
330
1E
100
AcDbEntity
  8
TEXT
100
AcDbText
 10
110.462610504336
 20
18.6715626933981
 30
0.0
 40
4.0
  1
Tag
 41
0.8
  7
GREEKS
 72
     1
 11
114.1959438376693
 21
18.6715626933981
 31
0.0
100
AcDbText
  0
TEXT
  5
C92
330
1E
100
AcDbEntity
  8
TEXT
100
AcDbText
 10
67.65811831396264
 20
18.34829198486668
 30
0.0
 40
4.0
  1
Änderung
 41
0.8
  7
GREEKS
 72
     1
 11
78.40097545681979
 21
18.34829198486668
 31
0.0
100
AcDbText
  0
TEXT
  5
CCC
330
1E
100
AcDbEntity
  8
TEXT
100
AcDbText
 10
171.0085209177598
 20
63.10765040825732
 30
0.0
 40
4.0
  1
11.04.
 41
0.8
  7
GREEKS
 72
     1
 11
177.4085209177598
 21
63.10765040825732
 31
0.0
100
AcDbText
  0
ENDSEC
  0
SECTION
  2
OBJECTS
  0
DICTIONARY
  5
C
330
0
100
AcDbDictionary
281
     1
  3
ACAD_COLOR
350
C47
  3
ACAD_GROUP
350
D
  3
ACAD_LAYOUT
350
19
  3
ACAD_MATERIAL
350
C46
  3
ACAD_MLINESTYLE
350
16
  3
ACAD_PLOTSETTINGS
350
18
  3
ACAD_PLOTSTYLENAME
350
E
  3
AcDbVariableDictionary
350
246
  0
DICTIONARY
  5
C47
102
{ACAD_REACTORS
330
C
102
}
330
C
100
AcDbDictionary
281
     1
  0
DICTIONARY
  5
D
102
{ACAD_REACTORS
330
C
102
}
330
C
100
AcDbDictionary
281
     1
  0
DICTIONARY
  5
19
102
{ACAD_REACTORS
330
C
102
}
330
C
100
AcDbDictionary
281
     1
  3
Layout1
350
1D
  3
Model
350
21
  0
DICTIONARY
  5
C46
102
{ACAD_REACTORS
330
C
102
}
330
C
100
AcDbDictionary
281
     1
  0
DICTIONARY
  5
16
102
{ACAD_REACTORS
330
C
102
}
330
C
100
AcDbDictionary
281
     1
  3
Standard
350
17
  0
DICTIONARY
  5
18
102
{ACAD_REACTORS
330
C
102
}
330
C
100
AcDbDictionary
281
     1
  0
ACDBDICTIONARYWDFLT
  5
E
102
{ACAD_REACTORS
330
C
102
}
330
C
100
AcDbDictionary
281
     1
  3
Normal
350
F
100
AcDbDictionaryWithDefault
340
F
  0
DICTIONARY
  5
246
102
{ACAD_REACTORS
330
C
102
}
330
C
100
AcDbDictionary
281
     1
  3
DIMASSOC
350
CB0
  3
PROJECTNAME
350
CB1
  3
SORTENTS
350
247
  0
LAYOUT
  5
1D
102
{ACAD_REACTORS
330
19
102
}
330
19
100
AcDbPlotSettings
  1

  2
Tektronix Phaser 740
  4

  6

 40
0.0
 41
0.0
 42
0.0
 43
0.0
 44
0.0
 45
0.0
 46
0.0
 47
0.0
 48
0.0
 49
0.0
140
0.0
141
0.0
142
1.0
143
1.0
 70
   688
 72
     0
 73
     0
 74
     5
  7
monochrome.ctb
 75
    16
147
1.0
 76
     0
 77
     2
 78
   300
148
0.0
149
0.0
100
AcDbLayout
  1
Layout1
 70
     0
 71
     1
 10
0.0
 20
0.0
 11
12.0
 21
9.0
 12
0.0
 22
0.0
 32
0.0
 14
1.000000000000000E+20
 24
1.000000000000000E+20
 34
1.000000000000000E+20
 15
-1.000000000000000E+20
 25
-1.000000000000000E+20
 35
-1.000000000000000E+20
146
0.0
 13
0.0
 23
0.0
 33
0.0
 16
1.0
 26
0.0
 36
0.0
 17
0.0
 27
1.0
 37
0.0
 76
     0
330
1A
  0
LAYOUT
  5
21
102
{ACAD_REACTORS
330
19
102
}
330
19
100
AcDbPlotSettings
  1

  2
Tektronix Phaser 740
  4
A4
  6

 40
5.873749732971191
 41
6.085414409637451
 42
5.577407836914062
 43
5.662078857421875
 44
209.9733276367187
 45
296.9683227539062
 46
0.0
 47
0.0
 48
0.0
 49
0.0
140
0.0
141
0.0
142
1.0
143
1.0
 70
 11952
 72
     0
 73
     1
 74
     0
  7
monochrome.ctb
 75
     0
147
1.0
 76
     0
 77
     2
 78
   300
148
1150.120678237584
149
45.30495740799864
100
AcDbLayout
  1
Model
 70
     1
 71
     0
 10
0.0
 20
0.0
 11
12.0
 21
9.0
 12
0.0
 22
0.0
 32
0.0
 14
0.0
 24
0.0
 34
0.0
 15
0.0
 25
0.0
 35
0.0
146
0.0
 13
0.0
 23
0.0
 33
0.0
 16
1.0
 26
0.0
 36
0.0
 17
0.0
 27
1.0
 37
0.0
 76
     0
330
1E
  0
MLINESTYLE
  5
17
102
{ACAD_REACTORS
330
16
102
}
330
16
100
AcDbMlineStyle
  2
STANDARD
 70
     0
  3

 62
   256
 51
90.0
 52
90.0
 71
     2
 49
0.5
 62
   256
  6
BYLAYER
 49
-0.5
 62
   256
  6
BYLAYER
  0
ACDBPLACEHOLDER
  5
F
102
{ACAD_REACTORS
330
E
102
}
330
E
  0
DICTIONARYVAR
  5
CB0
102
{ACAD_REACTORS
330
246
102
}
330
246
100
DictionaryVariables
280
     0
  1
1
  0
DICTIONARYVAR
  5
CB1
102
{ACAD_REACTORS
330
246
102
}
330
246
100
DictionaryVariables
280
     0
  1

  0
DICTIONARYVAR
  5
247
102
{ACAD_REACTORS
330
246
102
}
330
246
100
DictionaryVariables
280
     0
  1
96
  0
ENDSEC
  0
EOF
