  0
SECTION
  2
HEADER
  9
$ACADVER
  1
AC1018
  9
$ACADMAINTVER
 70
     2
  9
$DWGCODEPAGE
  3
ANSI_1252
  9
$INSBASE
 10
0.0
 20
0.0
 30
0.0
  9
$EXTMIN
 10
-0.0063978361731643
 20
-0.0090483683025013
 30
-0.0000000000000098
  9
$EXTMAX
 10
420.0064129945077
 20
594.0090698065175
 30
0.0000000000000055
  9
$LIMMIN
 10
0.0
 20
0.0
  9
$LIMMAX
 10
419.9999999999999
 20
594.0
  9
$ORTHOMODE
 70
     1
  9
$REGENMODE
 70
     1
  9
$FILLMODE
 70
     1
  9
$QTEXTMODE
 70
     0
  9
$MIRRTEXT
 70
     1
  9
$LTSCALE
 40
20.0
  9
$ATTMODE
 70
     1
  9
$TEXTSIZE
 40
3.5
  9
$TRACEWID
 40
0.5
  9
$TEXTSTYLE
  7
STANDARD
  9
$CLAYER
  8
BEM
  9
$CELTYPE
  6
ByLayer
  9
$CECOLOR
 62
   256
  9
$CELTSCALE
 40
1.0
  9
$DISPSILH
 70
     0
  9
$DIMSCALE
 40
2.0
  9
$DIMASZ
 40
3.5
  9
$DIMEXO
 40
1.0
  9
$DIMDLI
 40
7.0
  9
$DIMRND
 40
0.0
  9
$DIMDLE
 40
0.0
  9
$DIMEXE
 40
1.0
  9
$DIMTP
 40
0.0
  9
$DIMTM
 40
0.0
  9
$DIMTXT
 40
3.5
  9
$DIMCEN
 40
1.5
  9
$DIMTSZ
 40
0.0
  9
$DIMTOL
 70
     0
  9
$DIMLIM
 70
     0
  9
$DIMTIH
 70
     0
  9
$DIMTOH
 70
     0
  9
$DIMSE1
 70
     0
  9
$DIMSE2
 70
     0
  9
$DIMTAD
 70
     1
  9
$DIMZIN
 70
     8
  9
$DIMBLK
  1

  9
$DIMASO
 70
     1
  9
$DIMSHO
 70
     0
  9
$DIMPOST
  1

  9
$DIMAPOST
  1

  9
$DIMALT
 70
     0
  9
$DIMALTD
 70
     2
  9
$DIMALTF
 40
25.4
  9
$DIMLFAC
 40
1.0
  9
$DIMTOFL
 70
     1
  9
$DIMTVP
 40
0.0
  9
$DIMTIX
 70
     0
  9
$DIMSOXD
 70
     0
  9
$DIMSAH
 70
     0
  9
$DIMBLK1
  1

  9
$DIMBLK2
  1

  9
$DIMSTYLE
  2
Standard
  9
$DIMCLRD
 70
     0
  9
$DIMCLRE
 70
     0
  9
$DIMCLRT
 70
     1
  9
$DIMTFAC
 40
0.5142857142857144
  9
$DIMGAP
 40
1.5
  9
$DIMJUST
 70
     0
  9
$DIMSD1
 70
     0
  9
$DIMSD2
 70
     0
  9
$DIMTOLJ
 70
     1
  9
$DIMTZIN
 70
     8
  9
$DIMALTZ
 70
     8
  9
$DIMALTTZ
 70
     8
  9
$DIMUPT
 70
     0
  9
$DIMDEC
 70
     2
  9
$DIMTDEC
 70
     2
  9
$DIMALTU
 70
     2
  9
$DIMALTTD
 70
     2
  9
$DIMTXSTY
  7
STANDARD
  9
$DIMAUNIT
 70
     0
  9
$DIMADEC
 70
     2
  9
$DIMALTRND
 40
0.0
  9
$DIMAZIN
 70
     2
  9
$DIMDSEP
 70
    46
  9
$DIMATFIT
 70
     3
  9
$DIMFRAC
 70
     0
  9
$DIMLDRBLK
  1

  9
$DIMLUNIT
 70
     2
  9
$DIMLWD
 70
    -2
  9
$DIMLWE
 70
    -2
  9
$DIMTMOVE
 70
     0
  9
$LUNITS
 70
     2
  9
$LUPREC
 70
     2
  9
$SKETCHINC
 40
1.0
  9
$FILLETRAD
 40
0.0
  9
$AUNITS
 70
     1
  9
$AUPREC
 70
     3
  9
$MENU
  1
ACAD
  9
$ELEVATION
 40
0.0
  9
$PELEVATION
 40
0.0
  9
$THICKNESS
 40
0.0
  9
$LIMCHECK
 70
     0
  9
$CHAMFERA
 40
0.0
  9
$CHAMFERB
 40
0.0
  9
$CHAMFERC
 40
0.0
  9
$CHAMFERD
 40
0.0
  9
$SKPOLY
 70
     0
  9
$TDCREATE
 40
2452040.637099653
  9
$TDUCREATE
 40
2452040.553766320
  9
$TDUPDATE
 40
2455663.455485903
  9
$TDUUPDATE
 40
2455663.372152570
  9
$TDINDWG
 40
0.2723689352
  9
$TDUSRTIMER
 40
0.2723689352
  9
$USRTIMER
 70
     1
  9
$ANGBASE
 50
0.0
  9
$ANGDIR
 70
     0
  9
$PDMODE
 70
     0
  9
$PDSIZE
 40
0.0
  9
$PLINEWID
 40
0.0
  9
$SPLFRAME
 70
     0
  9
$SPLINETYPE
 70
     6
  9
$SPLINESEGS
 70
     8
  9
$HANDSEED
  5
121B
  9
$SURFTAB1
 70
     6
  9
$SURFTAB2
 70
     6
  9
$SURFTYPE
 70
     6
  9
$SURFU
 70
     6
  9
$SURFV
 70
     6
  9
$UCSBASE
  2

  9
$UCSNAME
  2

  9
$UCSORG
 10
0.0
 20
0.0
 30
0.0
  9
$UCSXDIR
 10
1.0
 20
0.0
 30
0.0
  9
$UCSYDIR
 10
0.0
 20
1.0
 30
0.0
  9
$UCSORTHOREF
  2

  9
$UCSORTHOVIEW
 70
     0
  9
$UCSORGTOP
 10
0.0
 20
0.0
 30
0.0
  9
$UCSORGBOTTOM
 10
0.0
 20
0.0
 30
0.0
  9
$UCSORGLEFT
 10
0.0
 20
0.0
 30
0.0
  9
$UCSORGRIGHT
 10
0.0
 20
0.0
 30
0.0
  9
$UCSORGFRONT
 10
0.0
 20
0.0
 30
0.0
  9
$UCSORGBACK
 10
0.0
 20
0.0
 30
0.0
  9
$PUCSBASE
  2

  9
$PUCSNAME
  2

  9
$PUCSORG
 10
0.0
 20
0.0
 30
0.0
  9
$PUCSXDIR
 10
1.0
 20
0.0
 30
0.0
  9
$PUCSYDIR
 10
0.0
 20
1.0
 30
0.0
  9
$PUCSORTHOREF
  2

  9
$PUCSORTHOVIEW
 70
     0
  9
$PUCSORGTOP
 10
0.0
 20
0.0
 30
0.0
  9
$PUCSORGBOTTOM
 10
0.0
 20
0.0
 30
0.0
  9
$PUCSORGLEFT
 10
0.0
 20
0.0
 30
0.0
  9
$PUCSORGRIGHT
 10
0.0
 20
0.0
 30
0.0
  9
$PUCSORGFRONT
 10
0.0
 20
0.0
 30
0.0
  9
$PUCSORGBACK
 10
0.0
 20
0.0
 30
0.0
  9
$USERI1
 70
     0
  9
$USERI2
 70
     0
  9
$USERI3
 70
     0
  9
$USERI4
 70
     0
  9
$USERI5
 70
     0
  9
$USERR1
 40
0.0
  9
$USERR2
 40
0.0
  9
$USERR3
 40
0.0
  9
$USERR4
 40
0.0
  9
$USERR5
 40
0.0
  9
$WORLDVIEW
 70
     1
  9
$SHADEDGE
 70
     3
  9
$SHADEDIF
 70
    70
  9
$TILEMODE
 70
     1
  9
$MAXACTVP
 70
    16
  9
$PINSBASE
 10
0.0
 20
0.0
 30
0.0
  9
$PLIMCHECK
 70
     0
  9
$PEXTMIN
 10
1.000000000000000E+20
 20
1.000000000000000E+20
 30
1.000000000000000E+20
  9
$PEXTMAX
 10
-1.000000000000000E+20
 20
-1.000000000000000E+20
 30
-1.000000000000000E+20
  9
$PLIMMIN
 10
0.0
 20
0.0
  9
$PLIMMAX
 10
12.0
 20
9.0
  9
$UNITMODE
 70
     0
  9
$VISRETAIN
 70
     0
  9
$PLINEGEN
 70
     0
  9
$PSLTSCALE
 70
     0
  9
$TREEDEPTH
 70
  3020
  9
$CMLSTYLE
  2
Standard
  9
$CMLJUST
 70
     0
  9
$CMLSCALE
 40
1.0
  9
$PROXYGRAPHICS
 70
     1
  9
$MEASUREMENT
 70
     0
  9
$CELWEIGHT
370
    -1
  9
$ENDCAPS
280
     0
  9
$JOINSTYLE
280
     0
  9
$LWDISPLAY
290
     0
  9
$INSUNITS
 70
     0
  9
$HYPERLINKBASE
  1

  9
$STYLESHEET
  1
monochrome 1.ctb
  9
$XEDIT
290
     1
  9
$CEPSNTYPE
380
     0
  9
$PSTYLEMODE
290
     1
  9
$FINGERPRINTGUID
  2
{7AADB5C8-6110-11D8-B72B-000102183313}
  9
$VERSIONGUID
  2
{6AAF8DC9-DC00-4098-8222-8E0EE7FE13FC}
  9
$EXTNAMES
290
     1
  9
$PSVPSCALE
 40
0.0
  9
$OLESTARTUP
290
     0
  9
$SORTENTS
280
    96
  9
$INDEXCTL
280
     0
  9
$HIDETEXT
280
     0
  9
$XCLIPFRAME
290
     0
  9
$HALOGAP
280
     0
  9
$OBSCOLOR
 70
   257
  9
$OBSLTYPE
280
     0
  9
$INTERSECTIONDISPLAY
280
     0
  9
$INTERSECTIONCOLOR
 70
   257
  9
$DIMASSOC
280
     1
  9
$PROJECTNAME
  1

  0
ENDSEC
  0
SECTION
  2
CLASSES
  0
CLASS
  1
ACDBDICTIONARYWDFLT
  2
AcDbDictionaryWithDefault
  3
ObjectDBX Classes
 90
        0
 91
        1
280
     0
281
     0
  0
CLASS
  1
DICTIONARYVAR
  2
AcDbDictionaryVar
  3
ObjectDBX Classes
 90
        0
 91
        3
280
     0
281
     0
  0
ENDSEC
  0
SECTION
  2
TABLES
  0
TABLE
  2
VPORT
  5
8
330
0
100
AcDbSymbolTable
 70
     3
  0
VPORT
  5
121A
330
8
100
AcDbSymbolTableRecord
100
AcDbViewportTableRecord
  2
*Active
 70
     0
 10
0.0
 20
0.0
 11
1.0
 21
1.0
 12
210.0
 22
297.0
 13
0.0
 23
0.0
 14
1.0
 24
1.0
 15
10.0
 25
10.0
 16
0.0
 26
0.0
 36
1.0
 17
0.0
 27
0.0
 37
0.0
 40
594.0
 41
1.334231805929919
 42
50.0
 43
0.0
 44
0.0
 50
0.0
 51
0.0
 71
     0
 72
  1500
 73
     1
 74
     0
 75
     0
 76
     0
 77
     0
 78
     0
281
     0
 65
     1
110
0.0
120
0.0
130
0.0
111
1.0
121
0.0
131
0.0
112
0.0
122
1.0
132
0.0
 79
     0
146
0.0
  0
ENDTAB
  0
TABLE
  2
LTYPE
  5
5
330
0
100
AcDbSymbolTable
 70
     2
  0
LTYPE
  5
13
330
5
100
AcDbSymbolTableRecord
100
AcDbLinetypeTableRecord
  2
ByBlock
 70
     0
  3

 72
    65
 73
     0
 40
0.0
  0
LTYPE
  5
14
330
5
100
AcDbSymbolTableRecord
100
AcDbLinetypeTableRecord
  2
ByLayer
 70
     0
  3

 72
    65
 73
     0
 40
0.0
  0
LTYPE
  5
15
330
5
100
AcDbSymbolTableRecord
100
AcDbLinetypeTableRecord
  2
Continuous
 70
     0
  3
Solid line
 72
    65
 73
     0
 40
0.0
  0
LTYPE
  5
35
330
5
100
AcDbSymbolTableRecord
100
AcDbLinetypeTableRecord
  2
STRICHPUNKT
 70
     0
  3
__ . __ . __ . __ . __ . __ . __ . __ . __ . __
 72
    65
 73
     4
 40
1.0
 49
0.5
 74
     0
 49
-0.25
 74
     0
 49
0.0
 74
     0
 49
-0.25
 74
     0
  0
ENDTAB
  0
TABLE
  2
LAYER
  5
2
330
0
100
AcDbSymbolTable
 70
     9
  0
LAYER
  5
10
330
2
100
AcDbSymbolTableRecord
100
AcDbLayerTableRecord
  2
0
 70
     0
 62
     7
  6
Continuous
370
    -3
390
F
  0
LAYER
  5
38
330
2
100
AcDbSymbolTableRecord
100
AcDbLayerTableRecord
  2
VOLL
 70
     0
 62
     1
  6
Continuous
370
    -3
390
F
  0
LAYER
  5
39
330
2
100
AcDbSymbolTableRecord
100
AcDbLayerTableRecord
  2
HILF
 70
     0
 62
     2
  6
Continuous
370
    -3
390
F
  0
LAYER
  5
3A
330
2
100
AcDbSymbolTableRecord
100
AcDbLayerTableRecord
  2
MITTEL
 70
     0
 62
     2
  6
STRICHPUNKT
370
    -3
390
F
  0
LAYER
  5
3B
330
2
100
AcDbSymbolTableRecord
100
AcDbLayerTableRecord
  2
BEM
 70
     0
 62
     7
  6
Continuous
370
    -3
390
F
  0
LAYER
  5
3C
330
2
100
AcDbSymbolTableRecord
100
AcDbLayerTableRecord
  2
STEMPEL
 70
     0
 62
     3
  6
Continuous
370
    -3
390
F
  0
LAYER
  5
3D
330
2
100
AcDbSymbolTableRecord
100
AcDbLayerTableRecord
  2
TEXT
 70
     0
 62
     7
  6
Continuous
370
    -3
390
F
  0
LAYER
  5
3E
330
2
100
AcDbSymbolTableRecord
100
AcDbLayerTableRecord
  2
DEFPOINTS
 70
     0
 62
     7
  6
Continuous
290
     0
370
    -3
390
F
  0
LAYER
  5
3F
330
2
100
AcDbSymbolTableRecord
100
AcDbLayerTableRecord
  2
SCHRAFF
 70
     0
 62
     7
  6
Continuous
370
    -3
390
F
  0
ENDTAB
  0
TABLE
  2
STYLE
  5
3
330
0
100
AcDbSymbolTable
 70
     2
  0
STYLE
  5
11
330
3
100
AcDbSymbolTableRecord
100
AcDbTextStyleTableRecord
  2
STANDARD
 70
     0
 40
0.0
 41
0.8
 50
0.0
 71
     0
 42
3.5
  3
simplex.shx
  4

  0
STYLE
  5
34
330
3
100
AcDbSymbolTableRecord
100
AcDbTextStyleTableRecord
  2
GREEKS
 70
     0
 40
0.0
 41
0.8
 50
0.0
 71
     0
 42
2.5
  3
SIMPLEX.shx
  4

  0
ENDTAB
  0
TABLE
  2
VIEW
  5
6
330
0
100
AcDbSymbolTable
 70
     0
  0
ENDTAB
  0
TABLE
  2
UCS
  5
7
330
0
100
AcDbSymbolTable
 70
     0
  0
ENDTAB
  0
TABLE
  2
APPID
  5
9
330
0
100
AcDbSymbolTable
 70
     2
  0
APPID
  5
12
330
9
100
AcDbSymbolTableRecord
100
AcDbRegAppTableRecord
  2
ACAD
 70
     0
  0
APPID
  5
DDB
330
9
100
AcDbSymbolTableRecord
100
AcDbRegAppTableRecord
  2
AVE_RENDER
 70
     0
  0
ENDTAB
  0
TABLE
  2
DIMSTYLE
  5
A
330
0
100
AcDbSymbolTable
 70
     1
100
AcDbDimStyleTable
 71
     1
340
1CB
  0
DIMSTYLE
105
1CB
102
{ACAD_REACTORS
330
EDF
330
FD1
330
10E9
330
10F9
102
}
330
A
100
AcDbSymbolTableRecord
100
AcDbDimStyleTableRecord
  2
Standard
 70
     0
340
11
  0
ENDTAB
  0
TABLE
  2
BLOCK_RECORD
  5
1
330
0
100
AcDbSymbolTable
 70
    10
  0
BLOCK_RECORD
  5
1E
330
1
100
AcDbSymbolTableRecord
100
AcDbBlockTableRecord
  2
*Model_Space
340
21
  0
BLOCK_RECORD
  5
1A
330
1
100
AcDbSymbolTableRecord
100
AcDbBlockTableRecord
  2
*Paper_Space
340
1D
  0
BLOCK_RECORD
  5
22
330
1
100
AcDbSymbolTableRecord
100
AcDbBlockTableRecord
  2
LOGO
340
0
102
{BLKREFS
331
135
102
}
  0
BLOCK_RECORD
  5
EEA
330
1
100
AcDbSymbolTableRecord
100
AcDbBlockTableRecord
  2
*D1
340
0
  0
BLOCK_RECORD
  5
F2A
330
1
100
AcDbSymbolTableRecord
100
AcDbBlockTableRecord
  2
*X3
340
0
102
{BLKREFS
331
FD2
102
}
  0
BLOCK_RECORD
  5
FF9
330
1
100
AcDbSymbolTableRecord
100
AcDbBlockTableRecord
  2
*D4
340
0
  0
BLOCK_RECORD
  5
10EA
330
1
100
AcDbSymbolTableRecord
100
AcDbBlockTableRecord
  2
*D6
340
0
  0
BLOCK_RECORD
  5
10FA
330
1
100
AcDbSymbolTableRecord
100
AcDbBlockTableRecord
  2
*D7
340
0
  0
ENDTAB
  0
ENDSEC
  0
SECTION
  2
BLOCKS
  0
BLOCK
  5
43
330
1E
100
AcDbEntity
  8
0
100
AcDbBlockBegin
  2
*Model_Space
 70
     0
 10
0.0
 20
0.0
 30
0.0
  3
*Model_Space
  1

  0
ENDBLK
  5
44
330
1E
100
AcDbEntity
  8
0
100
AcDbBlockEnd
  0
BLOCK
  5
41
330
1A
100
AcDbEntity
 67
     1
  8
0
100
AcDbBlockBegin
  2
*Paper_Space
 70
     0
 10
0.0
 20
0.0
 30
0.0
  3
*Paper_Space
  1

  0
ENDBLK
  5
42
330
1A
100
AcDbEntity
 67
     1
  8
0
100
AcDbBlockEnd
  0
BLOCK
  5
45
330
22
100
AcDbEntity
  8
0
100
AcDbBlockBegin
  2
LOGO
 70
     0
 10
0.0
 20
0.0
 30
0.0
  3
LOGO
  1

  0
ARC
  5
46
330
22
100
AcDbEntity
  8
0
100
AcDbCircle
 10
11.59973089678112
 20
-9.271599258481501
 30
0.0
 40
4.5
100
AcDbArc
 50
270.0
 51
231.0575587310159
  0
LINE
  5
47
330
22
100
AcDbEntity
  8
0
100
AcDbLine
 10
3.599730896781125
 20
-4.771599258481529
 30
0.0
 11
3.599730896781153
 21
-11.77159925848133
 31
0.0
  0
LINE
  5
48
330
22
100
AcDbEntity
  8
0
100
AcDbLine
 10
2.599730896781125
 20
-4.771599258481529
 30
0.0
 11
2.599730896781153
 21
-11.77159925848133
 31
0.0
  0
CIRCLE
  5
49
330
22
100
AcDbEntity
  8
0
100
AcDbCircle
 10
11.59973089678112
 20
-9.271599258481501
 30
0.0
 40
3.5
  0
ARC
  5
4A
330
22
100
AcDbEntity
  8
0
100
AcDbCircle
 10
31.59973089678115
 20
-9.271599258481472
 30
0.0
 40
4.5
100
AcDbArc
 50
270.0
 51
231.0575587310182
  0
LINE
  5
4B
330
22
100
AcDbEntity
  8
0
100
AcDbLine
 10
17.59973089678112
 20
-4.771599258481472
 30
0.0
 11
17.59973089678115
 21
-13.77159925848147
 31
0.0
  0
ARC
  5
4C
330
22
100
AcDbEntity
  8
0
100
AcDbCircle
 10
22.59973089678116
 20
-7.271599258481472
 30
0.0
 40
2.5
100
AcDbArc
 50
293.1161887722295
 51
90.0
  0
CIRCLE
  5
4D
330
22
100
AcDbEntity
  8
0
100
AcDbCircle
 10
31.59973089678115
 20
-9.271599258481472
 30
0.0
 40
3.5
  0
ARC
  5
4E
330
22
100
AcDbEntity
  8
0
100
AcDbCircle
 10
4.599730896781153
 20
-11.77159925848133
 30
0.0
 40
1.0
100
AcDbArc
 50
180.0
 51
270.0
  0
ARC
  5
4F
330
22
100
AcDbEntity
  8
0
100
AcDbCircle
 10
4.599730896781153
 20
-11.77159925848133
 30
0.0
 40
2.0
100
AcDbArc
 50
179.9999999999992
 51
270.0
  0
LINE
  5
50
330
22
100
AcDbEntity
  8
0
100
AcDbLine
 10
11.59973089678115
 20
-13.77159925848144
 30
0.0
 11
4.599730896781153
 21
-13.77159925848147
 31
0.0
  0
LINE
  5
51
330
22
100
AcDbEntity
  8
0
100
AcDbLine
 10
8.771303772034769
 20
-12.77159925848136
 30
0.0
 11
4.599730896781153
 21
-12.77159925848133
 31
0.0
  0
LINE
  5
52
330
22
100
AcDbEntity
  8
0
100
AcDbLine
 10
31.59973089678115
 20
-13.77159925848147
 30
0.0
 11
23.6715276665056
 21
-13.77159925848144
 31
0.0
  0
LINE
  5
53
330
22
100
AcDbEntity
  8
0
100
AcDbLine
 10
23.56565672307022
 20
-9.51278021337896
 30
0.0
 11
24.4388546544846
 21
-12.77159925848144
 31
0.0
  0
LINE
  5
54
330
22
100
AcDbEntity
  8
0
100
AcDbLine
 10
22.59973089678116
 20
-9.771599258481472
 30
0.0
 11
18.59973089678112
 21
-9.771599258481472
 31
0.0
  0
LINE
  5
55
330
22
100
AcDbEntity
  8
0
100
AcDbLine
 10
18.59973089678115
 20
-13.77159925848144
 30
0.0
 11
17.59973089678115
 21
-13.77159925848144
 31
0.0
  0
LINE
  5
56
330
22
100
AcDbEntity
  8
0
100
AcDbLine
 10
18.59973089678115
 20
-9.771599258481472
 30
0.0
 11
18.59973089678115
 21
-13.77159925848144
 31
0.0
  0
LINE
  5
57
330
22
100
AcDbEntity
  8
0
100
AcDbLine
 10
22.59973089678116
 20
-9.771599258481472
 30
0.0
 11
23.67152766650562
 21
-13.77159925848147
 31
0.0
  0
ARC
  5
58
330
22
100
AcDbEntity
  8
0
100
AcDbCircle
 10
22.59973089678116
 20
-7.271599258481472
 30
0.0
 40
2.5
100
AcDbArc
 50
270.0
 51
270.0000000000007
  0
LINE
  5
59
330
22
100
AcDbEntity
  8
0
100
AcDbLine
 10
28.77130377203494
 20
-12.77159925848147
 30
0.0
 11
24.43885465448463
 21
-12.77159925848144
 31
0.0
  0
LINE
  5
5A
330
22
100
AcDbEntity
  8
0
100
AcDbLine
 10
3.599730896781125
 20
-4.771599258481472
 30
0.0
 11
2.599730896781125
 21
-4.771599258481472
 31
0.0
  0
LINE
  5
5B
330
22
100
AcDbEntity
  8
0
100
AcDbLine
 10
22.59973089678116
 20
-8.771599258481472
 30
0.0
 11
18.59973089678115
 21
-8.771599258481472
 31
0.0
  0
LINE
  5
5C
330
22
100
AcDbEntity
  8
0
100
AcDbLine
 10
22.59973089678116
 20
-5.771599258481472
 30
0.0
 11
18.59973089678115
 21
-5.771599258481472
 31
0.0
  0
LINE
  5
5D
330
22
100
AcDbEntity
  8
0
100
AcDbLine
 10
22.59973089678116
 20
-4.771599258481472
 30
0.0
 11
17.59973089678115
 21
-4.771599258481472
 31
0.0
  0
LINE
  5
5E
330
22
100
AcDbEntity
  8
0
100
AcDbLine
 10
18.59973089678115
 20
-5.771599258481472
 30
0.0
 11
18.59973089678115
 21
-8.771599258481472
 31
0.0
  0
ARC
  5
5F
330
22
100
AcDbEntity
  8
0
100
AcDbCircle
 10
22.59973089678116
 20
-7.271599258481472
 30
0.0
 40
1.5
100
AcDbArc
 50
270.0
 51
90.0
  0
ENDBLK
  5
60
330
22
100
AcDbEntity
  8
0
100
AcDbBlockEnd
  0
BLOCK
  5
EF4
330
EEA
100
AcDbEntity
  8
0
100
AcDbBlockBegin
  2
*D1
 70
     1
 10
0.0
 20
0.0
 30
0.0
  3
*D1
  1

  0
LINE
  5
F02
330
EEA
100
AcDbEntity
  8
BEM
 62
     0
370
    -2
100
AcDbLine
 10
158.4999999999999
 20
262.5845871233628
 30
0.0
 11
158.4999999999999
 21
226.4606441406944
 31
0.0
  0
LINE
  5
F03
330
EEA
100
AcDbEntity
  8
BEM
 62
     0
370
    -2
100
AcDbLine
 10
291.5000000000004
 20
262.5845871233631
 30
0.0
 11
291.5000000000004
 21
226.4606441406944
 31
0.0
  0
LINE
  5
F04
330
EEA
100
AcDbEntity
  8
BEM
 62
     0
370
    -2
100
AcDbLine
 10
165.5
 20
228.4606441406944
 30
0.0
 11
284.5000000000005
 21
228.4606441406944
 31
0.0
  0
SOLID
  5
F05
330
EEA
100
AcDbEntity
  8
BEM
 62
     0
100
AcDbTrace
 10
165.5
 20
229.627310807361
 30
0.0
 11
165.5
 21
227.2939774740277
 31
0.0
 12
158.4999999999999
 22
228.4606441406944
 32
0.0
 13
158.4999999999999
 23
228.4606441406944
 33
0.0
  0
SOLID
  5
F06
330
EEA
100
AcDbEntity
  8
BEM
 62
     0
100
AcDbTrace
 10
284.5000000000005
 20
229.627310807361
 30
0.0
 11
284.5000000000005
 21
227.2939774740277
 31
0.0
 12
291.5000000000004
 22
228.4606441406944
 32
0.0
 13
291.5000000000004
 23
228.4606441406944
 33
0.0
  0
MTEXT
  5
F07
330
EEA
100
AcDbEntity
  8
BEM
 62
     1
100
AcDbMText
 10
225.0000000000002
 20
234.9606441406943
 30
0.0
 40
7.0
 41
0.0
 71
     5
 72
     1
  1
\A1;%%c133
 73
     1
 44
1.0
  0
POINT
  5
F08
330
EEA
100
AcDbEntity
  8
DEFPOINTS
 62
     0
100
AcDbPoint
 10
158.4999999999999
 20
264.5845871233628
 30
0.0
  0
POINT
  5
F09
330
EEA
100
AcDbEntity
  8
DEFPOINTS
 62
     0
100
AcDbPoint
 10
291.5000000000004
 20
264.5845871233631
 30
0.0
  0
POINT
  5
F0A
330
EEA
100
AcDbEntity
  8
DEFPOINTS
 62
     0
100
AcDbPoint
 10
291.5000000000004
 20
228.4606441406944
 30
0.0
  0
ENDBLK
  5
EF5
330
EEA
100
AcDbEntity
  8
0
100
AcDbBlockEnd
  0
BLOCK
  5
FA3
330
F2A
100
AcDbEntity
  8
0
100
AcDbBlockBegin
  2
*X3
 70
     1
 10
0.0
 20
0.0
 30
0.0
  3
*X3
  1

  0
LINE
  5
F2B
330
F2A
100
AcDbEntity
  8
0
 62
     0
100
AcDbLine
 10
190.612414432382
 20
351.5
 30
0.0
 11
192.5364949926915
 21
351.5
 31
0.0
  0
LINE
  5
F2C
330
F2A
100
AcDbEntity
  8
0
 62
     0
100
AcDbLine
 10
310.5929569816621
 20
351.5
 30
0.0
 11
312.5170375419712
 21
351.5
 31
0.0
  0
LINE
  5
F2D
330
F2A
100
AcDbEntity
  8
0
 62
     0
100
AcDbLine
 10
190.6288142052983
 20
351.6
 30
0.0
 11
193.5762607495951
 21
351.6
 31
0.0
  0
LINE
  5
F2E
330
F2A
100
AcDbEntity
  8
0
 62
     0
100
AcDbLine
 10
309.5531912247584
 20
351.6
 30
0.0
 11
312.500637769055
 21
351.6
 31
0.0
  0
LINE
  5
F2F
330
F2A
100
AcDbEntity
  8
0
 62
     0
100
AcDbLine
 10
190.6480546303345
 20
351.7
 30
0.0
 11
193.6229274162617
 21
351.7
 31
0.0
  0
LINE
  5
F30
330
F2A
100
AcDbEntity
  8
0
 62
     0
100
AcDbLine
 10
309.5065245580918
 20
351.7
 30
0.0
 11
312.4813973440187
 21
351.7
 31
0.0
  0
LINE
  5
F31
330
F2A
100
AcDbEntity
  8
0
 62
     0
100
AcDbLine
 10
190.670181361743
 20
351.8
 30
0.0
 11
193.6695940829284
 21
351.8
 31
0.0
  0
LINE
  5
F32
330
F2A
100
AcDbEntity
  8
0
 62
     0
100
AcDbLine
 10
309.4598578914252
 20
351.8
 30
0.0
 11
312.4592706126102
 21
351.8
 31
0.0
  0
LINE
  5
F33
330
F2A
100
AcDbEntity
  8
0
 62
     0
100
AcDbLine
 10
190.6952481211951
 20
351.9000000000001
 30
0.0
 11
193.7162607495951
 21
351.9000000000001
 31
0.0
  0
LINE
  5
F34
330
F2A
100
AcDbEntity
  8
0
 62
     0
100
AcDbLine
 10
309.4131912247584
 20
351.9000000000001
 30
0.0
 11
312.434203853158
 21
351.9000000000001
 31
0.0
  0
LINE
  5
F35
330
F2A
100
AcDbEntity
  8
0
 62
     0
100
AcDbLine
 10
190.7233173929419
 20
352.0
 30
0.0
 11
193.7629274162617
 21
352.0
 31
0.0
  0
LINE
  5
F36
330
F2A
100
AcDbEntity
  8
0
 62
     0
100
AcDbLine
 10
309.3665245580918
 20
352.0
 30
0.0
 11
312.4061345814113
 21
352.0
 31
0.0
  0
LINE
  5
F37
330
F2A
100
AcDbEntity
  8
0
 62
     0
100
AcDbLine
 10
190.7544612671035
 20
352.1
 30
0.0
 11
193.8095940829284
 21
352.1
 31
0.0
  0
LINE
  5
F38
330
F2A
100
AcDbEntity
  8
0
 62
     0
100
AcDbLine
 10
309.3198578914252
 20
352.1
 30
0.0
 11
312.3749907072498
 21
352.1
 31
0.0
  0
LINE
  5
F39
330
F2A
100
AcDbEntity
  8
0
 62
     0
100
AcDbLine
 10
190.7887624596064
 20
352.2000000000001
 30
0.0
 11
193.8562607495951
 21
352.2000000000001
 31
0.0
  0
LINE
  5
F3A
330
F2A
100
AcDbEntity
  8
0
 62
     0
100
AcDbLine
 10
309.2731912247585
 20
352.2000000000001
 30
0.0
 11
312.3406895147468
 21
352.2000000000001
 31
0.0
  0
LINE
  5
F3B
330
F2A
100
AcDbEntity
  8
0
 62
     0
100
AcDbLine
 10
190.826315545384
 20
352.3
 30
0.0
 11
193.9029274162617
 21
352.3
 31
0.0
  0
LINE
  5
F3C
330
F2A
100
AcDbEntity
  8
0
 62
     0
100
AcDbLine
 10
309.2265245580918
 20
352.3
 30
0.0
 11
312.3031364289693
 21
352.3
 31
0.0
  0
LINE
  5
F3D
330
F2A
100
AcDbEntity
  8
0
 62
     0
100
AcDbLine
 10
190.8672284520848
 20
352.4
 30
0.0
 11
193.9495940829284
 21
352.4
 31
0.0
  0
LINE
  5
F3E
330
F2A
100
AcDbEntity
  8
0
 62
     0
100
AcDbLine
 10
309.1798578914251
 20
352.4
 30
0.0
 11
312.2622235222685
 21
352.4
 31
0.0
  0
LINE
  5
F3F
330
F2A
100
AcDbEntity
  8
0
 62
     0
100
AcDbLine
 10
190.9116242756848
 20
352.5
 30
0.0
 11
193.9962607495951
 21
352.5
 31
0.0
  0
LINE
  5
F40
330
F2A
100
AcDbEntity
  8
0
 62
     0
100
AcDbLine
 10
309.1331912247585
 20
352.5
 30
0.0
 11
312.2178276986685
 21
352.5
 31
0.0
  0
LINE
  5
F41
330
F2A
100
AcDbEntity
  8
0
 62
     0
100
AcDbLine
 10
190.9596434984848
 20
352.6
 30
0.0
 11
194.0429274162617
 21
352.6
 31
0.0
  0
LINE
  5
F42
330
F2A
100
AcDbEntity
  8
0
 62
     0
100
AcDbLine
 10
309.0865245580918
 20
352.6
 30
0.0
 11
312.1698084758684
 21
352.6
 31
0.0
  0
LINE
  5
F43
330
F2A
100
AcDbEntity
  8
0
 62
     0
100
AcDbLine
 10
191.011446716083
 20
352.7000000000001
 30
0.0
 11
194.0895940829284
 21
352.7000000000001
 31
0.0
  0
LINE
  5
F44
330
F2A
100
AcDbEntity
  8
0
 62
     0
100
AcDbLine
 10
309.0398578914251
 20
352.7000000000001
 30
0.0
 11
312.1180052582702
 21
352.7000000000001
 31
0.0
  0
LINE
  5
F45
330
F2A
100
AcDbEntity
  8
0
 62
     0
100
AcDbLine
 10
191.0672180161611
 20
352.8
 30
0.0
 11
194.1362607495951
 21
352.8
 31
0.0
  0
LINE
  5
F46
330
F2A
100
AcDbEntity
  8
0
 62
     0
100
AcDbLine
 10
308.9931912247585
 20
352.8
 30
0.0
 11
312.0622339581921
 21
352.8
 31
0.0
  0
LINE
  5
F47
330
F2A
100
AcDbEntity
  8
0
 62
     0
100
AcDbLine
 10
191.1271692030514
 20
352.9
 30
0.0
 11
194.1829274162618
 21
352.9
 31
0.0
  0
LINE
  5
F48
330
F2A
100
AcDbEntity
  8
0
 62
     0
100
AcDbLine
 10
308.9465245580918
 20
352.9
 30
0.0
 11
312.0022827713017
 21
352.9
 31
0.0
  0
LINE
  5
F49
330
F2A
100
AcDbEntity
  8
0
 62
     0
100
AcDbLine
 10
191.1915451354295
 20
353.0
 30
0.0
 11
194.2295940829284
 21
353.0
 31
0.0
  0
LINE
  5
F4A
330
F2A
100
AcDbEntity
  8
0
 62
     0
100
AcDbLine
 10
308.8998578914251
 20
353.0
 30
0.0
 11
311.9379068389237
 21
353.0
 31
0.0
  0
LINE
  5
F4B
330
F2A
100
AcDbEntity
  8
0
 62
     0
100
AcDbLine
 10
191.2606305517925
 20
353.1
 30
0.0
 11
194.2762607495951
 21
353.1
 31
0.0
  0
LINE
  5
F4C
330
F2A
100
AcDbEntity
  8
0
 62
     0
100
AcDbLine
 10
308.8531912247585
 20
353.1
 30
0.0
 11
311.8688214225607
 21
353.1
 31
0.0
  0
LINE
  5
F4D
330
F2A
100
AcDbEntity
  8
0
 62
     0
100
AcDbLine
 10
191.3347589186628
 20
353.2
 30
0.0
 11
194.3229274162618
 21
353.2
 31
0.0
  0
LINE
  5
F4E
330
F2A
100
AcDbEntity
  8
0
 62
     0
100
AcDbLine
 10
308.8065245580918
 20
353.2
 30
0.0
 11
311.7946930556903
 21
353.2
 31
0.0
  0
LINE
  5
F4F
330
F2A
100
AcDbEntity
  8
0
 62
     0
100
AcDbLine
 10
191.4143240814895
 20
353.3
 30
0.0
 11
194.3695940829284
 21
353.3
 31
0.0
  0
LINE
  5
F50
330
F2A
100
AcDbEntity
  8
0
 62
     0
100
AcDbLine
 10
308.7598578914251
 20
353.3
 30
0.0
 11
311.7151278928637
 21
353.3
 31
0.0
  0
LINE
  5
F51
330
F2A
100
AcDbEntity
  8
0
 62
     0
100
AcDbLine
 10
191.499795882782
 20
353.4
 30
0.0
 11
194.4162607495951
 21
353.4
 31
0.0
  0
LINE
  5
F52
330
F2A
100
AcDbEntity
  8
0
 62
     0
100
AcDbLine
 10
308.7131912247585
 20
353.4
 30
0.0
 11
311.6296560915712
 21
353.4
 31
0.0
  0
LINE
  5
F53
330
F2A
100
AcDbEntity
  8
0
 62
     0
100
AcDbLine
 10
191.5917415337822
 20
353.5
 30
0.0
 11
194.4629274162617
 21
353.5
 31
0.0
  0
LINE
  5
F54
330
F2A
100
AcDbEntity
  8
0
 62
     0
100
AcDbLine
 10
308.6665245580919
 20
353.5
 30
0.0
 11
311.5377104405709
 21
353.5
 31
0.0
  0
LINE
  5
F55
330
F2A
100
AcDbEntity
  8
0
 62
     0
100
AcDbLine
 10
191.690855566055
 20
353.6
 30
0.0
 11
194.5095940829284
 21
353.6
 31
0.0
  0
LINE
  5
F56
330
F2A
100
AcDbEntity
  8
0
 62
     0
100
AcDbLine
 10
308.6198578914252
 20
353.6
 30
0.0
 11
311.4385964082982
 21
353.6
 31
0.0
  0
LINE
  5
F57
330
F2A
100
AcDbEntity
  8
0
 62
     0
100
AcDbLine
 10
191.7980029989986
 20
353.7
 30
0.0
 11
194.5562607495951
 21
353.7
 31
0.0
  0
LINE
  5
F58
330
F2A
100
AcDbEntity
  8
0
 62
     0
100
AcDbLine
 10
308.5731912247585
 20
353.7
 30
0.0
 11
311.3314489753545
 21
353.7
 31
0.0
  0
LINE
  5
F59
330
F2A
100
AcDbEntity
  8
0
 62
     0
100
AcDbLine
 10
191.9142836563048
 20
353.8
 30
0.0
 11
194.6029274162617
 21
353.8
 31
0.0
  0
LINE
  5
F5A
330
F2A
100
AcDbEntity
  8
0
 62
     0
100
AcDbLine
 10
308.5265245580918
 20
353.8
 30
0.0
 11
311.2151683180483
 21
353.8
 31
0.0
  0
LINE
  5
F5B
330
F2A
100
AcDbEntity
  8
0
 62
     0
100
AcDbLine
 10
192.0411319096494
 20
353.9000000000001
 30
0.0
 11
194.6495940829284
 21
353.9000000000001
 31
0.0
  0
LINE
  5
F5C
330
F2A
100
AcDbEntity
  8
0
 62
     0
100
AcDbLine
 10
308.4798578914251
 20
353.9000000000001
 30
0.0
 11
311.0883200647037
 21
353.9000000000001
 31
0.0
  0
LINE
  5
F5D
330
F2A
100
AcDbEntity
  8
0
 62
     0
100
AcDbLine
 10
192.1804791774855
 20
354.0
 30
0.0
 11
194.6962607495951
 21
354.0
 31
0.0
  0
LINE
  5
F5E
330
F2A
100
AcDbEntity
  8
0
 62
     0
100
AcDbLine
 10
308.4331912247585
 20
354.0
 30
0.0
 11
310.9489727968675
 21
354.0
 31
0.0
  0
LINE
  5
F5F
330
F2A
100
AcDbEntity
  8
0
 62
     0
100
AcDbLine
 10
192.3350356468166
 20
354.1
 30
0.0
 11
194.7429274162617
 21
354.1
 31
0.0
  0
LINE
  5
F60
330
F2A
100
AcDbEntity
  8
0
 62
     0
100
AcDbLine
 10
308.3865245580918
 20
354.1
 30
0.0
 11
310.7944163275364
 21
354.1
 31
0.0
  0
LINE
  5
F61
330
F2A
100
AcDbEntity
  8
0
 62
     0
100
AcDbLine
 10
192.5088199826038
 20
354.2000000000001
 30
0.0
 11
194.7895940829284
 21
354.2000000000001
 31
0.0
  0
LINE
  5
F62
330
F2A
100
AcDbEntity
  8
0
 62
     0
100
AcDbLine
 10
308.3398578914251
 20
354.2000000000001
 30
0.0
 11
310.6206319917492
 21
354.2000000000001
 31
0.0
  0
LINE
  5
F63
330
F2A
100
AcDbEntity
  8
0
 62
     0
100
AcDbLine
 10
192.7082722673621
 20
354.3
 30
0.0
 11
194.8362607495951
 21
354.3
 31
0.0
  0
LINE
  5
F64
330
F2A
100
AcDbEntity
  8
0
 62
     0
100
AcDbLine
 10
308.2931912247585
 20
354.3
 30
0.0
 11
310.4211797069908
 21
354.3
 31
0.0
  0
LINE
  5
F65
330
F2A
100
AcDbEntity
  8
0
 62
     0
100
AcDbLine
 10
192.9450063911723
 20
354.4
 30
0.0
 11
194.8829274162617
 21
354.4
 31
0.0
  0
LINE
  5
F66
330
F2A
100
AcDbEntity
  8
0
 62
     0
100
AcDbLine
 10
308.2465245580918
 20
354.4
 30
0.0
 11
310.1844455831805
 21
354.4
 31
0.0
  0
LINE
  5
F67
330
F2A
100
AcDbEntity
  8
0
 62
     0
100
AcDbLine
 10
193.2447349534289
 20
354.5
 30
0.0
 11
194.9295940829284
 21
354.5
 31
0.0
  0
LINE
  5
F68
330
F2A
100
AcDbEntity
  8
0
 62
     0
100
AcDbLine
 10
308.1998578914252
 20
354.5
 30
0.0
 11
309.8847170209236
 21
354.5
 31
0.0
  0
LINE
  5
F69
330
F2A
100
AcDbEntity
  8
0
 62
     0
100
AcDbLine
 10
190.5988171554517
 20
351.4
 30
0.0
 11
192.4989949926915
 21
351.4
 31
0.0
  0
LINE
  5
F6A
330
F2A
100
AcDbEntity
  8
0
 62
     0
100
AcDbLine
 10
310.6304569816621
 20
351.4
 30
0.0
 11
312.5306348189015
 21
351.4
 31
0.0
  0
LINE
  5
F6B
330
F2A
100
AcDbEntity
  8
0
 62
     0
100
AcDbLine
 10
190.5879912556757
 20
351.3
 30
0.0
 11
192.4614949926915
 21
351.3
 31
0.0
  0
LINE
  5
F6C
330
F2A
100
AcDbEntity
  8
0
 62
     0
100
AcDbLine
 10
310.6679569816621
 20
351.3
 30
0.0
 11
312.5414607186775
 21
351.3
 31
0.0
  0
LINE
  5
F6D
330
F2A
100
AcDbEntity
  8
0
 62
     0
100
AcDbLine
 10
190.5799122857182
 20
351.2
 30
0.0
 11
192.4239949926915
 21
351.2
 31
0.0
  0
LINE
  5
F6E
330
F2A
100
AcDbEntity
  8
0
 62
     0
100
AcDbLine
 10
310.7054569816621
 20
351.2
 30
0.0
 11
312.5495396886351
 21
351.2
 31
0.0
  0
LINE
  5
F6F
330
F2A
100
AcDbEntity
  8
0
 62
     0
100
AcDbLine
 10
190.574562188627
 20
351.1
 30
0.0
 11
192.3864949926915
 21
351.1
 31
0.0
  0
LINE
  5
F70
330
F2A
100
AcDbEntity
  8
0
 62
     0
100
AcDbLine
 10
310.7429569816621
 20
351.1
 30
0.0
 11
312.5548897857262
 21
351.1
 31
0.0
  0
LINE
  5
F71
330
F2A
100
AcDbEntity
  8
0
 62
     0
100
AcDbLine
 10
190.5719290937263
 20
351.0
 30
0.0
 11
192.3489949926915
 21
351.0
 31
0.0
  0
LINE
  5
F72
330
F2A
100
AcDbEntity
  8
0
 62
     0
100
AcDbLine
 10
310.7804569816621
 20
351.0
 30
0.0
 11
312.557522880627
 21
351.0
 31
0.0
  0
LINE
  5
F73
330
F2A
100
AcDbEntity
  8
0
 62
     0
100
AcDbLine
 10
190.5720071840594
 20
350.9
 30
0.0
 11
192.3114949926915
 21
350.9
 31
0.0
  0
LINE
  5
F74
330
F2A
100
AcDbEntity
  8
0
 62
     0
100
AcDbLine
 10
310.8179569816621
 20
350.9
 30
0.0
 11
312.5574447902939
 21
350.9
 31
0.0
  0
LINE
  5
F75
330
F2A
100
AcDbEntity
  8
0
 62
     0
100
AcDbLine
 10
190.5747966319019
 20
350.8
 30
0.0
 11
192.2739949926915
 21
350.8
 31
0.0
  0
LINE
  5
F76
330
F2A
100
AcDbEntity
  8
0
 62
     0
100
AcDbLine
 10
310.8554569816621
 20
350.8
 30
0.0
 11
312.5546553424513
 21
350.8
 31
0.0
  0
LINE
  5
F77
330
F2A
100
AcDbEntity
  8
0
 62
     0
100
AcDbLine
 10
190.5803036006673
 20
350.7000000000001
 30
0.0
 11
192.2364949926915
 21
350.7000000000001
 31
0.0
  0
LINE
  5
F78
330
F2A
100
AcDbEntity
  8
0
 62
     0
100
AcDbLine
 10
310.8929569816621
 20
350.7000000000001
 30
0.0
 11
312.549148373686
 21
350.7000000000001
 31
0.0
  0
LINE
  5
F79
330
F2A
100
AcDbEntity
  8
0
 62
     0
100
AcDbLine
 10
190.5885403132538
 20
350.6
 30
0.0
 11
192.1989949926915
 21
350.6
 31
0.0
  0
LINE
  5
F7A
330
F2A
100
AcDbEntity
  8
0
 62
     0
100
AcDbLine
 10
310.9304569816621
 20
350.6
 30
0.0
 11
312.5409116610994
 21
350.6
 31
0.0
  0
LINE
  5
F7B
330
F2A
100
AcDbEntity
  8
0
 62
     0
100
AcDbLine
 10
190.5995251886124
 20
350.5
 30
0.0
 11
192.1614949926915
 21
350.5
 31
0.0
  0
LINE
  5
F7C
330
F2A
100
AcDbEntity
  8
0
 62
     0
100
AcDbLine
 10
310.9679569816621
 20
350.5
 30
0.0
 11
312.5299267857408
 21
350.5
 31
0.0
  0
LINE
  5
F7D
330
F2A
100
AcDbEntity
  8
0
 62
     0
100
AcDbLine
 10
190.6132830501235
 20
350.4
 30
0.0
 11
192.1239949926915
 21
350.4
 31
0.0
  0
LINE
  5
F7E
330
F2A
100
AcDbEntity
  8
0
 62
     0
100
AcDbLine
 10
311.0054569816621
 20
350.4
 30
0.0
 11
312.5161689242298
 21
350.4
 31
0.0
  0
LINE
  5
F7F
330
F2A
100
AcDbEntity
  8
0
 62
     0
100
AcDbLine
 10
190.6298454113575
 20
350.3
 30
0.0
 11
192.0864949926914
 21
350.3
 31
0.0
  0
LINE
  5
F80
330
F2A
100
AcDbEntity
  8
0
 62
     0
100
AcDbLine
 10
311.0429569816621
 20
350.3
 30
0.0
 11
312.4996065629957
 21
350.3
 31
0.0
  0
LINE
  5
F81
330
F2A
100
AcDbEntity
  8
0
 62
     0
100
AcDbLine
 10
190.6492508470496
 20
350.2000000000001
 30
0.0
 11
192.0489949926915
 21
350.2000000000001
 31
0.0
  0
LINE
  5
F82
330
F2A
100
AcDbEntity
  8
0
 62
     0
100
AcDbLine
 10
311.0804569816621
 20
350.2000000000001
 30
0.0
 11
312.4802011273037
 21
350.2000000000001
 31
0.0
  0
LINE
  5
F83
330
F2A
100
AcDbEntity
  8
0
 62
     0
100
AcDbLine
 10
190.6715454597668
 20
350.1
 30
0.0
 11
192.0114949926915
 21
350.1
 31
0.0
  0
LINE
  5
F84
330
F2A
100
AcDbEntity
  8
0
 62
     0
100
AcDbLine
 10
311.1179569816621
 20
350.1
 30
0.0
 11
312.4579065145864
 21
350.1
 31
0.0
  0
LINE
  5
F85
330
F2A
100
AcDbEntity
  8
0
 62
     0
100
AcDbLine
 10
190.6967834559488
 20
350.0
 30
0.0
 11
191.9739949926915
 21
350.0
 31
0.0
  0
LINE
  5
F86
330
F2A
100
AcDbEntity
  8
0
 62
     0
100
AcDbLine
 10
311.1554569816621
 20
350.0
 30
0.0
 11
312.4326685184044
 21
350.0
 31
0.0
  0
LINE
  5
F87
330
F2A
100
AcDbEntity
  8
0
 62
     0
100
AcDbLine
 10
190.7250278489465
 20
349.9
 30
0.0
 11
191.9364949926915
 21
349.9
 31
0.0
  0
LINE
  5
F88
330
F2A
100
AcDbEntity
  8
0
 62
     0
100
AcDbLine
 10
311.192956981662
 20
349.9
 30
0.0
 11
312.4044241254066
 21
349.9
 31
0.0
  0
LINE
  5
F89
330
F2A
100
AcDbEntity
  8
0
 62
     0
100
AcDbLine
 10
190.7563513116496
 20
349.8
 30
0.0
 11
191.8989949926915
 21
349.8
 31
0.0
  0
LINE
  5
F8A
330
F2A
100
AcDbEntity
  8
0
 62
     0
100
AcDbLine
 10
311.2304569816621
 20
349.8
 30
0.0
 11
312.3731006627036
 21
349.8
 31
0.0
  0
LINE
  5
F8B
330
F2A
100
AcDbEntity
  8
0
 62
     0
100
AcDbLine
 10
190.7908372076298
 20
349.7
 30
0.0
 11
191.8614949926915
 21
349.7
 31
0.0
  0
LINE
  5
F8C
330
F2A
100
AcDbEntity
  8
0
 62
     0
100
AcDbLine
 10
311.267956981662
 20
349.7
 30
0.0
 11
312.3386147667233
 21
349.7
 31
0.0
  0
LINE
  5
F8D
330
F2A
100
AcDbEntity
  8
0
 62
     0
100
AcDbLine
 10
190.8285808379538
 20
349.6
 30
0.0
 11
191.8239949926915
 21
349.6
 31
0.0
  0
LINE
  5
F8E
330
F2A
100
AcDbEntity
  8
0
 62
     0
100
AcDbLine
 10
311.3054569816621
 20
349.6
 30
0.0
 11
312.3008711363994
 21
349.6
 31
0.0
  0
LINE
  5
F8F
330
F2A
100
AcDbEntity
  8
0
 62
     0
100
AcDbLine
 10
190.8696909516178
 20
349.5
 30
0.0
 11
191.7864949926915
 21
349.5
 31
0.0
  0
LINE
  5
F90
330
F2A
100
AcDbEntity
  8
0
 62
     0
100
AcDbLine
 10
311.3429569816621
 20
349.5
 30
0.0
 11
312.2597610227354
 21
349.5
 31
0.0
  0
LINE
  5
F91
330
F2A
100
AcDbEntity
  8
0
 62
     0
100
AcDbLine
 10
190.9142915819501
 20
349.4
 30
0.0
 11
191.7489949926915
 21
349.4
 31
0.0
  0
LINE
  5
F92
330
F2A
100
AcDbEntity
  8
0
 62
     0
100
AcDbLine
 10
311.3804569816621
 20
349.4
 30
0.0
 11
312.2151603924031
 21
349.4
 31
0.0
  0
LINE
  5
F93
330
F2A
100
AcDbEntity
  8
0
 62
     0
100
AcDbLine
 10
190.9625242907511
 20
349.3
 30
0.0
 11
191.7114949926915
 21
349.3
 31
0.0
  0
LINE
  5
F94
330
F2A
100
AcDbEntity
  8
0
 62
     0
100
AcDbLine
 10
311.4179569816621
 20
349.3
 30
0.0
 11
312.1669276836021
 21
349.3
 31
0.0
  0
LINE
  5
F95
330
F2A
100
AcDbEntity
  8
0
 62
     0
100
AcDbLine
 10
191.0145509285394
 20
349.2
 30
0.0
 11
191.6739949926915
 21
349.2
 31
0.0
  0
LINE
  5
F96
330
F2A
100
AcDbEntity
  8
0
 62
     0
100
AcDbLine
 10
311.4554569816621
 20
349.2
 30
0.0
 11
312.1149010458138
 21
349.2
 31
0.0
  0
LINE
  5
F97
330
F2A
100
AcDbEntity
  8
0
 62
     0
100
AcDbLine
 10
191.0705570562285
 20
349.1
 30
0.0
 11
191.6364949926915
 21
349.1
 31
0.0
  0
LINE
  5
F98
330
F2A
100
AcDbEntity
  8
0
 62
     0
100
AcDbLine
 10
311.4929569816621
 20
349.1
 30
0.0
 11
312.0588949181247
 21
349.1
 31
0.0
  0
LINE
  5
F99
330
F2A
100
AcDbEntity
  8
0
 62
     0
100
AcDbLine
 10
191.1307562257374
 20
349.0
 30
0.0
 11
191.5989949926915
 21
349.0
 31
0.0
  0
LINE
  5
F9A
330
F2A
100
AcDbEntity
  8
0
 62
     0
100
AcDbLine
 10
311.5304569816621
 20
349.0
 30
0.0
 11
311.9986957486158
 21
349.0
 31
0.0
  0
LINE
  5
F9B
330
F2A
100
AcDbEntity
  8
0
 62
     0
100
AcDbLine
 10
191.1953953920023
 20
348.9
 30
0.0
 11
191.5614949926915
 21
348.9
 31
0.0
  0
LINE
  5
F9C
330
F2A
100
AcDbEntity
  8
0
 62
     0
100
AcDbLine
 10
311.5679569816621
 20
348.9
 30
0.0
 11
311.9340565823509
 21
348.9
 31
0.0
  0
LINE
  5
F9D
330
F2A
100
AcDbEntity
  8
0
 62
     0
100
AcDbLine
 10
191.2647618386168
 20
348.8
 30
0.0
 11
191.5239949926915
 21
348.8
 31
0.0
  0
LINE
  5
F9E
330
F2A
100
AcDbEntity
  8
0
 62
     0
100
AcDbLine
 10
311.6054569816621
 20
348.8
 30
0.0
 11
311.8646901357364
 21
348.8
 31
0.0
  0
LINE
  5
F9F
330
F2A
100
AcDbEntity
  8
0
 62
     0
100
AcDbLine
 10
191.339192163467
 20
348.7
 30
0.0
 11
191.4864949926915
 21
348.7
 31
0.0
  0
LINE
  5
FA0
330
F2A
100
AcDbEntity
  8
0
 62
     0
100
AcDbLine
 10
311.6429569816621
 20
348.7
 30
0.0
 11
311.7902598108861
 21
348.7
 31
0.0
  0
LINE
  5
FA1
330
F2A
100
AcDbEntity
  8
0
 62
     0
100
AcDbLine
 10
191.4190841220226
 20
348.6
 30
0.0
 11
191.4489949926915
 21
348.6
 31
0.0
  0
LINE
  5
FA2
330
F2A
100
AcDbEntity
  8
0
 62
     0
100
AcDbLine
 10
311.6804569816621
 20
348.6
 30
0.0
 11
311.7103678523306
 21
348.6
 31
0.0
  0
ENDBLK
  5
FA4
330
F2A
100
AcDbEntity
  8
0
100
AcDbBlockEnd
  0
BLOCK
  5
1004
330
FF9
100
AcDbEntity
  8
0
100
AcDbBlockBegin
  2
*D4
 70
     1
 10
0.0
 20
0.0
 30
0.0
  3
*D4
  1

  0
LINE
  5
1019
330
FF9
100
AcDbEntity
  8
BEM
 62
     0
370
    -2
100
AcDbLine
 10
157.8123299528888
 20
254.5845871233629
 30
0.0
 11
137.478372227454
 21
254.5845871233629
 31
0.0
  0
LINE
  5
101A
330
FF9
100
AcDbEntity
  8
BEM
 62
     0
370
    -2
100
AcDbLine
 10
156.7486780888283
 20
354.5845871233629
 30
0.0
 11
137.478372227454
 21
354.5845871233629
 31
0.0
  0
LINE
  5
101B
330
FF9
100
AcDbEntity
  8
BEM
 62
     0
370
    -2
100
AcDbLine
 10
139.478372227454
 20
261.5845871233628
 30
0.0
 11
139.478372227454
 21
347.5845871233629
 31
0.0
  0
SOLID
  5
101C
330
FF9
100
AcDbEntity
  8
BEM
 62
     0
100
AcDbTrace
 10
138.3117055607874
 20
261.5845871233628
 30
0.0
 11
140.6450388941207
 21
261.5845871233628
 31
0.0
 12
139.478372227454
 22
254.5845871233629
 32
0.0
 13
139.478372227454
 23
254.5845871233629
 33
0.0
  0
SOLID
  5
101D
330
FF9
100
AcDbEntity
  8
BEM
 62
     0
100
AcDbTrace
 10
138.3117055607874
 20
347.5845871233629
 30
0.0
 11
140.6450388941207
 21
347.5845871233629
 31
0.0
 12
139.478372227454
 22
354.5845871233629
 32
0.0
 13
139.478372227454
 23
354.5845871233629
 33
0.0
  0
MTEXT
  5
101E
330
FF9
100
AcDbEntity
  8
BEM
 62
     1
100
AcDbMText
 10
132.978372227454
 20
304.5845871233629
 30
0.0
 40
7.0
 41
0.0
 71
     5
 72
     1
  1
\A1;100
 11
0.0000000000000001
 21
1.0
 31
0.0
 73
     1
 44
1.0
  0
POINT
  5
101F
330
FF9
100
AcDbEntity
  8
DEFPOINTS
 62
     0
100
AcDbPoint
 10
159.8123299528888
 20
254.5845871233629
 30
0.0
  0
POINT
  5
1020
330
FF9
100
AcDbEntity
  8
DEFPOINTS
 62
     0
100
AcDbPoint
 10
158.7486780888283
 20
354.5845871233629
 30
0.0
  0
POINT
  5
1021
330
FF9
100
AcDbEntity
  8
DEFPOINTS
 62
     0
100
AcDbPoint
 10
139.478372227454
 20
354.5845871233629
 30
0.0
  0
ENDBLK
  5
1005
330
FF9
100
AcDbEntity
  8
0
100
AcDbBlockEnd
  0
BLOCK
  5
10F4
330
10EA
100
AcDbEntity
  8
0
100
AcDbBlockBegin
  2
*D6
 70
     1
 10
0.0
 20
0.0
 30
0.0
  3
*D6
  1

  0
LINE
  5
120F
330
10EA
100
AcDbEntity
  8
BEM
 62
     0
370
    -2
100
AcDbLine
 10
157.3748866352592
 20
254.5845871233628
 30
0.0
 11
120.6668544304124
 21
254.5845871233628
 31
0.0
  0
LINE
  5
1210
330
10EA
100
AcDbEntity
  8
BEM
 62
     0
370
    -2
100
AcDbLine
 10
168.3402170812767
 20
484.5878800276931
 30
0.0
 11
120.6668544304125
 21
484.5878800276931
 31
0.0
  0
LINE
  5
1211
330
10EA
100
AcDbEntity
  8
BEM
 62
     0
370
    -2
100
AcDbLine
 10
122.6668544304124
 20
261.5845871233628
 30
0.0
 11
122.6668544304125
 21
477.5878800276932
 31
0.0
  0
SOLID
  5
1212
330
10EA
100
AcDbEntity
  8
BEM
 62
     0
100
AcDbTrace
 10
121.5001877637458
 20
261.5845871233628
 30
0.0
 11
123.8335210970791
 21
261.5845871233628
 31
0.0
 12
122.6668544304124
 22
254.5845871233628
 32
0.0
 13
122.6668544304124
 23
254.5845871233628
 33
0.0
  0
SOLID
  5
1213
330
10EA
100
AcDbEntity
  8
BEM
 62
     0
100
AcDbTrace
 10
121.5001877637458
 20
477.5878800276932
 30
0.0
 11
123.8335210970792
 21
477.5878800276932
 31
0.0
 12
122.6668544304125
 22
484.5878800276931
 32
0.0
 13
122.6668544304125
 23
484.5878800276931
 33
0.0
  0
MTEXT
  5
1214
330
10EA
100
AcDbEntity
  8
BEM
 62
     1
100
AcDbMText
 10
116.1668544304124
 20
369.586233575528
 30
0.0
 40
7.0
 41
0.0
 71
     5
 72
     1
  1
\A1;230
 11
0.0000000000000001
 21
1.0
 31
0.0
 73
     1
 44
1.0
  0
POINT
  5
1215
330
10EA
100
AcDbEntity
  8
DEFPOINTS
 62
     0
100
AcDbPoint
 10
159.3748866352592
 20
254.5845871233628
 30
0.0
  0
POINT
  5
1216
330
10EA
100
AcDbEntity
  8
DEFPOINTS
 62
     0
100
AcDbPoint
 10
170.3402170812767
 20
484.5878800276931
 30
0.0
  0
POINT
  5
1217
330
10EA
100
AcDbEntity
  8
DEFPOINTS
 62
     0
100
AcDbPoint
 10
122.6668544304125
 20
484.5878800276931
 30
0.0
  0
ENDBLK
  5
10F5
330
10EA
100
AcDbEntity
  8
0
100
AcDbBlockEnd
  0
BLOCK
  5
1104
330
10FA
100
AcDbEntity
  8
0
100
AcDbBlockBegin
  2
*D7
 70
     1
 10
0.0
 20
0.0
 30
0.0
  3
*D7
  1

  0
LINE
  5
1206
330
10FA
100
AcDbEntity
  8
BEM
 62
     0
370
    -2
100
AcDbLine
 10
174.1999999999999
 20
393.7879532459306
 30
0.0
 11
174.1999999999999
 21
399.1636575075308
 31
0.0
  0
LINE
  5
1207
330
10FA
100
AcDbEntity
  8
BEM
 62
     0
370
    -2
100
AcDbLine
 10
275.7999999999999
 20
393.787953245931
 30
0.0
 11
275.7999999999999
 21
399.1636575075308
 31
0.0
  0
LINE
  5
1208
330
10FA
100
AcDbEntity
  8
BEM
 62
     0
370
    -2
100
AcDbLine
 10
181.1999999999999
 20
397.1636575075308
 30
0.0
 11
268.7999999999999
 21
397.1636575075308
 31
0.0
  0
SOLID
  5
1209
330
10FA
100
AcDbEntity
  8
BEM
 62
     0
100
AcDbTrace
 10
181.1999999999999
 20
398.3303241741976
 30
0.0
 11
181.1999999999999
 21
395.9969908408642
 31
0.0
 12
174.1999999999999
 22
397.1636575075308
 32
0.0
 13
174.1999999999999
 23
397.1636575075308
 33
0.0
  0
SOLID
  5
120A
330
10FA
100
AcDbEntity
  8
BEM
 62
     0
100
AcDbTrace
 10
268.7999999999999
 20
398.3303241741976
 30
0.0
 11
268.7999999999999
 21
395.9969908408642
 31
0.0
 12
275.7999999999999
 22
397.1636575075308
 32
0.0
 13
275.7999999999999
 23
397.1636575075308
 33
0.0
  0
MTEXT
  5
120B
330
10FA
100
AcDbEntity
  8
BEM
 62
     1
100
AcDbMText
 10
224.9999999999999
 20
403.6636575075308
 30
0.0
 40
7.0
 41
0.0
 71
     5
 72
     1
  1
\A1;%%c101.6
 73
     1
 44
1.0
  0
POINT
  5
120C
330
10FA
100
AcDbEntity
  8
DEFPOINTS
 62
     0
100
AcDbPoint
 10
174.1999999999999
 20
391.7879532459306
 30
0.0
  0
POINT
  5
120D
330
10FA
100
AcDbEntity
  8
DEFPOINTS
 62
     0
100
AcDbPoint
 10
275.7999999999999
 20
391.7879532459309
 30
0.0
  0
POINT
  5
120E
330
10FA
100
AcDbEntity
  8
DEFPOINTS
 62
     0
100
AcDbPoint
 10
275.7999999999999
 20
397.1636575075308
 30
0.0
  0
ENDBLK
  5
1105
330
10FA
100
AcDbEntity
  8
0
100
AcDbBlockEnd
  0
ENDSEC
  0
SECTION
  2
ENTITIES
  0
TEXT
  5
134
330
1E
100
AcDbEntity
  8
TEXT
100
AcDbText
 10
204.4216048581257
 20
63.0896391972351
 30
0.0
 40
4.0
  1
Koeh
 41
0.8
  7
GREEKS
 72
     1
 11
209.6787477152686
 21
63.0896391972351
 31
0.0
100
AcDbText
  0
INSERT
  5
135
330
1E
100
AcDbEntity
  8
STEMPEL
100
AcDbBlockReference
  2
LOGO
 10
150.9955485457794
 20
45.02105276448322
 30
0.0
 41
2.0
 42
2.0
 43
2.0
  0
LINE
  5
136
330
1E
100
AcDbEntity
  8
HILF
100
AcDbLine
 10
420.0
 20
0.0
 30
0.0
 11
0.0
 21
0.0
 31
0.0
  0
LINE
  5
137
330
1E
100
AcDbEntity
  8
HILF
100
AcDbLine
 10
419.9999999999999
 20
594.0000000000002
 30
0.0
 11
0.0
 21
594.0
 31
0.0
  0
LINE
  5
138
330
1E
100
AcDbEntity
  8
STEMPEL
100
AcDbLine
 10
410.0
 20
584.0
 30
0.0
 11
39.99999999999989
 21
584.0
 31
0.0
  0
LINE
  5
139
330
1E
100
AcDbEntity
  8
STEMPEL
100
AcDbLine
 10
410.0
 20
10.0
 30
0.0
 11
39.99999999999989
 21
10.0
 31
0.0
  0
LINE
  5
13A
330
1E
100
AcDbEntity
  8
STEMPEL
100
AcDbLine
 10
49.99999999999989
 20
10.0
 30
0.0
 11
410.0
 21
10.0
 31
0.0
  0
TEXT
  5
13B
330
1E
100
AcDbEntity
  8
TEXT
100
AcDbText
 10
202.4626584226295
 20
73.30961091915225
 30
0.0
 40
4.0
  1
Name
 41
0.8
  7
GREEKS
100
AcDbText
  0
TEXT
  5
13C
330
1E
100
AcDbEntity
  8
TEXT
100
AcDbText
 10
196.5498279101549
 20
102.6506227776589
 30
0.0
 40
5.0
  1
Zul. Abw.
 41
0.8
  7
GREEKS
 72
     4
 11
209.9783993387263
 21
105.1506227776589
 31
0.0
100
AcDbText
  0
LINE
  5
13D
330
1E
100
AcDbEntity
  8
HILF
100
AcDbLine
 10
146.0000000000001
 20
49.99999999999997
 30
0.0
 11
230.0
 21
49.99999999999997
 31
0.0
  0
LINE
  5
13E
330
1E
100
AcDbEntity
  8
HILF
100
AcDbLine
 10
146.0000000000001
 20
59.99999999999997
 30
0.0
 11
230.0
 21
59.99999999999997
 31
0.0
  0
LINE
  5
13F
330
1E
100
AcDbEntity
  8
HILF
100
AcDbLine
 10
146.0000000000001
 20
69.99999999999994
 30
0.0
 11
230.0
 21
69.99999999999994
 31
0.0
  0
LINE
  5
140
330
1E
100
AcDbEntity
  8
STEMPEL
100
AcDbLine
 10
410.0
 20
80.0
 30
0.0
 11
146.0000000000001
 21
79.99999999999994
 31
0.0
  0
LINE
  5
141
330
1E
100
AcDbEntity
  8
STEMPEL
100
AcDbLine
 10
410.0
 20
40.0
 30
0.0
 11
146.0000000000001
 21
39.99999999999997
 31
0.0
  0
LINE
  5
142
330
1E
100
AcDbEntity
  8
STEMPEL
100
AcDbLine
 10
410.0
 20
110.0
 30
0.0
 11
39.99999999999997
 21
110.0
 31
0.0
  0
LINE
  5
143
330
1E
100
AcDbEntity
  8
MITTEL
100
AcDbLine
 10
224.9999999999999
 20
489.587880027693
 30
0.0
 11
225.0
 21
410.920560352228
 31
0.0
  0
LINE
  5
144
330
1E
100
AcDbEntity
  8
HILF
100
AcDbLine
 10
0.0
 20
0.0
 30
0.0
 11
-0.0000000000001137
 21
594.0
 31
0.0
  0
LINE
  5
145
330
1E
100
AcDbEntity
  8
STEMPEL
100
AcDbLine
 10
40.0
 20
10.0
 30
0.0
 11
39.99999999999989
 21
584.0
 31
0.0
  0
LINE
  5
148
330
1E
100
AcDbEntity
  8
HILF
100
AcDbLine
 10
40.00000000000008
 20
39.99999999999997
 30
0.0
 11
146.0000000000001
 21
39.99999999999997
 31
0.0
  0
LINE
  5
149
330
1E
100
AcDbEntity
  8
HILF
100
AcDbLine
 10
40.00000000000008
 20
49.99999999999997
 30
0.0
 11
146.0000000000001
 21
49.99999999999997
 31
0.0
  0
LINE
  5
14A
330
1E
100
AcDbEntity
  8
HILF
100
AcDbLine
 10
40.00000000000008
 20
59.99999999999997
 30
0.0
 11
146.0000000000001
 21
59.99999999999997
 31
0.0
  0
LINE
  5
14B
330
1E
100
AcDbEntity
  8
HILF
100
AcDbLine
 10
40.00000000000008
 20
69.99999999999994
 30
0.0
 11
146.0000000000001
 21
69.99999999999994
 31
0.0
  0
LINE
  5
14C
330
1E
100
AcDbEntity
  8
HILF
100
AcDbLine
 10
40.00000000000008
 20
79.99999999999994
 30
0.0
 11
146.0000000000001
 21
79.99999999999994
 31
0.0
  0
LINE
  5
14D
330
1E
100
AcDbEntity
  8
HILF
100
AcDbLine
 10
40.00000000000008
 20
90.00000000000005
 30
0.0
 11
146.0000000000001
 21
90.00000000000005
 31
0.0
  0
LINE
  5
14E
330
1E
100
AcDbEntity
  8
HILF
100
AcDbLine
 10
40.00000000000008
 20
100.0
 30
0.0
 11
146.0000000000001
 21
100.0
 31
0.0
  0
LINE
  5
14F
330
1E
100
AcDbEntity
  8
STEMPEL
100
AcDbLine
 10
145.9999999999999
 20
29.99999999999997
 30
0.0
 11
39.99999999999997
 21
29.99999999999997
 31
0.0
  0
TEXT
  5
150
330
1E
100
AcDbEntity
  8
TEXT
100
AcDbText
 10
48.26641107045756
 20
13.65465846027192
 30
0.0
 40
4.0
  1
Index
 50
90.0
 41
0.8
  7
GREEKS
100
AcDbText
  0
LINE
  5
151
330
1E
100
AcDbEntity
  8
VOLL
100
AcDbLine
 10
54.00000000000009
 20
110.0
 30
0.0
 11
53.99999999999997
 21
9.999999999999971
 31
0.0
  0
LINE
  5
152
330
1E
100
AcDbEntity
  8
HILF
100
AcDbLine
 10
31.08767135713856
 20
297.0
 30
0.0
 11
0.0000000000001137
 21
297.0
 31
0.0
  0
LINE
  5
154
330
1E
100
AcDbEntity
  8
VOLL
100
AcDbLine
 10
124.0000000000001
 20
109.9999999999999
 30
0.0
 11
124.0
 21
9.999999999999971
 31
0.0
  0
LINE
  5
155
330
1E
100
AcDbEntity
  8
VOLL
100
AcDbLine
 10
104.0000000000001
 20
109.9999999999999
 30
0.0
 11
104.0
 21
9.999999999999971
 31
0.0
  0
LINE
  5
157
330
1E
100
AcDbEntity
  8
STEMPEL
100
AcDbLine
 10
146.0000000000001
 20
109.9999999999999
 30
0.0
 11
146.0
 21
9.999999999999971
 31
0.0
  0
TEXT
  5
159
330
1E
100
AcDbEntity
  8
TEXT
100
AcDbText
 10
172.331167315365
 20
73.31880501229926
 30
0.0
 40
4.0
  1
Tag
 41
0.8
  7
GREEKS
100
AcDbText
  0
TEXT
  5
15A
330
1E
100
AcDbEntity
  8
TEXT
100
AcDbText
 10
147.5836127167615
 20
63.62990369617964
 30
0.0
 40
4.0
  1
Gez.
 41
0.8
  7
GREEKS
100
AcDbText
  0
LINE
  5
15B
330
1E
100
AcDbEntity
  8
VOLL
100
AcDbLine
 10
164.0000000000001
 20
79.99999999999994
 30
0.0
 11
164.0000000000001
 21
39.99999999999997
 31
0.0
  0
TEXT
  5
15C
330
1E
100
AcDbEntity
  8
TEXT
100
AcDbText
 10
147.6006777387303
 20
43.52946389649807
 30
0.0
 40
4.0
  1
Norm.
 41
0.8
  7
GREEKS
100
AcDbText
  0
TEXT
  5
15D
330
1E
100
AcDbEntity
  8
TEXT
100
AcDbText
 10
147.5515086571672
 20
53.68926291428377
 30
0.0
 40
4.0
  1
Gepr.
 41
0.8
  7
GREEKS
100
AcDbText
  0
TEXT
  5
15E
330
1E
100
AcDbEntity
  8
TEXT
 62
     1
100
AcDbText
 10
160.5006306481887
 20
88.14901428913959
 30
0.0
 40
7.0
  1
1:2
 41
0.8
  7
GREEKS
100
AcDbText
  0
TEXT
  5
160
330
1E
100
AcDbEntity
  8
TEXT
100
AcDbText
 10
148.622109822104
 20
73.14025471151666
 30
0.0
 40
4.0
  1
2011
 41
0.8
  7
GREEKS
100
AcDbText
  0
LINE
  5
161
330
1E
100
AcDbEntity
  8
VOLL
100
AcDbLine
 10
190.0000000000001
 20
109.9999999999998
 30
0.0
 11
190.0
 21
39.99999999999997
 31
0.0
  0
LINE
  5
186
330
1E
100
AcDbEntity
  8
HILF
100
AcDbLine
 10
420.0
 20
-0.0000000000001137
 30
0.0
 11
419.9999999999999
 21
594.0
 31
0.0
  0
LINE
  5
187
330
1E
100
AcDbEntity
  8
STEMPEL
100
AcDbLine
 10
410.0
 20
10.0
 30
0.0
 11
410.0
 21
584.0
 31
0.0
  0
TEXT
  5
188
330
1E
100
AcDbEntity
  8
TEXT
100
AcDbText
 10
337.2400861497006
 20
52.07416177878602
 30
0.0
 40
5.0
  1
ersetzt durch:
 41
0.8
  7
GREEKS
100
AcDbText
  0
TEXT
  5
18A
330
1E
100
AcDbEntity
  8
TEXT
100
AcDbText
 10
336.178754957634
 20
102.3132034537136
 30
0.0
 40
5.0
  1
Zeichnungs Nr.
 41
0.8
  7
GREEKS
100
AcDbText
  0
LINE
  5
18B
330
1E
100
AcDbEntity
  8
HILF
100
AcDbLine
 10
233.4909699289885
 20
14.89398258028314
 30
0.0
 11
404.8588839326728
 21
14.89398258028314
 31
0.0
  0
LINE
  5
18C
330
1E
100
AcDbEntity
  8
HILF
100
AcDbLine
 10
336.7238616296993
 20
83.77983636955827
 30
0.0
 11
404.8588839326728
 21
83.77983636955827
 31
0.0
  0
LINE
  5
18D
330
1E
100
AcDbEntity
  8
VOLL
100
AcDbLine
 10
332.0
 20
60.0
 30
0.0
 11
410.0
 21
60.0
 31
0.0
  0
TEXT
  5
18E
330
1E
100
AcDbEntity
  8
TEXT
 62
     1
100
AcDbText
 10
234.9283864320014
 20
87.41748789253779
 30
0.0
 40
7.0
  1
Übergangsrohr DN100/125
 41
0.63
  7
GREEKS
100
AcDbText
  0
LINE
  5
18F
330
1E
100
AcDbEntity
  8
HILF
100
AcDbLine
 10
234.7736801096947
 20
49.99999999999997
 30
0.0
 11
324.835391655631
 21
49.99999999999997
 31
0.0
  0
LINE
  5
190
330
1E
100
AcDbEntity
  8
HILF
100
AcDbLine
 10
234.7736801096947
 20
59.99999999999997
 30
0.0
 11
324.835391655631
 21
59.99999999999997
 31
0.0
  0
LINE
  5
191
330
1E
100
AcDbEntity
  8
HILF
100
AcDbLine
 10
234.7736801096947
 20
69.99999999999994
 30
0.0
 11
324.835391655631
 21
69.99999999999994
 31
0.0
  0
LINE
  5
192
330
1E
100
AcDbEntity
  8
HILF
100
AcDbLine
 10
234.7736801096947
 20
84.03758247564139
 30
0.0
 11
324.8353916556311
 21
84.03758247564139
 31
0.0
  0
LINE
  5
193
330
1E
100
AcDbEntity
  8
STEMPEL
100
AcDbLine
 10
230.0
 20
110.0
 30
0.0
 11
230.0
 21
9.999999999999971
 31
0.0
  0
TEXT
  5
194
330
1E
100
AcDbEntity
  8
TEXT
100
AcDbText
 10
235.1296391125315
 20
71.50334417585288
 30
0.0
 40
5.0
  1
konzentrisches Red.-Stück
 41
0.8
  7
GREEKS
100
AcDbText
  0
TEXT
  5
195
330
1E
100
AcDbEntity
  8
TEXT
100
AcDbText
 10
234.9837501577827
 20
42.62974153022632
 30
0.0
 40
4.0
  1
5600DE0W.DWG
 41
0.8
  7
GREEKS
100
AcDbText
  0
TEXT
  5
196
330
1E
100
AcDbEntity
  8
TEXT
100
AcDbText
 10
234.742238391136
 20
30.84560570193057
 30
0.0
 40
5.0
  1
Bauvorhaben
 41
0.8
  7
GREEKS
100
AcDbText
  0
TEXT
  5
197
330
1E
100
AcDbEntity
  8
TEXT
100
AcDbText
 10
234.877940380901
 20
102.5489328011779
 30
0.0
 40
5.0
  1
Benennung
 41
0.8
  7
GREEKS
100
AcDbText
  0
LINE
  5
198
330
1E
100
AcDbEntity
  8
STEMPEL
100
AcDbLine
 10
332.0
 20
109.9999999999997
 30
0.0
 11
332.0
 21
40.0
 31
0.0
  0
TEXT
  5
19A
330
1E
100
AcDbEntity
  8
TEXT
 62
     1
100
AcDbText
 10
348.4683438856966
 20
88.14901428913959
 30
0.0
 40
7.0
  1
5600DE0W
 41
0.8
  7
GREEKS
 72
     1
 11
369.80167721903
 21
88.14901428913959
 31
0.0
100
AcDbText
  0
TEXT
  5
212
330
1E
100
AcDbEntity
  8
TEXT
100
AcDbText
 10
235.1296391125315
 20
51.50334417585291
 30
0.0
 40
5.0
  1
EDV-Art.Nr. 5.600.DE0C
 41
0.8
  7
GREEKS
100
AcDbText
  0
TEXT
  5
25D
330
1E
100
AcDbEntity
  8
TEXT
 62
     1
100
AcDbText
 10
214.9975471140847
 20
452.3399653865156
 30
0.0
 40
7.0
  1
DN100
 50
90.0
 41
0.8
  7
GREEKS
100
AcDbText
  0
TEXT
  5
E61
330
1E
100
AcDbEntity
  8
TEXT
 62
     1
100
AcDbText
 10
297.0573649355706
 20
132.2248663682012
 30
0.0
 40
7.0
  1
Werkstoff: 1.4404
 41
0.8
  7
GREEKS
100
AcDbText
  0
DIMENSION
  5
EDF
330
1E
100
AcDbEntity
  8
BEM
100
AcDbDimension
  2
*D1
 10
291.5000000000004
 20
228.4606441406944
 30
0.0
 11
225.0000000000002
 21
234.9606441406943
 31
0.0
 70
    32
  1
%%c<>
 71
     5
 42
133.0000000000005
  3
Standard
100
AcDbAlignedDimension
 13
158.4999999999999
 23
264.5845871233628
 33
0.0
 14
291.5000000000004
 24
264.5845871233631
 34
0.0
100
AcDbRotatedDimension
1001
ACAD
1000
DSTYLE
1002
{
1070
    40
1040
2.0
1070
    41
1040
3.5
1070
    42
1040
1.0
1070
    43
1040
7.0
1070
    44
1040
1.0
1070
    73
1070
     0
1070
    74
1070
     0
1070
    77
1070
     1
1070
    78
1070
     8
1070
    79
1070
     2
1070
   140
1040
3.5
1070
   141
1040
1.5
1070
   146
1040
0.5142857142857144
1070
   147
1040
1.5
1070
   172
1070
     1
1070
   178
1070
     1
1070
   179
1070
     2
1070
   271
1070
     2
1070
   272
1070
     2
1070
   284
1070
     8
1070
   285
1070
     8
1070
   286
1070
     8
1002
}
  0
LINE
  5
EE0
330
1E
100
AcDbEntity
  8
HILF
100
AcDbLine
 10
290.0
 20
264.5845871233631
 30
0.0
 11
159.9999999999999
 21
264.5845871233631
 31
0.0
  0
LINE
  5
EE1
330
1E
100
AcDbEntity
  8
STEMPEL
100
AcDbLine
 10
290.6251133647408
 20
254.5845871233631
 30
0.0
 11
159.3748866352592
 21
254.5845871233628
 31
0.0
  0
LINE
  5
EE2
330
1E
100
AcDbEntity
  8
STEMPEL
100
AcDbLine
 10
158.4999999999999
 20
264.5845871233628
 30
0.0
 11
159.3748866352592
 21
254.5845871233628
 31
0.0
  0
LINE
  5
EE7
330
1E
100
AcDbEntity
  8
STEMPEL
100
AcDbLine
 10
291.5
 20
264.5845871233636
 30
0.0
 11
290.6251133647408
 21
254.5845871233631
 31
0.0
  0
LINE
  5
EE8
330
1E
100
AcDbEntity
  8
STEMPEL
100
AcDbLine
 10
291.5
 20
351.8645683967755
 30
0.0
 11
291.5
 21
264.5845871233632
 31
0.0
  0
LINE
  5
EE9
330
1E
100
AcDbEntity
  8
STEMPEL
100
AcDbLine
 10
158.4999999999999
 20
351.8645683967753
 30
0.0
 11
158.4999999999999
 21
264.5845871233629
 31
0.0
  0
DIMENSION
  5
FD1
330
1E
100
AcDbEntity
  8
BEM
100
AcDbDimension
  2
*D4
 10
139.478372227454
 20
354.5845871233629
 30
0.0
 11
132.978372227454
 21
304.5845871233629
 31
0.0
 70
    32
 71
     5
 42
100.0
  3
Standard
100
AcDbAlignedDimension
 13
159.8123299528888
 23
254.5845871233629
 33
0.0
 14
158.7486780888283
 24
354.5845871233629
 34
0.0
 50
90.0
100
AcDbRotatedDimension
1001
ACAD
1000
DSTYLE
1002
{
1070
    40
1040
2.0
1070
    41
1040
3.5
1070
    42
1040
1.0
1070
    43
1040
7.0
1070
    44
1040
1.0
1070
    73
1070
     0
1070
    74
1070
     0
1070
    77
1070
     1
1070
    78
1070
     8
1070
    79
1070
     2
1070
   140
1040
3.5
1070
   141
1040
1.5
1070
   146
1040
0.5142857142857144
1070
   147
1040
1.5
1070
   172
1070
     1
1070
   178
1070
     1
1070
   179
1070
     2
1070
   271
1070
     2
1070
   272
1070
     2
1070
   284
1070
     8
1070
   285
1070
     8
1070
   286
1070
     8
1002
}
  0
INSERT
  5
FD2
330
1E
100
AcDbEntity
  8
SCHRAFF
100
AcDbBlockReference
  2
*X3
 10
-26.56472598717684
 20
23.00930447140212
 30
0.0
1001
ACAD
1000
HATCH
1002
{
1070
    16
1000
_U,I
1040
0.1
1040
0.0
1070
     0
1002
}
  0
LINE
  5
FD4
330
1E
100
AcDbEntity
  8
HILF
100
AcDbLine
 10
161.2995287743869
 20
354.5845871233629
 30
0.0
 11
288.700471225613
 21
354.584587123363
 31
0.0
  0
LINE
  5
FD5
330
1E
100
AcDbEntity
  8
STEMPEL
  6
Continuous
100
AcDbLine
 10
165.9999999999999
 20
374.5845871233629
 30
0.0
 11
283.9999999999999
 21
374.584587123363
 31
0.0
  0
ARC
  5
FD6
330
1E
100
AcDbEntity
  8
SCHRAFF
100
AcDbCircle
 10
167.6969066054453
 20
373.9621857426639
 30
0.0
 40
3.690004347471302
100
AcDbArc
 50
79.01570088397306
 51
220.1158276091403
  0
LINE
  5
FD7
330
1E
100
AcDbEntity
  8
STEMPEL
100
AcDbLine
 10
165.9999999999999
 20
374.5845871233629
 30
0.0
 11
159.4550623364643
 21
357.1314200206011
 31
0.0
  0
ARC
  5
FD8
330
1E
100
AcDbEntity
  8
STEMPEL
100
AcDbCircle
 10
173.4999999999999
 20
351.8645683967753
 30
0.0
 40
15.0
100
AcDbArc
 50
159.4439547804167
 51
180.0
  0
LINE
  5
FD9
330
1E
100
AcDbEntity
  8
STEMPEL
100
AcDbLine
 10
173.449465119962
 20
388.4048695232816
 30
0.0
 11
166.9999999999999
 21
374.5845871233629
 31
0.0
  0
ARC
  5
FDA
330
1E
100
AcDbEntity
  8
SCHRAFF
100
AcDbCircle
 10
175.5201413337056
 20
374.5845871233629
 30
0.0
 40
5.760070666852836
100
AcDbArc
 50
328.6122624042417
 51
31.38773759575825
  0
ARC
  5
FDB
330
1E
100
AcDbEntity
  8
SCHRAFF
100
AcDbCircle
 10
165.9999999999999
 20
374.5845871233629
 30
0.0
 40
5.760070666852836
100
AcDbArc
 50
328.6122624042417
 51
31.38773759575825
  0
ARC
  5
FDC
330
1E
100
AcDbEntity
  8
SCHRAFF
100
AcDbCircle
 10
170.7600706668528
 20
374.5845871233629
 30
0.0
 40
5.760070666852836
100
AcDbArc
 50
328.6122624042417
 51
31.38773759575825
  0
ARC
  5
FDD
330
1E
100
AcDbEntity
  8
SCHRAFF
100
AcDbCircle
 10
180.2802120005584
 20
374.5845871233629
 30
0.0
 40
5.760070666852836
100
AcDbArc
 50
328.6122624042417
 51
31.38773759575825
  0
ARC
  5
FDE
330
1E
100
AcDbEntity
  8
SCHRAFF
100
AcDbCircle
 10
185.0402826674113
 20
374.584587123363
 30
0.0
 40
5.760070666852836
100
AcDbArc
 50
328.6122624042417
 51
31.38773759575825
  0
ARC
  5
FDF
330
1E
100
AcDbEntity
  8
SCHRAFF
100
AcDbCircle
 10
189.8003533342641
 20
374.584587123363
 30
0.0
 40
5.760070666852836
100
AcDbArc
 50
328.6122624042417
 51
31.38773759575825
  0
ARC
  5
FE1
330
1E
100
AcDbEntity
  8
SCHRAFF
100
AcDbCircle
 10
227.8809186690869
 20
374.584587123363
 30
0.0
 40
5.760070666852836
100
AcDbArc
 50
328.6122624042417
 51
31.38773759575825
  0
ARC
  5
FE3
330
1E
100
AcDbEntity
  8
SCHRAFF
100
AcDbCircle
 10
194.560424001117
 20
374.584587123363
 30
0.0
 40
5.760070666852836
100
AcDbArc
 50
328.6122624042417
 51
31.38773759575825
  0
ARC
  5
FE4
330
1E
100
AcDbEntity
  8
SCHRAFF
100
AcDbCircle
 10
199.3204946679698
 20
374.584587123363
 30
0.0
 40
5.760070666852836
100
AcDbArc
 50
328.6122624042417
 51
31.38773759575825
  0
ARC
  5
FE5
330
1E
100
AcDbEntity
  8
SCHRAFF
100
AcDbCircle
 10
204.0805653348227
 20
374.584587123363
 30
0.0
 40
5.760070666852836
100
AcDbArc
 50
328.6122624042417
 51
31.38773759575825
  0
ARC
  5
FE6
330
1E
100
AcDbEntity
  8
SCHRAFF
100
AcDbCircle
 10
208.8406360016755
 20
374.584587123363
 30
0.0
 40
5.760070666852836
100
AcDbArc
 50
328.6122624042417
 51
31.38773759575825
  0
ARC
  5
FE7
330
1E
100
AcDbEntity
  8
SCHRAFF
100
AcDbCircle
 10
213.6007066685284
 20
374.584587123363
 30
0.0
 40
5.760070666852836
100
AcDbArc
 50
328.6122624042417
 51
31.38773759575825
  0
ARC
  5
FE8
330
1E
100
AcDbEntity
  8
SCHRAFF
100
AcDbCircle
 10
218.3607773353812
 20
374.584587123363
 30
0.0
 40
5.760070666852836
100
AcDbArc
 50
328.6122624042417
 51
31.38773759575825
  0
ARC
  5
FE9
330
1E
100
AcDbEntity
  8
SCHRAFF
100
AcDbCircle
 10
223.120848002234
 20
374.584587123363
 30
0.0
 40
5.760070666852836
100
AcDbArc
 50
328.6122624042417
 51
31.38773759575825
  0
ARC
  5
FEA
330
1E
100
AcDbEntity
  8
SCHRAFF
100
AcDbCircle
 10
237.4010600027926
 20
374.584587123363
 30
0.0
 40
5.760070666852836
100
AcDbArc
 50
328.6122624042417
 51
31.38773759575825
  0
ARC
  5
FEB
330
1E
100
AcDbEntity
  8
SCHRAFF
100
AcDbCircle
 10
232.6409893359397
 20
374.584587123363
 30
0.0
 40
5.760070666852836
100
AcDbArc
 50
328.6122624042417
 51
31.38773759575825
  0
ARC
  5
FEC
330
1E
100
AcDbEntity
  8
SCHRAFF
100
AcDbCircle
 10
242.1611306696453
 20
374.584587123363
 30
0.0
 40
5.760070666852836
100
AcDbArc
 50
328.6122624042417
 51
31.38773759575825
  0
ARC
  5
FED
330
1E
100
AcDbEntity
  8
SCHRAFF
100
AcDbCircle
 10
246.9212013364982
 20
374.584587123363
 30
0.0
 40
5.760070666852836
100
AcDbArc
 50
328.6122624042417
 51
31.38773759575825
  0
ARC
  5
FEE
330
1E
100
AcDbEntity
  8
SCHRAFF
100
AcDbCircle
 10
251.681272003351
 20
374.584587123363
 30
0.0
 40
5.760070666852836
100
AcDbArc
 50
328.6122624042417
 51
31.38773759575825
  0
ARC
  5
FEF
330
1E
100
AcDbEntity
  8
SCHRAFF
100
AcDbCircle
 10
256.4413426702039
 20
374.584587123363
 30
0.0
 40
5.760070666852836
100
AcDbArc
 50
328.6122624042417
 51
31.38773759575825
  0
ARC
  5
FF0
330
1E
100
AcDbEntity
  8
SCHRAFF
100
AcDbCircle
 10
261.2014133370567
 20
374.5845871233631
 30
0.0
 40
5.760070666852836
100
AcDbArc
 50
328.6122624042417
 51
31.38773759575825
  0
LINE
  5
FF1
330
1E
100
AcDbEntity
  8
STEMPEL
100
AcDbLine
 10
282.9999999999999
 20
374.584587123363
 30
0.0
 11
276.5505348800378
 21
388.404869523282
 31
0.0
  0
ARC
  5
FF2
330
1E
100
AcDbEntity
  8
SCHRAFF
100
AcDbCircle
 10
282.3030933945546
 20
373.9621857426639
 30
0.0
 40
3.690004347471302
100
AcDbArc
 50
319.8841723908597
 51
100.9842991160269
  0
LINE
  5
FF3
330
1E
100
AcDbEntity
  8
STEMPEL
100
AcDbLine
 10
290.5449376635355
 20
357.1314200206014
 30
0.0
 11
283.9999999999999
 21
374.584587123363
 31
0.0
  0
ARC
  5
FF4
330
1E
100
AcDbEntity
  8
SCHRAFF
100
AcDbCircle
 10
265.9614840039095
 20
374.5845871233631
 30
0.0
 40
5.760070666852836
100
AcDbArc
 50
328.6122624042417
 51
31.38773759575825
  0
ARC
  5
FF5
330
1E
100
AcDbEntity
  8
SCHRAFF
100
AcDbCircle
 10
270.7215546707624
 20
374.5845871233631
 30
0.0
 40
5.760070666852836
100
AcDbArc
 50
328.6122624042417
 51
31.38773759575825
  0
ARC
  5
FF6
330
1E
100
AcDbEntity
  8
SCHRAFF
100
AcDbCircle
 10
275.4816253376152
 20
374.5845871233631
 30
0.0
 40
5.760070666852836
100
AcDbArc
 50
328.6122624042417
 51
31.38773759575825
  0
ARC
  5
FF7
330
1E
100
AcDbEntity
  8
STEMPEL
100
AcDbCircle
 10
276.4999999999999
 20
351.8645683967755
 30
0.0
 40
15.0
100
AcDbArc
 50
0.0
 51
20.55604521958327
  0
TEXT
  5
103A
330
1E
100
AcDbEntity
  8
TEXT
 62
     1
100
AcDbText
 10
214.9975471140847
 20
297.9753999917257
 30
0.0
 40
7.0
  1
DN125
 50
90.0
 41
0.8
  7
GREEKS
100
AcDbText
  0
TEXT
  5
103C
330
1E
100
AcDbEntity
  8
TEXT
100
AcDbText
 10
235.1296391125315
 20
61.50334417585291
 30
0.0
 40
5.0
  1
dünnwandig
 41
0.8
  7
GREEKS
100
AcDbText
  0
LINE
  5
105E
330
1E
100
AcDbEntity
  8
MITTEL
100
AcDbLine
 10
225.0
 20
394.3177950355591
 30
0.0
 11
225.0
 21
249.5845871233632
 31
0.0
  0
LINE
  5
10A8
330
1E
100
AcDbEntity
  8
STEMPEL
100
AcDbLine
 10
279.6019137879769
 20
484.5878800276929
 30
0.0
 11
170.3980862120232
 21
484.5878800276931
 31
0.0
  0
LINE
  5
10AE
330
1E
100
AcDbEntity
  8
STEMPEL
100
AcDbLine
 10
174.1999999999999
 20
410.0447533510527
 30
0.0
 11
174.1999999999999
 21
391.7879532459306
 31
0.0
  0
ARC
  5
10D9
330
1E
100
AcDbEntity
  8
STEMPEL
100
AcDbCircle
 10
283.7999999999999
 20
391.7879532459309
 30
0.0
 40
8.0
100
AcDbArc
 50
180.0
 51
205.0168934780995
  0
ARC
  5
10DA
330
1E
100
AcDbEntity
  8
STEMPEL
100
AcDbCircle
 10
166.1999999999999
 20
391.7879532459306
 30
0.0
 40
8.0
100
AcDbArc
 50
334.9831065219
 51
0.0
  0
DIMENSION
  5
10E9
330
1E
100
AcDbEntity
  8
BEM
100
AcDbDimension
  2
*D6
 10
122.6668544304125
 20
484.5878800276931
 30
0.0
 11
116.1668544304124
 21
369.586233575528
 31
0.0
 70
    32
 71
     5
 42
230.0032929043304
  3
Standard
100
AcDbAlignedDimension
 13
159.3748866352592
 23
254.5845871233628
 33
0.0
 14
170.3402170812767
 24
484.5878800276931
 34
0.0
 50
90.0
100
AcDbRotatedDimension
1001
ACAD
1000
DSTYLE
1002
{
1070
    40
1040
2.0
1070
    41
1040
3.5
1070
    42
1040
1.0
1070
    43
1040
7.0
1070
    44
1040
1.0
1070
    73
1070
     0
1070
    74
1070
     0
1070
    77
1070
     1
1070
    78
1070
     8
1070
    79
1070
     2
1070
   140
1040
3.5
1070
   141
1040
1.5
1070
   146
1040
0.5142857142857144
1070
   147
1040
1.5
1070
   172
1070
     1
1070
   178
1070
     1
1070
   179
1070
     2
1070
   271
1070
     2
1070
   272
1070
     2
1070
   284
1070
     8
1070
   285
1070
     8
1070
   286
1070
     8
1002
}
  0
LINE
  5
10F6
330
1E
100
AcDbEntity
  8
HILF
100
AcDbLine
 10
274.7137268101905
 20
390.0552849221739
 30
0.0
 11
175.2862731898093
 21
390.0552849221734
 31
0.0
  0
DIMENSION
  5
10F9
330
1E
100
AcDbEntity
  8
BEM
100
AcDbDimension
  2
*D7
 10
275.7999999999999
 20
397.1636575075308
 30
0.0
 11
224.9999999999999
 21
403.6636575075308
 31
0.0
 70
    32
  1
%%c<>
 71
     5
 42
101.5999999999999
  3
Standard
100
AcDbAlignedDimension
 13
174.1999999999999
 23
391.7879532459306
 33
0.0
 14
275.7999999999999
 24
391.7879532459309
 34
0.0
100
AcDbRotatedDimension
1001
ACAD
1000
DSTYLE
1002
{
1070
    40
1040
2.0
1070
    41
1040
3.5
1070
    42
1040
1.0
1070
    43
1040
7.0
1070
    44
1040
1.0
1070
    73
1070
     0
1070
    74
1070
     0
1070
    77
1070
     1
1070
    78
1070
     8
1070
    79
1070
     2
1070
   140
1040
3.5
1070
   141
1040
1.5
1070
   146
1040
0.5142857142857144
1070
   147
1040
1.5
1070
   172
1070
     1
1070
   178
1070
     1
1070
   179
1070
     2
1070
   271
1070
     2
1070
   272
1070
     2
1070
   284
1070
     8
1070
   285
1070
     8
1070
   286
1070
     8
1002
}
  0
TEXT
  5
114C
330
1E
100
AcDbEntity
  8
BEM
100
AcDbText
 10
416.5811541437437
 20
12.14804815338303
 30
0.0
 40
4.0
  1
Diese Zeichnung ist urheberrechtlich geschützt und bleibt unser Eigentum. Sie darf weder ganz noch teilweise vervielfältigt und nicht an Dritte weitergegeben werden.
 50
90.0
 41
0.8
  7
GREEKS
100
AcDbText
  0
TEXT
  5
114D
330
1E
100
AcDbEntity
  8
TEXT
100
AcDbText
 10
336.7238616296993
 20
73.1811823709997
 30
0.0
 40
5.0
  1
Ersatz für:
 41
0.8
  7
GREEKS
100
AcDbText
  0
TEXT
  5
114E
330
1E
100
AcDbEntity
  8
TEXT
100
AcDbText
 10
192.6882715247924
 20
89.36611559996777
 30
0.0
 40
4.0
  1
DIN EN1124-3
 41
0.8
  7
GREEKS
 72
     1
 11
209.6787477152686
 21
89.36611559996777
 31
0.0
100
AcDbText
  0
TEXT
  5
114F
330
1E
100
AcDbEntity
  8
TEXT
100
AcDbText
 10
153.5163572150377
 20
102.4620895087088
 30
0.0
 40
5.0
  1
Maßstab
 41
0.8
  7
GREEKS
100
AcDbText
  0
TEXT
  5
1150
330
1E
100
AcDbEntity
  8
TEXT
100
AcDbText
 10
41.85509950977674
 20
111.6719999999999
 30
0.0
 40
5.0
  1
Erstellt mit AUTOCAD 2004
 41
0.8
  7
GREEKS
100
AcDbText
  0
TEXT
  5
1151
330
1E
100
AcDbEntity
  8
TEXT
100
AcDbText
 10
128.8191920849746
 20
18.59324216966408
 30
0.0
 40
4.0
  1
Name
 41
0.8
  7
GREEKS
 72
     1
 11
135.1430016087842
 21
18.59324216966408
 31
0.0
100
AcDbText
  0
TEXT
  5
1154
330
1E
100
AcDbEntity
  8
TEXT
100
AcDbText
 10
110.4079225079288
 20
18.6715626933981
 30
0.0
 40
4.0
  1
Tag
 41
0.8
  7
GREEKS
 72
     1
 11
114.1412558412621
 21
18.6715626933981
 31
0.0
100
AcDbText
  0
TEXT
  5
1155
330
1E
100
AcDbEntity
  8
TEXT
100
AcDbText
 10
67.69087448536563
 20
18.67381894984132
 30
0.0
 40
4.0
  1
Änderung
 41
0.8
  7
GREEKS
 72
     1
 11
78.43373162822278
 21
18.67381894984132
 31
0.0
100
AcDbText
  0
LINE
  5
11D0
330
1E
100
AcDbEntity
  8
STEMPEL
100
AcDbLine
 10
282.8999999999999
 20
472.3915691100427
 30
0.0
 11
282.9
 21
453.8178800276931
 31
0.0
  0
ARC
  5
11D1
330
1E
100
AcDbEntity
  8
STEMPEL
100
AcDbCircle
 10
291.6999999999999
 20
437.0846794970116
 30
0.0
 40
12.8
100
AcDbArc
 50
153.1119523822761
 51
180.0
  0
ARC
  5
11D2
330
1E
100
AcDbEntity
  8
STEMPEL
100
AcDbCircle
 10
283.8
 20
410.0447533510529
 30
0.0
 40
8.0
100
AcDbArc
 50
149.1404189093777
 51
180.0
  0
ARC
  5
11D3
330
1E
100
AcDbEntity
  8
STEMPEL
100
AcDbCircle
 10
264.6999999999999
 20
421.3597875975763
 30
0.0
 40
14.2
100
AcDbArc
 50
329.3570682370604
 51
0.0
  0
LINE
  5
11D4
330
1E
100
AcDbEntity
  8
STEMPEL
100
AcDbLine
 10
275.8
 20
409.9443361224414
 30
0.0
 11
275.8
 21
391.787953245931
 31
0.0
  0
LINE
  5
11D5
330
1E
100
AcDbEntity
  8
STEMPEL
100
AcDbLine
 10
278.9
 20
437.0846794970116
 30
0.0
 11
278.9
 21
421.3597875975763
 31
0.0
  0
ARC
  5
11D6
330
1E
100
AcDbEntity
  8
STEMPEL
100
AcDbCircle
 10
258.6999999999999
 20
453.8178800276931
 30
0.0
 40
24.2
100
AcDbArc
 50
333.111952382276
 51
0.0
  0
ARC
  5
11D7
330
1E
100
AcDbEntity
  8
STEMPEL
100
AcDbCircle
 10
258.6999999999999
 20
472.3915691100426
 30
0.0
 40
24.2
100
AcDbArc
 50
0.0
 51
30.26365194209708
  0
ARC
  5
11D8
330
1E
100
AcDbEntity
  8
STEMPEL
100
AcDbCircle
 10
158.3
 20
437.0846794970115
 30
0.0
 40
12.8
100
AcDbArc
 50
0.0
 51
26.88804761772389
  0
ARC
  5
11D9
330
1E
100
AcDbEntity
  8
STEMPEL
100
AcDbCircle
 10
191.3
 20
453.817880027693
 30
0.0
 40
24.2
100
AcDbArc
 50
180.0
 51
206.8880476177239
  0
LINE
  5
11DA
330
1E
100
AcDbEntity
  8
STEMPEL
100
AcDbLine
 10
167.1
 20
472.3915691100426
 30
0.0
 11
167.1
 21
453.817880027693
 31
0.0
  0
ARC
  5
11DB
330
1E
100
AcDbEntity
  8
STEMPEL
100
AcDbCircle
 10
166.2
 20
410.0447533510528
 30
0.0
 40
8.0
100
AcDbArc
 50
0.0
 51
30.85958109062227
  0
ARC
  5
11DC
330
1E
100
AcDbEntity
  8
STEMPEL
100
AcDbCircle
 10
185.2999999999999
 20
421.3597875975762
 30
0.0
 40
14.2
100
AcDbArc
 50
180.0
 51
210.6429317629396
  0
LINE
  5
11DE
330
1E
100
AcDbEntity
  8
STEMPEL
100
AcDbLine
 10
171.1
 20
437.0846794970114
 30
0.0
 11
171.1
 21
421.3597875975762
 31
0.0
  0
ARC
  5
11DF
330
1E
100
AcDbEntity
  8
STEMPEL
100
AcDbCircle
 10
191.3
 20
472.3915691100426
 30
0.0
 40
24.2
100
AcDbArc
 50
149.736348057902
 51
180.0
  0
LINE
  5
11E1
330
1E
100
AcDbEntity
  8
HILF
100
AcDbLine
 10
274.8495998457415
 20
412.173212201642
 30
0.0
 11
175.1504001542584
 21
412.173212201642
 31
0.0
  0
LINE
  5
11E2
330
1E
100
AcDbEntity
  8
HILF
100
AcDbLine
 10
277.1467478295148
 20
417.6076590725296
 30
0.0
 11
172.8532521704852
 21
417.6076590725296
 31
0.0
  0
LINE
  5
11E3
330
1E
100
AcDbEntity
  8
HILF
100
AcDbLine
 10
278.0199494232007
 20
440.0606190488534
 30
0.0
 11
171.9800505767991
 21
440.0606190488534
 31
0.0
  0
TEXT
  5
11FB
330
1E
100
AcDbEntity
  8
TEXT
100
AcDbText
 10
171.0085209177598
 20
63.10765040825732
 30
0.0
 40
4.0
  1
11.04.
 41
0.8
  7
GREEKS
 72
     1
 11
177.4085209177598
 21
63.10765040825732
 31
0.0
100
AcDbText
  0
ENDSEC
  0
SECTION
  2
OBJECTS
  0
DICTIONARY
  5
C
330
0
100
AcDbDictionary
281
     1
  3
ACAD_COLOR
350
1071
  3
ACAD_GROUP
350
D
  3
ACAD_LAYOUT
350
19
  3
ACAD_MATERIAL
350
1070
  3
ACAD_MLINESTYLE
350
16
  3
ACAD_PLOTSETTINGS
350
18
  3
ACAD_PLOTSTYLENAME
350
E
  3
AcDbVariableDictionary
350
246
  0
DICTIONARY
  5
1071
102
{ACAD_REACTORS
330
C
102
}
330
C
100
AcDbDictionary
281
     1
  0
DICTIONARY
  5
D
102
{ACAD_REACTORS
330
C
102
}
330
C
100
AcDbDictionary
281
     1
  0
DICTIONARY
  5
19
102
{ACAD_REACTORS
330
C
102
}
330
C
100
AcDbDictionary
281
     1
  3
Layout1
350
1D
  3
Model
350
21
  0
DICTIONARY
  5
1070
102
{ACAD_REACTORS
330
C
102
}
330
C
100
AcDbDictionary
281
     1
  0
DICTIONARY
  5
16
102
{ACAD_REACTORS
330
C
102
}
330
C
100
AcDbDictionary
281
     1
  3
Standard
350
17
  0
DICTIONARY
  5
18
102
{ACAD_REACTORS
330
C
102
}
330
C
100
AcDbDictionary
281
     1
  0
ACDBDICTIONARYWDFLT
  5
E
102
{ACAD_REACTORS
330
C
102
}
330
C
100
AcDbDictionary
281
     1
  3
Normal
350
F
100
AcDbDictionaryWithDefault
340
F
  0
DICTIONARY
  5
246
102
{ACAD_REACTORS
330
C
102
}
330
C
100
AcDbDictionary
281
     1
  3
DIMASSOC
350
116A
  3
PROJECTNAME
350
116B
  3
SORTENTS
350
247
  0
LAYOUT
  5
1D
102
{ACAD_REACTORS
330
19
102
}
330
19
100
AcDbPlotSettings
  1

  2
Tektronix Phaser 740
  4

  6

 40
0.0
 41
0.0
 42
0.0
 43
0.0
 44
0.0
 45
0.0
 46
0.0
 47
0.0
 48
0.0
 49
0.0
140
0.0
141
0.0
142
1.0
143
1.0
 70
   688
 72
     0
 73
     0
 74
     5
  7
monochrome.ctb
 75
    16
147
1.0
 76
     0
 77
     2
 78
   300
148
0.0
149
0.0
100
AcDbLayout
  1
Layout1
 70
     0
 71
     1
 10
0.0
 20
0.0
 11
12.0
 21
9.0
 12
0.0
 22
0.0
 32
0.0
 14
1.000000000000000E+20
 24
1.000000000000000E+20
 34
1.000000000000000E+20
 15
-1.000000000000000E+20
 25
-1.000000000000000E+20
 35
-1.000000000000000E+20
146
0.0
 13
0.0
 23
0.0
 33
0.0
 16
1.0
 26
0.0
 36
0.0
 17
0.0
 27
1.0
 37
0.0
 76
     0
330
1A
  0
LAYOUT
  5
21
102
{ACAD_REACTORS
330
19
102
}
330
19
100
AcDbPlotSettings
  1

  2
Tektronix Phaser 740
  4
A4
  6

 40
5.873749732971191
 41
6.085414409637451
 42
5.577407836914062
 43
5.662078857421875
 44
209.9733276367187
 45
296.9683227539062
 46
0.0
 47
0.0
 48
0.0
 49
0.0
140
0.0
141
0.0
142
1.0
143
1.0
 70
 11952
 72
     0
 73
     1
 74
     0
  7
monochrome.ctb
 75
     0
147
1.0
 76
     0
 77
     2
 78
   300
148
1150.120678237584
149
45.30495740799864
100
AcDbLayout
  1
Model
 70
     1
 71
     0
 10
0.0
 20
0.0
 11
12.0
 21
9.0
 12
0.0
 22
0.0
 32
0.0
 14
0.0
 24
0.0
 34
0.0
 15
0.0
 25
0.0
 35
0.0
146
0.0
 13
0.0
 23
0.0
 33
0.0
 16
1.0
 26
0.0
 36
0.0
 17
0.0
 27
1.0
 37
0.0
 76
     0
330
1E
  0
MLINESTYLE
  5
17
102
{ACAD_REACTORS
330
16
102
}
330
16
100
AcDbMlineStyle
  2
STANDARD
 70
     0
  3

 62
   256
 51
90.0
 52
90.0
 71
     2
 49
0.5
 62
   256
  6
BYLAYER
 49
-0.5
 62
   256
  6
BYLAYER
  0
ACDBPLACEHOLDER
  5
F
102
{ACAD_REACTORS
330
E
102
}
330
E
  0
DICTIONARYVAR
  5
116A
102
{ACAD_REACTORS
330
246
102
}
330
246
100
DictionaryVariables
280
     0
  1
1
  0
DICTIONARYVAR
  5
116B
102
{ACAD_REACTORS
330
246
102
}
330
246
100
DictionaryVariables
280
     0
  1

  0
DICTIONARYVAR
  5
247
102
{ACAD_REACTORS
330
246
102
}
330
246
100
DictionaryVariables
280
     0
  1
96
  0
ENDSEC
  0
EOF
