  0
SECTION
  2
HEADER
  9
$ACADVER
  1
AC1018
  9
$ACADMAINTVER
 70
     2
  9
$DWGCODEPAGE
  3
ANSI_1252
  9
$INSBASE
 10
0.0
 20
0.0
 30
0.0
  9
$EXTMIN
 10
-0.0070648375914857
 20
-0.0013710839460828
 30
-0.0000000000000099
  9
$EXTMAX
 10
210.0157120957113
 20
297.0044827506897
 30
0.0000000000000054
  9
$LIMMIN
 10
0.0
 20
0.0
  9
$LIMMAX
 10
210.0
 20
297.0
  9
$ORTHOMODE
 70
     0
  9
$REGENMODE
 70
     1
  9
$FILLMODE
 70
     1
  9
$QTEXTMODE
 70
     0
  9
$MIRRTEXT
 70
     1
  9
$LTSCALE
 40
10.0
  9
$ATTMODE
 70
     1
  9
$TEXTSIZE
 40
3.5
  9
$TRACEWID
 40
0.5
  9
$TEXTSTYLE
  7
STANDARD
  9
$CLAYER
  8
VOLL
  9
$CELTYPE
  6
ByLayer
  9
$CECOLOR
 62
   256
  9
$CELTSCALE
 40
1.0
  9
$DISPSILH
 70
     0
  9
$DIMSCALE
 40
1.0
  9
$DIMASZ
 40
3.5
  9
$DIMEXO
 40
1.0
  9
$DIMDLI
 40
7.0
  9
$DIMRND
 40
0.0
  9
$DIMDLE
 40
0.0
  9
$DIMEXE
 40
1.0
  9
$DIMTP
 40
0.0
  9
$DIMTM
 40
0.0
  9
$DIMTXT
 40
3.5
  9
$DIMCEN
 40
1.5
  9
$DIMTSZ
 40
0.0
  9
$DIMTOL
 70
     0
  9
$DIMLIM
 70
     0
  9
$DIMTIH
 70
     0
  9
$DIMTOH
 70
     0
  9
$DIMSE1
 70
     0
  9
$DIMSE2
 70
     0
  9
$DIMTAD
 70
     1
  9
$DIMZIN
 70
     8
  9
$DIMBLK
  1

  9
$DIMASO
 70
     1
  9
$DIMSHO
 70
     0
  9
$DIMPOST
  1

  9
$DIMAPOST
  1

  9
$DIMALT
 70
     0
  9
$DIMALTD
 70
     2
  9
$DIMALTF
 40
25.4
  9
$DIMLFAC
 40
1.0
  9
$DIMTOFL
 70
     1
  9
$DIMTVP
 40
0.0
  9
$DIMTIX
 70
     0
  9
$DIMSOXD
 70
     0
  9
$DIMSAH
 70
     0
  9
$DIMBLK1
  1

  9
$DIMBLK2
  1

  9
$DIMSTYLE
  2
Standard
  9
$DIMCLRD
 70
     0
  9
$DIMCLRE
 70
     0
  9
$DIMCLRT
 70
     1
  9
$DIMTFAC
 40
0.5142857142857144
  9
$DIMGAP
 40
1.5
  9
$DIMJUST
 70
     0
  9
$DIMSD1
 70
     0
  9
$DIMSD2
 70
     0
  9
$DIMTOLJ
 70
     1
  9
$DIMTZIN
 70
     8
  9
$DIMALTZ
 70
     8
  9
$DIMALTTZ
 70
     8
  9
$DIMUPT
 70
     0
  9
$DIMDEC
 70
     2
  9
$DIMTDEC
 70
     2
  9
$DIMALTU
 70
     2
  9
$DIMALTTD
 70
     2
  9
$DIMTXSTY
  7
STANDARD
  9
$DIMAUNIT
 70
     0
  9
$DIMADEC
 70
     2
  9
$DIMALTRND
 40
0.0
  9
$DIMAZIN
 70
     2
  9
$DIMDSEP
 70
    46
  9
$DIMATFIT
 70
     3
  9
$DIMFRAC
 70
     0
  9
$DIMLDRBLK
  1

  9
$DIMLUNIT
 70
     2
  9
$DIMLWD
 70
    -2
  9
$DIMLWE
 70
    -2
  9
$DIMTMOVE
 70
     0
  9
$LUNITS
 70
     2
  9
$LUPREC
 70
     2
  9
$SKETCHINC
 40
1.0
  9
$FILLETRAD
 40
0.0
  9
$AUNITS
 70
     1
  9
$AUPREC
 70
     3
  9
$MENU
  1
ACAD
  9
$ELEVATION
 40
0.0
  9
$PELEVATION
 40
0.0
  9
$THICKNESS
 40
0.0
  9
$LIMCHECK
 70
     0
  9
$CHAMFERA
 40
0.0
  9
$CHAMFERB
 40
0.0
  9
$CHAMFERC
 40
0.0
  9
$CHAMFERD
 40
0.0
  9
$SKPOLY
 70
     0
  9
$TDCREATE
 40
2452040.637099653
  9
$TDUCREATE
 40
2452040.553766320
  9
$TDUPDATE
 40
2455446.534629097
  9
$TDUUPDATE
 40
2455446.451295764
  9
$TDINDWG
 40
0.4311742245
  9
$TDUSRTIMER
 40
0.4311742245
  9
$USRTIMER
 70
     1
  9
$ANGBASE
 50
0.0
  9
$ANGDIR
 70
     0
  9
$PDMODE
 70
     0
  9
$PDSIZE
 40
0.0
  9
$PLINEWID
 40
0.0
  9
$SPLFRAME
 70
     0
  9
$SPLINETYPE
 70
     6
  9
$SPLINESEGS
 70
     8
  9
$HANDSEED
  5
1480
  9
$SURFTAB1
 70
     6
  9
$SURFTAB2
 70
     6
  9
$SURFTYPE
 70
     6
  9
$SURFU
 70
     6
  9
$SURFV
 70
     6
  9
$UCSBASE
  2

  9
$UCSNAME
  2

  9
$UCSORG
 10
0.0
 20
0.0
 30
0.0
  9
$UCSXDIR
 10
1.0
 20
0.0
 30
0.0
  9
$UCSYDIR
 10
0.0
 20
1.0
 30
0.0
  9
$UCSORTHOREF
  2

  9
$UCSORTHOVIEW
 70
     0
  9
$UCSORGTOP
 10
0.0
 20
0.0
 30
0.0
  9
$UCSORGBOTTOM
 10
0.0
 20
0.0
 30
0.0
  9
$UCSORGLEFT
 10
0.0
 20
0.0
 30
0.0
  9
$UCSORGRIGHT
 10
0.0
 20
0.0
 30
0.0
  9
$UCSORGFRONT
 10
0.0
 20
0.0
 30
0.0
  9
$UCSORGBACK
 10
0.0
 20
0.0
 30
0.0
  9
$PUCSBASE
  2

  9
$PUCSNAME
  2

  9
$PUCSORG
 10
0.0
 20
0.0
 30
0.0
  9
$PUCSXDIR
 10
1.0
 20
0.0
 30
0.0
  9
$PUCSYDIR
 10
0.0
 20
1.0
 30
0.0
  9
$PUCSORTHOREF
  2

  9
$PUCSORTHOVIEW
 70
     0
  9
$PUCSORGTOP
 10
0.0
 20
0.0
 30
0.0
  9
$PUCSORGBOTTOM
 10
0.0
 20
0.0
 30
0.0
  9
$PUCSORGLEFT
 10
0.0
 20
0.0
 30
0.0
  9
$PUCSORGRIGHT
 10
0.0
 20
0.0
 30
0.0
  9
$PUCSORGFRONT
 10
0.0
 20
0.0
 30
0.0
  9
$PUCSORGBACK
 10
0.0
 20
0.0
 30
0.0
  9
$USERI1
 70
     0
  9
$USERI2
 70
     0
  9
$USERI3
 70
     0
  9
$USERI4
 70
     0
  9
$USERI5
 70
     0
  9
$USERR1
 40
0.0
  9
$USERR2
 40
0.0
  9
$USERR3
 40
0.0
  9
$USERR4
 40
0.0
  9
$USERR5
 40
0.0
  9
$WORLDVIEW
 70
     1
  9
$SHADEDGE
 70
     3
  9
$SHADEDIF
 70
    70
  9
$TILEMODE
 70
     1
  9
$MAXACTVP
 70
    16
  9
$PINSBASE
 10
0.0
 20
0.0
 30
0.0
  9
$PLIMCHECK
 70
     0
  9
$PEXTMIN
 10
1.000000000000000E+20
 20
1.000000000000000E+20
 30
1.000000000000000E+20
  9
$PEXTMAX
 10
-1.000000000000000E+20
 20
-1.000000000000000E+20
 30
-1.000000000000000E+20
  9
$PLIMMIN
 10
0.0
 20
0.0
  9
$PLIMMAX
 10
12.0
 20
9.0
  9
$UNITMODE
 70
     0
  9
$VISRETAIN
 70
     0
  9
$PLINEGEN
 70
     0
  9
$PSLTSCALE
 70
     0
  9
$TREEDEPTH
 70
  3020
  9
$CMLSTYLE
  2
Standard
  9
$CMLJUST
 70
     0
  9
$CMLSCALE
 40
1.0
  9
$PROXYGRAPHICS
 70
     1
  9
$MEASUREMENT
 70
     0
  9
$CELWEIGHT
370
    -1
  9
$ENDCAPS
280
     0
  9
$JOINSTYLE
280
     0
  9
$LWDISPLAY
290
     0
  9
$INSUNITS
 70
     0
  9
$HYPERLINKBASE
  1

  9
$STYLESHEET
  1
monochrome1.ctb
  9
$XEDIT
290
     1
  9
$CEPSNTYPE
380
     0
  9
$PSTYLEMODE
290
     1
  9
$FINGERPRINTGUID
  2
{7AADB5C8-6110-11D8-B72B-000102183313}
  9
$VERSIONGUID
  2
{F1637C02-0C3F-451B-B906-9951D690546D}
  9
$EXTNAMES
290
     1
  9
$PSVPSCALE
 40
0.0
  9
$OLESTARTUP
290
     0
  9
$SORTENTS
280
    96
  9
$INDEXCTL
280
     0
  9
$HIDETEXT
280
     0
  9
$XCLIPFRAME
290
     0
  9
$HALOGAP
280
     0
  9
$OBSCOLOR
 70
   257
  9
$OBSLTYPE
280
     0
  9
$INTERSECTIONDISPLAY
280
     0
  9
$INTERSECTIONCOLOR
 70
   257
  9
$DIMASSOC
280
     1
  9
$PROJECTNAME
  1

  0
ENDSEC
  0
SECTION
  2
CLASSES
  0
CLASS
  1
ACDBDICTIONARYWDFLT
  2
AcDbDictionaryWithDefault
  3
ObjectDBX Classes
 90
        0
 91
        1
280
     0
281
     0
  0
CLASS
  1
DICTIONARYVAR
  2
AcDbDictionaryVar
  3
ObjectDBX Classes
 90
        0
 91
        3
280
     0
281
     0
  0
ENDSEC
  0
SECTION
  2
TABLES
  0
TABLE
  2
VPORT
  5
8
330
0
100
AcDbSymbolTable
 70
     2
  0
VPORT
  5
147F
330
8
100
AcDbSymbolTableRecord
100
AcDbViewportTableRecord
  2
*Active
 70
     0
 10
0.0
 20
0.0
 11
1.0
 21
1.0
 12
105.0043236290599
 22
148.5015558333718
 13
0.0
 23
0.0
 14
1.0
 24
1.0
 15
10.0
 25
10.0
 16
0.0
 26
0.0
 36
1.0
 17
0.0
 27
0.0
 37
0.0
 40
299.4042860324929
 41
1.336927223719676
 42
50.0
 43
0.0
 44
0.0
 50
0.0
 51
0.0
 71
     0
 72
  1500
 73
     1
 74
     0
 75
     0
 76
     0
 77
     0
 78
     0
281
     0
 65
     1
110
0.0
120
0.0
130
0.0
111
1.0
121
0.0
131
0.0
112
0.0
122
1.0
132
0.0
 79
     0
146
0.0
  0
ENDTAB
  0
TABLE
  2
LTYPE
  5
5
330
0
100
AcDbSymbolTable
 70
     2
  0
LTYPE
  5
13
330
5
100
AcDbSymbolTableRecord
100
AcDbLinetypeTableRecord
  2
ByBlock
 70
     0
  3

 72
    65
 73
     0
 40
0.0
  0
LTYPE
  5
14
330
5
100
AcDbSymbolTableRecord
100
AcDbLinetypeTableRecord
  2
ByLayer
 70
     0
  3

 72
    65
 73
     0
 40
0.0
  0
LTYPE
  5
15
330
5
100
AcDbSymbolTableRecord
100
AcDbLinetypeTableRecord
  2
Continuous
 70
     0
  3
Solid line
 72
    65
 73
     0
 40
0.0
  0
LTYPE
  5
35
330
5
100
AcDbSymbolTableRecord
100
AcDbLinetypeTableRecord
  2
STRICHPUNKT
 70
     0
  3
__ . __ . __ . __ . __ . __ . __ . __ . __ . __
 72
    65
 73
     4
 40
1.0
 49
0.5
 74
     0
 49
-0.25
 74
     0
 49
0.0
 74
     0
 49
-0.25
 74
     0
  0
ENDTAB
  0
TABLE
  2
LAYER
  5
2
330
0
100
AcDbSymbolTable
 70
     9
  0
LAYER
  5
10
330
2
100
AcDbSymbolTableRecord
100
AcDbLayerTableRecord
  2
0
 70
     0
 62
     7
  6
Continuous
370
    -3
390
F
  0
LAYER
  5
38
330
2
100
AcDbSymbolTableRecord
100
AcDbLayerTableRecord
  2
VOLL
 70
     0
 62
     1
  6
Continuous
370
    -3
390
F
  0
LAYER
  5
39
330
2
100
AcDbSymbolTableRecord
100
AcDbLayerTableRecord
  2
HILF
 70
     0
 62
     2
  6
Continuous
370
    -3
390
F
  0
LAYER
  5
3A
330
2
100
AcDbSymbolTableRecord
100
AcDbLayerTableRecord
  2
MITTEL
 70
     0
 62
     2
  6
STRICHPUNKT
370
    -3
390
F
  0
LAYER
  5
3B
330
2
100
AcDbSymbolTableRecord
100
AcDbLayerTableRecord
  2
BEM
 70
     0
 62
     7
  6
Continuous
370
    -3
390
F
  0
LAYER
  5
3C
330
2
100
AcDbSymbolTableRecord
100
AcDbLayerTableRecord
  2
STEMPEL
 70
     0
 62
     3
  6
Continuous
370
    -3
390
F
  0
LAYER
  5
3D
330
2
100
AcDbSymbolTableRecord
100
AcDbLayerTableRecord
  2
TEXT
 70
     0
 62
     7
  6
Continuous
370
    -3
390
F
  0
LAYER
  5
3E
330
2
100
AcDbSymbolTableRecord
100
AcDbLayerTableRecord
  2
DEFPOINTS
 70
     0
 62
     7
  6
Continuous
290
     0
370
    -3
390
F
  0
LAYER
  5
3F
330
2
100
AcDbSymbolTableRecord
100
AcDbLayerTableRecord
  2
SCHRAFF
 70
     0
 62
     7
  6
Continuous
370
    -3
390
F
  0
ENDTAB
  0
TABLE
  2
STYLE
  5
3
330
0
100
AcDbSymbolTable
 70
     2
  0
STYLE
  5
11
330
3
100
AcDbSymbolTableRecord
100
AcDbTextStyleTableRecord
  2
STANDARD
 70
     0
 40
0.0
 41
0.8
 50
0.0
 71
     0
 42
3.5
  3
simplex.shx
  4

  0
STYLE
  5
34
330
3
100
AcDbSymbolTableRecord
100
AcDbTextStyleTableRecord
  2
GREEKS
 70
     0
 40
0.0
 41
0.8
 50
0.0
 71
     0
 42
2.5
  3
SIMPLEX.shx
  4

  0
ENDTAB
  0
TABLE
  2
VIEW
  5
6
330
0
100
AcDbSymbolTable
 70
     0
  0
ENDTAB
  0
TABLE
  2
UCS
  5
7
330
0
100
AcDbSymbolTable
 70
     0
  0
ENDTAB
  0
TABLE
  2
APPID
  5
9
330
0
100
AcDbSymbolTable
 70
     2
  0
APPID
  5
12
330
9
100
AcDbSymbolTableRecord
100
AcDbRegAppTableRecord
  2
ACAD
 70
     0
  0
APPID
  5
E93
330
9
100
AcDbSymbolTableRecord
100
AcDbRegAppTableRecord
  2
AVE_RENDER
 70
     0
  0
ENDTAB
  0
TABLE
  2
DIMSTYLE
  5
A
330
0
100
AcDbSymbolTable
 70
     1
100
AcDbDimStyleTable
 71
     1
340
1CB
  0
DIMSTYLE
105
1CB
102
{ACAD_REACTORS
330
1321
330
1385
330
139B
102
}
330
A
100
AcDbSymbolTableRecord
100
AcDbDimStyleTableRecord
  2
Standard
 70
     0
340
11
  0
ENDTAB
  0
TABLE
  2
BLOCK_RECORD
  5
1
330
0
100
AcDbSymbolTable
 70
     4
  0
BLOCK_RECORD
  5
1E
330
1
100
AcDbSymbolTableRecord
100
AcDbBlockTableRecord
  2
*Model_Space
340
21
  0
BLOCK_RECORD
  5
1A
330
1
100
AcDbSymbolTableRecord
100
AcDbBlockTableRecord
  2
*Paper_Space
340
1D
  0
BLOCK_RECORD
  5
22
330
1
100
AcDbSymbolTableRecord
100
AcDbBlockTableRecord
  2
LOGO
340
0
102
{BLKREFS
331
135
102
}
  0
BLOCK_RECORD
  5
1322
330
1
100
AcDbSymbolTableRecord
100
AcDbBlockTableRecord
  2
*D1
340
0
  0
BLOCK_RECORD
  5
1386
330
1
100
AcDbSymbolTableRecord
100
AcDbBlockTableRecord
  2
*D2
340
0
  0
BLOCK_RECORD
  5
139C
330
1
100
AcDbSymbolTableRecord
100
AcDbBlockTableRecord
  2
*D3
340
0
  0
ENDTAB
  0
ENDSEC
  0
SECTION
  2
BLOCKS
  0
BLOCK
  5
43
330
1E
100
AcDbEntity
  8
0
100
AcDbBlockBegin
  2
*Model_Space
 70
     0
 10
0.0
 20
0.0
 30
0.0
  3
*Model_Space
  1

  0
ENDBLK
  5
44
330
1E
100
AcDbEntity
  8
0
100
AcDbBlockEnd
  0
BLOCK
  5
41
330
1A
100
AcDbEntity
 67
     1
  8
0
100
AcDbBlockBegin
  2
*Paper_Space
 70
     0
 10
0.0
 20
0.0
 30
0.0
  3
*Paper_Space
  1

  0
ENDBLK
  5
42
330
1A
100
AcDbEntity
 67
     1
  8
0
100
AcDbBlockEnd
  0
BLOCK
  5
45
330
22
100
AcDbEntity
  8
0
100
AcDbBlockBegin
  2
LOGO
 70
     0
 10
0.0
 20
0.0
 30
0.0
  3
LOGO
  1

  0
ARC
  5
46
330
22
100
AcDbEntity
  8
0
100
AcDbCircle
 10
11.59973089678112
 20
-9.271599258481501
 30
0.0
 40
4.5
100
AcDbArc
 50
270.0
 51
231.0575587310159
  0
LINE
  5
47
330
22
100
AcDbEntity
  8
0
100
AcDbLine
 10
3.599730896781125
 20
-4.771599258481529
 30
0.0
 11
3.599730896781153
 21
-11.77159925848133
 31
0.0
  0
LINE
  5
48
330
22
100
AcDbEntity
  8
0
100
AcDbLine
 10
2.599730896781125
 20
-4.771599258481529
 30
0.0
 11
2.599730896781153
 21
-11.77159925848133
 31
0.0
  0
CIRCLE
  5
49
330
22
100
AcDbEntity
  8
0
100
AcDbCircle
 10
11.59973089678112
 20
-9.271599258481501
 30
0.0
 40
3.5
  0
ARC
  5
4A
330
22
100
AcDbEntity
  8
0
100
AcDbCircle
 10
31.59973089678115
 20
-9.271599258481472
 30
0.0
 40
4.5
100
AcDbArc
 50
270.0
 51
231.0575587310182
  0
LINE
  5
4B
330
22
100
AcDbEntity
  8
0
100
AcDbLine
 10
17.59973089678112
 20
-4.771599258481472
 30
0.0
 11
17.59973089678115
 21
-13.77159925848147
 31
0.0
  0
ARC
  5
4C
330
22
100
AcDbEntity
  8
0
100
AcDbCircle
 10
22.59973089678116
 20
-7.271599258481472
 30
0.0
 40
2.5
100
AcDbArc
 50
293.1161887722295
 51
90.0
  0
CIRCLE
  5
4D
330
22
100
AcDbEntity
  8
0
100
AcDbCircle
 10
31.59973089678115
 20
-9.271599258481472
 30
0.0
 40
3.5
  0
ARC
  5
4E
330
22
100
AcDbEntity
  8
0
100
AcDbCircle
 10
4.599730896781153
 20
-11.77159925848133
 30
0.0
 40
1.0
100
AcDbArc
 50
180.0
 51
270.0
  0
ARC
  5
4F
330
22
100
AcDbEntity
  8
0
100
AcDbCircle
 10
4.599730896781153
 20
-11.77159925848133
 30
0.0
 40
2.0
100
AcDbArc
 50
179.9999999999992
 51
270.0
  0
LINE
  5
50
330
22
100
AcDbEntity
  8
0
100
AcDbLine
 10
11.59973089678115
 20
-13.77159925848144
 30
0.0
 11
4.599730896781153
 21
-13.77159925848147
 31
0.0
  0
LINE
  5
51
330
22
100
AcDbEntity
  8
0
100
AcDbLine
 10
8.771303772034769
 20
-12.77159925848136
 30
0.0
 11
4.599730896781153
 21
-12.77159925848133
 31
0.0
  0
LINE
  5
52
330
22
100
AcDbEntity
  8
0
100
AcDbLine
 10
31.59973089678115
 20
-13.77159925848147
 30
0.0
 11
23.6715276665056
 21
-13.77159925848144
 31
0.0
  0
LINE
  5
53
330
22
100
AcDbEntity
  8
0
100
AcDbLine
 10
23.56565672307022
 20
-9.51278021337896
 30
0.0
 11
24.4388546544846
 21
-12.77159925848144
 31
0.0
  0
LINE
  5
54
330
22
100
AcDbEntity
  8
0
100
AcDbLine
 10
22.59973089678116
 20
-9.771599258481472
 30
0.0
 11
18.59973089678112
 21
-9.771599258481472
 31
0.0
  0
LINE
  5
55
330
22
100
AcDbEntity
  8
0
100
AcDbLine
 10
18.59973089678115
 20
-13.77159925848144
 30
0.0
 11
17.59973089678115
 21
-13.77159925848144
 31
0.0
  0
LINE
  5
56
330
22
100
AcDbEntity
  8
0
100
AcDbLine
 10
18.59973089678115
 20
-9.771599258481472
 30
0.0
 11
18.59973089678115
 21
-13.77159925848144
 31
0.0
  0
LINE
  5
57
330
22
100
AcDbEntity
  8
0
100
AcDbLine
 10
22.59973089678116
 20
-9.771599258481472
 30
0.0
 11
23.67152766650562
 21
-13.77159925848147
 31
0.0
  0
ARC
  5
58
330
22
100
AcDbEntity
  8
0
100
AcDbCircle
 10
22.59973089678116
 20
-7.271599258481472
 30
0.0
 40
2.5
100
AcDbArc
 50
270.0
 51
270.0000000000007
  0
LINE
  5
59
330
22
100
AcDbEntity
  8
0
100
AcDbLine
 10
28.77130377203494
 20
-12.77159925848147
 30
0.0
 11
24.43885465448463
 21
-12.77159925848144
 31
0.0
  0
LINE
  5
5A
330
22
100
AcDbEntity
  8
0
100
AcDbLine
 10
3.599730896781125
 20
-4.771599258481472
 30
0.0
 11
2.599730896781125
 21
-4.771599258481472
 31
0.0
  0
LINE
  5
5B
330
22
100
AcDbEntity
  8
0
100
AcDbLine
 10
22.59973089678116
 20
-8.771599258481472
 30
0.0
 11
18.59973089678115
 21
-8.771599258481472
 31
0.0
  0
LINE
  5
5C
330
22
100
AcDbEntity
  8
0
100
AcDbLine
 10
22.59973089678116
 20
-5.771599258481472
 30
0.0
 11
18.59973089678115
 21
-5.771599258481472
 31
0.0
  0
LINE
  5
5D
330
22
100
AcDbEntity
  8
0
100
AcDbLine
 10
22.59973089678116
 20
-4.771599258481472
 30
0.0
 11
17.59973089678115
 21
-4.771599258481472
 31
0.0
  0
LINE
  5
5E
330
22
100
AcDbEntity
  8
0
100
AcDbLine
 10
18.59973089678115
 20
-5.771599258481472
 30
0.0
 11
18.59973089678115
 21
-8.771599258481472
 31
0.0
  0
ARC
  5
5F
330
22
100
AcDbEntity
  8
0
100
AcDbCircle
 10
22.59973089678116
 20
-7.271599258481472
 30
0.0
 40
1.5
100
AcDbArc
 50
270.0
 51
90.0
  0
ENDBLK
  5
60
330
22
100
AcDbEntity
  8
0
100
AcDbBlockEnd
  0
BLOCK
  5
132C
330
1322
100
AcDbEntity
  8
0
100
AcDbBlockBegin
  2
*D1
 70
     1
 10
0.0
 20
0.0
 30
0.0
  3
*D1
  1

  0
LINE
  5
1437
330
1322
100
AcDbEntity
  8
BEM
 62
     0
370
    -2
100
AcDbLine
 10
154.5911814112552
 20
186.5330449554456
 30
0.0
 11
151.0911814112552
 21
186.5330449554456
 31
0.0
  0
LINE
  5
1438
330
1322
100
AcDbEntity
  8
BEM
 62
     0
370
    -2
100
AcDbLine
 10
162.8411814112553
 20
186.5330449554456
 30
0.0
 11
174.6745147445886
 21
186.5330449554456
 31
0.0
  0
LINE
  5
1439
330
1322
100
AcDbEntity
  8
BEM
 62
     0
370
    -2
100
AcDbLine
 10
158.0911814112552
 20
186.5330449554456
 30
0.0
 11
159.3411814112552
 21
186.5330449554456
 31
0.0
  0
SOLID
  5
143A
330
1322
100
AcDbEntity
  8
BEM
 62
     0
100
AcDbTrace
 10
154.5911814112552
 20
187.1163782887789
 30
0.0
 11
154.5911814112552
 21
185.9497116221122
 31
0.0
 12
158.0911814112552
 22
186.5330449554456
 32
0.0
 13
158.0911814112552
 23
186.5330449554456
 33
0.0
  0
SOLID
  5
143B
330
1322
100
AcDbEntity
  8
BEM
 62
     0
100
AcDbTrace
 10
162.8411814112553
 20
187.1163782887789
 30
0.0
 11
162.8411814112553
 21
185.9497116221122
 31
0.0
 12
159.3411814112552
 22
186.5330449554456
 32
0.0
 13
159.3411814112552
 23
186.5330449554456
 33
0.0
  0
MTEXT
  5
143C
330
1322
100
AcDbEntity
  8
BEM
 62
     1
100
AcDbMText
 10
170.5078480779219
 20
189.7830449554455
 30
0.0
 40
3.5
 41
0.0
 71
     5
 72
     1
  1
\A1;1.2
 73
     1
 44
1.0
  0
POINT
  5
143D
330
1322
100
AcDbEntity
  8
DEFPOINTS
 62
     0
100
AcDbPoint
 10
158.0911814112552
 20
186.5330449554456
 30
0.0
  0
POINT
  5
143E
330
1322
100
AcDbEntity
  8
DEFPOINTS
 62
     0
100
AcDbPoint
 10
159.3411814112552
 20
186.5330449554456
 30
0.0
  0
POINT
  5
143F
330
1322
100
AcDbEntity
  8
DEFPOINTS
 62
     0
100
AcDbPoint
 10
159.3411814112552
 20
186.5330449554456
 30
0.0
  0
ENDBLK
  5
132D
330
1322
100
AcDbEntity
  8
0
100
AcDbBlockEnd
  0
BLOCK
  5
1390
330
1386
100
AcDbEntity
  8
0
100
AcDbBlockBegin
  2
*D2
 70
     1
 10
0.0
 20
0.0
 30
0.0
  3
*D2
  1

  0
LINE
  5
1387
330
1386
100
AcDbEntity
  8
BEM
 62
     0
370
    -2
100
AcDbLine
 10
52.88139849253207
 20
269.3536050312881
 30
0.0
 11
39.28964214972579
 21
269.3536050312881
 31
0.0
  0
LINE
  5
1388
330
1386
100
AcDbEntity
  8
BEM
 62
     0
370
    -2
100
AcDbLine
 10
52.8813984925317
 20
89.3536050312881
 30
0.0
 11
39.28964214972575
 21
89.3536050312881
 31
0.0
  0
LINE
  5
1389
330
1386
100
AcDbEntity
  8
BEM
 62
     0
370
    -2
100
AcDbLine
 10
40.28964214972578
 20
265.8536050312881
 30
0.0
 11
40.28964214972575
 21
92.85360503128812
 31
0.0
  0
SOLID
  5
138A
330
1386
100
AcDbEntity
  8
BEM
 62
     0
100
AcDbTrace
 10
39.70630881639245
 20
265.8536050312881
 30
0.0
 11
40.87297548305912
 21
265.8536050312881
 31
0.0
 12
40.28964214972578
 22
269.3536050312881
 32
0.0
 13
40.28964214972578
 23
269.3536050312881
 33
0.0
  0
SOLID
  5
138B
330
1386
100
AcDbEntity
  8
BEM
 62
     0
100
AcDbTrace
 10
39.70630881639241
 20
92.85360503128812
 30
0.0
 11
40.87297548305908
 21
92.85360503128812
 31
0.0
 12
40.28964214972575
 22
89.3536050312881
 32
0.0
 13
40.28964214972575
 23
89.3536050312881
 33
0.0
  0
MTEXT
  5
138C
330
1386
100
AcDbEntity
  8
BEM
 62
     1
100
AcDbMText
 10
37.03964214972574
 20
179.3536050312881
 30
0.0
 40
3.5
 41
0.0
 71
     5
 72
     1
  1
\A1;180
 11
0.0000000000000001
 21
1.0
 31
0.0
 73
     1
 44
1.0
  0
POINT
  5
138D
330
1386
100
AcDbEntity
  8
DEFPOINTS
 62
     0
100
AcDbPoint
 10
53.88139849253207
 20
269.3536050312881
 30
0.0
  0
POINT
  5
138E
330
1386
100
AcDbEntity
  8
DEFPOINTS
 62
     0
100
AcDbPoint
 10
53.88139849253169
 20
89.3536050312881
 30
0.0
  0
POINT
  5
138F
330
1386
100
AcDbEntity
  8
DEFPOINTS
 62
     0
100
AcDbPoint
 10
40.28964214972575
 20
89.3536050312881
 30
0.0
  0
ENDBLK
  5
1391
330
1386
100
AcDbEntity
  8
0
100
AcDbBlockEnd
  0
BLOCK
  5
13A6
330
139C
100
AcDbEntity
  8
0
100
AcDbBlockBegin
  2
*D3
 70
     1
 10
0.0
 20
0.0
 30
0.0
  3
*D3
  1

  0
LINE
  5
13A8
330
139C
100
AcDbEntity
  8
BEM
 62
     0
370
    -2
100
AcDbLine
 10
159.3411814112552
 20
178.3536050312879
 30
0.0
 11
159.3411814112552
 21
171.0171093679699
 31
0.0
  0
LINE
  5
13A9
330
139C
100
AcDbEntity
  8
BEM
 62
     0
370
    -2
100
AcDbLine
 10
57.7411814112553
 20
178.3536050312881
 30
0.0
 11
57.7411814112553
 21
171.0171093679699
 31
0.0
  0
LINE
  5
13AA
330
139C
100
AcDbEntity
  8
BEM
 62
     0
370
    -2
100
AcDbLine
 10
155.8411814112552
 20
172.0171093679699
 30
0.0
 11
61.2411814112553
 21
172.0171093679699
 31
0.0
  0
SOLID
  5
13AB
330
139C
100
AcDbEntity
  8
BEM
 62
     0
100
AcDbTrace
 10
155.8411814112552
 20
172.6004427013033
 30
0.0
 11
155.8411814112552
 21
171.4337760346366
 31
0.0
 12
159.3411814112552
 22
172.0171093679699
 32
0.0
 13
159.3411814112552
 23
172.0171093679699
 33
0.0
  0
SOLID
  5
13AC
330
139C
100
AcDbEntity
  8
BEM
 62
     0
100
AcDbTrace
 10
61.2411814112553
 20
172.6004427013033
 30
0.0
 11
61.2411814112553
 21
171.4337760346366
 31
0.0
 12
57.7411814112553
 22
172.0171093679699
 32
0.0
 13
57.7411814112553
 23
172.0171093679699
 33
0.0
  0
MTEXT
  5
13AD
330
139C
100
AcDbEntity
  8
BEM
 62
     1
100
AcDbMText
 10
108.5411814112553
 20
175.2671093679699
 30
0.0
 40
3.5
 41
0.0
 71
     5
 72
     1
  1
\A1;%%c101.6
 73
     1
 44
1.0
  0
POINT
  5
13AE
330
139C
100
AcDbEntity
  8
DEFPOINTS
 62
     0
100
AcDbPoint
 10
159.3411814112552
 20
179.3536050312878
 30
0.0
  0
POINT
  5
13AF
330
139C
100
AcDbEntity
  8
DEFPOINTS
 62
     0
100
AcDbPoint
 10
57.7411814112553
 20
179.3536050312881
 30
0.0
  0
POINT
  5
13B0
330
139C
100
AcDbEntity
  8
DEFPOINTS
 62
     0
100
AcDbPoint
 10
57.7411814112553
 20
172.0171093679699
 30
0.0
  0
ENDBLK
  5
13A7
330
139C
100
AcDbEntity
  8
0
100
AcDbBlockEnd
  0
ENDSEC
  0
SECTION
  2
ENTITIES
  0
TEXT
  5
134
330
1E
100
AcDbEntity
  8
TEXT
100
AcDbText
 10
102.2108024290628
 20
31.54481959861755
 30
0.0
 40
2.0
  1
Koeh
 41
0.8
  7
GREEKS
 72
     1
 11
104.8393738576343
 21
31.54481959861755
 31
0.0
100
AcDbText
  0
INSERT
  5
135
330
1E
100
AcDbEntity
  8
STEMPEL
100
AcDbBlockReference
  2
LOGO
 10
75.4977742728897
 20
22.51052638224161
 30
0.0
  0
LINE
  5
136
330
1E
100
AcDbEntity
  8
HILF
100
AcDbLine
 10
210.0
 20
0.0
 30
0.0
 11
0.0
 21
0.0
 31
0.0
  0
LINE
  5
137
330
1E
100
AcDbEntity
  8
HILF
100
AcDbLine
 10
210.0
 20
297.0000000000001
 30
0.0
 11
0.0
 21
297.0
 31
0.0
  0
LINE
  5
138
330
1E
100
AcDbEntity
  8
STEMPEL
100
AcDbLine
 10
205.0
 20
292.0
 30
0.0
 11
19.99999999999994
 21
292.0
 31
0.0
  0
LINE
  5
139
330
1E
100
AcDbEntity
  8
STEMPEL
100
AcDbLine
 10
205.0
 20
5.0
 30
0.0
 11
19.99999999999994
 21
5.0
 31
0.0
  0
LINE
  5
13A
330
1E
100
AcDbEntity
  8
STEMPEL
100
AcDbLine
 10
24.99999999999995
 20
5.0
 30
0.0
 11
205.0
 21
5.0
 31
0.0
  0
TEXT
  5
13B
330
1E
100
AcDbEntity
  8
TEXT
100
AcDbText
 10
101.2313292113147
 20
36.65480545957612
 30
0.0
 40
2.0
  1
Name
 41
0.8
  7
GREEKS
100
AcDbText
  0
TEXT
  5
13C
330
1E
100
AcDbEntity
  8
TEXT
100
AcDbText
 10
98.27491395507747
 20
51.32531138882947
 30
0.0
 40
2.5
  1
Zul. Abw.
 41
0.8
  7
GREEKS
 72
     4
 11
104.9891996693631
 21
52.57531138882947
 31
0.0
100
AcDbText
  0
LINE
  5
13D
330
1E
100
AcDbEntity
  8
HILF
100
AcDbLine
 10
73.00000000000006
 20
24.99999999999999
 30
0.0
 11
115.0
 21
24.99999999999999
 31
0.0
  0
LINE
  5
13E
330
1E
100
AcDbEntity
  8
HILF
100
AcDbLine
 10
73.00000000000006
 20
29.99999999999999
 30
0.0
 11
115.0
 21
29.99999999999999
 31
0.0
  0
LINE
  5
13F
330
1E
100
AcDbEntity
  8
HILF
100
AcDbLine
 10
73.00000000000006
 20
34.99999999999997
 30
0.0
 11
115.0
 21
34.99999999999997
 31
0.0
  0
LINE
  5
140
330
1E
100
AcDbEntity
  8
STEMPEL
100
AcDbLine
 10
205.0
 20
40.0
 30
0.0
 11
73.00000000000006
 21
39.99999999999997
 31
0.0
  0
LINE
  5
141
330
1E
100
AcDbEntity
  8
STEMPEL
100
AcDbLine
 10
205.0
 20
20.0
 30
0.0
 11
73.00000000000006
 21
19.99999999999998
 31
0.0
  0
LINE
  5
142
330
1E
100
AcDbEntity
  8
STEMPEL
100
AcDbLine
 10
205.0
 20
55.00000000000003
 30
0.0
 11
19.99999999999998
 21
55.0
 31
0.0
  0
LINE
  5
144
330
1E
100
AcDbEntity
  8
HILF
100
AcDbLine
 10
0.0
 20
0.0
 30
0.0
 11
-0.0000000000000568
 21
297.0
 31
0.0
  0
LINE
  5
145
330
1E
100
AcDbEntity
  8
STEMPEL
100
AcDbLine
 10
20.0
 20
5.0
 30
0.0
 11
19.99999999999994
 21
292.0
 31
0.0
  0
TEXT
  5
146
330
1E
100
AcDbEntity
  8
TEXT
100
AcDbText
 10
20.92754975488837
 20
55.83599999999997
 30
0.0
 40
2.5
  1
Erstellt mit AUTOCAD 2004
 41
0.8
  7
GREEKS
100
AcDbText
  0
TEXT
  5
147
330
1E
100
AcDbEntity
  8
TEXT
100
AcDbText
 10
33.84543724268282
 20
9.336909474920659
 30
0.0
 40
2.0
  1
Änderung
 41
0.8
  7
GREEKS
 72
     1
 11
39.21686581411139
 21
9.336909474920659
 31
0.0
100
AcDbText
  0
LINE
  5
148
330
1E
100
AcDbEntity
  8
HILF
100
AcDbLine
 10
20.00000000000004
 20
19.99999999999998
 30
0.0
 11
73.00000000000006
 21
19.99999999999998
 31
0.0
  0
LINE
  5
149
330
1E
100
AcDbEntity
  8
HILF
100
AcDbLine
 10
20.00000000000004
 20
24.99999999999999
 30
0.0
 11
73.00000000000006
 21
24.99999999999999
 31
0.0
  0
LINE
  5
14A
330
1E
100
AcDbEntity
  8
HILF
100
AcDbLine
 10
20.00000000000004
 20
29.99999999999999
 30
0.0
 11
73.00000000000006
 21
29.99999999999999
 31
0.0
  0
LINE
  5
14B
330
1E
100
AcDbEntity
  8
HILF
100
AcDbLine
 10
20.00000000000004
 20
34.99999999999997
 30
0.0
 11
73.00000000000006
 21
34.99999999999997
 31
0.0
  0
LINE
  5
14C
330
1E
100
AcDbEntity
  8
HILF
100
AcDbLine
 10
20.00000000000004
 20
39.99999999999997
 30
0.0
 11
73.00000000000006
 21
39.99999999999997
 31
0.0
  0
LINE
  5
14D
330
1E
100
AcDbEntity
  8
HILF
100
AcDbLine
 10
20.00000000000004
 20
45.00000000000002
 30
0.0
 11
73.00000000000006
 21
45.00000000000002
 31
0.0
  0
LINE
  5
14E
330
1E
100
AcDbEntity
  8
HILF
100
AcDbLine
 10
20.00000000000004
 20
50.00000000000003
 30
0.0
 11
73.00000000000006
 21
50.00000000000003
 31
0.0
  0
LINE
  5
14F
330
1E
100
AcDbEntity
  8
STEMPEL
100
AcDbLine
 10
72.99999999999994
 20
14.99999999999998
 30
0.0
 11
19.99999999999998
 21
14.99999999999998
 31
0.0
  0
TEXT
  5
150
330
1E
100
AcDbEntity
  8
TEXT
100
AcDbText
 10
24.13320553522878
 20
6.827329230135958
 30
0.0
 40
2.0
  1
Index
 50
90.0
 41
0.8
  7
GREEKS
100
AcDbText
  0
LINE
  5
151
330
1E
100
AcDbEntity
  8
VOLL
100
AcDbLine
 10
27.00000000000005
 20
55.00000000000003
 30
0.0
 11
26.99999999999999
 21
4.999999999999985
 31
0.0
  0
LINE
  5
152
330
1E
100
AcDbEntity
  8
HILF
100
AcDbLine
 10
15.54383567856928
 20
148.5
 30
0.0
 11
0.0000000000000568
 21
148.5
 31
0.0
  0
TEXT
  5
153
330
1E
100
AcDbEntity
  8
TEXT
100
AcDbText
 10
55.2039612539644
 20
9.33578134669905
 30
0.0
 40
2.0
  1
Tag
 41
0.8
  7
GREEKS
 72
     1
 11
57.07062792063107
 21
9.33578134669905
 31
0.0
100
AcDbText
  0
LINE
  5
154
330
1E
100
AcDbEntity
  8
VOLL
100
AcDbLine
 10
62.00000000000006
 20
54.99999999999997
 30
0.0
 11
62.0
 21
4.999999999999985
 31
0.0
  0
LINE
  5
155
330
1E
100
AcDbEntity
  8
VOLL
100
AcDbLine
 10
52.00000000000006
 20
54.99999999999997
 30
0.0
 11
52.0
 21
4.999999999999985
 31
0.0
  0
TEXT
  5
156
330
1E
100
AcDbEntity
  8
TEXT
100
AcDbText
 10
64.40959604248732
 20
9.29662108483204
 30
0.0
 40
2.0
  1
Name
 41
0.8
  7
GREEKS
 72
     1
 11
67.57150080439209
 21
9.29662108483204
 31
0.0
100
AcDbText
  0
LINE
  5
157
330
1E
100
AcDbEntity
  8
STEMPEL
100
AcDbLine
 10
73.00000000000006
 20
54.99999999999997
 30
0.0
 11
73.0
 21
4.999999999999985
 31
0.0
  0
TEXT
  5
159
330
1E
100
AcDbEntity
  8
TEXT
100
AcDbText
 10
86.16558365768254
 20
36.65940250614963
 30
0.0
 40
2.0
  1
Tag
 41
0.8
  7
GREEKS
100
AcDbText
  0
TEXT
  5
15A
330
1E
100
AcDbEntity
  8
TEXT
100
AcDbText
 10
73.79180635838077
 20
31.81495184808982
 30
0.0
 40
2.0
  1
Gez.
 41
0.8
  7
GREEKS
100
AcDbText
  0
LINE
  5
15B
330
1E
100
AcDbEntity
  8
VOLL
100
AcDbLine
 10
82.00000000000006
 20
39.99999999999997
 30
0.0
 11
82.00000000000006
 21
19.99999999999998
 31
0.0
  0
TEXT
  5
15C
330
1E
100
AcDbEntity
  8
TEXT
100
AcDbText
 10
73.80033886936519
 20
21.76473194824904
 30
0.0
 40
2.0
  1
Norm.
 41
0.8
  7
GREEKS
100
AcDbText
  0
TEXT
  5
15D
330
1E
100
AcDbEntity
  8
TEXT
100
AcDbText
 10
73.77575432858361
 20
26.84463145714189
 30
0.0
 40
2.0
  1
Gepr.
 41
0.8
  7
GREEKS
100
AcDbText
  0
TEXT
  5
15E
330
1E
100
AcDbEntity
  8
TEXT
 62
     1
100
AcDbText
 10
80.25031532409434
 20
44.07450714456979
 30
0.0
 40
3.5
  1
1:1
 41
0.8
  7
GREEKS
100
AcDbText
  0
TEXT
  5
15F
330
1E
100
AcDbEntity
  8
TEXT
100
AcDbText
 10
76.75817860751886
 20
51.23104475435443
 30
0.0
 40
2.5
  1
Maßstab
 41
0.8
  7
GREEKS
100
AcDbText
  0
TEXT
  5
160
330
1E
100
AcDbEntity
  8
TEXT
100
AcDbText
 10
74.31105491105199
 20
36.57012735575833
 30
0.0
 40
2.0
  1
2008
 41
0.8
  7
GREEKS
100
AcDbText
  0
LINE
  5
161
330
1E
100
AcDbEntity
  8
VOLL
100
AcDbLine
 10
95.00000000000005
 20
54.99999999999992
 30
0.0
 11
95.0
 21
19.99999999999998
 31
0.0
  0
LINE
  5
186
330
1E
100
AcDbEntity
  8
HILF
100
AcDbLine
 10
210.0
 20
-0.0000000000000568
 30
0.0
 11
210.0
 21
297.0
 31
0.0
  0
LINE
  5
187
330
1E
100
AcDbEntity
  8
STEMPEL
100
AcDbLine
 10
205.0
 20
5.0
 30
0.0
 11
205.0
 21
292.0
 31
0.0
  0
TEXT
  5
188
330
1E
100
AcDbEntity
  8
TEXT
100
AcDbText
 10
168.6200430748503
 20
26.03708088939301
 30
0.0
 40
2.5
  1
ersetzt durch:
 41
0.8
  7
GREEKS
100
AcDbText
  0
TEXT
  5
189
330
1E
100
AcDbEntity
  8
TEXT
100
AcDbText
 10
168.3619308148496
 20
36.59059118549985
 30
0.0
 40
2.5
  1
Ersatz für:
 41
0.8
  7
GREEKS
100
AcDbText
  0
TEXT
  5
18A
330
1E
100
AcDbEntity
  8
TEXT
100
AcDbText
 10
168.089377478817
 20
51.15660172685682
 30
0.0
 40
2.5
  1
Zeichnungs Nr.
 41
0.8
  7
GREEKS
100
AcDbText
  0
LINE
  5
18B
330
1E
100
AcDbEntity
  8
HILF
100
AcDbLine
 10
116.7454849644942
 20
7.446991290141568
 30
0.0
 11
202.4294419663364
 21
7.446991290141568
 31
0.0
  0
LINE
  5
18C
330
1E
100
AcDbEntity
  8
HILF
100
AcDbLine
 10
168.3619308148496
 20
41.88991818477913
 30
0.0
 11
202.4294419663364
 21
41.88991818477913
 31
0.0
  0
LINE
  5
18D
330
1E
100
AcDbEntity
  8
VOLL
100
AcDbLine
 10
166.0
 20
30.0
 30
0.0
 11
205.0
 21
30.0
 31
0.0
  0
TEXT
  5
18E
330
1E
100
AcDbEntity
  8
TEXT
 62
     1
100
AcDbText
 10
117.4641932160007
 20
43.70874394626889
 30
0.0
 40
3.5
  1
Doppelmuffen DN100
 41
0.8
  7
GREEKS
100
AcDbText
  0
LINE
  5
18F
330
1E
100
AcDbEntity
  8
HILF
100
AcDbLine
 10
117.3868400548473
 20
24.99999999999999
 30
0.0
 11
162.4176958278155
 21
24.99999999999999
 31
0.0
  0
LINE
  5
190
330
1E
100
AcDbEntity
  8
HILF
100
AcDbLine
 10
117.3868400548473
 20
29.99999999999999
 30
0.0
 11
162.4176958278155
 21
29.99999999999999
 31
0.0
  0
LINE
  5
191
330
1E
100
AcDbEntity
  8
HILF
100
AcDbLine
 10
117.3868400548473
 20
34.99999999999997
 30
0.0
 11
162.4176958278155
 21
34.99999999999997
 31
0.0
  0
LINE
  5
192
330
1E
100
AcDbEntity
  8
HILF
100
AcDbLine
 10
117.3868400548473
 20
42.01879123782069
 30
0.0
 11
162.4176958278155
 21
42.01879123782069
 31
0.0
  0
LINE
  5
193
330
1E
100
AcDbEntity
  8
STEMPEL
100
AcDbLine
 10
115.0
 20
55.00000000000003
 30
0.0
 11
115.0
 21
4.999999999999985
 31
0.0
  0
TEXT
  5
194
330
1E
100
AcDbEntity
  8
TEXT
100
AcDbText
 10
117.5648195562657
 20
35.75167208792644
 30
0.0
 40
2.5
  1
dünnwandig
 41
0.8
  7
GREEKS
100
AcDbText
  0
TEXT
  5
195
330
1E
100
AcDbEntity
  8
TEXT
100
AcDbText
 10
117.4918750788913
 20
21.31487076511316
 30
0.0
 40
2.0
  1
5560100W.DWG
 41
0.8
  7
GREEKS
100
AcDbText
  0
TEXT
  5
196
330
1E
100
AcDbEntity
  8
TEXT
100
AcDbText
 10
117.371119195568
 20
15.42280285096528
 30
0.0
 40
2.5
  1
Bauvorhaben
 41
0.8
  7
GREEKS
100
AcDbText
  0
TEXT
  5
197
330
1E
100
AcDbEntity
  8
TEXT
100
AcDbText
 10
117.4389701904505
 20
51.27446640058898
 30
0.0
 40
2.5
  1
Benennung
 41
0.8
  7
GREEKS
100
AcDbText
  0
LINE
  5
198
330
1E
100
AcDbEntity
  8
STEMPEL
100
AcDbLine
 10
166.0
 20
54.99999999999989
 30
0.0
 11
166.0
 21
20.0
 31
0.0
  0
TEXT
  5
19A
330
1E
100
AcDbEntity
  8
TEXT
 62
     1
100
AcDbText
 10
175.1960375019236
 20
44.07450714456979
 30
0.0
 40
3.5
  1
5560100W
 41
0.8
  7
GREEKS
 72
     1
 11
185.5960375019236
 21
44.07450714456979
 31
0.0
100
AcDbText
  0
TEXT
  5
212
330
1E
100
AcDbEntity
  8
TEXT
100
AcDbText
 10
117.5648195562657
 20
25.75167208792646
 30
0.0
 40
2.5
  1
EDV-Art.Nr. 5.560.100C
 41
0.8
  7
GREEKS
100
AcDbText
  0
TEXT
  5
255
330
1E
100
AcDbEntity
  8
TEXT
 62
     1
100
AcDbText
 10
148.9987436921494
 20
65.61381838269608
 30
0.0
 40
3.5
  1
Werkstoff: 1.4404
 41
0.8
  7
GREEKS
100
AcDbText
  0
LINE
  5
F10
330
1E
100
AcDbEntity
  8
MITTEL
100
AcDbLine
 10
108.5411814112552
 20
274.353605031288
 30
0.0
 11
108.5411814112552
 21
179.4160515314272
 31
0.0
  0
TEXT
  5
1197
330
1E
100
AcDbEntity
  8
VOLL
100
AcDbText
 10
308.216652072807
 20
59.39860245370289
 30
0.0
 40
1.8
  1

  7
GREEKS
100
AcDbText
  0
LINE
  5
1320
330
1E
100
AcDbEntity
  8
STEMPEL
100
AcDbLine
 10
158.0911814112552
 20
193.5028391768206
 30
0.0
 11
158.0911814112552
 21
179.796933202018
 31
0.0
  0
DIMENSION
  5
1321
330
1E
100
AcDbEntity
  8
BEM
100
AcDbDimension
  2
*D1
 10
159.3411814112552
 20
186.5330449554456
 30
0.0
 11
170.5078480779219
 21
189.7830449554455
 31
0.0
 70
    32
  1
1.2
 71
     5
 42
1.25
  3
Standard
100
AcDbAlignedDimension
 13
158.0911814112552
 23
186.5330449554456
 33
0.0
 14
159.3411814112552
 24
186.5330449554456
 34
0.0
100
AcDbRotatedDimension
1001
ACAD
1000
DSTYLE
1002
{
1070
    41
1040
3.5
1070
    42
1040
1.0
1070
    43
1040
7.0
1070
    44
1040
1.0
1070
    73
1070
     0
1070
    74
1070
     0
1070
    77
1070
     1
1070
    78
1070
     8
1070
    79
1070
     2
1070
   140
1040
3.5
1070
   141
1040
1.5
1070
   146
1040
0.5142857142857144
1070
   147
1040
1.5
1070
   172
1070
     1
1070
   178
1070
     1
1070
   179
1070
     2
1070
   271
1070
     2
1070
   272
1070
     2
1070
   284
1070
     8
1070
   285
1070
     8
1070
   286
1070
     8
1002
}
  0
POLYLINE
  5
136A
330
1E
100
AcDbEntity
  8
HILF
100
AcDb2dPolyline
 66
     1
 10
0.0
 20
0.0
 30
0.0
  0
VERTEX
  5
136B
330
136A
100
AcDbEntity
  8
HILF
100
AcDbVertex
100
AcDb2dVertex
 10
159.3411814112552
 20
193.9075445792728
 30
0.0
  0
VERTEX
  5
136C
330
136A
100
AcDbEntity
  8
HILF
100
AcDbVertex
100
AcDb2dVertex
 10
157.6303419711397
 20
193.3536358079584
 30
0.0
  0
VERTEX
  5
136D
330
136A
100
AcDbEntity
  8
HILF
100
AcDbVertex
100
AcDb2dVertex
 10
155.1217984218405
 20
192.4001094628927
 30
0.0
  0
VERTEX
  5
136E
330
136A
100
AcDbEntity
  8
HILF
100
AcDbVertex
100
AcDb2dVertex
 10
153.1735034738745
 20
191.509557763782
 30
0.0
  0
VERTEX
  5
136F
330
136A
100
AcDbEntity
  8
HILF
100
AcDbVertex
100
AcDb2dVertex
 10
151.7048021448187
 20
190.6788030860592
 30
0.0
  0
VERTEX
  5
1370
330
136A
100
AcDbEntity
  8
HILF
100
AcDbVertex
100
AcDb2dVertex
 10
150.6350394522499
 20
189.9046678051568
 30
0.0
  0
VERTEX
  5
1371
330
136A
100
AcDbEntity
  8
HILF
100
AcDbVertex
100
AcDb2dVertex
 10
149.8835604137451
 20
189.1839742965073
 30
0.0
  0
VERTEX
  5
1372
330
136A
100
AcDbEntity
  8
HILF
100
AcDbVertex
100
AcDb2dVertex
 10
149.3697100468811
 20
188.5135449355434
 30
0.0
  0
VERTEX
  5
1373
330
136A
100
AcDbEntity
  8
HILF
100
AcDbVertex
100
AcDb2dVertex
 10
149.0128333692348
 20
187.8902020976976
 30
0.0
  0
VERTEX
  5
1374
330
136A
100
AcDbEntity
  8
HILF
100
AcDbVertex
100
AcDb2dVertex
 10
148.7461515243484
 20
187.3100459740467
 30
0.0
  0
VERTEX
  5
1375
330
136A
100
AcDbEntity
  8
HILF
100
AcDbVertex
100
AcDb2dVertex
 10
148.5583901596255
 20
186.766288018243
 30
0.0
  0
VERTEX
  5
1376
330
136A
100
AcDbEntity
  8
HILF
100
AcDbVertex
100
AcDb2dVertex
 10
148.4521510484346
 20
186.2514174995827
 30
0.0
  0
VERTEX
  5
1377
330
136A
100
AcDbEntity
  8
HILF
100
AcDbVertex
100
AcDb2dVertex
 10
148.4300359641446
 20
185.7579236873623
 30
0.0
  0
VERTEX
  5
1378
330
136A
100
AcDbEntity
  8
HILF
100
AcDbVertex
100
AcDb2dVertex
 10
148.4946466801243
 20
185.278295850878
 30
0.0
  0
VERTEX
  5
1379
330
136A
100
AcDbEntity
  8
HILF
100
AcDbVertex
100
AcDb2dVertex
 10
148.6485849697423
 20
184.8050232594263
 30
0.0
  0
VERTEX
  5
137A
330
136A
100
AcDbEntity
  8
HILF
100
AcDbVertex
100
AcDb2dVertex
 10
148.8944526063676
 20
184.3305951823033
 30
0.0
  0
VERTEX
  5
137B
330
136A
100
AcDbEntity
  8
HILF
100
AcDbVertex
100
AcDb2dVertex
 10
149.2348513633687
 20
183.8475008888055
 30
0.0
  0
VERTEX
  5
137C
330
136A
100
AcDbEntity
  8
HILF
100
AcDbVertex
100
AcDb2dVertex
 10
149.6855364261431
 20
183.3480852094435
 30
0.0
  0
VERTEX
  5
137D
330
136A
100
AcDbEntity
  8
HILF
100
AcDbVertex
100
AcDb2dVertex
 10
150.3148766282026
 20
182.8241152195858
 30
0.0
  0
VERTEX
  5
137E
330
136A
100
AcDbEntity
  8
HILF
100
AcDbVertex
100
AcDb2dVertex
 10
151.2043942150878
 20
182.2672135558149
 30
0.0
  0
VERTEX
  5
137F
330
136A
100
AcDbEntity
  8
HILF
100
AcDbVertex
100
AcDb2dVertex
 10
152.435611432339
 20
181.6690028547135
 30
0.0
  0
VERTEX
  5
1380
330
136A
100
AcDbEntity
  8
HILF
100
AcDbVertex
100
AcDb2dVertex
 10
154.0900505254967
 20
181.0211057528645
 30
0.0
  0
VERTEX
  5
1381
330
136A
100
AcDbEntity
  8
HILF
100
AcDbVertex
100
AcDb2dVertex
 10
156.2492337401014
 20
180.3151448868504
 30
0.0
  0
VERTEX
  5
1382
330
136A
100
AcDbEntity
  8
HILF
100
AcDbVertex
100
AcDb2dVertex
 10
158.9946833216936
 20
179.542742893254
 30
0.0
  0
VERTEX
  5
1383
330
136A
100
AcDbEntity
  8
HILF
100
AcDbVertex
100
AcDb2dVertex
 10
159.3411814112553
 20
179.456736507923
 30
0.0
  0
SEQEND
  5
1384
330
136A
100
AcDbEntity
  8
HILF
  0
DIMENSION
  5
1385
330
1E
100
AcDbEntity
  8
BEM
100
AcDbDimension
  2
*D2
 10
40.28964214972575
 20
89.3536050312881
 30
0.0
 11
37.03964214972574
 21
179.3536050312881
 31
0.0
 70
    32
 71
     5
 42
180.0
  3
Standard
100
AcDbAlignedDimension
 13
53.88139849253207
 23
269.3536050312881
 33
0.0
 14
53.88139849253169
 24
89.3536050312881
 34
0.0
 50
90.0
100
AcDbRotatedDimension
1001
ACAD
1000
DSTYLE
1002
{
1070
    41
1040
3.5
1070
    42
1040
1.0
1070
    43
1040
7.0
1070
    44
1040
1.0
1070
    73
1070
     0
1070
    74
1070
     0
1070
    77
1070
     1
1070
    78
1070
     8
1070
    79
1070
     2
1070
   140
1040
3.5
1070
   141
1040
1.5
1070
   146
1040
0.5142857142857144
1070
   147
1040
1.5
1070
   172
1070
     1
1070
   178
1070
     1
1070
   179
1070
     2
1070
   271
1070
     2
1070
   272
1070
     2
1070
   284
1070
     8
1070
   285
1070
     8
1070
   286
1070
     8
1002
}
  0
DIMENSION
  5
139B
330
1E
100
AcDbEntity
  8
BEM
100
AcDbDimension
  2
*D3
 10
57.7411814112553
 20
172.0171093679699
 30
0.0
 11
108.5411814112553
 21
175.2671093679699
 31
0.0
 70
    32
  1
%%c<>
 71
     5
 42
101.5999999999999
  3
Standard
100
AcDbAlignedDimension
 13
159.3411814112552
 23
179.3536050312878
 33
0.0
 14
57.7411814112553
 24
179.3536050312881
 34
0.0
100
AcDbRotatedDimension
1001
ACAD
1000
DSTYLE
1002
{
1070
    41
1040
3.5
1070
    42
1040
1.0
1070
    43
1040
7.0
1070
    44
1040
1.0
1070
    73
1070
     0
1070
    74
1070
     0
1070
    77
1070
     1
1070
    78
1070
     8
1070
    79
1070
     2
1070
   140
1040
3.5
1070
   141
1040
1.5
1070
   146
1040
0.5142857142857144
1070
   147
1040
1.5
1070
   172
1070
     1
1070
   178
1070
     1
1070
   179
1070
     2
1070
   271
1070
     2
1070
   272
1070
     2
1070
   284
1070
     8
1070
   285
1070
     8
1070
   286
1070
     8
1002
}
  0
LINE
  5
13B1
330
1E
100
AcDbEntity
  8
MITTEL
100
AcDbLine
 10
108.5411814112552
 20
170.0320276485623
 30
0.0
 11
108.5411814112553
 21
84.35360503128793
 31
0.0
  0
HATCH
  5
13CB
330
1E
100
AcDbEntity
  8
SCHRAFF
100
AcDbHatch
 10
0.0
 20
0.0
 30
0.0
210
0.0
220
0.0
230
1.0
  2
_USER
 70
     0
 71
     0
 91
        1
 92
        7
 72
     0
 73
     1
 93
        5
 10
158.0911814112552
 20
179.796933202018
 10
158.9946833216939
 20
179.5427428932539
 10
159.3411814112552
 20
179.456736507923
 10
159.3411814112552
 20
193.9075445792728
 10
158.0911814112552
 20
193.5028391768206
 97
        0
 75
     0
 76
     0
 52
45.0
 41
2.0
 77
     0
 78
     1
 53
45.0
 43
0.0
 44
0.0
 45
-1.414213562373094
 46
1.414213562373095
 79
     0
 47
0.035355464823317
 98
        1
 10
158.2891784920766
 20
189.5579287392788
  0
TEXT
  5
13CC
330
1E
100
AcDbEntity
  8
BEM
100
AcDbText
 10
208.2905770718719
 20
6.074024076691515
 30
0.0
 40
2.0
  1
Diese Zeichnung ist urheberrechtlich geschützt und bleibt unser Eigentum. Sie darf weder ganz noch teilweise vervielfältigt und nicht an Dritte weitergegeben werden.
 50
90.0
 41
0.8
  7
GREEKS
100
AcDbText
  0
TEXT
  5
13D2
330
1E
100
AcDbEntity
  8
TEXT
100
AcDbText
 10
96.34413576239619
 20
44.68305779998388
 30
0.0
 40
2.0
  1
DIN EN1124-3
 41
0.8
  7
GREEKS
 72
     1
 11
104.8393738576343
 21
44.68305779998388
 31
0.0
100
AcDbText
  0
LINE
  5
140C
330
1E
100
AcDbEntity
  8
STEMPEL
100
AcDbLine
 10
166.4411814112552
 20
257.1572941136377
 30
0.0
 11
166.4411814112553
 21
238.5836050312881
 31
0.0
  0
ARC
  5
140D
330
1E
100
AcDbEntity
  8
STEMPEL
100
AcDbCircle
 10
175.2411814112553
 20
221.8504045006066
 30
0.0
 40
12.8
100
AcDbArc
 50
153.1119523822753
 51
180.0
  0
ARC
  5
140E
330
1E
100
AcDbEntity
  8
STEMPEL
100
AcDbCircle
 10
167.3411814112553
 20
194.8104783546478
 30
0.0
 40
8.0
100
AcDbArc
 50
149.1404189093777
 51
180.0
  0
ARC
  5
140F
330
1E
100
AcDbEntity
  8
STEMPEL
100
AcDbCircle
 10
148.2411814112553
 20
206.1255126011712
 30
0.0
 40
14.2
100
AcDbArc
 50
329.3570682370604
 51
0.0
  0
LINE
  5
1411
330
1E
100
AcDbEntity
  8
STEMPEL
100
AcDbLine
 10
162.4411814112553
 20
221.8504045006066
 30
0.0
 11
162.4411814112553
 21
206.1255126011713
 31
0.0
  0
ARC
  5
1412
330
1E
100
AcDbEntity
  8
STEMPEL
100
AcDbCircle
 10
142.2411814112553
 20
238.583605031288
 30
0.0
 40
24.2
100
AcDbArc
 50
333.1119523822754
 51
0.0
  0
ARC
  5
1413
330
1E
100
AcDbEntity
  8
STEMPEL
100
AcDbCircle
 10
142.2411814112553
 20
257.1572941136376
 30
0.0
 40
24.2
100
AcDbArc
 50
0.0
 51
30.26365194209906
  0
ARC
  5
1415
330
1E
100
AcDbEntity
  8
STEMPEL
100
AcDbCircle
 10
41.84118141125532
 20
221.8504045006065
 30
0.0
 40
12.8
100
AcDbArc
 50
0.0
 51
26.88804761772389
  0
ARC
  5
1416
330
1E
100
AcDbEntity
  8
STEMPEL
100
AcDbCircle
 10
74.84118141125532
 20
238.583605031288
 30
0.0
 40
24.2
100
AcDbArc
 50
180.0
 51
206.8880476177239
  0
LINE
  5
1417
330
1E
100
AcDbEntity
  8
STEMPEL
100
AcDbLine
 10
50.64118141125539
 20
257.1572941136376
 30
0.0
 11
50.64118141125539
 21
238.583605031288
 31
0.0
  0
ARC
  5
1418
330
1E
100
AcDbEntity
  8
STEMPEL
100
AcDbCircle
 10
49.74118141125541
 20
194.8104783546477
 30
0.0
 40
8.0
100
AcDbArc
 50
0.0
 51
30.85958109062227
  0
ARC
  5
1419
330
1E
100
AcDbEntity
  8
STEMPEL
100
AcDbCircle
 10
68.84118141125532
 20
206.1255126011711
 30
0.0
 40
14.2
100
AcDbArc
 50
180.0
 51
210.6429317629395
  0
LINE
  5
141B
330
1E
100
AcDbEntity
  8
STEMPEL
100
AcDbLine
 10
54.64118141125538
 20
221.8504045006064
 30
0.0
 11
54.64118141125533
 21
206.1255126011711
 31
0.0
  0
ARC
  5
141C
330
1E
100
AcDbEntity
  8
STEMPEL
100
AcDbCircle
 10
74.84118141125532
 20
257.1572941136376
 30
0.0
 40
24.2
100
AcDbArc
 50
149.736348057902
 51
180.0
  0
LINE
  5
141E
330
1E
100
AcDbEntity
  8
STEMPEL
100
AcDbLine
 10
163.1430951992319
 20
269.3536050312879
 30
0.0
 11
53.93926762327859
 21
269.3536050312881
 31
0.0
  0
LINE
  5
141F
330
1E
100
AcDbEntity
  8
HILF
100
AcDbLine
 10
158.3907812569969
 20
196.938937205237
 30
0.0
 11
58.69158156551378
 21
196.938937205237
 31
0.0
  0
LINE
  5
1420
330
1E
100
AcDbEntity
  8
HILF
100
AcDbLine
 10
160.6879292407701
 20
202.3733840761245
 30
0.0
 11
56.39443358174054
 21
202.3733840761245
 31
0.0
  0
LINE
  5
1421
330
1E
100
AcDbEntity
  8
HILF
100
AcDbLine
 10
161.5611308344561
 20
224.8263440524483
 30
0.0
 11
55.52123198805446
 21
224.8263440524484
 31
0.0
  0
LINE
  5
1422
330
1E
100
AcDbEntity
  8
STEMPEL
100
AcDbLine
 10
50.6411814112555
 20
101.5499159489386
 30
0.0
 11
50.64118141125553
 21
120.1236050312881
 31
0.0
  0
LINE
  5
1423
330
1E
100
AcDbEntity
  8
STEMPEL
100
AcDbLine
 10
57.74118141125566
 20
163.9971489365398
 30
0.0
 11
57.74118141125573
 21
194.8104783546477
 31
0.0
  0
LINE
  5
1424
330
1E
100
AcDbEntity
  8
STEMPEL
100
AcDbLine
 10
54.64118141125559
 20
136.8568055619697
 30
0.0
 11
54.64118141125556
 21
152.581697461405
 31
0.0
  0
ARC
  5
1425
330
1E
100
AcDbEntity
  8
STEMPEL
100
AcDbCircle
 10
49.74118141125567
 20
163.8967317079283
 30
0.0
 40
8.0
100
AcDbArc
 50
329.1404189093776
 51
359.9999999999998
  0
ARC
  5
1426
330
1E
100
AcDbEntity
  8
STEMPEL
100
AcDbCircle
 10
68.84118141125554
 20
152.5816974614049
 30
0.0
 40
14.2
100
AcDbArc
 50
149.3570682370603
 51
179.9999999999998
  0
ARC
  5
1427
330
1E
100
AcDbEntity
  8
STEMPEL
100
AcDbCircle
 10
74.84118141125549
 20
120.1236050312881
 30
0.0
 40
24.2
100
AcDbArc
 50
153.1119523822759
 51
179.9999999999998
  0
ARC
  5
1428
330
1E
100
AcDbEntity
  8
STEMPEL
100
AcDbCircle
 10
41.84118141125551
 20
136.8568055619696
 30
0.0
 40
12.8
100
AcDbArc
 50
333.111952382276
 51
359.9999999999998
  0
ARC
  5
1429
330
1E
100
AcDbEntity
  8
STEMPEL
100
AcDbCircle
 10
74.84118141125543
 20
101.5499159489385
 30
0.0
 40
24.2
100
AcDbArc
 50
179.9999999999998
 51
210.2636519420978
  0
LINE
  5
142A
330
1E
100
AcDbEntity
  8
HILF
100
AcDbLine
 10
161.5611308344562
 20
133.8808660101275
 30
0.0
 11
55.52123198805464
 21
133.8808660101277
 31
0.0
  0
LINE
  5
142B
330
1E
100
AcDbEntity
  8
HILF
100
AcDbLine
 10
160.6879292407703
 20
156.3338259864513
 30
0.0
 11
56.39443358174077
 21
156.3338259864516
 31
0.0
  0
LINE
  5
142C
330
1E
100
AcDbEntity
  8
HILF
100
AcDbLine
 10
158.3907812569971
 20
161.7682728573389
 30
0.0
 11
58.69158156551401
 21
161.7682728573391
 31
0.0
  0
LINE
  5
142D
330
1E
100
AcDbEntity
  8
STEMPEL
100
AcDbLine
 10
166.4411814112553
 20
101.5499159489382
 30
0.0
 11
166.4411814112555
 21
120.1236050312878
 31
0.0
  0
LINE
  5
142E
330
1E
100
AcDbEntity
  8
STEMPEL
100
AcDbLine
 10
159.3411814112555
 20
163.9971489365395
 30
0.0
 11
159.3411814112557
 21
194.8104783546478
 31
0.0
  0
ARC
  5
142F
330
1E
100
AcDbEntity
  8
STEMPEL
100
AcDbCircle
 10
175.2411814112554
 20
136.8568055619693
 30
0.0
 40
12.8
100
AcDbArc
 50
179.9999999999998
 51
206.8880476177245
  0
LINE
  5
1430
330
1E
100
AcDbEntity
  8
STEMPEL
100
AcDbLine
 10
162.4411814112555
 20
136.8568055619693
 30
0.0
 11
162.4411814112555
 21
152.5816974614046
 31
0.0
  0
ARC
  5
1431
330
1E
100
AcDbEntity
  8
STEMPEL
100
AcDbCircle
 10
167.3411814112555
 20
163.896731707928
 30
0.0
 40
8.0
100
AcDbArc
 50
179.9999999999998
 51
210.8595810906221
  0
ARC
  5
1432
330
1E
100
AcDbEntity
  8
STEMPEL
100
AcDbCircle
 10
148.2411814112555
 20
152.5816974614047
 30
0.0
 40
14.2
100
AcDbArc
 50
359.9999999999998
 51
30.64293176293943
  0
ARC
  5
1433
330
1E
100
AcDbEntity
  8
STEMPEL
100
AcDbCircle
 10
142.2411814112555
 20
120.1236050312879
 30
0.0
 40
24.2
100
AcDbArc
 50
359.9999999999998
 51
26.88804761772452
  0
ARC
  5
1434
330
1E
100
AcDbEntity
  8
STEMPEL
100
AcDbCircle
 10
142.2411814112554
 20
101.5499159489383
 30
0.0
 40
24.2
100
AcDbArc
 50
329.7363480579008
 51
359.9999999999998
  0
LINE
  5
1435
330
1E
100
AcDbEntity
  8
STEMPEL
100
AcDbLine
 10
163.1430951992319
 20
89.353605031288
 30
0.0
 11
53.93926762327868
 21
89.353605031288
 31
0.0
  0
TEXT
  5
1440
330
1E
100
AcDbEntity
  8
TEXT
 62
     1
100
AcDbText
 10
105.8144295020148
 20
230.8473436483565
 30
0.0
 40
3.5
  1
DN100
 50
90.0
 41
0.8
  7
GREEKS
100
AcDbText
  0
TEXT
  5
1458
330
1E
100
AcDbEntity
  8
TEXT
100
AcDbText
 10
85.19949855411802
 20
31.55382520412866
 30
0.0
 40
2.0
  1
02.07.
 41
0.8
  7
GREEKS
 72
     1
 11
88.70426045887993
 21
31.55382520412866
 31
0.0
100
AcDbText
  0
ENDSEC
  0
SECTION
  2
OBJECTS
  0
DICTIONARY
  5
C
330
0
100
AcDbDictionary
281
     1
  3
ACAD_COLOR
350
1023
  3
ACAD_GROUP
350
D
  3
ACAD_LAYOUT
350
19
  3
ACAD_MATERIAL
350
1022
  3
ACAD_MLINESTYLE
350
16
  3
ACAD_PLOTSETTINGS
350
18
  3
ACAD_PLOTSTYLENAME
350
E
  3
AcDbVariableDictionary
350
246
  0
DICTIONARY
  5
1023
102
{ACAD_REACTORS
330
C
102
}
330
C
100
AcDbDictionary
281
     1
  0
DICTIONARY
  5
D
102
{ACAD_REACTORS
330
C
102
}
330
C
100
AcDbDictionary
281
     1
  0
DICTIONARY
  5
19
102
{ACAD_REACTORS
330
C
102
}
330
C
100
AcDbDictionary
281
     1
  3
Layout1
350
1D
  3
Model
350
21
  0
DICTIONARY
  5
1022
102
{ACAD_REACTORS
330
C
102
}
330
C
100
AcDbDictionary
281
     1
  0
DICTIONARY
  5
16
102
{ACAD_REACTORS
330
C
102
}
330
C
100
AcDbDictionary
281
     1
  3
Standard
350
17
  0
DICTIONARY
  5
18
102
{ACAD_REACTORS
330
C
102
}
330
C
100
AcDbDictionary
281
     1
  0
ACDBDICTIONARYWDFLT
  5
E
102
{ACAD_REACTORS
330
C
102
}
330
C
100
AcDbDictionary
281
     1
  3
Normal
350
F
100
AcDbDictionaryWithDefault
340
F
  0
DICTIONARY
  5
246
102
{ACAD_REACTORS
330
C
102
}
330
C
100
AcDbDictionary
281
     1
  3
DIMASSOC
350
13DB
  3
PROJECTNAME
350
13DC
  3
SORTENTS
350
247
  0
LAYOUT
  5
1D
102
{ACAD_REACTORS
330
19
102
}
330
19
100
AcDbPlotSettings
  1

  2
Tektronix Phaser 740
  4

  6

 40
0.0
 41
0.0
 42
0.0
 43
0.0
 44
0.0
 45
0.0
 46
0.0
 47
0.0
 48
0.0
 49
0.0
140
0.0
141
0.0
142
1.0
143
1.0
 70
   688
 72
     0
 73
     0
 74
     5
  7
monochrome.ctb
 75
    16
147
1.0
 76
     0
 77
     2
 78
   300
148
0.0
149
0.0
100
AcDbLayout
  1
Layout1
 70
     0
 71
     1
 10
0.0
 20
0.0
 11
12.0
 21
9.0
 12
0.0
 22
0.0
 32
0.0
 14
1.000000000000000E+20
 24
1.000000000000000E+20
 34
1.000000000000000E+20
 15
-1.000000000000000E+20
 25
-1.000000000000000E+20
 35
-1.000000000000000E+20
146
0.0
 13
0.0
 23
0.0
 33
0.0
 16
1.0
 26
0.0
 36
0.0
 17
0.0
 27
1.0
 37
0.0
 76
     0
330
1A
  0
LAYOUT
  5
21
102
{ACAD_REACTORS
330
19
102
}
330
19
100
AcDbPlotSettings
  1

  2
Tektronix Phaser 740
  4
A4
  6

 40
5.873749732971191
 41
6.085414409637451
 42
5.577407836914062
 43
5.662078857421875
 44
209.9733276367187
 45
296.9683227539062
 46
0.0
 47
0.0
 48
0.0
 49
0.0
140
0.0
141
0.0
142
1.0
143
1.0
 70
 11952
 72
     0
 73
     1
 74
     0
  7
monochrome.ctb
 75
     0
147
1.0
 76
     0
 77
     2
 78
   300
148
1150.120678237584
149
45.30495740799864
100
AcDbLayout
  1
Model
 70
     1
 71
     0
 10
0.0
 20
0.0
 11
12.0
 21
9.0
 12
0.0
 22
0.0
 32
0.0
 14
0.0
 24
0.0
 34
0.0
 15
0.0
 25
0.0
 35
0.0
146
0.0
 13
0.0
 23
0.0
 33
0.0
 16
1.0
 26
0.0
 36
0.0
 17
0.0
 27
1.0
 37
0.0
 76
     0
330
1E
  0
MLINESTYLE
  5
17
102
{ACAD_REACTORS
330
16
102
}
330
16
100
AcDbMlineStyle
  2
STANDARD
 70
     0
  3

 62
   256
 51
90.0
 52
90.0
 71
     2
 49
0.5
 62
   256
  6
BYLAYER
 49
-0.5
 62
   256
  6
BYLAYER
  0
ACDBPLACEHOLDER
  5
F
102
{ACAD_REACTORS
330
E
102
}
330
E
  0
DICTIONARYVAR
  5
13DB
102
{ACAD_REACTORS
330
246
102
}
330
246
100
DictionaryVariables
280
     0
  1
1
  0
DICTIONARYVAR
  5
13DC
102
{ACAD_REACTORS
330
246
102
}
330
246
100
DictionaryVariables
280
     0
  1

  0
DICTIONARYVAR
  5
247
102
{ACAD_REACTORS
330
246
102
}
330
246
100
DictionaryVariables
280
     0
  1
96
  0
ENDSEC
  0
EOF
