  0
SECTION
  2
HEADER
  9
$ACADVER
  1
AC1018
  9
$ACADMAINTVER
 70
     2
  9
$DWGCODEPAGE
  3
ANSI_1252
  9
$INSBASE
 10
0.0
 20
0.0
 30
0.0
  9
$EXTMIN
 10
-0.0192209888436992
 20
-0.0271839699362317
 30
-0.0000000000000058
  9
$EXTMAX
 10
420.0192288123714
 20
594.0271950346398
 30
0.0000000000000104
  9
$LIMMIN
 10
0.0
 20
0.0
  9
$LIMMAX
 10
419.9999999999999
 20
594.0000000000002
  9
$ORTHOMODE
 70
     1
  9
$REGENMODE
 70
     1
  9
$FILLMODE
 70
     1
  9
$QTEXTMODE
 70
     0
  9
$MIRRTEXT
 70
     1
  9
$LTSCALE
 40
20.0
  9
$ATTMODE
 70
     1
  9
$TEXTSIZE
 40
3.5
  9
$TRACEWID
 40
1.0
  9
$TEXTSTYLE
  7
STANDARD
  9
$CLAYER
  8
SCHRAFF
  9
$CELTYPE
  6
ByLayer
  9
$CECOLOR
 62
   256
  9
$CELTSCALE
 40
1.0
  9
$DISPSILH
 70
     0
  9
$DIMSCALE
 40
2.0
  9
$DIMASZ
 40
3.5
  9
$DIMEXO
 40
1.0
  9
$DIMDLI
 40
7.0
  9
$DIMRND
 40
0.0
  9
$DIMDLE
 40
0.0
  9
$DIMEXE
 40
1.0
  9
$DIMTP
 40
0.0
  9
$DIMTM
 40
0.0
  9
$DIMTXT
 40
3.5
  9
$DIMCEN
 40
1.5
  9
$DIMTSZ
 40
0.0
  9
$DIMTOL
 70
     0
  9
$DIMLIM
 70
     0
  9
$DIMTIH
 70
     0
  9
$DIMTOH
 70
     0
  9
$DIMSE1
 70
     0
  9
$DIMSE2
 70
     0
  9
$DIMTAD
 70
     1
  9
$DIMZIN
 70
     8
  9
$DIMBLK
  1

  9
$DIMASO
 70
     1
  9
$DIMSHO
 70
     0
  9
$DIMPOST
  1

  9
$DIMAPOST
  1

  9
$DIMALT
 70
     0
  9
$DIMALTD
 70
     2
  9
$DIMALTF
 40
25.4
  9
$DIMLFAC
 40
1.0
  9
$DIMTOFL
 70
     1
  9
$DIMTVP
 40
0.0
  9
$DIMTIX
 70
     0
  9
$DIMSOXD
 70
     0
  9
$DIMSAH
 70
     0
  9
$DIMBLK1
  1

  9
$DIMBLK2
  1

  9
$DIMSTYLE
  2
Standard
  9
$DIMCLRD
 70
     0
  9
$DIMCLRE
 70
     0
  9
$DIMCLRT
 70
     1
  9
$DIMTFAC
 40
0.5142857142857144
  9
$DIMGAP
 40
1.5
  9
$DIMJUST
 70
     0
  9
$DIMSD1
 70
     0
  9
$DIMSD2
 70
     0
  9
$DIMTOLJ
 70
     1
  9
$DIMTZIN
 70
     8
  9
$DIMALTZ
 70
     8
  9
$DIMALTTZ
 70
     8
  9
$DIMUPT
 70
     0
  9
$DIMDEC
 70
     2
  9
$DIMTDEC
 70
     2
  9
$DIMALTU
 70
     2
  9
$DIMALTTD
 70
     2
  9
$DIMTXSTY
  7
STANDARD
  9
$DIMAUNIT
 70
     0
  9
$DIMADEC
 70
     2
  9
$DIMALTRND
 40
0.0
  9
$DIMAZIN
 70
     2
  9
$DIMDSEP
 70
    46
  9
$DIMATFIT
 70
     3
  9
$DIMFRAC
 70
     0
  9
$DIMLDRBLK
  1

  9
$DIMLUNIT
 70
     2
  9
$DIMLWD
 70
    -2
  9
$DIMLWE
 70
    -2
  9
$DIMTMOVE
 70
     0
  9
$LUNITS
 70
     2
  9
$LUPREC
 70
     2
  9
$SKETCHINC
 40
1.0
  9
$FILLETRAD
 40
0.0
  9
$AUNITS
 70
     0
  9
$AUPREC
 70
     0
  9
$MENU
  1
ACAD
  9
$ELEVATION
 40
0.0
  9
$PELEVATION
 40
0.0
  9
$THICKNESS
 40
0.0
  9
$LIMCHECK
 70
     0
  9
$CHAMFERA
 40
0.0
  9
$CHAMFERB
 40
0.0
  9
$CHAMFERC
 40
0.0
  9
$CHAMFERD
 40
0.0
  9
$SKPOLY
 70
     0
  9
$TDCREATE
 40
2455397.825393172
  9
$TDUCREATE
 40
2455397.783726505
  9
$TDUPDATE
 40
2455944.311918808
  9
$TDUUPDATE
 40
2455944.270252141
  9
$TDINDWG
 40
0.1970574653
  9
$TDUSRTIMER
 40
0.1970574653
  9
$USRTIMER
 70
     1
  9
$ANGBASE
 50
0.0
  9
$ANGDIR
 70
     0
  9
$PDMODE
 70
     0
  9
$PDSIZE
 40
0.0
  9
$PLINEWID
 40
0.0
  9
$SPLFRAME
 70
     0
  9
$SPLINETYPE
 70
     6
  9
$SPLINESEGS
 70
     8
  9
$HANDSEED
  5
14DD
  9
$SURFTAB1
 70
     6
  9
$SURFTAB2
 70
     6
  9
$SURFTYPE
 70
     6
  9
$SURFU
 70
     6
  9
$SURFV
 70
     6
  9
$UCSBASE
  2

  9
$UCSNAME
  2

  9
$UCSORG
 10
0.0
 20
0.0
 30
0.0
  9
$UCSXDIR
 10
1.0
 20
0.0
 30
0.0
  9
$UCSYDIR
 10
0.0
 20
1.0
 30
0.0
  9
$UCSORTHOREF
  2

  9
$UCSORTHOVIEW
 70
     0
  9
$UCSORGTOP
 10
0.0
 20
0.0
 30
0.0
  9
$UCSORGBOTTOM
 10
0.0
 20
0.0
 30
0.0
  9
$UCSORGLEFT
 10
0.0
 20
0.0
 30
0.0
  9
$UCSORGRIGHT
 10
0.0
 20
0.0
 30
0.0
  9
$UCSORGFRONT
 10
0.0
 20
0.0
 30
0.0
  9
$UCSORGBACK
 10
0.0
 20
0.0
 30
0.0
  9
$PUCSBASE
  2

  9
$PUCSNAME
  2

  9
$PUCSORG
 10
0.0
 20
0.0
 30
0.0
  9
$PUCSXDIR
 10
1.0
 20
0.0
 30
0.0
  9
$PUCSYDIR
 10
0.0
 20
1.0
 30
0.0
  9
$PUCSORTHOREF
  2

  9
$PUCSORTHOVIEW
 70
     0
  9
$PUCSORGTOP
 10
0.0
 20
0.0
 30
0.0
  9
$PUCSORGBOTTOM
 10
0.0
 20
0.0
 30
0.0
  9
$PUCSORGLEFT
 10
0.0
 20
0.0
 30
0.0
  9
$PUCSORGRIGHT
 10
0.0
 20
0.0
 30
0.0
  9
$PUCSORGFRONT
 10
0.0
 20
0.0
 30
0.0
  9
$PUCSORGBACK
 10
0.0
 20
0.0
 30
0.0
  9
$USERI1
 70
     0
  9
$USERI2
 70
     0
  9
$USERI3
 70
     0
  9
$USERI4
 70
     0
  9
$USERI5
 70
     0
  9
$USERR1
 40
0.0
  9
$USERR2
 40
0.0
  9
$USERR3
 40
0.0
  9
$USERR4
 40
0.0
  9
$USERR5
 40
0.0
  9
$WORLDVIEW
 70
     1
  9
$SHADEDGE
 70
     3
  9
$SHADEDIF
 70
    70
  9
$TILEMODE
 70
     1
  9
$MAXACTVP
 70
    16
  9
$PINSBASE
 10
0.0
 20
0.0
 30
0.0
  9
$PLIMCHECK
 70
     0
  9
$PEXTMIN
 10
1.000000000000000E+20
 20
1.000000000000000E+20
 30
1.000000000000000E+20
  9
$PEXTMAX
 10
-1.000000000000000E+20
 20
-1.000000000000000E+20
 30
-1.000000000000000E+20
  9
$PLIMMIN
 10
0.0
 20
0.0
  9
$PLIMMAX
 10
12.0
 20
9.0
  9
$UNITMODE
 70
     0
  9
$VISRETAIN
 70
     0
  9
$PLINEGEN
 70
     0
  9
$PSLTSCALE
 70
     0
  9
$TREEDEPTH
 70
  3020
  9
$CMLSTYLE
  2
Standard
  9
$CMLJUST
 70
     0
  9
$CMLSCALE
 40
1.0
  9
$PROXYGRAPHICS
 70
     1
  9
$MEASUREMENT
 70
     0
  9
$CELWEIGHT
370
    -1
  9
$ENDCAPS
280
     0
  9
$JOINSTYLE
280
     0
  9
$LWDISPLAY
290
     0
  9
$INSUNITS
 70
     0
  9
$HYPERLINKBASE
  1

  9
$STYLESHEET
  1
monochrome 1.ctb
  9
$XEDIT
290
     1
  9
$CEPSNTYPE
380
     0
  9
$PSTYLEMODE
290
     1
  9
$FINGERPRINTGUID
  2
{D68B0D0D-A558-11D7-B632-000102183313}
  9
$VERSIONGUID
  2
{074044C3-7DC3-4266-B144-168A1255B6D6}
  9
$EXTNAMES
290
     1
  9
$PSVPSCALE
 40
0.0
  9
$OLESTARTUP
290
     0
  9
$SORTENTS
280
   127
  9
$INDEXCTL
280
     0
  9
$HIDETEXT
280
     0
  9
$XCLIPFRAME
290
     0
  9
$HALOGAP
280
     0
  9
$OBSCOLOR
 70
   257
  9
$OBSLTYPE
280
     0
  9
$INTERSECTIONDISPLAY
280
     0
  9
$INTERSECTIONCOLOR
 70
   257
  9
$DIMASSOC
280
     1
  9
$PROJECTNAME
  1

  0
ENDSEC
  0
SECTION
  2
CLASSES
  0
CLASS
  1
ACDBDICTIONARYWDFLT
  2
AcDbDictionaryWithDefault
  3
ObjectDBX Classes
 90
        0
 91
        1
280
     0
281
     0
  0
CLASS
  1
DICTIONARYVAR
  2
AcDbDictionaryVar
  3
ObjectDBX Classes
 90
        0
 91
        2
280
     0
281
     0
  0
ENDSEC
  0
SECTION
  2
TABLES
  0
TABLE
  2
VPORT
  5
8
330
0
100
AcDbSymbolTable
 70
     3
  0
VPORT
  5
14DC
330
8
100
AcDbSymbolTableRecord
100
AcDbViewportTableRecord
  2
*Active
 70
     0
 10
0.0
 20
0.0
 11
1.0
 21
1.0
 12
210.0
 22
297.0
 13
0.0
 23
0.0
 14
1.0
 24
1.0
 15
10.0
 25
10.0
 16
0.0
 26
0.0
 36
1.0
 17
0.0
 27
0.0
 37
0.0
 40
594.0
 41
1.352941176470588
 42
50.0
 43
0.0
 44
0.0
 50
0.0
 51
0.0
 71
     0
 72
  1500
 73
     1
 74
     0
 75
     0
 76
     0
 77
     0
 78
     0
281
     0
 65
     1
110
0.0
120
0.0
130
0.0
111
1.0
121
0.0
131
0.0
112
0.0
122
1.0
132
0.0
 79
     0
146
0.0
  0
ENDTAB
  0
TABLE
  2
LTYPE
  5
5
330
0
100
AcDbSymbolTable
 70
     2
  0
LTYPE
  5
13
330
5
100
AcDbSymbolTableRecord
100
AcDbLinetypeTableRecord
  2
ByBlock
 70
     0
  3

 72
    65
 73
     0
 40
0.0
  0
LTYPE
  5
14
330
5
100
AcDbSymbolTableRecord
100
AcDbLinetypeTableRecord
  2
ByLayer
 70
     0
  3

 72
    65
 73
     0
 40
0.0
  0
LTYPE
  5
15
330
5
100
AcDbSymbolTableRecord
100
AcDbLinetypeTableRecord
  2
Continuous
 70
     0
  3
Solid line
 72
    65
 73
     0
 40
0.0
  0
LTYPE
  5
25
330
5
100
AcDbSymbolTableRecord
100
AcDbLinetypeTableRecord
  2
STRICHPUNKT
 70
     0
  3
__ . __ . __ . __ . __ . __ . __ . __ . __ . __
 72
    65
 73
     4
 40
1.0
 49
0.5
 74
     0
 49
-0.25
 74
     0
 49
0.0
 74
     0
 49
-0.25
 74
     0
  0
ENDTAB
  0
TABLE
  2
LAYER
  5
2
330
0
100
AcDbSymbolTable
 70
     9
  0
LAYER
  5
10
330
2
100
AcDbSymbolTableRecord
100
AcDbLayerTableRecord
  2
0
 70
     0
 62
     7
  6
Continuous
370
    -3
390
F
  0
LAYER
  5
2B
330
2
100
AcDbSymbolTableRecord
100
AcDbLayerTableRecord
  2
VOLL
 70
     0
 62
     1
  6
Continuous
370
    -3
390
F
  0
LAYER
  5
2C
330
2
100
AcDbSymbolTableRecord
100
AcDbLayerTableRecord
  2
HILF
 70
     0
 62
     2
  6
Continuous
370
    -3
390
F
  0
LAYER
  5
2D
330
2
100
AcDbSymbolTableRecord
100
AcDbLayerTableRecord
  2
MITTEL
 70
     0
 62
     2
  6
STRICHPUNKT
370
    -3
390
F
  0
LAYER
  5
2F
330
2
100
AcDbSymbolTableRecord
100
AcDbLayerTableRecord
  2
BEM
 70
     0
 62
     7
  6
Continuous
370
    -3
390
F
  0
LAYER
  5
30
330
2
100
AcDbSymbolTableRecord
100
AcDbLayerTableRecord
  2
STEMPEL
 70
     0
 62
     3
  6
Continuous
370
    -3
390
F
  0
LAYER
  5
33
330
2
100
AcDbSymbolTableRecord
100
AcDbLayerTableRecord
  2
TEXT
 70
     0
 62
     7
  6
Continuous
370
    -3
390
F
  0
LAYER
  5
1A3
330
2
100
AcDbSymbolTableRecord
100
AcDbLayerTableRecord
  2
Defpoints
 70
     0
 62
     7
  6
Continuous
290
     0
370
    -3
390
F
  0
LAYER
  5
1A4
330
2
100
AcDbSymbolTableRecord
100
AcDbLayerTableRecord
  2
SCHRAFF
 70
     0
 62
     7
  6
Continuous
370
    -3
390
F
  0
ENDTAB
  0
TABLE
  2
STYLE
  5
3
330
0
100
AcDbSymbolTable
 70
     2
  0
STYLE
  5
11
330
3
100
AcDbSymbolTableRecord
100
AcDbTextStyleTableRecord
  2
STANDARD
 70
     0
 40
0.0
 41
0.8
 50
0.0
 71
     0
 42
3.5
  3
simplex.shx
  4

  0
STYLE
  5
24
330
3
100
AcDbSymbolTableRecord
100
AcDbTextStyleTableRecord
  2
GREEKS
 70
     0
 40
0.0
 41
0.8
 50
0.0
 71
     0
 42
2.5
  3
SIMPLEX.shx
  4

  0
ENDTAB
  0
TABLE
  2
VIEW
  5
6
330
0
100
AcDbSymbolTable
 70
     0
  0
ENDTAB
  0
TABLE
  2
UCS
  5
7
330
0
100
AcDbSymbolTable
 70
     0
  0
ENDTAB
  0
TABLE
  2
APPID
  5
9
330
0
100
AcDbSymbolTable
 70
     1
  0
APPID
  5
12
330
9
100
AcDbSymbolTableRecord
100
AcDbRegAppTableRecord
  2
ACAD
 70
     0
  0
ENDTAB
  0
TABLE
  2
DIMSTYLE
  5
A
330
0
100
AcDbSymbolTable
 70
     1
100
AcDbDimStyleTable
 71
     1
340
A2
  0
DIMSTYLE
105
A2
102
{ACAD_REACTORS
330
136A
330
1384
330
1400
102
}
330
A
100
AcDbSymbolTableRecord
100
AcDbDimStyleTableRecord
  2
Standard
 70
     0
340
11
  0
ENDTAB
  0
TABLE
  2
BLOCK_RECORD
  5
1
330
0
100
AcDbSymbolTable
 70
     5
  0
BLOCK_RECORD
  5
1E
102
{ACAD_XDICTIONARY
360
DB
102
}
330
1
100
AcDbSymbolTableRecord
100
AcDbBlockTableRecord
  2
*Model_Space
340
21
  0
BLOCK_RECORD
  5
1A
102
{ACAD_XDICTIONARY
360
DD
102
}
330
1
100
AcDbSymbolTableRecord
100
AcDbBlockTableRecord
  2
*Paper_Space
340
1D
  0
BLOCK_RECORD
  5
22
330
1
100
AcDbSymbolTableRecord
100
AcDbBlockTableRecord
  2
LOGO
340
0
102
{BLKREFS
331
899
102
}
  0
BLOCK_RECORD
  5
136F
330
1
100
AcDbSymbolTableRecord
100
AcDbBlockTableRecord
  2
*D1
340
0
  0
BLOCK_RECORD
  5
1385
330
1
100
AcDbSymbolTableRecord
100
AcDbBlockTableRecord
  2
*D2
340
0
  0
BLOCK_RECORD
  5
1401
330
1
100
AcDbSymbolTableRecord
100
AcDbBlockTableRecord
  2
*D3
340
0
  0
ENDTAB
  0
ENDSEC
  0
SECTION
  2
BLOCKS
  0
BLOCK
  5
37
330
1E
100
AcDbEntity
  8
0
100
AcDbBlockBegin
  2
*Model_Space
 70
     0
 10
0.0
 20
0.0
 30
0.0
  3
*Model_Space
  1

  0
ENDBLK
  5
38
330
1E
100
AcDbEntity
  8
0
100
AcDbBlockEnd
  0
BLOCK
  5
35
330
1A
100
AcDbEntity
 67
     1
  8
0
100
AcDbBlockBegin
  2
*Paper_Space
 70
     0
 10
0.0
 20
0.0
 30
0.0
  3
*Paper_Space
  1

  0
ENDBLK
  5
36
330
1A
100
AcDbEntity
 67
     1
  8
0
100
AcDbBlockEnd
  0
BLOCK
  5
39
330
22
100
AcDbEntity
  8
0
100
AcDbBlockBegin
  2
LOGO
 70
     0
 10
0.0
 20
0.0
 30
0.0
  3
LOGO
  1

  0
ARC
  5
3A
330
22
100
AcDbEntity
  8
0
100
AcDbCircle
 10
11.59973089678112
 20
-9.271599258481501
 30
0.0
 40
4.5
100
AcDbArc
 50
270.0
 51
231.0575587310159
  0
LINE
  5
3B
330
22
100
AcDbEntity
  8
0
100
AcDbLine
 10
3.599730896781125
 20
-4.771599258481529
 30
0.0
 11
3.599730896781153
 21
-11.77159925848133
 31
0.0
  0
LINE
  5
3C
330
22
100
AcDbEntity
  8
0
100
AcDbLine
 10
2.599730896781125
 20
-4.771599258481529
 30
0.0
 11
2.599730896781153
 21
-11.77159925848133
 31
0.0
  0
CIRCLE
  5
3D
330
22
100
AcDbEntity
  8
0
100
AcDbCircle
 10
11.59973089678112
 20
-9.271599258481501
 30
0.0
 40
3.5
  0
ARC
  5
3E
330
22
100
AcDbEntity
  8
0
100
AcDbCircle
 10
31.59973089678115
 20
-9.271599258481472
 30
0.0
 40
4.5
100
AcDbArc
 50
270.0
 51
231.0575587310182
  0
LINE
  5
3F
330
22
100
AcDbEntity
  8
0
100
AcDbLine
 10
17.59973089678112
 20
-4.771599258481472
 30
0.0
 11
17.59973089678115
 21
-13.77159925848147
 31
0.0
  0
ARC
  5
40
330
22
100
AcDbEntity
  8
0
100
AcDbCircle
 10
22.59973089678116
 20
-7.271599258481472
 30
0.0
 40
2.5
100
AcDbArc
 50
293.1161887722295
 51
90.0
  0
CIRCLE
  5
41
330
22
100
AcDbEntity
  8
0
100
AcDbCircle
 10
31.59973089678115
 20
-9.271599258481472
 30
0.0
 40
3.5
  0
ARC
  5
42
330
22
100
AcDbEntity
  8
0
100
AcDbCircle
 10
4.599730896781153
 20
-11.77159925848133
 30
0.0
 40
1.0
100
AcDbArc
 50
180.0
 51
270.0
  0
ARC
  5
43
330
22
100
AcDbEntity
  8
0
100
AcDbCircle
 10
4.599730896781153
 20
-11.77159925848133
 30
0.0
 40
2.0
100
AcDbArc
 50
179.9999999999992
 51
270.0
  0
LINE
  5
44
330
22
100
AcDbEntity
  8
0
100
AcDbLine
 10
11.59973089678115
 20
-13.77159925848144
 30
0.0
 11
4.599730896781153
 21
-13.77159925848147
 31
0.0
  0
LINE
  5
45
330
22
100
AcDbEntity
  8
0
100
AcDbLine
 10
8.771303772034769
 20
-12.77159925848136
 30
0.0
 11
4.599730896781153
 21
-12.77159925848133
 31
0.0
  0
LINE
  5
46
330
22
100
AcDbEntity
  8
0
100
AcDbLine
 10
31.59973089678115
 20
-13.77159925848147
 30
0.0
 11
23.6715276665056
 21
-13.77159925848144
 31
0.0
  0
LINE
  5
47
330
22
100
AcDbEntity
  8
0
100
AcDbLine
 10
23.56565672307022
 20
-9.51278021337896
 30
0.0
 11
24.4388546544846
 21
-12.77159925848144
 31
0.0
  0
LINE
  5
48
330
22
100
AcDbEntity
  8
0
100
AcDbLine
 10
22.59973089678116
 20
-9.771599258481472
 30
0.0
 11
18.59973089678112
 21
-9.771599258481472
 31
0.0
  0
LINE
  5
49
330
22
100
AcDbEntity
  8
0
100
AcDbLine
 10
18.59973089678115
 20
-13.77159925848144
 30
0.0
 11
17.59973089678115
 21
-13.77159925848144
 31
0.0
  0
LINE
  5
4A
330
22
100
AcDbEntity
  8
0
100
AcDbLine
 10
18.59973089678115
 20
-9.771599258481472
 30
0.0
 11
18.59973089678115
 21
-13.77159925848144
 31
0.0
  0
LINE
  5
4B
330
22
100
AcDbEntity
  8
0
100
AcDbLine
 10
22.59973089678116
 20
-9.771599258481472
 30
0.0
 11
23.67152766650562
 21
-13.77159925848147
 31
0.0
  0
ARC
  5
4C
330
22
100
AcDbEntity
  8
0
100
AcDbCircle
 10
22.59973089678116
 20
-7.271599258481472
 30
0.0
 40
2.5
100
AcDbArc
 50
270.0
 51
270.0000000000007
  0
LINE
  5
4D
330
22
100
AcDbEntity
  8
0
100
AcDbLine
 10
28.77130377203494
 20
-12.77159925848147
 30
0.0
 11
24.43885465448463
 21
-12.77159925848144
 31
0.0
  0
LINE
  5
4E
330
22
100
AcDbEntity
  8
0
100
AcDbLine
 10
3.599730896781125
 20
-4.771599258481472
 30
0.0
 11
2.599730896781125
 21
-4.771599258481472
 31
0.0
  0
LINE
  5
4F
330
22
100
AcDbEntity
  8
0
100
AcDbLine
 10
22.59973089678116
 20
-8.771599258481472
 30
0.0
 11
18.59973089678115
 21
-8.771599258481472
 31
0.0
  0
LINE
  5
50
330
22
100
AcDbEntity
  8
0
100
AcDbLine
 10
22.59973089678116
 20
-5.771599258481472
 30
0.0
 11
18.59973089678115
 21
-5.771599258481472
 31
0.0
  0
LINE
  5
51
330
22
100
AcDbEntity
  8
0
100
AcDbLine
 10
22.59973089678116
 20
-4.771599258481472
 30
0.0
 11
17.59973089678115
 21
-4.771599258481472
 31
0.0
  0
LINE
  5
52
330
22
100
AcDbEntity
  8
0
100
AcDbLine
 10
18.59973089678115
 20
-5.771599258481472
 30
0.0
 11
18.59973089678115
 21
-8.771599258481472
 31
0.0
  0
ARC
  5
53
330
22
100
AcDbEntity
  8
0
100
AcDbCircle
 10
22.59973089678116
 20
-7.271599258481472
 30
0.0
 40
1.5
100
AcDbArc
 50
270.0
 51
90.0
  0
ENDBLK
  5
54
330
22
100
AcDbEntity
  8
0
100
AcDbBlockEnd
  0
BLOCK
  5
1379
330
136F
100
AcDbEntity
  8
0
100
AcDbBlockBegin
  2
*D1
 70
     1
 10
0.0
 20
0.0
 30
0.0
  3
*D1
  1

  0
LINE
  5
137B
330
136F
100
AcDbEntity
  8
BEM
 62
     0
370
    -2
100
AcDbLine
 10
256.5434103722306
 20
197.4200354851081
 30
0.0
 11
256.5434103722306
 21
163.3412597653832
 31
0.0
  0
LINE
  5
137C
330
136F
100
AcDbEntity
  8
BEM
 62
     0
370
    -2
100
AcDbLine
 10
359.5434103722306
 20
197.4200354851082
 30
0.0
 11
359.5434103722306
 21
163.3412597653832
 31
0.0
  0
LINE
  5
137D
330
136F
100
AcDbEntity
  8
BEM
 62
     0
370
    -2
100
AcDbLine
 10
263.5434103722306
 20
165.3412597653832
 30
0.0
 11
352.5434103722306
 21
165.3412597653832
 31
0.0
  0
SOLID
  5
137E
330
136F
100
AcDbEntity
  8
BEM
 62
     0
100
AcDbTrace
 10
263.5434103722306
 20
166.5079264320499
 30
0.0
 11
263.5434103722306
 21
164.1745930987166
 31
0.0
 12
256.5434103722306
 22
165.3412597653832
 32
0.0
 13
256.5434103722306
 23
165.3412597653832
 33
0.0
  0
SOLID
  5
137F
330
136F
100
AcDbEntity
  8
BEM
 62
     0
100
AcDbTrace
 10
352.5434103722306
 20
166.5079264320499
 30
0.0
 11
352.5434103722306
 21
164.1745930987166
 31
0.0
 12
359.5434103722306
 22
165.3412597653832
 32
0.0
 13
359.5434103722306
 23
165.3412597653832
 33
0.0
  0
MTEXT
  5
1380
330
136F
100
AcDbEntity
  8
BEM
 62
     1
100
AcDbMText
 10
308.0434103722306
 20
171.8412597653832
 30
0.0
 40
7.0
 41
0.0
 71
     5
 72
     1
  1
\A1;%%c103
 73
     1
 44
1.0
  0
POINT
  5
1381
330
136F
100
AcDbEntity
  8
Defpoints
 62
     0
100
AcDbPoint
 10
256.5434103722306
 20
199.4200354851081
 30
0.0
  0
POINT
  5
1382
330
136F
100
AcDbEntity
  8
Defpoints
 62
     0
100
AcDbPoint
 10
359.5434103722306
 20
199.4200354851082
 30
0.0
  0
POINT
  5
1383
330
136F
100
AcDbEntity
  8
Defpoints
 62
     0
100
AcDbPoint
 10
359.5434103722306
 20
165.3412597653832
 30
0.0
  0
ENDBLK
  5
137A
330
136F
100
AcDbEntity
  8
0
100
AcDbBlockEnd
  0
BLOCK
  5
138F
330
1385
100
AcDbEntity
  8
0
100
AcDbBlockBegin
  2
*D2
 70
     1
 10
0.0
 20
0.0
 30
0.0
  3
*D2
  1

  0
LINE
  5
1391
330
1385
100
AcDbEntity
  8
BEM
 62
     0
370
    -2
100
AcDbLine
 10
360.4935464099194
 20
187.4200354851082
 30
0.0
 11
383.6436616499984
 21
187.4200354851082
 31
0.0
  0
LINE
  5
1392
330
1385
100
AcDbEntity
  8
BEM
 62
     0
370
    -2
100
AcDbLine
 10
364.0434103722304
 20
352.4200354851084
 30
0.0
 11
383.6436616499984
 21
352.4200354851084
 31
0.0
  0
LINE
  5
1393
330
1385
100
AcDbEntity
  8
BEM
 62
     0
370
    -2
100
AcDbLine
 10
381.6436616499984
 20
194.4200354851082
 30
0.0
 11
381.6436616499984
 21
345.4200354851084
 31
0.0
  0
SOLID
  5
1394
330
1385
100
AcDbEntity
  8
BEM
 62
     0
100
AcDbTrace
 10
380.4769949833318
 20
194.4200354851082
 30
0.0
 11
382.8103283166651
 21
194.4200354851082
 31
0.0
 12
381.6436616499984
 22
187.4200354851082
 32
0.0
 13
381.6436616499984
 23
187.4200354851082
 33
0.0
  0
SOLID
  5
1395
330
1385
100
AcDbEntity
  8
BEM
 62
     0
100
AcDbTrace
 10
380.4769949833318
 20
345.4200354851084
 30
0.0
 11
382.8103283166651
 21
345.4200354851084
 31
0.0
 12
381.6436616499984
 22
352.4200354851084
 32
0.0
 13
381.6436616499984
 23
352.4200354851084
 33
0.0
  0
MTEXT
  5
1396
330
1385
100
AcDbEntity
  8
BEM
 62
     1
100
AcDbMText
 10
375.1436616499983
 20
269.9200354851084
 30
0.0
 40
7.0
 41
0.0
 71
     5
 72
     1
  1
\A1;165
 11
0.0000000000000001
 21
1.0
 31
0.0
 73
     1
 44
1.0
  0
POINT
  5
1397
330
1385
100
AcDbEntity
  8
Defpoints
 62
     0
100
AcDbPoint
 10
358.4935464099194
 20
187.4200354851082
 30
0.0
  0
POINT
  5
1398
330
1385
100
AcDbEntity
  8
Defpoints
 62
     0
100
AcDbPoint
 10
362.0434103722304
 20
352.4200354851084
 30
0.0
  0
POINT
  5
1399
330
1385
100
AcDbEntity
  8
Defpoints
 62
     0
100
AcDbPoint
 10
381.6436616499984
 20
352.4200354851084
 30
0.0
  0
ENDBLK
  5
1390
330
1385
100
AcDbEntity
  8
0
100
AcDbBlockEnd
  0
BLOCK
  5
140B
330
1401
100
AcDbEntity
  8
0
100
AcDbBlockBegin
  2
*D3
 70
     1
 10
0.0
 20
0.0
 30
0.0
  3
*D3
  1

  0
LINE
  5
140D
330
1401
100
AcDbEntity
  8
BEM
 62
     0
370
    -2
100
AcDbLine
 10
213.8971537986517
 20
522.4200354851085
 30
0.0
 11
234.0318720624357
 21
522.4200354851085
 31
0.0
  0
LINE
  5
140E
330
1401
100
AcDbEntity
  8
BEM
 62
     0
370
    -2
100
AcDbLine
 10
209.7453760483641
 20
187.4200354851084
 30
0.0
 11
234.0318720624356
 21
187.4200354851084
 31
0.0
  0
LINE
  5
140F
330
1401
100
AcDbEntity
  8
BEM
 62
     0
370
    -2
100
AcDbLine
 10
232.0318720624357
 20
515.4200354851085
 30
0.0
 11
232.0318720624357
 21
194.4200354851084
 31
0.0
  0
SOLID
  5
1410
330
1401
100
AcDbEntity
  8
BEM
 62
     0
100
AcDbTrace
 10
230.8652053957691
 20
515.4200354851085
 30
0.0
 11
233.1985387291024
 21
515.4200354851085
 31
0.0
 12
232.0318720624357
 22
522.4200354851085
 32
0.0
 13
232.0318720624357
 23
522.4200354851085
 33
0.0
  0
SOLID
  5
1411
330
1401
100
AcDbEntity
  8
BEM
 62
     0
100
AcDbTrace
 10
230.865205395769
 20
194.4200354851084
 30
0.0
 11
233.1985387291024
 21
194.4200354851084
 31
0.0
 12
232.0318720624356
 22
187.4200354851084
 32
0.0
 13
232.0318720624356
 23
187.4200354851084
 33
0.0
  0
MTEXT
  5
1412
330
1401
100
AcDbEntity
  8
BEM
 62
     1
100
AcDbMText
 10
225.5318720624357
 20
354.9200354851085
 30
0.0
 40
7.0
 41
0.0
 71
     5
 72
     1
  1
\A1;335
 11
0.0000000000000001
 21
1.0
 31
0.0
 73
     1
 44
1.0
  0
POINT
  5
1413
330
1401
100
AcDbEntity
  8
Defpoints
 62
     0
100
AcDbPoint
 10
211.8971537986517
 20
522.4200354851085
 30
0.0
  0
POINT
  5
1414
330
1401
100
AcDbEntity
  8
Defpoints
 62
     0
100
AcDbPoint
 10
207.7453760483641
 20
187.4200354851084
 30
0.0
  0
POINT
  5
1415
330
1401
100
AcDbEntity
  8
Defpoints
 62
     0
100
AcDbPoint
 10
232.0318720624356
 20
187.4200354851084
 30
0.0
  0
ENDBLK
  5
140C
330
1401
100
AcDbEntity
  8
0
100
AcDbBlockEnd
  0
ENDSEC
  0
SECTION
  2
ENTITIES
  0
TEXT
  5
24E
330
1E
100
AcDbEntity
  8
VOLL
100
AcDbText
 10
264.7033033393503
 20
194.5904804762389
 30
0.0
 40
1.8
  1

  7
GREEKS
100
AcDbText
  0
TEXT
  5
60E
330
1E
100
AcDbEntity
  8
VOLL
100
AcDbText
 10
586.8479967437134
 20
39.84115606137584
 30
0.0
 40
1.8
  1

  7
GREEKS
100
AcDbText
  0
LINE
  5
855
330
1E
100
AcDbEntity
  8
STEMPEL
100
AcDbLine
 10
410.0
 20
110.0
 30
0.0
 11
39.99999999999997
 21
110.0
 31
0.0
  0
LINE
  5
856
330
1E
100
AcDbEntity
  8
STEMPEL
100
AcDbLine
 10
136.0000000000001
 20
109.9999999999999
 30
0.0
 11
136.0
 21
9.999999999999971
 31
0.0
  0
LINE
  5
857
330
1E
100
AcDbEntity
  8
STEMPEL
100
AcDbLine
 10
220.0
 20
110.0
 30
0.0
 11
220.0
 21
9.999999999999971
 31
0.0
  0
LINE
  5
858
330
1E
100
AcDbEntity
  8
STEMPEL
100
AcDbLine
 10
332.0
 20
109.9999999999997
 30
0.0
 11
332.0
 21
40.0
 31
0.0
  0
LINE
  5
859
330
1E
100
AcDbEntity
  8
STEMPEL
100
AcDbLine
 10
135.9999999999999
 20
29.99999999999997
 30
0.0
 11
39.99999999999997
 21
29.99999999999997
 31
0.0
  0
LINE
  5
85A
330
1E
100
AcDbEntity
  8
STEMPEL
100
AcDbLine
 10
410.0
 20
40.0
 30
0.0
 11
136.0000000000001
 21
39.99999999999997
 31
0.0
  0
LINE
  5
85B
330
1E
100
AcDbEntity
  8
STEMPEL
100
AcDbLine
 10
410.0
 20
80.0
 30
0.0
 11
136.0000000000001
 21
79.99999999999994
 31
0.0
  0
LINE
  5
85C
330
1E
100
AcDbEntity
  8
VOLL
100
AcDbLine
 10
54.00000000000009
 20
110.0
 30
0.0
 11
53.99999999999997
 21
9.999999999999971
 31
0.0
  0
LINE
  5
85D
330
1E
100
AcDbEntity
  8
VOLL
100
AcDbLine
 10
94.00000000000011
 20
109.9999999999999
 30
0.0
 11
94.0
 21
9.999999999999971
 31
0.0
  0
LINE
  5
85E
330
1E
100
AcDbEntity
  8
VOLL
100
AcDbLine
 10
114.0000000000001
 20
109.9999999999999
 30
0.0
 11
114.0
 21
9.999999999999971
 31
0.0
  0
LINE
  5
85F
330
1E
100
AcDbEntity
  8
VOLL
100
AcDbLine
 10
154.0000000000001
 20
79.99999999999994
 30
0.0
 11
154.0000000000001
 21
39.99999999999997
 31
0.0
  0
LINE
  5
860
330
1E
100
AcDbEntity
  8
VOLL
100
AcDbLine
 10
180.0000000000001
 20
109.9999999999998
 30
0.0
 11
180.0
 21
39.99999999999997
 31
0.0
  0
LINE
  5
861
330
1E
100
AcDbEntity
  8
HILF
100
AcDbLine
 10
40.00000000000008
 20
100.0
 30
0.0
 11
136.0000000000001
 21
100.0
 31
0.0
  0
LINE
  5
862
330
1E
100
AcDbEntity
  8
HILF
100
AcDbLine
 10
40.00000000000008
 20
90.00000000000005
 30
0.0
 11
136.0000000000001
 21
90.00000000000005
 31
0.0
  0
LINE
  5
863
330
1E
100
AcDbEntity
  8
HILF
100
AcDbLine
 10
40.00000000000008
 20
79.99999999999994
 30
0.0
 11
136.0000000000001
 21
79.99999999999994
 31
0.0
  0
LINE
  5
864
330
1E
100
AcDbEntity
  8
HILF
100
AcDbLine
 10
40.00000000000008
 20
69.99999999999994
 30
0.0
 11
136.0000000000001
 21
69.99999999999994
 31
0.0
  0
LINE
  5
865
330
1E
100
AcDbEntity
  8
HILF
100
AcDbLine
 10
40.00000000000008
 20
59.99999999999997
 30
0.0
 11
136.0000000000001
 21
59.99999999999997
 31
0.0
  0
LINE
  5
866
330
1E
100
AcDbEntity
  8
HILF
100
AcDbLine
 10
40.00000000000008
 20
49.99999999999997
 30
0.0
 11
136.0000000000001
 21
49.99999999999997
 31
0.0
  0
LINE
  5
867
330
1E
100
AcDbEntity
  8
HILF
100
AcDbLine
 10
40.00000000000008
 20
39.99999999999997
 30
0.0
 11
136.0000000000001
 21
39.99999999999997
 31
0.0
  0
LINE
  5
868
330
1E
100
AcDbEntity
  8
HILF
100
AcDbLine
 10
136.0000000000001
 20
69.99999999999994
 30
0.0
 11
220.0
 21
69.99999999999994
 31
0.0
  0
LINE
  5
869
330
1E
100
AcDbEntity
  8
HILF
100
AcDbLine
 10
136.0000000000001
 20
59.99999999999997
 30
0.0
 11
220.0
 21
59.99999999999997
 31
0.0
  0
LINE
  5
86A
330
1E
100
AcDbEntity
  8
HILF
100
AcDbLine
 10
136.0000000000001
 20
49.99999999999997
 30
0.0
 11
220.0
 21
49.99999999999997
 31
0.0
  0
LINE
  5
86B
330
1E
100
AcDbEntity
  8
HILF
100
AcDbLine
 10
224.7736801096948
 20
84.03758247564139
 30
0.0
 11
324.8353916556311
 21
84.03758247564139
 31
0.0
  0
LINE
  5
86C
330
1E
100
AcDbEntity
  8
HILF
100
AcDbLine
 10
224.7736801096948
 20
69.99999999999994
 30
0.0
 11
324.835391655631
 21
69.99999999999994
 31
0.0
  0
LINE
  5
86D
330
1E
100
AcDbEntity
  8
HILF
100
AcDbLine
 10
224.7736801096948
 20
59.99999999999997
 30
0.0
 11
324.835391655631
 21
59.99999999999997
 31
0.0
  0
LINE
  5
86E
330
1E
100
AcDbEntity
  8
HILF
100
AcDbLine
 10
224.7736801096948
 20
49.99999999999997
 30
0.0
 11
324.835391655631
 21
49.99999999999997
 31
0.0
  0
LINE
  5
86F
330
1E
100
AcDbEntity
  8
VOLL
100
AcDbLine
 10
332.0
 20
60.0
 30
0.0
 11
410.0
 21
60.0
 31
0.0
  0
LINE
  5
870
330
1E
100
AcDbEntity
  8
HILF
100
AcDbLine
 10
336.7238616296993
 20
83.77983636955827
 30
0.0
 11
404.8588839326728
 21
83.77983636955827
 31
0.0
  0
LINE
  5
871
330
1E
100
AcDbEntity
  8
HILF
100
AcDbLine
 10
223.4909699289885
 20
14.89398258028314
 30
0.0
 11
404.8588839326728
 21
14.89398258028314
 31
0.0
  0
TEXT
  5
872
330
1E
100
AcDbEntity
  8
TEXT
100
AcDbText
 10
63.86165979631819
 20
18.67381894984132
 30
0.0
 40
4.0
  1
Änderung
 41
0.8
  7
GREEKS
 72
     1
 11
74.60451693917534
 21
18.67381894984132
 31
0.0
100
AcDbText
  0
TEXT
  5
873
330
1E
100
AcDbEntity
  8
TEXT
100
AcDbText
 10
143.5163572150377
 20
102.4620895087088
 30
0.0
 40
5.0
  1
Maßstab
 41
0.8
  7
GREEKS
100
AcDbText
  0
TEXT
  5
874
330
1E
100
AcDbEntity
  8
TEXT
100
AcDbText
 10
184.2858954734051
 20
102.4184168434819
 30
0.0
 40
5.0
  1
Zul. Abw.
 41
0.8
  7
GREEKS
100
AcDbText
  0
TEXT
  5
875
330
1E
100
AcDbEntity
  8
TEXT
100
AcDbText
 10
224.877940380901
 20
102.5489328011779
 30
0.0
 40
5.0
  1
Benennung
 41
0.8
  7
GREEKS
100
AcDbText
  0
TEXT
  5
876
330
1E
100
AcDbEntity
  8
TEXT
100
AcDbText
 10
336.178754957634
 20
102.3132034537136
 30
0.0
 40
5.0
  1
Zeichnungs Nr.
 41
0.8
  7
GREEKS
100
AcDbText
  0
TEXT
  5
877
330
1E
100
AcDbEntity
  8
TEXT
100
AcDbText
 10
224.742238391136
 20
30.84560570193057
 30
0.0
 40
5.0
  1
Bauvorhaben
 41
0.8
  7
GREEKS
100
AcDbText
  0
TEXT
  5
878
330
1E
100
AcDbEntity
  8
TEXT
100
AcDbText
 10
336.7238616296993
 20
73.1811823709997
 30
0.0
 40
5.0
  1
Ersatz für:
 41
0.8
  7
GREEKS
100
AcDbText
  0
TEXT
  5
879
330
1E
100
AcDbEntity
  8
TEXT
100
AcDbText
 10
48.26641107045756
 20
13.65465846027192
 30
0.0
 40
4.0
  1
Index
 50
90.0
 41
0.8
  7
GREEKS
100
AcDbText
  0
TEXT
  5
87A
330
1E
100
AcDbEntity
  8
TEXT
100
AcDbText
 10
100.0934676075481
 20
18.6715626933981
 30
0.0
 40
4.0
  1
Tag
 41
0.8
  7
GREEKS
 72
     1
 11
103.8268009408814
 21
18.6715626933981
 31
0.0
100
AcDbText
  0
TEXT
  5
87B
330
1E
100
AcDbEntity
  8
TEXT
100
AcDbText
 10
119.0122744386592
 20
18.59324216966408
 30
0.0
 40
4.0
  1
Name
 41
0.8
  7
GREEKS
 72
     1
 11
125.3360839624688
 21
18.59324216966408
 31
0.0
100
AcDbText
  0
TEXT
  5
87C
330
1E
100
AcDbEntity
  8
TEXT
100
AcDbText
 10
162.3311673153651
 20
73.31880501229926
 30
0.0
 40
4.0
  1
Tag
 41
0.8
  7
GREEKS
100
AcDbText
  0
TEXT
  5
87D
330
1E
100
AcDbEntity
  8
TEXT
100
AcDbText
 10
192.4626584226295
 20
73.30961091915225
 30
0.0
 40
4.0
  1
Name
 41
0.8
  7
GREEKS
100
AcDbText
  0
TEXT
  5
87E
330
1E
100
AcDbEntity
  8
TEXT
100
AcDbText
 10
137.5836127167615
 20
63.62990369617964
 30
0.0
 40
4.0
  1
Gez.
 41
0.8
  7
GREEKS
100
AcDbText
  0
TEXT
  5
87F
330
1E
100
AcDbEntity
  8
TEXT
100
AcDbText
 10
137.5515086571672
 20
53.68926291428377
 30
0.0
 40
4.0
  1
Gepr.
 41
0.8
  7
GREEKS
100
AcDbText
  0
TEXT
  5
880
330
1E
100
AcDbEntity
  8
TEXT
100
AcDbText
 10
137.6006777387304
 20
43.52946389649807
 30
0.0
 40
4.0
  1
Norm.
 41
0.8
  7
GREEKS
100
AcDbText
  0
LINE
  5
881
330
1E
100
AcDbEntity
  8
STEMPEL
100
AcDbLine
 10
49.99999999999989
 20
10.0
 30
0.0
 11
410.0
 21
10.0
 31
0.0
  0
TEXT
  5
882
330
1E
100
AcDbEntity
  8
TEXT
100
AcDbText
 10
337.2400861497006
 20
52.07416177878602
 30
0.0
 40
5.0
  1
ersetzt durch:
 41
0.8
  7
GREEKS
100
AcDbText
  0
LINE
  5
883
330
1E
100
AcDbEntity
  8
STEMPEL
100
AcDbLine
 10
410.0
 20
10.0
 30
0.0
 11
39.99999999999989
 21
10.0
 31
0.0
  0
LINE
  5
884
330
1E
100
AcDbEntity
  8
STEMPEL
100
AcDbLine
 10
410.0
 20
10.0
 30
0.0
 11
410.0
 21
584.0
 31
0.0
  0
LINE
  5
885
330
1E
100
AcDbEntity
  8
STEMPEL
100
AcDbLine
 10
40.0
 20
10.0
 30
0.0
 11
39.99999999999989
 21
584.0
 31
0.0
  0
LINE
  5
886
330
1E
100
AcDbEntity
  8
STEMPEL
100
AcDbLine
 10
410.0
 20
584.0
 30
0.0
 11
39.99999999999989
 21
584.0
 31
0.0
  0
LINE
  5
887
330
1E
100
AcDbEntity
  8
HILF
100
AcDbLine
 10
0.0
 20
0.0
 30
0.0
 11
-0.0000000000001137
 21
594.0
 31
0.0
  0
LINE
  5
888
330
1E
100
AcDbEntity
  8
HILF
100
AcDbLine
 10
419.9999999999999
 20
594.0000000000002
 30
0.0
 11
0.0
 21
594.0
 31
0.0
  0
LINE
  5
889
330
1E
100
AcDbEntity
  8
HILF
100
AcDbLine
 10
420.0
 20
0.0
 30
0.0
 11
0.0
 21
0.0
 31
0.0
  0
LINE
  5
88A
330
1E
100
AcDbEntity
  8
HILF
100
AcDbLine
 10
31.08767135713856
 20
297.0
 30
0.0
 11
0.0000000000001137
 21
297.0
 31
0.0
  0
TEXT
  5
88B
330
1E
100
AcDbEntity
  8
TEXT
100
AcDbText
 10
138.622109822104
 20
73.14025471151666
 30
0.0
 40
4.0
  1
2012
 41
0.8
  7
GREEKS
100
AcDbText
  0
LINE
  5
88C
330
1E
100
AcDbEntity
  8
HILF
100
AcDbLine
 10
420.0
 20
-0.0000000000001137
 30
0.0
 11
419.9999999999999
 21
594.0
 31
0.0
  0
TEXT
  5
88D
330
1E
100
AcDbEntity
  8
VOLL
100
AcDbText
 10
156.1535094339622
 20
62.05189552941169
 30
0.0
 40
3.6
  1

  7
GREEKS
100
AcDbText
  0
TEXT
  5
88E
330
1E
100
AcDbEntity
  8
TEXT
100
AcDbText
 10
41.85509950977674
 20
111.6719999999999
 30
0.0
 40
5.0
  1
Erstellt mit AUTOCAD 2004
 41
0.8
  7
GREEKS
100
AcDbText
  0
TEXT
  5
88F
330
1E
100
AcDbEntity
  8
TEXT
100
AcDbText
 10
194.4216048581257
 20
63.0896391972351
 30
0.0
 40
4.0
  1
Koeh
 41
0.8
  7
GREEKS
 72
     1
 11
199.6787477152685
 21
63.0896391972351
 31
0.0
100
AcDbText
  0
TEXT
  5
890
330
1E
100
AcDbEntity
  8
TEXT
 62
     1
100
AcDbText
 10
349.8397508650703
 20
88.14901428913959
 30
0.0
 40
7.0
  1
5550100W
 41
0.8
  7
GREEKS
 72
     1
 11
370.6397508650704
 21
88.14901428913959
 31
0.0
100
AcDbText
  0
TEXT
  5
891
330
1E
100
AcDbEntity
  8
TEXT
 62
     1
100
AcDbText
 10
150.5006306481887
 20
88.14901428913959
 30
0.0
 40
7.0
  1
1:2
 41
0.8
  7
GREEKS
100
AcDbText
  0
TEXT
  5
892
330
1E
100
AcDbEntity
  8
TEXT
100
AcDbText
 10
161.0085209177598
 20
63.10765040825732
 30
0.0
 40
4.0
  1
17.01.
 41
0.8
  7
GREEKS
 72
     1
 11
167.4085209177598
 21
63.10765040825732
 31
0.0
100
AcDbText
  0
TEXT
  5
893
330
1E
100
AcDbEntity
  8
TEXT
 62
     1
100
AcDbText
 10
226.8935731057402
 20
87.41748789253779
 30
0.0
 40
7.0
  1
Reinigungsrohr DN100
 41
0.8
  7
GREEKS
100
AcDbText
  0
TEXT
  5
896
330
1E
100
AcDbEntity
  8
TEXT
100
AcDbText
 10
225.1296391125315
 20
51.64011943042158
 30
0.0
 40
5.0
  1
EDV-Art.Nr. 5.550.100C
 41
0.8
  7
GREEKS
100
AcDbText
  0
TEXT
  5
897
330
1E
100
AcDbEntity
  8
TEXT
100
AcDbText
 10
224.9837501577827
 20
42.62974153022632
 30
0.0
 40
4.0
  1
5550100W.DWG
 41
0.8
  7
GREEKS
100
AcDbText
  0
TEXT
  5
898
330
1E
100
AcDbEntity
  8
TEXT
100
AcDbText
 10
182.626132208084
 20
90.76363841023022
 30
0.0
 40
4.0
  1
DIN EN1124-3
 41
0.8
  7
GREEKS
 72
     1
 11
199.6166083985602
 21
90.76363841023022
 31
0.0
100
AcDbText
  0
INSERT
  5
899
330
1E
100
AcDbEntity
  8
STEMPEL
100
AcDbBlockReference
  2
LOGO
 10
140.9955485457794
 20
45.02105276448322
 30
0.0
 41
2.0
 42
2.0
 43
2.0
  0
TEXT
  5
89A
330
1E
100
AcDbEntity
  8
BEM
100
AcDbText
 10
417.3022923857165
 20
10.16790107998849
 30
0.0
 40
4.0
  1
Diese Zeichnung ist urheberrechtlich geschützt und bleibt unser Eigentum. Sie darf weder ganz noch teilweise verfielfältigt und nicht an Dritte weitergegeben werden.
 50
90.0
 41
0.8
  7
GREEKS
100
AcDbText
  0
TEXT
  5
BB6
330
1E
100
AcDbEntity
  8
TEXT
 62
     1
100
AcDbText
 10
153.7690936380828
 20
483.6949792065131
 30
0.0
 40
7.0
  1
DN100
 50
90.0
 41
0.8
  7
GREEKS
100
AcDbText
  0
LINE
  5
C45
330
1E
100
AcDbEntity
  8
MITTEL
100
AcDbLine
 10
362.0434103722304
 20
352.4200354851084
 30
0.0
 11
254.0434103722304
 21
352.4200354851084
 31
0.0
  0
LINE
  5
C4A
330
1E
100
AcDbEntity
  8
MITTEL
100
AcDbLine
 10
157.2952400106753
 20
352.4200354851084
 30
0.0
 11
88.89524001067512
 21
352.4200354851085
 31
0.0
  0
LINE
  5
C4D
330
1E
100
AcDbEntity
  8
MITTEL
100
AcDbLine
 10
157.2952400106751
 20
527.4200354851086
 30
0.0
 11
157.2952400106751
 21
182.4200354851082
 31
0.0
  0
LINE
  5
C4E
330
1E
100
AcDbEntity
  8
MITTEL
100
AcDbLine
 10
308.0434103722305
 20
527.4200354851087
 30
0.0
 11
308.0434103722304
 21
182.4200354851082
 31
0.0
  0
TEXT
  5
D93
330
1E
100
AcDbEntity
  8
TEXT
 62
     1
100
AcDbText
 10
304.5172639996382
 20
483.6949792065131
 30
0.0
 40
7.0
  1
DN100
 50
90.0
 41
0.8
  7
GREEKS
100
AcDbText
  0
LINE
  5
F73
330
1E
100
AcDbEntity
  8
STEMPEL
100
AcDbLine
 10
211.8971537986517
 20
522.4200354851085
 30
0.0
 11
102.635457091952
 21
522.4200354851087
 31
0.0
  0
TEXT
  5
F77
330
1E
100
AcDbEntity
  8
TEXT
 62
     1
100
AcDbText
 10
153.7690936380827
 20
483.6949792065131
 30
0.0
 40
7.0
  1
DN100
 50
90.0
 41
0.8
  7
GREEKS
100
AcDbText
  0
HATCH
  5
1017
330
1E
100
AcDbEntity
  8
SCHRAFF
100
AcDbHatch
 10
0.0
 20
0.0
 30
0.0
210
0.0
220
0.0
230
1.0
  2
_USER
 70
     0
 71
     0
 91
        2
 92
        5
 93
        8
 72
     4
 94
        3
 73
     0
 74
     0
 95
        8
 96
        4
 40
4.128654811007312
 40
4.128654811007312
 40
4.128654811007312
 40
4.128654811007312
 40
5.742907404937298
 40
5.742907404937298
 40
5.742907404937298
 40
5.742907404937298
 10
107.2952400106752
 20
423.3288263746935
 10
106.7969070656142
 20
423.5865334983271
 10
106.2967347224079
 20
423.8427616550951
 10
105.7952400106752
 20
424.0979265623217
 72
     1
 10
105.7952400106752
 20
424.0979265623217
 11
105.7952400106752
 21
399.4200354851086
 72
     2
 10
101.7952400106752
 20
399.4200354851086
 40
4.0
 50
0.0000000000008142
 51
90.0
 73
     0
 72
     1
 10
101.7952400106752
 20
395.4200354851086
 11
100.1952400106751
 21
395.4200354851086
 72
     1
 10
100.1952400106751
 20
395.4200354851086
 11
100.1952400106751
 21
393.9200354851086
 72
     1
 10
100.1952400106751
 20
393.9200354851086
 11
101.7952400106754
 21
393.9200354851086
 72
     2
 10
101.7952400106752
 20
399.4200354851086
 40
5.499999999999999
 50
270.0000000000015
 51
359.9999999999994
 73
     1
 72
     1
 10
107.2952400106752
 20
399.4200354851086
 11
107.2952400106752
 21
423.3288263746936
 97
        0
 92
        5
 93
        8
 72
     1
 10
105.7952400106752
 20
305.4200354851085
 11
105.7952400106752
 21
279.8393357961383
 72
     4
 94
        3
 73
     0
 74
     0
 95
        8
 96
        4
 40
175.6125819552566
 40
175.6125819552566
 40
175.6125819552566
 40
175.6125819552566
 40
177.1200142969379
 40
177.1200142969379
 40
177.1200142969379
 40
177.1200142969379
 10
105.7952400106751
 20
279.8393357961383
 10
106.2977041360734
 20
279.9497686737927
 10
106.7978327210905
 20
280.0639876761059
 10
107.2952400106752
 20
280.1826181473126
 72
     1
 10
107.2952400106751
 20
280.1826181473126
 11
107.2952400106752
 21
305.4200354851085
 72
     2
 10
101.7952400106752
 20
305.4200354851086
 40
5.500000000000001
 50
359.9999999999994
 51
450.0000000000021
 73
     1
 72
     1
 10
101.795240010675
 20
310.9200354851085
 11
100.1952400106751
 21
310.9200354851085
 72
     1
 10
100.1952400106751
 20
310.9200354851085
 11
100.1952400106751
 21
309.4200354851084
 72
     1
 10
100.1952400106751
 20
309.4200354851084
 11
101.7952400106752
 21
309.4200354851085
 72
     2
 10
101.7952400106752
 20
305.4200354851085
 40
3.999999999999997
 50
270.0
 51
360.0
 73
     0
 97
        0
 75
     0
 76
     0
 52
45.0
 41
2.0
 77
     0
 78
     1
 53
45.0
 43
-14.1431908870919
 44
-20.1986445789899
 45
-1.414213562373094
 46
1.414213562373095
 79
     0
 47
0.3015291506416008
 98
        2
 10
106.6612327564083
 20
405.340854869754
 10
106.3595283245821
 20
306.1377629048449
  0
LINE
  5
1018
330
1E
100
AcDbEntity
  8
STEMPEL
100
AcDbLine
 10
107.2952400106752
 20
423.3288263746935
 30
0.0
 11
107.2952400106752
 21
399.4200354851086
 31
0.0
  0
ARC
  5
1019
330
1E
100
AcDbEntity
  8
STEMPEL
100
AcDbCircle
 10
101.7952400106753
 20
399.4200354851086
 30
0.0
 40
5.5
100
AcDbArc
 50
270.0
 51
0.0
  0
ARC
  5
101B
330
1E
100
AcDbEntity
  8
STEMPEL
100
AcDbCircle
 10
101.7952400106751
 20
305.4200354851085
 30
0.0
 40
5.5
100
AcDbArc
 50
0.0
 51
90.0
  0
LINE
  5
101C
330
1E
100
AcDbEntity
  8
STEMPEL
100
AcDbLine
 10
107.2952400106752
 20
305.4200354851085
 30
0.0
 11
107.2952400106752
 21
280.1826181473125
 31
0.0
  0
SPLINE
  5
101D
330
1E
100
AcDbEntity
  8
HILF
100
AcDbSpline
210
0.0
220
0.0
230
1.0
 70
     8
 71
     3
 72
    12
 73
     8
 74
     0
 42
0.0000000001
 43
0.0000000001
 40
4.128654811007312
 40
4.128654811007312
 40
4.128654811007312
 40
4.128654811007312
 40
29.37422943231415
 40
72.58420633840865
 40
121.4504728801434
 40
161.1852731972503
 40
177.1200142969379
 40
177.1200142969379
 40
177.1200142969379
 40
177.1200142969379
 10
105.7952400106752
 20
424.0979265623217
 30
0.0
 10
113.6382022675399
 20
420.1073585865593
 30
0.0
 10
134.0280626274461
 20
408.5814320321032
 30
0.0
 10
139.9758864015064
 20
365.5127292863675
 30
0.0
 10
145.4589300449858
 20
323.6219103123021
 30
0.0
 10
128.7509543103658
 20
286.5630142187227
 30
0.0
 10
111.1066795550676
 20
281.0066978499163
 30
0.0
 10
105.7952400106751
 20
279.8393357961383
 30
0.0
  0
ARC
  5
1033
330
1E
100
AcDbEntity
  8
STEMPEL
100
AcDbCircle
 10
101.7952400106751
 20
305.4200354851085
 30
0.0
 40
4.0
100
AcDbArc
 50
0.0
 51
90.0
  0
ARC
  5
1034
330
1E
100
AcDbEntity
  8
STEMPEL
100
AcDbCircle
 10
101.7952400106753
 20
399.4200354851086
 30
0.0
 40
4.0
100
AcDbArc
 50
270.0
 51
0.0
  0
LINE
  5
1035
330
1E
100
AcDbEntity
  8
STEMPEL
100
AcDbLine
 10
101.7952400106752
 20
395.4200354851086
 30
0.0
 11
100.1952400106751
 21
395.4200354851086
 31
0.0
  0
LINE
  5
1036
330
1E
100
AcDbEntity
  8
STEMPEL
100
AcDbLine
 10
101.7952400106752
 20
309.4200354851085
 30
0.0
 11
100.1952400106751
 21
309.4200354851085
 31
0.0
  0
LINE
  5
1037
330
1E
100
AcDbEntity
  8
STEMPEL
100
AcDbLine
 10
101.7952400106754
 20
393.9200354851086
 30
0.0
 11
100.1952400106751
 21
393.9200354851086
 31
0.0
  0
LINE
  5
1038
330
1E
100
AcDbEntity
  8
STEMPEL
100
AcDbLine
 10
101.795240010675
 20
310.9200354851085
 30
0.0
 11
100.1952400106751
 21
310.9200354851085
 31
0.0
  0
LINE
  5
1039
330
1E
100
AcDbEntity
  8
STEMPEL
100
AcDbLine
 10
100.1952400106751
 20
395.4200354851086
 30
0.0
 11
100.1952400106751
 21
309.4200354851085
 31
0.0
  0
ARC
  5
1071
330
1E
100
AcDbEntity
  8
HILF
100
AcDbCircle
 10
73.86053106821624
 20
352.4200354851086
 30
0.0
 40
53.43641547679816
100
AcDbArc
 50
308.1731942171345
 51
51.82680578286518
  0
ARC
  5
114D
330
1E
100
AcDbEntity
  8
STEMPEL
100
AcDbCircle
 10
310.4836881500082
 20
350.9228132628862
 30
0.0
 40
0.6611111111111199
100
AcDbArc
 50
9.999999999998609
 51
90.0
  0
ARC
  5
114E
330
1E
100
AcDbEntity
  8
STEMPEL
100
AcDbCircle
 10
310.2892437055638
 20
354.9283688184416
 30
0.0
 40
0.8555555555555024
100
AcDbArc
 50
270.0
 51
90.0
  0
ARC
  5
114F
330
1E
100
AcDbEntity
  8
STEMPEL
100
AcDbCircle
 10
310.2892437055638
 20
354.9283688184416
 30
0.0
 40
3.344444444444391
100
AcDbArc
 50
322.4919601629155
 51
90.0
  0
ARC
  5
1150
330
1E
100
AcDbEntity
  8
STEMPEL
100
AcDbCircle
 10
308.0434103722304
 20
306.4200354851084
 30
0.0
 40
16.0
100
AcDbArc
 50
225.8395195700484
 51
314.1604804299516
  0
ARC
  5
1151
330
1E
100
AcDbEntity
  8
HILF
100
AcDbCircle
 10
308.0434103722304
 20
306.4200354851084
 30
0.0
 40
13.38
100
AcDbArc
 50
225.8308941325914
 51
237.1740057916379
  0
ARC
  5
1152
330
1E
100
AcDbEntity
  8
HILF
100
AcDbCircle
 10
308.0434103722304
 20
398.4200354851084
 30
0.0
 40
13.38
100
AcDbArc
 50
45.83089413259138
 51
57.17400579163879
  0
ARC
  5
1153
330
1E
100
AcDbEntity
  8
STEMPEL
100
AcDbCircle
 10
308.0434103722304
 20
398.4200354851084
 30
0.0
 40
16.0
100
AcDbArc
 50
45.83951957004845
 51
134.1604804299516
  0
CIRCLE
  5
1154
330
1E
100
AcDbEntity
  8
STEMPEL
100
AcDbCircle
 10
308.0434103722304
 20
352.4200354851084
 30
0.0
 40
31.5
  0
CIRCLE
  5
1155
330
1E
100
AcDbEntity
  8
HILF
100
AcDbCircle
 10
308.0434103722304
 20
352.4200354851084
 30
0.0
 40
35.06111457868633
  0
ARC
  5
1156
330
1E
100
AcDbEntity
  8
STEMPEL
100
AcDbCircle
 10
308.0434103722304
 20
352.4200354851084
 30
0.0
 40
48.99999999999997
100
AcDbArc
 50
134.1604804299516
 51
225.8395195700484
  0
ARC
  5
1157
330
1E
100
AcDbEntity
  8
HILF
100
AcDbCircle
 10
308.0434103722304
 20
352.4200354851084
 30
0.0
 40
46.37517522151287
100
AcDbArc
 50
134.1691058674086
 51
225.8308941325914
  0
LINE
  5
1158
330
1E
100
AcDbEntity
  8
HILF
100
AcDbLine
 10
298.7205148420906
 20
408.0173277560615
 30
0.0
 11
275.7301881164681
 21
385.6843187973297
 31
0.0
  0
LINE
  5
1159
330
1E
100
AcDbEntity
  8
STEMPEL
100
AcDbLine
 10
296.896683165996
 20
409.8982963546736
 30
0.0
 11
273.9065583031374
 21
387.5722093981519
 31
0.0
  0
LINE
  5
115A
330
1E
100
AcDbEntity
  8
HILF
100
AcDbLine
 10
275.7301881164681
 20
319.1557521728872
 30
0.0
 11
298.7205148420905
 21
296.8227432141554
 31
0.0
  0
LINE
  5
115B
330
1E
100
AcDbEntity
  8
STEMPEL
100
AcDbLine
 10
273.9065583031373
 20
317.267861572065
 30
0.0
 11
296.896683165996
 21
294.9417746155432
 31
0.0
  0
LINE
  5
115C
330
1E
100
AcDbEntity
  8
STEMPEL
100
AcDbLine
 10
292.5947992611193
 20
346.5672577073307
 30
0.0
 11
299.711465927786
 21
346.5672577073307
 31
0.0
  0
CIRCLE
  5
115D
330
1E
100
AcDbEntity
  8
STEMPEL
100
AcDbCircle
 10
299.711465927786
 20
352.4200354851084
 30
0.0
 40
3.363888888888853
  0
ARC
  5
115E
330
1E
100
AcDbEntity
  8
STEMPEL
100
AcDbCircle
 10
299.711465927786
 20
352.4200354851084
 30
0.0
 40
5.852777777777742
100
AcDbArc
 50
28.70832102274984
 51
215.0821845754639
  0
LINE
  5
115F
330
1E
100
AcDbEntity
  8
STEMPEL
100
AcDbLine
 10
290.3003548166749
 20
357.0283688184418
 30
0.0
 11
290.3003548166749
 21
348.8617021517752
 31
0.0
  0
LINE
  5
1160
330
1E
100
AcDbEntity
  8
STEMPEL
100
AcDbLine
 10
292.7892437055638
 20
357.0283688184418
 30
0.0
 11
292.7892437055638
 21
349.4450354851085
 31
0.0
  0
ARC
  5
1161
330
1E
100
AcDbEntity
  8
STEMPEL
100
AcDbCircle
 10
291.5447992611193
 20
357.0283688184418
 30
0.0
 40
1.244444444444462
100
AcDbArc
 50
0.0
 51
180.0
  0
ARC
  5
1162
330
1E
100
AcDbEntity
  8
STEMPEL
100
AcDbCircle
 10
293.1781325944527
 20
349.4450354851085
 30
0.0
 40
0.3888888888888889
100
AcDbArc
 50
180.0
 51
270.0
  0
ARC
  5
1163
330
1E
100
AcDbEntity
  8
STEMPEL
100
AcDbCircle
 10
292.5947992611193
 20
348.8617021517752
 30
0.0
 40
2.294444444444444
100
AcDbArc
 50
180.0
 51
270.0
  0
LINE
  5
1164
330
1E
100
AcDbEntity
  8
STEMPEL
100
AcDbLine
 10
293.1781325944527
 20
349.0561465962196
 30
0.0
 11
294.9219712509696
 21
349.0561465962196
 31
0.0
  0
LINE
  5
1165
330
1E
100
AcDbEntity
  8
STEMPEL
100
AcDbLine
 10
307.3336881500082
 20
355.7839243739973
 30
0.0
 11
307.3336881500082
 21
354.0728132628861
 31
0.0
  0
ARC
  5
1166
330
1E
100
AcDbEntity
  8
STEMPEL
100
AcDbCircle
 10
305.6225770388971
 20
357.4950354851084
 30
0.0
 40
0.7777777777777778
100
AcDbArc
 50
90.0
 51
180.0
  0
LINE
  5
1167
330
1E
100
AcDbEntity
  8
STEMPEL
100
AcDbLine
 10
304.8447992611193
 20
357.4950354851085
 30
0.0
 11
304.8447992611193
 21
355.2314224390758
 31
0.0
  0
LINE
  5
1168
330
1E
100
AcDbEntity
  8
STEMPEL
100
AcDbLine
 10
307.3336881500082
 20
355.7839243739973
 30
0.0
 11
310.2892437055638
 21
355.7839243739973
 31
0.0
  0
LINE
  5
1169
330
1E
100
AcDbEntity
  8
STEMPEL
100
AcDbLine
 10
305.6225770388971
 20
358.2728132628862
 30
0.0
 11
310.2892437055638
 21
358.2728132628862
 31
0.0
  0
ARC
  5
116A
330
1E
100
AcDbEntity
  8
STEMPEL
100
AcDbCircle
 10
299.711465927786
 20
352.4200354851084
 30
0.0
 40
5.852777777777742
100
AcDbArc
 50
270.0
 51
331.2916789772546
  0
ARC
  5
116B
330
1E
100
AcDbEntity
  8
STEMPEL
100
AcDbCircle
 10
306.0892437055638
 20
347.811702151775
 30
0.0
 40
1.244444444444462
100
AcDbArc
 50
180.0
 51
0.0
  0
LINE
  5
116C
330
1E
100
AcDbEntity
  8
STEMPEL
100
AcDbLine
 10
304.8447992611193
 20
349.6086485311411
 30
0.0
 11
304.8447992611194
 21
347.8117021517751
 31
0.0
  0
LINE
  5
116D
330
1E
100
AcDbEntity
  8
STEMPEL
100
AcDbLine
 10
307.3336881500083
 20
351.5839243739972
 30
0.0
 11
307.3336881500083
 21
347.8117021517751
 31
0.0
  0
LINE
  5
116E
330
1E
100
AcDbEntity
  8
STEMPEL
100
AcDbLine
 10
307.3336881500083
 20
351.5839243739972
 30
0.0
 11
310.4836881500082
 21
351.5839243739972
 31
0.0
  0
LINE
  5
116F
330
1E
100
AcDbEntity
  8
STEMPEL
100
AcDbLine
 10
307.3336881500082
 20
354.0728132628861
 30
0.0
 11
310.2892437055638
 21
354.0728132628861
 31
0.0
  0
ARC
  5
1170
330
1E
100
AcDbEntity
  8
HILF
100
AcDbCircle
 10
308.0434103722304
 20
352.4200354851084
 30
0.0
 40
46.37517522151287
100
AcDbArc
 50
314.1691058674063
 51
45.83089413259138
  0
ARC
  5
1171
330
1E
100
AcDbEntity
  8
STEMPEL
100
AcDbCircle
 10
308.0434103722304
 20
352.4200354851084
 30
0.0
 40
48.99999999999997
100
AcDbArc
 50
314.1604804299516
 51
45.83951957004845
  0
LINE
  5
1172
330
1E
100
AcDbEntity
  8
STEMPEL
100
AcDbLine
 10
342.1802624413236
 20
387.5722093981519
 30
0.0
 11
319.190137578465
 21
409.8982963546736
 31
0.0
  0
LINE
  5
1173
330
1E
100
AcDbEntity
  8
HILF
100
AcDbLine
 10
340.3566326279929
 20
385.6843187973297
 30
0.0
 11
317.3663059023705
 21
408.0173277560615
 31
0.0
  0
LINE
  5
1174
330
1E
100
AcDbEntity
  8
STEMPEL
100
AcDbLine
 10
319.1901375784649
 20
294.9417746155432
 30
0.0
 11
342.1802624413236
 21
317.267861572065
 31
0.0
  0
LINE
  5
1175
330
1E
100
AcDbEntity
  8
HILF
100
AcDbLine
 10
317.3663059023705
 20
296.8227432141554
 30
0.0
 11
340.3566326279928
 21
319.1557521728872
 31
0.0
  0
ARC
  5
1176
330
1E
100
AcDbEntity
  8
STEMPEL
100
AcDbCircle
 10
319.9336881500082
 20
352.4200354851084
 30
0.0
 40
5.852777777777742
100
AcDbArc
 50
270.0
 51
215.0821845754594
  0
CIRCLE
  5
1177
330
1E
100
AcDbEntity
  8
STEMPEL
100
AcDbCircle
 10
319.9336881500082
 20
352.4200354851084
 30
0.0
 40
3.363888888888853
  0
LINE
  5
1178
330
1E
100
AcDbEntity
  8
STEMPEL
100
AcDbLine
 10
313.8156976799857
 20
346.5672577073307
 30
0.0
 11
319.9336881500082
 21
346.5672577073307
 31
0.0
  0
LINE
  5
1179
330
1E
100
AcDbEntity
  8
STEMPEL
100
AcDbLine
 10
311.5661060999654
 20
348.4748526519362
 30
0.0
 11
311.1331141350419
 21
351.047138777314
 31
0.0
  0
LINE
  5
117A
330
1E
100
AcDbEntity
  8
STEMPEL
100
AcDbLine
 10
313.9375655768609
 20
349.3804821303468
 30
0.0
 11
313.5874739347877
 21
351.4602802477891
 31
0.0
  0
ARC
  5
117B
330
1E
100
AcDbEntity
  8
STEMPEL
100
AcDbCircle
 10
310.4836881500082
 20
350.9228132628862
 30
0.0
 40
3.150000000000008
100
AcDbArc
 50
9.999999999998609
 51
38.69301093833383
  0
LINE
  5
117C
330
1E
100
AcDbEntity
  8
STEMPEL
100
AcDbLine
 10
314.3210592955711
 20
349.0561465962195
 30
0.0
 11
315.1441934731912
 21
349.0561465962196
 31
0.0
  0
ARC
  5
117D
330
1E
100
AcDbEntity
  8
STEMPEL
100
AcDbCircle
 10
314.3210592955711
 20
349.4450354851084
 30
0.0
 40
0.3888888888888889
100
AcDbArc
 50
189.5550026106587
 51
270.0
  0
ARC
  5
117E
330
1E
100
AcDbEntity
  8
STEMPEL
100
AcDbCircle
 10
313.8156976799857
 20
348.8617021517752
 30
0.0
 40
2.294444444444444
100
AcDbArc
 50
189.9999999999986
 51
270.0
  0
TEXT
  5
1253
330
1E
100
AcDbEntity
  8
TEXT
 62
     1
100
AcDbText
 10
59.52501638406355
 20
441.4962662915765
 30
0.0
 40
7.0
  1
Deckel DN80
 50
90.0
 41
0.8
  7
GREEKS
100
AcDbText
  0
TEXT
  5
1254
330
1E
100
AcDbEntity
  8
TEXT
 62
     1
100
AcDbText
 10
72.42967682547046
 20
441.4962662915765
 30
0.0
 40
7.0
  1
EDV-Art.Nr. 55880.080C
 50
90.0
 41
0.8
  7
GREEKS
100
AcDbText
  0
LINE
  5
1255
330
1E
100
AcDbEntity
  8
TEXT
 62
     2
100
AcDbLine
 10
62.90492180096013
 20
441.0355874888046
 30
0.0
 11
62.90492180096013
 21
548.1995780945446
 31
0.0
  0
LINE
  5
1256
330
1E
100
AcDbEntity
  8
TEXT
 62
     2
100
AcDbLine
 10
62.90492180096013
 20
441.0355874888046
 30
0.0
 11
98.48119373217119
 21
412.1893581276231
 31
0.0
  0
HATCH
  5
126C
330
1E
100
AcDbEntity
  8
SCHRAFF
100
AcDbHatch
 10
0.0
 20
0.0
 30
0.0
210
0.0
220
0.0
230
1.0
  2
NET
 70
     0
 71
     1
 91
        2
 92
        7
 72
     1
 73
     1
 93
        6
 10
100.1952400106751
 20
397.9200354851084
 42
0.0
 10
95.19524001067514
 20
397.9200354851085
 42
0.0
 10
95.19524001067514
 20
389.0149106471552
 42
0.2749517555998629
 10
95.71800035002402
 20
388.1361374646437
 42
0.0
 10
98.6269589926286
 20
386.5563550326435
 42
-0.2749517555998655
 10
100.1952400106751
 20
383.9200354851087
 42
0.0
 97
        6
330
1270
330
1271
330
1289
330
1287
330
1285
330
1281
 92
        7
 72
     1
 73
     1
 93
        6
 10
95.19524001067507
 20
306.9200354851085
 42
0.0
 10
100.1952400106751
 20
306.9200354851085
 42
0.0
 10
100.1952400106751
 20
320.9200354851086
 42
-0.2749517555998693
 10
98.62695899262849
 20
318.2837159375738
 42
0.0
 10
95.71800035002388
 20
316.7039335055735
 42
0.274951755599862
 10
95.19524001067509
 20
315.825160323062
 42
0.0
 97
        6
330
12A0
330
129E
330
12A3
330
129B
330
12C1
330
1281
 75
     0
 76
     1
 52
45.0
 41
10.0
 77
     0
 78
     2
 53
45.0
 43
-14.14319088709189
 44
-20.1986445789899
 45
-0.8838834764831842
 46
0.8838834764831844
 79
     0
 53
135.0
 43
-14.14319088709189
 44
-20.1986445789899
 45
-0.8838834764831844
 46
-0.8838834764831842
 79
     0
 47
0.2737567629236785
 98
        2
 10
97.98775982327008
 20
392.1464072769635
 10
97.43985939791802
 20
311.9356759685135
  0
LINE
  5
126D
330
1E
100
AcDbEntity
  8
STEMPEL
100
AcDbLine
 10
102.1952400106751
 20
395.440085736682
 30
0.0
 11
102.1952400106751
 21
400.4200354851084
 31
0.0
  0
LINE
  5
126E
330
1E
100
AcDbEntity
  8
STEMPEL
100
AcDbLine
 10
95.19524001067521
 20
408.4200354851084
 30
0.0
 11
95.19524001067521
 21
409.9489740784135
 31
0.0
  0
LINE
  5
126F
330
1E
100
AcDbEntity
  8
STEMPEL
100
AcDbLine
 10
102.1952400106751
 20
408.4200354851084
 30
0.0
 11
102.1952400106751
 21
412.4797504848179
 31
0.0
  0
LINE
  5
1270
102
{ACAD_REACTORS
330
126C
102
}
330
1E
100
AcDbEntity
  8
STEMPEL
100
AcDbLine
 10
100.1952400106751
 20
397.9200354851085
 30
0.0
 11
95.19524001067514
 21
397.9200354851085
 31
0.0
  0
LINE
  5
1271
102
{ACAD_REACTORS
330
126C
102
}
330
1E
100
AcDbEntity
  8
STEMPEL
100
AcDbLine
 10
95.19524001067514
 20
397.9200354851085
 30
0.0
 11
95.19524001067514
 21
389.0149106471552
 31
0.0
  0
LINE
  5
1272
330
1E
100
AcDbEntity
  8
STEMPEL
100
AcDbLine
 10
93.19524001067509
 20
294.8910968918037
 30
0.0
 11
93.19524001067515
 21
409.9489740784135
 31
0.0
  0
LINE
  5
1274
330
1E
100
AcDbEntity
  8
STEMPEL
100
AcDbLine
 10
95.19524001067514
 20
389.0149106471553
 30
0.0
 11
95.19524001067518
 21
400.4200354851084
 31
0.0
  0
LINE
  5
1275
330
1E
100
AcDbEntity
  8
STEMPEL
100
AcDbLine
 10
95.95270438563886
 20
410.9191165785589
 30
0.0
 11
102.1952400106751
 21
412.479750484818
 31
0.0
  0
ARC
  5
1276
330
1E
100
AcDbEntity
  8
STEMPEL
100
AcDbCircle
 10
96.19524001067517
 20
409.9489740784135
 30
0.0
 40
3.0
100
AcDbArc
 50
104.0362434679264
 51
180.0
  0
LINE
  5
1277
330
1E
100
AcDbEntity
  8
STEMPEL
100
AcDbLine
 10
93.19524001067515
 20
399.4200354851086
 30
0.0
 11
95.19524001067514
 21
399.4200354851086
 31
0.0
  0
LINE
  5
1278
330
1E
100
AcDbEntity
  8
STEMPEL
100
AcDbLine
 10
93.19524001067515
 20
409.4200354851087
 30
0.0
 11
95.19524001067514
 21
409.4200354851087
 31
0.0
  0
ARC
  5
1279
330
1E
100
AcDbEntity
  8
STEMPEL
100
AcDbCircle
 10
96.19524001067517
 20
409.9489740784135
 30
0.0
 40
1.0
100
AcDbArc
 50
104.0362434679264
 51
180.0
  0
LINE
  5
127A
330
1E
100
AcDbEntity
  8
STEMPEL
100
AcDbLine
 10
95.46763313556619
 20
412.8594015788495
 30
0.0
 11
101.7101687606024
 21
414.4200354851086
 31
0.0
  0
LINE
  5
127B
330
1E
100
AcDbEntity
  8
STEMPEL
100
AcDbLine
 10
102.1952400106751
 20
412.479750484818
 30
0.0
 11
101.7101687606024
 21
414.4200354851086
 31
0.0
  0
LINE
  5
127C
330
1E
100
AcDbEntity
  8
STEMPEL
100
AcDbLine
 10
105.7952400106752
 20
400.4200354851084
 30
0.0
 11
93.19524001067517
 21
400.4200354851086
 31
0.0
  0
LINE
  5
127D
330
1E
100
AcDbEntity
  8
STEMPEL
100
AcDbLine
 10
105.7952400106752
 20
408.4200354851084
 30
0.0
 11
93.19524001067518
 21
408.4200354851084
 31
0.0
  0
LINE
  5
127E
330
1E
100
AcDbEntity
  8
HILF
100
AcDbLine
 10
105.7952400106752
 20
401.4200354851085
 30
0.0
 11
93.19524001067515
 21
401.4200354851084
 31
0.0
  0
LINE
  5
127F
330
1E
100
AcDbEntity
  8
HILF
100
AcDbLine
 10
105.7952400106752
 20
407.4200354851084
 30
0.0
 11
93.19524001067518
 21
407.4200354851085
 31
0.0
  0
LINE
  5
1280
330
1E
100
AcDbEntity
  8
MITTEL
100
AcDbLine
 10
105.7952400106752
 20
404.4200354851084
 30
0.0
 11
80.19524001067514
 21
404.4200354851084
 31
0.0
  0
LINE
  5
1281
102
{ACAD_REACTORS
330
126C
102
}
330
1E
100
AcDbEntity
  8
STEMPEL
100
AcDbLine
 10
100.1952400106751
 20
397.9200354851085
 30
0.0
 11
100.1952400106751
 21
306.9200354851085
 31
0.0
  0
LINE
  5
1282
330
1E
100
AcDbEntity
  8
STEMPEL
100
AcDbLine
 10
100.1952400106751
 20
320.9200354851087
 30
0.0
 11
100.1952400106751
 21
383.9200354851087
 31
0.0
  0
LINE
  5
1283
330
1E
100
AcDbEntity
  8
STEMPEL
100
AcDbLine
 10
98.19524001067499
 20
353.6561465962198
 30
0.0
 11
98.19524001067499
 21
383.9200354851087
 31
0.0
  0
LINE
  5
1284
330
1E
100
AcDbEntity
  8
STEMPEL
100
AcDbLine
 10
94.76352102872175
 20
386.3785910996205
 30
0.0
 11
97.67247967132631
 21
384.7988086676203
 31
0.0
  0
ARC
  5
1285
102
{ACAD_REACTORS
330
126C
102
}
330
1E
100
AcDbEntity
  8
STEMPEL
100
AcDbCircle
 10
97.19524001067506
 20
383.9200354851087
 30
0.0
 40
3.0
100
AcDbArc
 50
0.0
 51
61.49472544767148
  0
ARC
  5
1286
330
1E
100
AcDbEntity
  8
STEMPEL
100
AcDbCircle
 10
97.19524001067506
 20
383.9200354851087
 30
0.0
 40
1.0
100
AcDbArc
 50
0.0
 51
61.49472544767148
  0
LINE
  5
1287
102
{ACAD_REACTORS
330
126C
102
}
330
1E
100
AcDbEntity
  8
STEMPEL
100
AcDbLine
 10
95.718000350024
 20
388.1361374646437
 30
0.0
 11
98.6269589926286
 21
386.5563550326435
 31
0.0
  0
ARC
  5
1288
330
1E
100
AcDbEntity
  8
STEMPEL
100
AcDbCircle
 10
96.19524001067512
 20
389.0149106471552
 30
0.0
 40
3.0
100
AcDbArc
 50
180.0
 51
241.4947254476715
  0
ARC
  5
1289
102
{ACAD_REACTORS
330
126C
102
}
330
1E
100
AcDbEntity
  8
STEMPEL
100
AcDbCircle
 10
96.19524001067512
 20
389.0149106471552
 30
0.0
 40
1.0
100
AcDbArc
 50
180.0
 51
241.4947254476715
  0
ARC
  5
128A
330
1E
100
AcDbEntity
  8
STEMPEL
100
AcDbCircle
 10
97.79524001067503
 20
350.367257707331
 30
0.0
 40
0.4
100
AcDbArc
 50
0.0
 51
90.0
  0
LINE
  5
128B
330
1E
100
AcDbEntity
  8
STEMPEL
100
AcDbLine
 10
97.19524001067521
 20
346.9672577073309
 30
0.0
 11
97.1952400106751
 21
357.8728132628864
 31
0.0
  0
ARC
  5
128C
330
1E
100
AcDbEntity
  8
STEMPEL
100
AcDbCircle
 10
97.79524001067509
 20
346.1672577073309
 30
0.0
 40
0.4
100
AcDbArc
 50
0.0
 51
90.0
  0
ARC
  5
128D
330
1E
100
AcDbEntity
  8
STEMPEL
100
AcDbCircle
 10
97.79524001067498
 20
349.4561465962199
 30
0.0
 40
0.4
100
AcDbArc
 50
270.0
 51
0.0
  0
LINE
  5
128E
330
1E
100
AcDbEntity
  8
STEMPEL
100
AcDbLine
 10
98.19524001067499
 20
349.4561465962199
 30
0.0
 11
98.19524001067499
 21
350.367257707331
 31
0.0
  0
LINE
  5
128F
330
1E
100
AcDbEntity
  8
STEMPEL
100
AcDbLine
 10
97.795240010675
 20
349.0561465962199
 30
0.0
 11
97.59524001067518
 21
349.0561465962199
 31
0.0
  0
LINE
  5
1290
330
1E
100
AcDbEntity
  8
STEMPEL
100
AcDbLine
 10
97.79524001067512
 20
346.5672577073309
 30
0.0
 11
97.59524001067518
 21
346.5672577073309
 31
0.0
  0
ARC
  5
1291
330
1E
100
AcDbEntity
  8
STEMPEL
100
AcDbCircle
 10
97.59524001067516
 20
346.9672577073309
 30
0.0
 40
0.4
100
AcDbArc
 50
180.0
 51
270.0
  0
ARC
  5
1292
330
1E
100
AcDbEntity
  8
STEMPEL
100
AcDbCircle
 10
97.59524001067516
 20
348.6561465962199
 30
0.0
 40
0.4
100
AcDbArc
 50
90.0
 51
180.0
  0
ARC
  5
1293
330
1E
100
AcDbEntity
  8
STEMPEL
100
AcDbCircle
 10
97.79524001067498
 20
358.6728132628864
 30
0.0
 40
0.4
100
AcDbArc
 50
270.0
 51
0.0
  0
ARC
  5
1294
330
1E
100
AcDbEntity
  8
STEMPEL
100
AcDbCircle
 10
97.79524001067498
 20
353.6561465962198
 30
0.0
 40
0.4
100
AcDbArc
 50
270.0
 51
0.0
  0
LINE
  5
1295
330
1E
100
AcDbEntity
  8
STEMPEL
100
AcDbLine
 10
97.795240010675
 20
353.2561465962199
 30
0.0
 11
97.59524001067513
 21
353.2561465962199
 31
0.0
  0
LINE
  5
1296
330
1E
100
AcDbEntity
  8
STEMPEL
100
AcDbLine
 10
97.79524001067507
 20
350.767257707331
 30
0.0
 11
97.59524001067518
 21
350.7672577073309
 31
0.0
  0
ARC
  5
1297
330
1E
100
AcDbEntity
  8
STEMPEL
100
AcDbCircle
 10
97.59524001067516
 20
351.167257707331
 30
0.0
 40
0.4
100
AcDbArc
 50
180.0
 51
270.0
  0
ARC
  5
1298
330
1E
100
AcDbEntity
  8
STEMPEL
100
AcDbCircle
 10
97.59524001067511
 20
352.8561465962198
 30
0.0
 40
0.4
100
AcDbArc
 50
90.0
 51
180.0
  0
LINE
  5
1299
330
1E
100
AcDbEntity
  8
STEMPEL
100
AcDbLine
 10
97.795240010675
 20
358.2728132628864
 30
0.0
 11
97.59524001067513
 21
358.2728132628864
 31
0.0
  0
ARC
  5
129A
330
1E
100
AcDbEntity
  8
STEMPEL
100
AcDbCircle
 10
97.59524001067511
 20
357.8728132628864
 30
0.0
 40
0.4
100
AcDbArc
 50
90.0
 51
180.0
  0
LINE
  5
129B
102
{ACAD_REACTORS
330
126C
102
}
330
1E
100
AcDbEntity
  8
STEMPEL
100
AcDbLine
 10
95.19524001067507
 20
304.4200354851085
 30
0.0
 11
95.19524001067509
 21
315.825160323062
 31
0.0
  0
LINE
  5
129C
330
1E
100
AcDbEntity
  8
STEMPEL
100
AcDbLine
 10
95.19524001067512
 20
315.825160323062
 30
0.0
 11
95.19524001067512
 21
306.9200354851085
 31
0.0
  0
LINE
  5
129D
330
1E
100
AcDbEntity
  8
STEMPEL
100
AcDbLine
 10
98.19524001067499
 20
320.9200354851087
 30
0.0
 11
98.19524001067499
 21
346.1672577073309
 31
0.0
  0
LINE
  5
129E
102
{ACAD_REACTORS
330
126C
102
}
330
1E
100
AcDbEntity
  8
STEMPEL
100
AcDbLine
 10
95.71800035002388
 20
316.7039335055735
 30
0.0
 11
98.62695899262849
 21
318.2837159375738
 31
0.0
  0
ARC
  5
129F
330
1E
100
AcDbEntity
  8
STEMPEL
100
AcDbCircle
 10
97.19524001067492
 20
320.9200354851086
 30
0.0
 40
1.0
100
AcDbArc
 50
298.5052745523285
 51
0.0
  0
ARC
  5
12A0
102
{ACAD_REACTORS
330
126C
102
}
330
1E
100
AcDbEntity
  8
STEMPEL
100
AcDbCircle
 10
97.19524001067492
 20
320.9200354851086
 30
0.0
 40
3.0
100
AcDbArc
 50
298.5052745523285
 51
0.0
  0
LINE
  5
12A1
330
1E
100
AcDbEntity
  8
STEMPEL
100
AcDbLine
 10
94.76352102872164
 20
318.4614798705968
 30
0.0
 11
97.67247967132618
 21
320.041262302597
 31
0.0
  0
ARC
  5
12A2
330
1E
100
AcDbEntity
  8
STEMPEL
100
AcDbCircle
 10
96.19524001067492
 20
315.825160323062
 30
0.0
 40
3.0
100
AcDbArc
 50
118.5052745523285
 51
180.0
  0
ARC
  5
12A3
102
{ACAD_REACTORS
330
126C
102
}
330
1E
100
AcDbEntity
  8
STEMPEL
100
AcDbCircle
 10
96.19524001067492
 20
315.825160323062
 30
0.0
 40
1.0
100
AcDbArc
 50
118.5052745523285
 51
180.0
  0
LINE
  5
12AD
330
1E
100
AcDbEntity
  8
STEMPEL
100
AcDbLine
 10
102.1952400106751
 20
292.3603204853993
 30
0.0
 11
102.1952400106751
 21
296.4200354851085
 31
0.0
  0
LINE
  5
12AE
330
1E
100
AcDbEntity
  8
STEMPEL
100
AcDbLine
 10
95.19524001067509
 20
294.8910968918037
 30
0.0
 11
95.19524001067507
 21
296.4200354851085
 31
0.0
  0
LINE
  5
12AF
330
1E
100
AcDbEntity
  8
STEMPEL
100
AcDbLine
 10
95.95270438563876
 20
293.9209543916584
 30
0.0
 11
102.195240010675
 21
292.3603204853993
 31
0.0
  0
LINE
  5
12B0
330
1E
100
AcDbEntity
  8
STEMPEL
100
AcDbLine
 10
95.46763313556608
 20
291.9806693913677
 30
0.0
 11
101.7101687606023
 21
290.4200354851086
 31
0.0
  0
LINE
  5
12B1
330
1E
100
AcDbEntity
  8
STEMPEL
100
AcDbLine
 10
102.195240010675
 20
292.3603204853993
 30
0.0
 11
101.7101687606023
 21
290.4200354851086
 31
0.0
  0
ARC
  5
12B2
330
1E
100
AcDbEntity
  8
STEMPEL
100
AcDbCircle
 10
96.19524001067503
 20
294.8910968918037
 30
0.0
 40
3.0
100
AcDbArc
 50
180.0
 51
255.9637565320735
  0
LINE
  5
12B3
330
1E
100
AcDbEntity
  8
STEMPEL
100
AcDbLine
 10
93.19524001067509
 20
295.4200354851086
 30
0.0
 11
95.19524001067509
 21
295.4200354851086
 31
0.0
  0
ARC
  5
12B4
330
1E
100
AcDbEntity
  8
STEMPEL
100
AcDbCircle
 10
96.19524001067503
 20
294.8910968918037
 30
0.0
 40
1.0
100
AcDbArc
 50
180.0
 51
255.9637565320735
  0
LINE
  5
12C0
330
1E
100
AcDbEntity
  8
STEMPEL
100
AcDbLine
 10
93.19524001067509
 20
305.4200354851086
 30
0.0
 11
95.19524001067514
 21
305.4200354851086
 31
0.0
  0
LINE
  5
12C1
102
{ACAD_REACTORS
330
126C
102
}
330
1E
100
AcDbEntity
  8
STEMPEL
100
AcDbLine
 10
100.1952400106751
 20
306.9200354851085
 30
0.0
 11
95.19524001067512
 21
306.9200354851085
 31
0.0
  0
LINE
  5
12C2
330
1E
100
AcDbEntity
  8
MITTEL
100
AcDbLine
 10
105.7952400106751
 20
300.4200354851085
 30
0.0
 11
80.19524001067514
 21
300.4200354851085
 31
0.0
  0
LINE
  5
12C3
330
1E
100
AcDbEntity
  8
HILF
100
AcDbLine
 10
105.7952400106751
 20
297.4200354851086
 30
0.0
 11
93.19524001067509
 21
297.4200354851086
 31
0.0
  0
LINE
  5
12C4
330
1E
100
AcDbEntity
  8
HILF
100
AcDbLine
 10
105.7952400106751
 20
303.4200354851086
 30
0.0
 11
93.19524001067511
 21
303.4200354851086
 31
0.0
  0
LINE
  5
12C5
330
1E
100
AcDbEntity
  8
STEMPEL
100
AcDbLine
 10
105.7952400106751
 20
296.4200354851085
 30
0.0
 11
93.19524001067511
 21
296.4200354851085
 31
0.0
  0
LINE
  5
12C6
330
1E
100
AcDbEntity
  8
STEMPEL
100
AcDbLine
 10
105.7952400106751
 20
304.4200354851085
 30
0.0
 11
93.19524001067509
 21
304.4200354851085
 31
0.0
  0
LINE
  5
12C7
330
1E
100
AcDbEntity
  8
STEMPEL
100
AcDbLine
 10
102.1952400106751
 20
304.4200354851085
 30
0.0
 11
102.1952400106751
 21
309.399985233535
 31
0.0
  0
HATCH
  5
130F
330
1E
100
AcDbEntity
  8
SCHRAFF
100
AcDbHatch
 10
0.0
 20
0.0
 30
0.0
210
0.0
220
0.0
230
1.0
  2
_USER
 70
     0
 71
     0
 91
        4
 92
        7
 72
     1
 73
     1
 93
       10
 10
101.7101687606024
 20
414.4200354851086
 42
0.0
 10
95.46763313556619
 20
412.8594015788495
 42
0.3441507314089087
 10
93.19524001067515
 20
409.9489740784135
 42
0.0
 10
93.19524001067515
 20
409.8121672227515
 42
-0.0000898155620308
 10
93.19524001067515
 20
409.8111156797689
 42
0.0
 10
93.19524001067515
 20
409.4200354851087
 42
0.0
 10
95.19524001067519
 20
409.4200354851087
 42
0.0
 10
95.19524001067521
 20
409.9489740784135
 42
-0.3441507314089139
 10
95.95270438563888
 20
410.9191165785589
 42
0.0
 10
102.195240010675
 20
412.479750484818
 42
0.0
 97
        0
 92
        7
 72
     1
 73
     1
 93
       18
 10
95.19524001067516
 20
399.4200354851086
 42
0.0
 10
93.19524001067513
 20
399.4200354851086
 42
0.0
 10
93.19524001067513
 20
399.0289552906069
 42
-0.0000898155780383
 10
93.19524001067515
 20
399.0279037474369
 42
0.0
 10
93.19524001067515
 20
389.0149106471552
 42
0.2749517555998656
 10
94.7635210287218
 20
386.3785910996205
 42
0.0
 10
97.67247967132631
 20
384.7988086676203
 42
-0.274951755599844
 10
98.19524001067499
 20
383.9200354851087
 42
0.0
 10
98.19524001067499
 20
353.6561465962198
 42
-0.4142135623730847
 10
97.795240010675
 20
353.2561465962199
 42
0.0
 10
97.59524001067513
 20
353.2561465962199
 42
0.4142135623730744
 10
97.19524001067515
 20
352.8561465962199
 42
0.0
 10
97.19524001067515
 20
352.4200354851085
 42
0.0
 10
100.1952400106751
 20
352.4200354851085
 42
0.0
 10
100.1952400106751
 20
383.9200354851087
 42
0.2749517555998624
 10
98.6269589926286
 20
386.5563550326435
 42
0.0
 10
95.718000350024
 20
388.1361374646437
 42
-0.2749517555998714
 10
95.19524001067514
 20
389.0149106471553
 42
0.0
 97
        0
 92
        7
 72
     1
 73
     1
 93
       27
 10
100.195240010675
 20
352.4200354851084
 42
0.0
 10
97.19524001067512
 20
352.4200354851084
 42
0.0
 10
97.19524001067513
 20
351.167257707331
 42
0.4142135623732096
 10
97.59524001067518
 20
350.7672577073309
 42
0.0
 10
97.79524001067507
 20
350.767257707331
 42
-0.4142135623730744
 10
98.19524001067499
 20
350.367257707331
 42
0.0
 10
98.19524001067499
 20
349.4561465962199
 42
-0.4142135623730015
 10
97.7952400106751
 20
349.0561465962199
 42
0.0
 10
97.59524001067518
 20
349.0561465962199
 42
0.4142135623730847
 10
97.19524001067519
 20
348.6561465962199
 42
0.0
 10
97.19524001067521
 20
346.9672577073309
 42
0.4142135623730744
 10
97.59524001067518
 20
346.5672577073309
 42
0.0
 10
97.79524001067512
 20
346.5672577073309
 42
-0.4142135623729911
 10
98.19524001067499
 20
346.1672577073309
 42
0.0
 10
98.19524001067499
 20
320.9200354851087
 42
-0.2749517555998623
 10
97.67247967132618
 20
320.041262302597
 42
0.0
 10
94.76352102872164
 20
318.4614798705968
 42
0.2749517555998748
 10
93.19524001067511
 20
315.8251603230619
 42
0.0
 10
93.19524001067511
 20
305.8121672225551
 42
-0.0000898155447124
 10
93.19524001067509
 20
305.8111156797754
 42
0.0
 10
93.19524001067509
 20
305.8064862098721
 42
0.0
 10
93.19524001067509
 20
305.4200354851087
 42
0.0
 10
95.19524001067509
 20
305.4200354851087
 42
0.0
 10
95.19524001067509
 20
315.825160323062
 42
-0.2749517555998955
 10
95.718000350024
 20
316.7039335055736
 42
0.0
 10
98.62695899262849
 20
318.2837159375738
 42
0.2749517555998634
 10
100.1952400106751
 20
320.9200354851085
 42
0.0
 97
        0
 92
        7
 72
     1
 73
     1
 93
       10
 10
102.195240010675
 20
292.3603204853993
 42
0.0
 10
95.95270438563876
 20
293.9209543916584
 42
-0.3441507314089109
 10
95.19524001067509
 20
294.8910968918037
 42
0.0
 10
95.19524001067509
 20
295.4200354851086
 42
0.0
 10
93.19524001067504
 20
295.4200354851086
 42
0.0
 10
93.19524001067504
 20
295.0289552906893
 42
-0.0000898155618803
 10
93.19524001067509
 20
295.0279037477086
 42
0.0
 10
93.19524001067509
 20
294.8910968918037
 42
0.3441507314089065
 10
95.4676331355661
 20
291.9806693913677
 42
0.0
 10
101.7101687606023
 20
290.4200354851086
 42
0.0
 97
        0
 75
     0
 76
     0
 52
135.0
 41
2.0
 77
     0
 78
     1
 53
135.0
 43
-0.6999999999999887
 44
0.0
 45
-1.414213562373095
 46
-1.414213562373094
 79
     0
 47
0.2521709715294711
 98
        4
 10
99.75669106143421
 20
413.1989160594393
 10
93.95335694827014
 20
394.53826392303
 10
98.99973398256458
 20
348.1388057529866
 10
99.25205231055413
 20
291.9046778643099
  0
TEXT
  5
131D
330
1E
100
AcDbEntity
  8
TEXT
100
AcDbText
 10
225.1296391125315
 20
71.64011943042154
 30
0.0
 40
5.0
  1
mit runder Reinigungsöffnung
 41
0.8
  7
GREEKS
100
AcDbText
  0
LINE
  5
1354
330
1E
100
AcDbEntity
  8
STEMPEL
  6
Continuous
100
AcDbLine
 10
252.5883434937868
 20
522.4200354851086
 30
0.0
 11
363.4984772506742
 21
522.4200354851086
 31
0.0
  0
LINE
  5
1355
330
1E
100
AcDbEntity
  8
HILF
100
AcDbLine
 10
257.7986086765444
 20
449.4271998984922
 30
0.0
 11
358.2882120679167
 21
449.4271998984922
 31
0.0
  0
LINE
  5
1356
330
1E
100
AcDbEntity
  8
HILF
100
AcDbLine
 10
360.7317266180469
 20
455.1373945644509
 30
0.0
 11
255.3550941264142
 21
455.1373945644509
 31
0.0
  0
LINE
  5
1357
330
1E
100
AcDbEntity
  8
HILF
100
AcDbLine
 10
254.451982347071
 20
477.7099506066597
 30
0.0
 11
361.6348383973901
 21
477.7099506066597
 31
0.0
  0
LINE
  5
1358
330
1E
100
AcDbEntity
  8
STEMPEL
100
AcDbLine
 10
362.8434103722306
 20
474.9200354851086
 30
0.0
 11
362.8434103722306
 21
459.1550187813017
 31
0.0
  0
ARC
  5
1359
330
1E
100
AcDbEntity
  8
STEMPEL
100
AcDbCircle
 10
347.8434103722305
 20
459.1550187813017
 30
0.0
 40
15.0
100
AcDbArc
 50
328.9282587718646
 51
0.0
  0
LINE
  5
135A
330
1E
100
AcDbEntity
  8
STEMPEL
100
AcDbLine
 10
359.5434103722305
 20
447.2844669828385
 30
0.0
 11
359.5434103722305
 21
199.4200354851063
 31
0.0
  0
ARC
  5
135B
330
1E
100
AcDbEntity
  8
STEMPEL
100
AcDbCircle
 10
367.5434103722305
 20
447.2844669828385
 30
0.0
 40
8.0
100
AcDbArc
 50
148.9282587718646
 51
180.0
  0
ARC
  5
135C
330
1E
100
AcDbEntity
  8
STEMPEL
100
AcDbCircle
 10
342.3434103722306
 20
509.8152840225375
 30
0.0
 40
24.5
100
AcDbArc
 50
0.0
 51
24.99999999999935
  0
ARC
  5
135D
330
1E
100
AcDbEntity
  8
STEMPEL
100
AcDbCircle
 10
341.8434103722305
 20
491.6530354851086
 30
0.0
 40
24.99990931069965
100
AcDbArc
 50
333.1122293409809
 51
0.0
  0
ARC
  5
135E
330
1E
100
AcDbEntity
  8
STEMPEL
100
AcDbCircle
 10
374.8434103722305
 20
474.9200354851086
 30
0.0
 40
12.0
100
AcDbArc
 50
153.1122293409809
 51
180.0
  0
LINE
  5
135F
330
1E
100
AcDbEntity
  8
STEMPEL
100
AcDbLine
 10
366.8434103722305
 20
509.8152840225375
 30
0.0
 11
366.8434103722305
 21
491.6530354851086
 31
0.0
  0
LINE
  5
1360
330
1E
100
AcDbEntity
  8
STEMPEL
100
AcDbLine
 10
363.4984772506743
 20
522.4200354851086
 30
0.0
 11
364.5479511546284
 21
520.1694314351846
 31
0.0
  0
ARC
  5
1361
330
1E
100
AcDbEntity
  8
STEMPEL
100
AcDbCircle
 10
268.2434103722306
 20
459.1550187813017
 30
0.0
 40
15.0
100
AcDbArc
 50
180.0
 51
211.0717412281354
  0
ARC
  5
1362
330
1E
100
AcDbEntity
  8
STEMPEL
100
AcDbCircle
 10
274.2434103722305
 20
491.6530354851086
 30
0.0
 40
24.99990931069965
100
AcDbArc
 50
180.0
 51
206.8877706590191
  0
LINE
  5
1363
330
1E
100
AcDbEntity
  8
STEMPEL
100
AcDbLine
 10
256.5434103722306
 20
447.2844669828385
 30
0.0
 11
256.5434103722305
 21
199.4200354851097
 31
0.0
  0
LINE
  5
1364
330
1E
100
AcDbEntity
  8
STEMPEL
100
AcDbLine
 10
253.2434103722305
 20
474.9200354851086
 30
0.0
 11
253.2434103722305
 21
459.1550187813017
 31
0.0
  0
ARC
  5
1365
330
1E
100
AcDbEntity
  8
STEMPEL
100
AcDbCircle
 10
248.5434103722305
 20
447.2844669828385
 30
0.0
 40
8.0
100
AcDbArc
 50
0.0
 51
31.0717412281354
  0
LINE
  5
1366
330
1E
100
AcDbEntity
  8
STEMPEL
100
AcDbLine
 10
249.2434103722305
 20
509.8152840225375
 30
0.0
 11
249.2434103722306
 21
491.6530354851086
 31
0.0
  0
ARC
  5
1367
330
1E
100
AcDbEntity
  8
STEMPEL
100
AcDbCircle
 10
241.2434103722305
 20
474.9200354851086
 30
0.0
 40
12.0
100
AcDbArc
 50
0.0
 51
26.88777065901912
  0
LINE
  5
1368
330
1E
100
AcDbEntity
  8
STEMPEL
100
AcDbLine
 10
252.5883434937868
 20
522.4200354851086
 30
0.0
 11
251.5388695898326
 21
520.1694314351846
 31
0.0
  0
ARC
  5
1369
330
1E
100
AcDbEntity
  8
STEMPEL
100
AcDbCircle
 10
273.7434103722305
 20
509.8152840225375
 30
0.0
 40
24.5
100
AcDbArc
 50
155.0000000000006
 51
180.0
  0
DIMENSION
  5
136A
330
1E
100
AcDbEntity
  8
BEM
100
AcDbDimension
  2
*D1
 10
359.5434103722306
 20
165.3412597653832
 30
0.0
 11
308.0434103722306
 21
171.8412597653832
 31
0.0
 70
    32
  1
%%c<>
 71
     5
 42
103.0
  3
Standard
100
AcDbAlignedDimension
 13
256.5434103722306
 23
199.4200354851081
 33
0.0
 14
359.5434103722306
 24
199.4200354851082
 34
0.0
100
AcDbRotatedDimension
1001
ACAD
1000
DSTYLE
1002
{
1070
    40
1040
2.0
1070
    41
1040
3.5
1070
    42
1040
1.0
1070
    43
1040
7.0
1070
    44
1040
1.0
1070
    73
1070
     0
1070
    74
1070
     0
1070
    77
1070
     1
1070
    78
1070
     8
1070
    79
1070
     2
1070
   140
1040
3.5
1070
   141
1040
1.5
1070
   146
1040
0.5142857142857144
1070
   147
1040
1.5
1070
   172
1070
     1
1070
   178
1070
     1
1070
   179
1070
     2
1070
   271
1070
     2
1070
   272
1070
     2
1070
   284
1070
     8
1070
   285
1070
     8
1070
   286
1070
     8
1002
}
  0
LINE
  5
136B
330
1E
100
AcDbEntity
  8
HILF
100
AcDbLine
 10
358.3434103722306
 20
199.4200354851082
 30
0.0
 11
257.7434103722315
 21
199.4200354851081
 31
0.0
  0
LINE
  5
136C
330
1E
100
AcDbEntity
  8
STEMPEL
100
AcDbLine
 10
358.4935464099194
 20
187.4200354851082
 30
0.0
 11
257.5932743345418
 21
187.4200354851082
 31
0.0
  0
LINE
  5
136D
330
1E
100
AcDbEntity
  8
STEMPEL
100
AcDbLine
 10
359.5434103722306
 20
199.4200354851082
 30
0.0
 11
358.4935464099194
 21
187.4200354851082
 31
0.0
  0
LINE
  5
136E
330
1E
100
AcDbEntity
  8
STEMPEL
100
AcDbLine
 10
256.5434103722306
 20
199.4200354851082
 30
0.0
 11
257.5932743345418
 21
187.4200354851082
 31
0.0
  0
DIMENSION
  5
1384
330
1E
100
AcDbEntity
  8
BEM
100
AcDbDimension
  2
*D2
 10
381.6436616499984
 20
352.4200354851084
 30
0.0
 11
375.1436616499983
 21
269.9200354851084
 31
0.0
 70
    32
 71
     5
 42
165.0000000000002
  3
Standard
100
AcDbAlignedDimension
 13
358.4935464099194
 23
187.4200354851082
 33
0.0
 14
362.0434103722304
 24
352.4200354851084
 34
0.0
 50
90.0
100
AcDbRotatedDimension
1001
ACAD
1000
DSTYLE
1002
{
1070
    40
1040
2.0
1070
    41
1040
3.5
1070
    42
1040
1.0
1070
    43
1040
7.0
1070
    44
1040
1.0
1070
    73
1070
     0
1070
    74
1070
     0
1070
    77
1070
     1
1070
    78
1070
     8
1070
    79
1070
     2
1070
   140
1040
3.5
1070
   141
1040
1.5
1070
   146
1040
0.5142857142857144
1070
   147
1040
1.5
1070
   172
1070
     1
1070
   178
1070
     1
1070
   179
1070
     2
1070
   271
1070
     2
1070
   272
1070
     2
1070
   284
1070
     8
1070
   285
1070
     8
1070
   286
1070
     8
1002
}
  0
LINE
  5
13C6
330
1E
100
AcDbEntity
  8
STEMPEL
  6
Continuous
100
AcDbLine
 10
101.8401731322314
 20
522.4200354851088
 30
0.0
 11
212.7503068891189
 21
522.4200354851088
 31
0.0
  0
LINE
  5
13C7
330
1E
100
AcDbEntity
  8
HILF
100
AcDbLine
 10
107.050438314989
 20
449.4271998984924
 30
0.0
 11
207.5400417063613
 21
449.4271998984924
 31
0.0
  0
LINE
  5
13C8
330
1E
100
AcDbEntity
  8
HILF
100
AcDbLine
 10
209.9835562564915
 20
455.1373945644511
 30
0.0
 11
104.6069237648588
 21
455.1373945644511
 31
0.0
  0
LINE
  5
13C9
330
1E
100
AcDbEntity
  8
HILF
100
AcDbLine
 10
103.7038119855156
 20
477.7099506066599
 30
0.0
 11
210.8866680358348
 21
477.7099506066599
 31
0.0
  0
LINE
  5
13CA
330
1E
100
AcDbEntity
  8
STEMPEL
100
AcDbLine
 10
212.0952400106752
 20
474.9200354851089
 30
0.0
 11
212.0952400106752
 21
459.1550187813019
 31
0.0
  0
ARC
  5
13CB
330
1E
100
AcDbEntity
  8
STEMPEL
100
AcDbCircle
 10
197.0952400106752
 20
459.1550187813019
 30
0.0
 40
15.0
100
AcDbArc
 50
328.9282587718646
 51
0.0
  0
LINE
  5
13CC
330
1E
100
AcDbEntity
  8
STEMPEL
100
AcDbLine
 10
208.7952400106752
 20
447.2844669828386
 30
0.0
 11
208.7952400106751
 21
199.4200354851065
 31
0.0
  0
ARC
  5
13CD
330
1E
100
AcDbEntity
  8
STEMPEL
100
AcDbCircle
 10
216.7952400106752
 20
447.2844669828386
 30
0.0
 40
8.0
100
AcDbArc
 50
148.9282587718646
 51
180.0
  0
ARC
  5
13CE
330
1E
100
AcDbEntity
  8
STEMPEL
100
AcDbCircle
 10
191.5952400106752
 20
509.8152840225377
 30
0.0
 40
24.5
100
AcDbArc
 50
0.0
 51
24.9999999999997
  0
ARC
  5
13CF
330
1E
100
AcDbEntity
  8
STEMPEL
100
AcDbCircle
 10
191.0952400106752
 20
491.6530354851088
 30
0.0
 40
24.99990931069965
100
AcDbArc
 50
333.1122293409813
 51
0.0
  0
ARC
  5
13D0
330
1E
100
AcDbEntity
  8
STEMPEL
100
AcDbCircle
 10
224.0952400106752
 20
474.9200354851089
 30
0.0
 40
12.0
100
AcDbArc
 50
153.1122293409812
 51
180.0
  0
LINE
  5
13D1
330
1E
100
AcDbEntity
  8
STEMPEL
100
AcDbLine
 10
216.0952400106752
 20
509.8152840225377
 30
0.0
 11
216.0952400106752
 21
491.6530354851088
 31
0.0
  0
LINE
  5
13D2
330
1E
100
AcDbEntity
  8
STEMPEL
100
AcDbLine
 10
212.7503068891189
 20
522.4200354851088
 30
0.0
 11
213.7997807930731
 21
520.1694314351848
 31
0.0
  0
ARC
  5
13D3
330
1E
100
AcDbEntity
  8
STEMPEL
100
AcDbCircle
 10
117.4952400106752
 20
459.1550187813019
 30
0.0
 40
15.0
100
AcDbArc
 50
180.0
 51
211.0717412281354
  0
ARC
  5
13D4
330
1E
100
AcDbEntity
  8
STEMPEL
100
AcDbCircle
 10
123.4952400106751
 20
491.6530354851088
 30
0.0
 40
24.99990931069965
100
AcDbArc
 50
180.0
 51
206.8877706590188
  0
LINE
  5
13D5
330
1E
100
AcDbEntity
  8
STEMPEL
100
AcDbLine
 10
105.7952400106751
 20
447.2844669828386
 30
0.0
 11
105.7952400106751
 21
399.4200354851086
 31
0.0
  0
LINE
  5
13D6
330
1E
100
AcDbEntity
  8
STEMPEL
100
AcDbLine
 10
102.4952400106751
 20
474.9200354851089
 30
0.0
 11
102.4952400106751
 21
459.1550187813019
 31
0.0
  0
ARC
  5
13D7
330
1E
100
AcDbEntity
  8
STEMPEL
100
AcDbCircle
 10
97.79524001067517
 20
447.2844669828386
 30
0.0
 40
8.0
100
AcDbArc
 50
0.0
 51
31.0717412281354
  0
LINE
  5
13D8
330
1E
100
AcDbEntity
  8
STEMPEL
100
AcDbLine
 10
98.49524001067516
 20
509.8152840225377
 30
0.0
 11
98.4952400106752
 21
491.6530354851088
 31
0.0
  0
ARC
  5
13D9
330
1E
100
AcDbEntity
  8
STEMPEL
100
AcDbCircle
 10
90.49524001067515
 20
474.9200354851089
 30
0.0
 40
12.0
100
AcDbArc
 50
0.0
 51
26.88777065901876
  0
LINE
  5
13DA
330
1E
100
AcDbEntity
  8
STEMPEL
100
AcDbLine
 10
101.8401731322314
 20
522.4200354851088
 30
0.0
 11
100.7906992282772
 21
520.1694314351848
 31
0.0
  0
ARC
  5
13DB
330
1E
100
AcDbEntity
  8
STEMPEL
100
AcDbCircle
 10
122.9952400106751
 20
509.8152840225377
 30
0.0
 40
24.5
100
AcDbArc
 50
155.0000000000003
 51
180.0
  0
LINE
  5
13DD
330
1E
100
AcDbEntity
  8
HILF
100
AcDbLine
 10
207.5952400106753
 20
199.4200354851084
 30
0.0
 11
106.9952400106762
 21
199.4200354851083
 31
0.0
  0
LINE
  5
13DE
330
1E
100
AcDbEntity
  8
STEMPEL
100
AcDbLine
 10
207.7453760483641
 20
187.4200354851084
 30
0.0
 11
106.8451039729864
 21
187.4200354851084
 31
0.0
  0
LINE
  5
13DF
330
1E
100
AcDbEntity
  8
STEMPEL
100
AcDbLine
 10
208.7952400106752
 20
199.4200354851084
 30
0.0
 11
207.7453760483641
 21
187.4200354851084
 31
0.0
  0
LINE
  5
13E0
330
1E
100
AcDbEntity
  8
STEMPEL
100
AcDbLine
 10
105.7952400106753
 20
199.4200354851084
 30
0.0
 11
106.8451039729864
 21
187.4200354851084
 31
0.0
  0
LINE
  5
13FF
330
1E
100
AcDbEntity
  8
STEMPEL
100
AcDbLine
 10
105.7952400106751
 20
305.4200354851085
 30
0.0
 11
105.7952400106751
 21
199.4200354851099
 31
0.0
  0
DIMENSION
  5
1400
330
1E
100
AcDbEntity
  8
BEM
100
AcDbDimension
  2
*D3
 10
232.0318720624356
 20
187.4200354851084
 30
0.0
 11
225.5318720624357
 21
354.9200354851085
 31
0.0
 70
    32
 71
     5
 42
335.0
  3
Standard
100
AcDbAlignedDimension
 13
211.8971537986517
 23
522.4200354851085
 33
0.0
 14
207.7453760483641
 24
187.4200354851084
 34
0.0
 50
90.0
100
AcDbRotatedDimension
1001
ACAD
1000
DSTYLE
1002
{
1070
    40
1040
2.0
1070
    41
1040
3.5
1070
    42
1040
1.0
1070
    43
1040
7.0
1070
    44
1040
1.0
1070
    73
1070
     0
1070
    74
1070
     0
1070
    77
1070
     1
1070
    78
1070
     8
1070
    79
1070
     2
1070
   140
1040
3.5
1070
   141
1040
1.5
1070
   146
1040
0.5142857142857144
1070
   147
1040
1.5
1070
   172
1070
     1
1070
   178
1070
     1
1070
   179
1070
     2
1070
   271
1070
     2
1070
   272
1070
     2
1070
   284
1070
     8
1070
   285
1070
     8
1070
   286
1070
     8
1002
}
  0
CIRCLE
  5
1452
330
1E
100
AcDbEntity
  8
STEMPEL
100
AcDbCircle
 10
308.0434103722304
 20
404.4200354851084
 30
0.0
 40
6.499999999999993
  0
ARC
  5
1453
330
1E
100
AcDbEntity
  8
HILF
100
AcDbCircle
 10
308.0434103722304
 20
404.4200354851084
 30
0.0
 40
3.0
100
AcDbArc
 50
74.99999999999841
 51
15.00000000000158
  0
CIRCLE
  5
1454
330
1E
100
AcDbEntity
  8
STEMPEL
100
AcDbCircle
 10
308.0434103722304
 20
404.4200354851084
 30
0.0
 40
4.0
  0
CIRCLE
  5
1455
330
1E
100
AcDbEntity
  8
HILF
100
AcDbCircle
 10
308.0434103722304
 20
404.4200354851084
 30
0.0
 40
8.5552120859954
  0
CIRCLE
  5
1456
330
1E
100
AcDbEntity
  8
STEMPEL
100
AcDbCircle
 10
308.0434103722304
 20
404.4200354851084
 30
0.0
 40
8.949999999999997
  0
LWPOLYLINE
  5
1457
330
1E
100
AcDbEntity
  8
STEMPEL
100
AcDbPolyline
 90
        6
 70
     1
 43
0.0
 10
301.5434103722304
 20
400.6672587353758
 10
308.0434103722304
 20
396.9144819856433
 10
314.5434103722304
 20
400.6672587353758
 10
314.5434103722304
 20
408.1728122348409
 10
308.0434103722304
 20
411.9255889845735
 10
301.5434103722304
 20
408.1728122348409
  0
LINE
  5
1458
330
1E
100
AcDbEntity
  8
MITTEL
100
AcDbLine
 10
294.0934103722304
 20
404.4200354851084
 30
0.0
 11
321.9934103722304
 21
404.4200354851084
 31
0.0
  0
CIRCLE
  5
1465
330
1E
100
AcDbEntity
  8
STEMPEL
100
AcDbCircle
 10
308.0434103722304
 20
300.4200354851083
 30
0.0
 40
6.499999999999993
  0
ARC
  5
1466
330
1E
100
AcDbEntity
  8
HILF
100
AcDbCircle
 10
308.0434103722304
 20
300.4200354851083
 30
0.0
 40
3.0
100
AcDbArc
 50
74.99999999999841
 51
15.00000000000158
  0
CIRCLE
  5
1467
330
1E
100
AcDbEntity
  8
STEMPEL
100
AcDbCircle
 10
308.0434103722304
 20
300.4200354851083
 30
0.0
 40
4.0
  0
CIRCLE
  5
1468
330
1E
100
AcDbEntity
  8
HILF
100
AcDbCircle
 10
308.0434103722304
 20
300.4200354851083
 30
0.0
 40
8.5552120859954
  0
CIRCLE
  5
1469
330
1E
100
AcDbEntity
  8
STEMPEL
100
AcDbCircle
 10
308.0434103722304
 20
300.4200354851083
 30
0.0
 40
8.949999999999997
  0
LWPOLYLINE
  5
146A
330
1E
100
AcDbEntity
  8
STEMPEL
100
AcDbPolyline
 90
        6
 70
     1
 43
0.0
 10
301.5434103722304
 20
296.6672587353757
 10
308.0434103722304
 20
292.9144819856432
 10
314.5434103722304
 20
296.6672587353757
 10
314.5434103722304
 20
304.1728122348409
 10
308.0434103722304
 20
307.9255889845734
 10
301.5434103722304
 20
304.1728122348409
  0
LINE
  5
146B
330
1E
100
AcDbEntity
  8
MITTEL
100
AcDbLine
 10
294.0934103722304
 20
300.4200354851083
 30
0.0
 11
321.9934103722304
 21
300.4200354851083
 31
0.0
  0
ARC
  5
146C
330
1E
100
AcDbEntity
  8
HILF
100
AcDbCircle
 10
308.0434103722304
 20
398.4200354851084
 30
0.0
 40
13.38
100
AcDbArc
 50
122.8259942083612
 51
134.1691058674086
  0
ARC
  5
146D
330
1E
100
AcDbEntity
  8
HILF
100
AcDbCircle
 10
308.0434103722304
 20
306.4200354851084
 30
0.0
 40
13.38
100
AcDbArc
 50
302.8259942083621
 51
314.1691058674086
  0
ARC
  5
1486
330
1E
100
AcDbEntity
  8
STEMPEL
100
AcDbCircle
 10
96.2778908639788
 20
410.0492006097073
 30
0.0
 40
4.994391509822305
100
AcDbArc
 50
157.9324721810055
 51
202.0675278189945
  0
ARC
  5
1487
330
1E
100
AcDbEntity
  8
STEMPEL
100
AcDbCircle
 10
96.27789086397882
 20
398.7908703605096
 30
0.0
 40
4.994391509822305
100
AcDbArc
 50
157.9324721810055
 51
202.0675278189945
  0
ARC
  5
1488
330
1E
100
AcDbEntity
  8
STEMPEL
100
AcDbCircle
 10
110.7063551785529
 20
404.4200354851084
 30
0.0
 40
19.42296676475576
100
AcDbArc
 50
168.859627838891
 51
191.140372161109
  0
ARC
  5
1489
330
1E
100
AcDbEntity
  8
STEMPEL
100
AcDbCircle
 10
91.86363829075503
 20
410.0492006097073
 30
0.0
 40
6.668398280079882
100
AcDbArc
 50
163.657106694017
 51
196.3428933059829
  0
ARC
  5
148A
330
1E
100
AcDbEntity
  8
STEMPEL
100
AcDbCircle
 10
91.86363829075506
 20
398.7908703605096
 30
0.0
 40
6.668398280079905
100
AcDbArc
 50
163.657106694017
 51
196.3428933059829
  0
ARC
  5
148B
330
1E
100
AcDbEntity
  8
STEMPEL
100
AcDbCircle
 10
111.4646772588025
 20
404.4200354851084
 30
0.0
 40
26.26943724812735
100
AcDbArc
 50
171.7867892982603
 51
188.2132107017396
  0
ARC
  5
148C
330
1E
100
AcDbEntity
  8
STEMPEL
100
AcDbCircle
 10
92.59524001067516
 20
412.7700354851084
 30
0.0
 40
0.5999999999999999
100
AcDbArc
 50
0.0
 51
159.9999999999999
  0
ARC
  5
148D
330
1E
100
AcDbEntity
  8
STEMPEL
100
AcDbCircle
 10
92.59524001067514
 20
396.0700354851084
 30
0.0
 40
0.5999999999999993
100
AcDbArc
 50
200.0000000000001
 51
0.0
  0
LINE
  5
148E
330
1E
100
AcDbEntity
  8
STEMPEL
100
AcDbLine
 10
91.64937995656464
 20
396.9144819856434
 30
0.0
 11
92.03142443820359
 21
395.8648233991131
 31
0.0
  0
LINE
  5
148F
330
1E
100
AcDbEntity
  8
STEMPEL
100
AcDbLine
 10
92.03142443820361
 20
412.9752475711038
 30
0.0
 11
91.64937995656465
 21
411.9255889845736
 31
0.0
  0
LINE
  5
1490
330
1E
100
AcDbEntity
  8
STEMPEL
100
AcDbLine
 10
85.46467725880313
 20
411.9255889845736
 30
0.0
 11
85.19524001067514
 21
410.9200354851084
 31
0.0
  0
LINE
  5
1491
330
1E
100
AcDbEntity
  8
STEMPEL
100
AcDbLine
 10
85.19524001067514
 20
397.9200354851085
 30
0.0
 11
85.46467725880312
 21
396.9144819856434
 31
0.0
  0
LINE
  5
1492
330
1E
100
AcDbEntity
  8
STEMPEL
100
AcDbLine
 10
91.64937995656464
 20
396.9144819856434
 30
0.0
 11
85.46467725880312
 21
396.9144819856434
 31
0.0
  0
LINE
  5
1493
330
1E
100
AcDbEntity
  8
STEMPEL
100
AcDbLine
 10
93.19524001067515
 20
412.7700354851084
 30
0.0
 11
93.19524001067515
 21
396.0700354851084
 31
0.0
  0
LINE
  5
1494
330
1E
100
AcDbEntity
  8
HILF
100
AcDbLine
 10
92.03142443820361
 20
412.9752475711038
 30
0.0
 11
92.03142443820359
 21
395.8648233991131
 31
0.0
  0
LINE
  5
1495
330
1E
100
AcDbEntity
  8
STEMPEL
100
AcDbLine
 10
91.64937995656465
 20
400.6672587353759
 30
0.0
 11
85.46467725880313
 21
400.6672587353759
 31
0.0
  0
LINE
  5
1496
330
1E
100
AcDbEntity
  8
STEMPEL
100
AcDbLine
 10
91.64937995656465
 20
408.172812234841
 30
0.0
 11
85.46467725880313
 21
408.172812234841
 31
0.0
  0
LINE
  5
1497
330
1E
100
AcDbEntity
  8
STEMPEL
100
AcDbLine
 10
91.64937995656465
 20
411.9255889845736
 30
0.0
 11
85.46467725880313
 21
411.9255889845736
 31
0.0
  0
LINE
  5
1498
330
1E
100
AcDbEntity
  8
STEMPEL
100
AcDbLine
 10
85.19524001067514
 20
397.9200354851085
 30
0.0
 11
85.19524001067514
 21
410.9200354851084
 31
0.0
  0
ARC
  5
14B1
330
1E
100
AcDbEntity
  8
STEMPEL
100
AcDbCircle
 10
96.27789086397875
 20
306.0492006097074
 30
0.0
 40
4.994391509822305
100
AcDbArc
 50
157.9324721810055
 51
202.0675278189945
  0
ARC
  5
14B2
330
1E
100
AcDbEntity
  8
STEMPEL
100
AcDbCircle
 10
96.27789086397875
 20
294.7908703605097
 30
0.0
 40
4.994391509822305
100
AcDbArc
 50
157.9324721810055
 51
202.0675278189945
  0
ARC
  5
14B3
330
1E
100
AcDbEntity
  8
STEMPEL
100
AcDbCircle
 10
110.7063551785528
 20
300.4200354851085
 30
0.0
 40
19.42296676475576
100
AcDbArc
 50
168.859627838891
 51
191.140372161109
  0
ARC
  5
14B4
330
1E
100
AcDbEntity
  8
STEMPEL
100
AcDbCircle
 10
91.86363829075498
 20
306.0492006097074
 30
0.0
 40
6.668398280079882
100
AcDbArc
 50
163.657106694017
 51
196.3428933059829
  0
ARC
  5
14B5
330
1E
100
AcDbEntity
  8
STEMPEL
100
AcDbCircle
 10
91.86363829075501
 20
294.7908703605097
 30
0.0
 40
6.668398280079905
100
AcDbArc
 50
163.657106694017
 51
196.3428933059829
  0
ARC
  5
14B6
330
1E
100
AcDbEntity
  8
STEMPEL
100
AcDbCircle
 10
111.4646772588024
 20
300.4200354851085
 30
0.0
 40
26.26943724812735
100
AcDbArc
 50
171.7867892982603
 51
188.2132107017396
  0
ARC
  5
14B7
330
1E
100
AcDbEntity
  8
STEMPEL
100
AcDbCircle
 10
92.59524001067509
 20
308.7700354851085
 30
0.0
 40
0.5999999999999999
100
AcDbArc
 50
0.0
 51
159.9999999999999
  0
ARC
  5
14B8
330
1E
100
AcDbEntity
  8
STEMPEL
100
AcDbCircle
 10
92.59524001067509
 20
292.0700354851085
 30
0.0
 40
0.5999999999999993
100
AcDbArc
 50
200.0000000000001
 51
0.0
  0
LINE
  5
14B9
330
1E
100
AcDbEntity
  8
STEMPEL
100
AcDbLine
 10
91.64937995656458
 20
292.9144819856434
 30
0.0
 11
92.03142443820354
 21
291.8648233991131
 31
0.0
  0
LINE
  5
14BA
330
1E
100
AcDbEntity
  8
STEMPEL
100
AcDbLine
 10
92.03142443820356
 20
308.9752475711039
 30
0.0
 11
91.6493799565646
 21
307.9255889845736
 31
0.0
  0
LINE
  5
14BB
330
1E
100
AcDbEntity
  8
STEMPEL
100
AcDbLine
 10
85.46467725880308
 20
307.9255889845736
 30
0.0
 11
85.19524001067509
 21
306.9200354851085
 31
0.0
  0
LINE
  5
14BC
330
1E
100
AcDbEntity
  8
STEMPEL
100
AcDbLine
 10
85.19524001067509
 20
293.9200354851085
 30
0.0
 11
85.46467725880306
 21
292.9144819856434
 31
0.0
  0
LINE
  5
14BD
330
1E
100
AcDbEntity
  8
STEMPEL
100
AcDbLine
 10
91.64937995656458
 20
292.9144819856434
 30
0.0
 11
85.46467725880306
 21
292.9144819856434
 31
0.0
  0
LINE
  5
14BE
330
1E
100
AcDbEntity
  8
STEMPEL
100
AcDbLine
 10
93.19524001067509
 20
308.7700354851085
 30
0.0
 11
93.19524001067509
 21
292.0700354851085
 31
0.0
  0
LINE
  5
14BF
330
1E
100
AcDbEntity
  8
HILF
100
AcDbLine
 10
92.03142443820356
 20
308.9752475711039
 30
0.0
 11
92.03142443820354
 21
291.8648233991131
 31
0.0
  0
LINE
  5
14C0
330
1E
100
AcDbEntity
  8
STEMPEL
100
AcDbLine
 10
91.6493799565646
 20
296.667258735376
 30
0.0
 11
85.46467725880308
 21
296.667258735376
 31
0.0
  0
LINE
  5
14C1
330
1E
100
AcDbEntity
  8
STEMPEL
100
AcDbLine
 10
91.6493799565646
 20
304.1728122348411
 30
0.0
 11
85.46467725880308
 21
304.1728122348411
 31
0.0
  0
LINE
  5
14C2
330
1E
100
AcDbEntity
  8
STEMPEL
100
AcDbLine
 10
91.6493799565646
 20
307.9255889845736
 30
0.0
 11
85.46467725880308
 21
307.9255889845736
 31
0.0
  0
LINE
  5
14C3
330
1E
100
AcDbEntity
  8
STEMPEL
100
AcDbLine
 10
85.19524001067509
 20
293.9200354851085
 30
0.0
 11
85.19524001067509
 21
306.9200354851085
 31
0.0
  0
TEXT
  5
14DA
330
1E
100
AcDbEntity
  8
TEXT
 62
     1
100
AcDbText
 10
202.260334534897
 20
129.3280327848788
 30
0.0
 40
7.0
  1
Werkstoff: Edelstahl
 41
0.8
  7
GREEKS
100
AcDbText
  0
ENDSEC
  0
SECTION
  2
OBJECTS
  0
DICTIONARY
  5
C
330
0
100
AcDbDictionary
281
     1
  3
ACAD_COLOR
350
11A
  3
ACAD_GROUP
350
D
  3
ACAD_LAYOUT
350
19
  3
ACAD_MATERIAL
350
119
  3
ACAD_MLINESTYLE
350
16
  3
ACAD_PLOTSETTINGS
350
18
  3
ACAD_PLOTSTYLENAME
350
E
  3
AcDbVariableDictionary
350
125
  0
DICTIONARY
  5
DB
330
1E
100
AcDbDictionary
280
     1
281
     1
  3
ACAD_LAYOUTSELFREF
360
10F
  0
DICTIONARY
  5
DD
330
1A
100
AcDbDictionary
280
     1
281
     1
  3
ACAD_LAYOUTSELFREF
360
10E
  0
DICTIONARY
  5
11A
102
{ACAD_REACTORS
330
C
102
}
330
C
100
AcDbDictionary
281
     1
  0
DICTIONARY
  5
D
102
{ACAD_REACTORS
330
C
102
}
330
C
100
AcDbDictionary
281
     1
  0
DICTIONARY
  5
19
102
{ACAD_REACTORS
330
C
102
}
330
C
100
AcDbDictionary
281
     1
  3
Layout1
350
1D
  3
Model
350
21
  0
DICTIONARY
  5
119
102
{ACAD_REACTORS
330
C
102
}
330
C
100
AcDbDictionary
281
     1
  0
DICTIONARY
  5
16
102
{ACAD_REACTORS
330
C
102
}
330
C
100
AcDbDictionary
281
     1
  3
Standard
350
17
  0
DICTIONARY
  5
18
102
{ACAD_REACTORS
330
C
102
}
330
C
100
AcDbDictionary
281
     1
  0
ACDBDICTIONARYWDFLT
  5
E
102
{ACAD_REACTORS
330
C
102
}
330
C
100
AcDbDictionary
281
     1
  3
Normal
350
F
100
AcDbDictionaryWithDefault
340
F
  0
DICTIONARY
  5
125
102
{ACAD_REACTORS
330
C
102
}
330
C
100
AcDbDictionary
281
     1
  3
DIMASSOC
350
126
  3
PROJECTNAME
350
127
  0
XRECORD
  5
10F
102
{ACAD_REACTORS
330
DB
102
}
330
DB
100
AcDbXrecord
280
     1
340
1E
  0
XRECORD
  5
10E
102
{ACAD_REACTORS
330
DD
102
}
330
DD
100
AcDbXrecord
280
     1
340
1A
  0
LAYOUT
  5
1D
102
{ACAD_REACTORS
330
19
102
}
330
19
100
AcDbPlotSettings
  1

  2
\\NT_WORK01\HP LaserJet 5000 PCL 6
  4

  6

 40
0.0
 41
0.0
 42
0.0
 43
0.0
 44
0.0
 45
0.0
 46
0.0
 47
0.0
 48
0.0
 49
0.0
140
0.0
141
0.0
142
1.0
143
1.0
 70
   688
 72
     0
 73
     0
 74
     5
  7

 75
    16
147
1.0
 76
     0
 77
     2
 78
   300
148
0.0
149
0.0
100
AcDbLayout
  1
Layout1
 70
     0
 71
     1
 10
0.0
 20
0.0
 11
12.0
 21
9.0
 12
0.0
 22
0.0
 32
0.0
 14
1.000000000000000E+20
 24
1.000000000000000E+20
 34
1.000000000000000E+20
 15
-1.000000000000000E+20
 25
-1.000000000000000E+20
 35
-1.000000000000000E+20
146
0.0
 13
0.0
 23
0.0
 33
0.0
 16
1.0
 26
0.0
 36
0.0
 17
0.0
 27
1.0
 37
0.0
 76
     0
330
1A
  0
LAYOUT
  5
21
102
{ACAD_REACTORS
330
19
102
}
330
19
100
AcDbPlotSettings
  1

  2
none_device
  4
Letter_(8.50_x_11.00_Inches)
  6

 40
6.349999904632568
 41
6.349999904632568
 42
6.350006103515625
 43
6.350006103515625
 44
215.8999938964844
 45
279.3999938964844
 46
0.0
 47
0.0
 48
0.0
 49
0.0
140
0.0
141
0.0
142
1.0
143
1.0
 70
 11952
 72
     0
 73
     1
 74
     0
  7

 75
     0
147
1.0
 76
     0
 77
     2
 78
   300
148
2212.484149793432
149
2.68414979343023
100
AcDbLayout
  1
Model
 70
     1
 71
     0
 10
0.0
 20
0.0
 11
12.0
 21
9.0
 12
0.0
 22
0.0
 32
0.0
 14
0.0
 24
0.0
 34
0.0
 15
0.0
 25
0.0
 35
0.0
146
0.0
 13
0.0
 23
0.0
 33
0.0
 16
1.0
 26
0.0
 36
0.0
 17
0.0
 27
1.0
 37
0.0
 76
     0
330
1E
  0
MLINESTYLE
  5
17
102
{ACAD_REACTORS
330
16
102
}
330
16
100
AcDbMlineStyle
  2
STANDARD
 70
     0
  3

 62
   256
 51
90.0
 52
90.0
 71
     2
 49
0.5
 62
   256
  6
BYLAYER
 49
-0.5
 62
   256
  6
BYLAYER
  0
ACDBPLACEHOLDER
  5
F
102
{ACAD_REACTORS
330
E
102
}
330
E
  0
DICTIONARYVAR
  5
126
102
{ACAD_REACTORS
330
125
102
}
330
125
100
DictionaryVariables
280
     0
  1
1
  0
DICTIONARYVAR
  5
127
102
{ACAD_REACTORS
330
125
102
}
330
125
100
DictionaryVariables
280
     0
  1

  0
ENDSEC
  0
EOF
