  0
SECTION
  2
HEADER
  9
$ACADVER
  1
AC1018
  9
$ACADMAINTVER
 70
     2
  9
$DWGCODEPAGE
  3
ANSI_1252
  9
$INSBASE
 10
0.0
 20
0.0
 30
0.0
  9
$EXTMIN
 10
-0.0192082752314491
 20
-0.0271659892566731
 30
-0.0000000000000019
  9
$EXTMAX
 10
420.0192346800471
 20
594.0272033332087
 30
0.0000000000000133
  9
$LIMMIN
 10
0.0
 20
0.0
  9
$LIMMAX
 10
419.9999999999999
 20
594.0
  9
$ORTHOMODE
 70
     1
  9
$REGENMODE
 70
     1
  9
$FILLMODE
 70
     1
  9
$QTEXTMODE
 70
     0
  9
$MIRRTEXT
 70
     1
  9
$LTSCALE
 40
20.0
  9
$ATTMODE
 70
     1
  9
$TEXTSIZE
 40
3.5
  9
$TRACEWID
 40
0.5
  9
$TEXTSTYLE
  7
STANDARD
  9
$CLAYER
  8
SCHRAFF
  9
$CELTYPE
  6
ByLayer
  9
$CECOLOR
 62
   256
  9
$CELTSCALE
 40
1.0
  9
$DISPSILH
 70
     0
  9
$DIMSCALE
 40
2.0
  9
$DIMASZ
 40
3.5
  9
$DIMEXO
 40
1.0
  9
$DIMDLI
 40
7.0
  9
$DIMRND
 40
0.0
  9
$DIMDLE
 40
0.0
  9
$DIMEXE
 40
1.0
  9
$DIMTP
 40
0.0
  9
$DIMTM
 40
0.0
  9
$DIMTXT
 40
3.5
  9
$DIMCEN
 40
1.5
  9
$DIMTSZ
 40
0.0
  9
$DIMTOL
 70
     0
  9
$DIMLIM
 70
     0
  9
$DIMTIH
 70
     0
  9
$DIMTOH
 70
     0
  9
$DIMSE1
 70
     0
  9
$DIMSE2
 70
     0
  9
$DIMTAD
 70
     1
  9
$DIMZIN
 70
     8
  9
$DIMBLK
  1

  9
$DIMASO
 70
     1
  9
$DIMSHO
 70
     0
  9
$DIMPOST
  1

  9
$DIMAPOST
  1

  9
$DIMALT
 70
     0
  9
$DIMALTD
 70
     2
  9
$DIMALTF
 40
25.4
  9
$DIMLFAC
 40
1.0
  9
$DIMTOFL
 70
     1
  9
$DIMTVP
 40
0.0
  9
$DIMTIX
 70
     0
  9
$DIMSOXD
 70
     0
  9
$DIMSAH
 70
     0
  9
$DIMBLK1
  1

  9
$DIMBLK2
  1

  9
$DIMSTYLE
  2
Standard
  9
$DIMCLRD
 70
     0
  9
$DIMCLRE
 70
     0
  9
$DIMCLRT
 70
     1
  9
$DIMTFAC
 40
0.5142857142857144
  9
$DIMGAP
 40
1.5
  9
$DIMJUST
 70
     0
  9
$DIMSD1
 70
     0
  9
$DIMSD2
 70
     0
  9
$DIMTOLJ
 70
     1
  9
$DIMTZIN
 70
     8
  9
$DIMALTZ
 70
     8
  9
$DIMALTTZ
 70
     8
  9
$DIMUPT
 70
     0
  9
$DIMDEC
 70
     2
  9
$DIMTDEC
 70
     2
  9
$DIMALTU
 70
     2
  9
$DIMALTTD
 70
     2
  9
$DIMTXSTY
  7
STANDARD
  9
$DIMAUNIT
 70
     0
  9
$DIMADEC
 70
     2
  9
$DIMALTRND
 40
0.0
  9
$DIMAZIN
 70
     2
  9
$DIMDSEP
 70
    46
  9
$DIMATFIT
 70
     3
  9
$DIMFRAC
 70
     0
  9
$DIMLDRBLK
  1

  9
$DIMLUNIT
 70
     2
  9
$DIMLWD
 70
    -2
  9
$DIMLWE
 70
    -2
  9
$DIMTMOVE
 70
     0
  9
$LUNITS
 70
     2
  9
$LUPREC
 70
     2
  9
$SKETCHINC
 40
1.0
  9
$FILLETRAD
 40
0.0
  9
$AUNITS
 70
     1
  9
$AUPREC
 70
     3
  9
$MENU
  1
ACAD
  9
$ELEVATION
 40
0.0
  9
$PELEVATION
 40
0.0
  9
$THICKNESS
 40
0.0
  9
$LIMCHECK
 70
     0
  9
$CHAMFERA
 40
0.0
  9
$CHAMFERB
 40
0.0
  9
$CHAMFERC
 40
0.0
  9
$CHAMFERD
 40
0.0
  9
$SKPOLY
 70
     0
  9
$TDCREATE
 40
2452040.637099653
  9
$TDUCREATE
 40
2452040.553766320
  9
$TDUPDATE
 40
2455663.487888472
  9
$TDUUPDATE
 40
2455663.404555139
  9
$TDINDWG
 40
0.3190809838
  9
$TDUSRTIMER
 40
0.3190809838
  9
$USRTIMER
 70
     1
  9
$ANGBASE
 50
0.0
  9
$ANGDIR
 70
     0
  9
$PDMODE
 70
     0
  9
$PDSIZE
 40
0.0
  9
$PLINEWID
 40
0.0
  9
$SPLFRAME
 70
     0
  9
$SPLINETYPE
 70
     6
  9
$SPLINESEGS
 70
     8
  9
$HANDSEED
  5
1449
  9
$SURFTAB1
 70
     6
  9
$SURFTAB2
 70
     6
  9
$SURFTYPE
 70
     6
  9
$SURFU
 70
     6
  9
$SURFV
 70
     6
  9
$UCSBASE
  2

  9
$UCSNAME
  2

  9
$UCSORG
 10
0.0
 20
0.0
 30
0.0
  9
$UCSXDIR
 10
1.0
 20
0.0
 30
0.0
  9
$UCSYDIR
 10
0.0
 20
1.0
 30
0.0
  9
$UCSORTHOREF
  2

  9
$UCSORTHOVIEW
 70
     0
  9
$UCSORGTOP
 10
0.0
 20
0.0
 30
0.0
  9
$UCSORGBOTTOM
 10
0.0
 20
0.0
 30
0.0
  9
$UCSORGLEFT
 10
0.0
 20
0.0
 30
0.0
  9
$UCSORGRIGHT
 10
0.0
 20
0.0
 30
0.0
  9
$UCSORGFRONT
 10
0.0
 20
0.0
 30
0.0
  9
$UCSORGBACK
 10
0.0
 20
0.0
 30
0.0
  9
$PUCSBASE
  2

  9
$PUCSNAME
  2

  9
$PUCSORG
 10
0.0
 20
0.0
 30
0.0
  9
$PUCSXDIR
 10
1.0
 20
0.0
 30
0.0
  9
$PUCSYDIR
 10
0.0
 20
1.0
 30
0.0
  9
$PUCSORTHOREF
  2

  9
$PUCSORTHOVIEW
 70
     0
  9
$PUCSORGTOP
 10
0.0
 20
0.0
 30
0.0
  9
$PUCSORGBOTTOM
 10
0.0
 20
0.0
 30
0.0
  9
$PUCSORGLEFT
 10
0.0
 20
0.0
 30
0.0
  9
$PUCSORGRIGHT
 10
0.0
 20
0.0
 30
0.0
  9
$PUCSORGFRONT
 10
0.0
 20
0.0
 30
0.0
  9
$PUCSORGBACK
 10
0.0
 20
0.0
 30
0.0
  9
$USERI1
 70
     0
  9
$USERI2
 70
     0
  9
$USERI3
 70
     0
  9
$USERI4
 70
     0
  9
$USERI5
 70
     0
  9
$USERR1
 40
0.0
  9
$USERR2
 40
0.0
  9
$USERR3
 40
0.0
  9
$USERR4
 40
0.0
  9
$USERR5
 40
0.0
  9
$WORLDVIEW
 70
     1
  9
$SHADEDGE
 70
     3
  9
$SHADEDIF
 70
    70
  9
$TILEMODE
 70
     1
  9
$MAXACTVP
 70
    16
  9
$PINSBASE
 10
0.0
 20
0.0
 30
0.0
  9
$PLIMCHECK
 70
     0
  9
$PEXTMIN
 10
1.000000000000000E+20
 20
1.000000000000000E+20
 30
1.000000000000000E+20
  9
$PEXTMAX
 10
-1.000000000000000E+20
 20
-1.000000000000000E+20
 30
-1.000000000000000E+20
  9
$PLIMMIN
 10
0.0
 20
0.0
  9
$PLIMMAX
 10
12.0
 20
9.0
  9
$UNITMODE
 70
     0
  9
$VISRETAIN
 70
     0
  9
$PLINEGEN
 70
     0
  9
$PSLTSCALE
 70
     0
  9
$TREEDEPTH
 70
  3020
  9
$CMLSTYLE
  2
Standard
  9
$CMLJUST
 70
     0
  9
$CMLSCALE
 40
1.0
  9
$PROXYGRAPHICS
 70
     1
  9
$MEASUREMENT
 70
     0
  9
$CELWEIGHT
370
    -1
  9
$ENDCAPS
280
     0
  9
$JOINSTYLE
280
     0
  9
$LWDISPLAY
290
     0
  9
$INSUNITS
 70
     0
  9
$HYPERLINKBASE
  1

  9
$STYLESHEET
  1
monochrome 1.ctb
  9
$XEDIT
290
     1
  9
$CEPSNTYPE
380
     0
  9
$PSTYLEMODE
290
     1
  9
$FINGERPRINTGUID
  2
{7AADB5C8-6110-11D8-B72B-000102183313}
  9
$VERSIONGUID
  2
{817EAAD8-E779-459A-A8CF-42F824ED12F1}
  9
$EXTNAMES
290
     1
  9
$PSVPSCALE
 40
0.0
  9
$OLESTARTUP
290
     0
  9
$SORTENTS
280
    96
  9
$INDEXCTL
280
     0
  9
$HIDETEXT
280
     0
  9
$XCLIPFRAME
290
     0
  9
$HALOGAP
280
     0
  9
$OBSCOLOR
 70
   257
  9
$OBSLTYPE
280
     0
  9
$INTERSECTIONDISPLAY
280
     0
  9
$INTERSECTIONCOLOR
 70
   257
  9
$DIMASSOC
280
     1
  9
$PROJECTNAME
  1

  0
ENDSEC
  0
SECTION
  2
CLASSES
  0
CLASS
  1
ACDBDICTIONARYWDFLT
  2
AcDbDictionaryWithDefault
  3
ObjectDBX Classes
 90
        0
 91
        1
280
     0
281
     0
  0
CLASS
  1
DICTIONARYVAR
  2
AcDbDictionaryVar
  3
ObjectDBX Classes
 90
        0
 91
        3
280
     0
281
     0
  0
ENDSEC
  0
SECTION
  2
TABLES
  0
TABLE
  2
VPORT
  5
8
330
0
100
AcDbSymbolTable
 70
     3
  0
VPORT
  5
1448
330
8
100
AcDbSymbolTableRecord
100
AcDbViewportTableRecord
  2
*Active
 70
     0
 10
0.0
 20
0.0
 11
1.0
 21
1.0
 12
210.0
 22
297.0
 13
0.0
 23
0.0
 14
1.0
 24
1.0
 15
10.0
 25
10.0
 16
0.0
 26
0.0
 36
1.0
 17
0.0
 27
0.0
 37
0.0
 40
594.0
 41
1.334231805929919
 42
50.0
 43
0.0
 44
0.0
 50
0.0
 51
0.0
 71
     0
 72
  1500
 73
     1
 74
     0
 75
     0
 76
     0
 77
     0
 78
     0
281
     0
 65
     1
110
0.0
120
0.0
130
0.0
111
1.0
121
0.0
131
0.0
112
0.0
122
1.0
132
0.0
 79
     0
146
0.0
  0
ENDTAB
  0
TABLE
  2
LTYPE
  5
5
330
0
100
AcDbSymbolTable
 70
     2
  0
LTYPE
  5
13
330
5
100
AcDbSymbolTableRecord
100
AcDbLinetypeTableRecord
  2
ByBlock
 70
     0
  3

 72
    65
 73
     0
 40
0.0
  0
LTYPE
  5
14
330
5
100
AcDbSymbolTableRecord
100
AcDbLinetypeTableRecord
  2
ByLayer
 70
     0
  3

 72
    65
 73
     0
 40
0.0
  0
LTYPE
  5
15
330
5
100
AcDbSymbolTableRecord
100
AcDbLinetypeTableRecord
  2
Continuous
 70
     0
  3
Solid line
 72
    65
 73
     0
 40
0.0
  0
LTYPE
  5
35
330
5
100
AcDbSymbolTableRecord
100
AcDbLinetypeTableRecord
  2
STRICHPUNKT
 70
     0
  3
__ . __ . __ . __ . __ . __ . __ . __ . __ . __
 72
    65
 73
     4
 40
1.0
 49
0.5
 74
     0
 49
-0.25
 74
     0
 49
0.0
 74
     0
 49
-0.25
 74
     0
  0
ENDTAB
  0
TABLE
  2
LAYER
  5
2
330
0
100
AcDbSymbolTable
 70
     9
  0
LAYER
  5
10
330
2
100
AcDbSymbolTableRecord
100
AcDbLayerTableRecord
  2
0
 70
     0
 62
     7
  6
Continuous
370
    -3
390
F
  0
LAYER
  5
38
330
2
100
AcDbSymbolTableRecord
100
AcDbLayerTableRecord
  2
VOLL
 70
     0
 62
     1
  6
Continuous
370
    -3
390
F
  0
LAYER
  5
39
330
2
100
AcDbSymbolTableRecord
100
AcDbLayerTableRecord
  2
HILF
 70
     0
 62
     2
  6
Continuous
370
    -3
390
F
  0
LAYER
  5
3A
330
2
100
AcDbSymbolTableRecord
100
AcDbLayerTableRecord
  2
MITTEL
 70
     0
 62
     2
  6
STRICHPUNKT
370
    -3
390
F
  0
LAYER
  5
3B
330
2
100
AcDbSymbolTableRecord
100
AcDbLayerTableRecord
  2
BEM
 70
     0
 62
     7
  6
Continuous
370
    -3
390
F
  0
LAYER
  5
3C
330
2
100
AcDbSymbolTableRecord
100
AcDbLayerTableRecord
  2
STEMPEL
 70
     0
 62
     3
  6
Continuous
370
    -3
390
F
  0
LAYER
  5
3D
330
2
100
AcDbSymbolTableRecord
100
AcDbLayerTableRecord
  2
TEXT
 70
     0
 62
     7
  6
Continuous
370
    -3
390
F
  0
LAYER
  5
3E
330
2
100
AcDbSymbolTableRecord
100
AcDbLayerTableRecord
  2
DEFPOINTS
 70
     0
 62
     7
  6
Continuous
290
     0
370
    -3
390
F
  0
LAYER
  5
3F
330
2
100
AcDbSymbolTableRecord
100
AcDbLayerTableRecord
  2
SCHRAFF
 70
     0
 62
     7
  6
Continuous
370
    -3
390
F
  0
ENDTAB
  0
TABLE
  2
STYLE
  5
3
330
0
100
AcDbSymbolTable
 70
     2
  0
STYLE
  5
11
330
3
100
AcDbSymbolTableRecord
100
AcDbTextStyleTableRecord
  2
STANDARD
 70
     0
 40
0.0
 41
0.8
 50
0.0
 71
     0
 42
3.5
  3
simplex.shx
  4

  0
STYLE
  5
34
330
3
100
AcDbSymbolTableRecord
100
AcDbTextStyleTableRecord
  2
GREEKS
 70
     0
 40
0.0
 41
0.8
 50
0.0
 71
     0
 42
2.5
  3
SIMPLEX.shx
  4

  0
ENDTAB
  0
TABLE
  2
VIEW
  5
6
330
0
100
AcDbSymbolTable
 70
     0
  0
ENDTAB
  0
TABLE
  2
UCS
  5
7
330
0
100
AcDbSymbolTable
 70
     0
  0
ENDTAB
  0
TABLE
  2
APPID
  5
9
330
0
100
AcDbSymbolTable
 70
     2
  0
APPID
  5
12
330
9
100
AcDbSymbolTableRecord
100
AcDbRegAppTableRecord
  2
ACAD
 70
     0
  0
APPID
  5
DDB
330
9
100
AcDbSymbolTableRecord
100
AcDbRegAppTableRecord
  2
AVE_RENDER
 70
     0
  0
ENDTAB
  0
TABLE
  2
DIMSTYLE
  5
A
330
0
100
AcDbSymbolTable
 70
     1
100
AcDbDimStyleTable
 71
     1
340
1CB
  0
DIMSTYLE
105
1CB
102
{ACAD_REACTORS
330
11FC
330
126D
330
127A
330
1290
102
}
330
A
100
AcDbSymbolTableRecord
100
AcDbDimStyleTableRecord
  2
Standard
 70
     0
340
11
  0
ENDTAB
  0
TABLE
  2
BLOCK_RECORD
  5
1
330
0
100
AcDbSymbolTable
 70
     9
  0
BLOCK_RECORD
  5
1E
330
1
100
AcDbSymbolTableRecord
100
AcDbBlockTableRecord
  2
*Model_Space
340
21
  0
BLOCK_RECORD
  5
1A
330
1
100
AcDbSymbolTableRecord
100
AcDbBlockTableRecord
  2
*Paper_Space
340
1D
  0
BLOCK_RECORD
  5
22
330
1
100
AcDbSymbolTableRecord
100
AcDbBlockTableRecord
  2
LOGO
340
0
102
{BLKREFS
331
135
102
}
  0
BLOCK_RECORD
  5
121F
330
1
100
AcDbSymbolTableRecord
100
AcDbBlockTableRecord
  2
*D1
340
0
  0
BLOCK_RECORD
  5
126E
330
1
100
AcDbSymbolTableRecord
100
AcDbBlockTableRecord
  2
*D4
340
0
  0
BLOCK_RECORD
  5
127B
330
1
100
AcDbSymbolTableRecord
100
AcDbBlockTableRecord
  2
*D5
340
0
  0
BLOCK_RECORD
  5
1291
330
1
100
AcDbSymbolTableRecord
100
AcDbBlockTableRecord
  2
*D6
340
0
  0
ENDTAB
  0
ENDSEC
  0
SECTION
  2
BLOCKS
  0
BLOCK
  5
43
330
1E
100
AcDbEntity
  8
0
100
AcDbBlockBegin
  2
*Model_Space
 70
     0
 10
0.0
 20
0.0
 30
0.0
  3
*Model_Space
  1

  0
ENDBLK
  5
44
330
1E
100
AcDbEntity
  8
0
100
AcDbBlockEnd
  0
BLOCK
  5
41
330
1A
100
AcDbEntity
 67
     1
  8
0
100
AcDbBlockBegin
  2
*Paper_Space
 70
     0
 10
0.0
 20
0.0
 30
0.0
  3
*Paper_Space
  1

  0
ENDBLK
  5
42
330
1A
100
AcDbEntity
 67
     1
  8
0
100
AcDbBlockEnd
  0
BLOCK
  5
45
330
22
100
AcDbEntity
  8
0
100
AcDbBlockBegin
  2
LOGO
 70
     0
 10
0.0
 20
0.0
 30
0.0
  3
LOGO
  1

  0
ARC
  5
46
330
22
100
AcDbEntity
  8
0
100
AcDbCircle
 10
11.59973089678112
 20
-9.271599258481501
 30
0.0
 40
4.5
100
AcDbArc
 50
270.0
 51
231.0575587310159
  0
LINE
  5
47
330
22
100
AcDbEntity
  8
0
100
AcDbLine
 10
3.599730896781125
 20
-4.771599258481529
 30
0.0
 11
3.599730896781153
 21
-11.77159925848133
 31
0.0
  0
LINE
  5
48
330
22
100
AcDbEntity
  8
0
100
AcDbLine
 10
2.599730896781125
 20
-4.771599258481529
 30
0.0
 11
2.599730896781153
 21
-11.77159925848133
 31
0.0
  0
CIRCLE
  5
49
330
22
100
AcDbEntity
  8
0
100
AcDbCircle
 10
11.59973089678112
 20
-9.271599258481501
 30
0.0
 40
3.5
  0
ARC
  5
4A
330
22
100
AcDbEntity
  8
0
100
AcDbCircle
 10
31.59973089678115
 20
-9.271599258481472
 30
0.0
 40
4.5
100
AcDbArc
 50
270.0
 51
231.0575587310182
  0
LINE
  5
4B
330
22
100
AcDbEntity
  8
0
100
AcDbLine
 10
17.59973089678112
 20
-4.771599258481472
 30
0.0
 11
17.59973089678115
 21
-13.77159925848147
 31
0.0
  0
ARC
  5
4C
330
22
100
AcDbEntity
  8
0
100
AcDbCircle
 10
22.59973089678116
 20
-7.271599258481472
 30
0.0
 40
2.5
100
AcDbArc
 50
293.1161887722295
 51
90.0
  0
CIRCLE
  5
4D
330
22
100
AcDbEntity
  8
0
100
AcDbCircle
 10
31.59973089678115
 20
-9.271599258481472
 30
0.0
 40
3.5
  0
ARC
  5
4E
330
22
100
AcDbEntity
  8
0
100
AcDbCircle
 10
4.599730896781153
 20
-11.77159925848133
 30
0.0
 40
1.0
100
AcDbArc
 50
180.0
 51
270.0
  0
ARC
  5
4F
330
22
100
AcDbEntity
  8
0
100
AcDbCircle
 10
4.599730896781153
 20
-11.77159925848133
 30
0.0
 40
2.0
100
AcDbArc
 50
179.9999999999992
 51
270.0
  0
LINE
  5
50
330
22
100
AcDbEntity
  8
0
100
AcDbLine
 10
11.59973089678115
 20
-13.77159925848144
 30
0.0
 11
4.599730896781153
 21
-13.77159925848147
 31
0.0
  0
LINE
  5
51
330
22
100
AcDbEntity
  8
0
100
AcDbLine
 10
8.771303772034769
 20
-12.77159925848136
 30
0.0
 11
4.599730896781153
 21
-12.77159925848133
 31
0.0
  0
LINE
  5
52
330
22
100
AcDbEntity
  8
0
100
AcDbLine
 10
31.59973089678115
 20
-13.77159925848147
 30
0.0
 11
23.6715276665056
 21
-13.77159925848144
 31
0.0
  0
LINE
  5
53
330
22
100
AcDbEntity
  8
0
100
AcDbLine
 10
23.56565672307022
 20
-9.51278021337896
 30
0.0
 11
24.4388546544846
 21
-12.77159925848144
 31
0.0
  0
LINE
  5
54
330
22
100
AcDbEntity
  8
0
100
AcDbLine
 10
22.59973089678116
 20
-9.771599258481472
 30
0.0
 11
18.59973089678112
 21
-9.771599258481472
 31
0.0
  0
LINE
  5
55
330
22
100
AcDbEntity
  8
0
100
AcDbLine
 10
18.59973089678115
 20
-13.77159925848144
 30
0.0
 11
17.59973089678115
 21
-13.77159925848144
 31
0.0
  0
LINE
  5
56
330
22
100
AcDbEntity
  8
0
100
AcDbLine
 10
18.59973089678115
 20
-9.771599258481472
 30
0.0
 11
18.59973089678115
 21
-13.77159925848144
 31
0.0
  0
LINE
  5
57
330
22
100
AcDbEntity
  8
0
100
AcDbLine
 10
22.59973089678116
 20
-9.771599258481472
 30
0.0
 11
23.67152766650562
 21
-13.77159925848147
 31
0.0
  0
ARC
  5
58
330
22
100
AcDbEntity
  8
0
100
AcDbCircle
 10
22.59973089678116
 20
-7.271599258481472
 30
0.0
 40
2.5
100
AcDbArc
 50
270.0
 51
270.0000000000007
  0
LINE
  5
59
330
22
100
AcDbEntity
  8
0
100
AcDbLine
 10
28.77130377203494
 20
-12.77159925848147
 30
0.0
 11
24.43885465448463
 21
-12.77159925848144
 31
0.0
  0
LINE
  5
5A
330
22
100
AcDbEntity
  8
0
100
AcDbLine
 10
3.599730896781125
 20
-4.771599258481472
 30
0.0
 11
2.599730896781125
 21
-4.771599258481472
 31
0.0
  0
LINE
  5
5B
330
22
100
AcDbEntity
  8
0
100
AcDbLine
 10
22.59973089678116
 20
-8.771599258481472
 30
0.0
 11
18.59973089678115
 21
-8.771599258481472
 31
0.0
  0
LINE
  5
5C
330
22
100
AcDbEntity
  8
0
100
AcDbLine
 10
22.59973089678116
 20
-5.771599258481472
 30
0.0
 11
18.59973089678115
 21
-5.771599258481472
 31
0.0
  0
LINE
  5
5D
330
22
100
AcDbEntity
  8
0
100
AcDbLine
 10
22.59973089678116
 20
-4.771599258481472
 30
0.0
 11
17.59973089678115
 21
-4.771599258481472
 31
0.0
  0
LINE
  5
5E
330
22
100
AcDbEntity
  8
0
100
AcDbLine
 10
18.59973089678115
 20
-5.771599258481472
 30
0.0
 11
18.59973089678115
 21
-8.771599258481472
 31
0.0
  0
ARC
  5
5F
330
22
100
AcDbEntity
  8
0
100
AcDbCircle
 10
22.59973089678116
 20
-7.271599258481472
 30
0.0
 40
1.5
100
AcDbArc
 50
270.0
 51
90.0
  0
ENDBLK
  5
60
330
22
100
AcDbEntity
  8
0
100
AcDbBlockEnd
  0
BLOCK
  5
1229
330
121F
100
AcDbEntity
  8
0
100
AcDbBlockBegin
  2
*D1
 70
     1
 10
0.0
 20
0.0
 30
0.0
  3
*D1
  1

  0
LINE
  5
1237
330
121F
100
AcDbEntity
  8
BEM
 62
     0
370
    -2
100
AcDbLine
 10
132.5925774479989
 20
222.3082639335002
 30
0.0
 11
132.5925774479989
 21
188.3656609137112
 31
0.0
  0
LINE
  5
1238
330
121F
100
AcDbEntity
  8
BEM
 62
     0
370
    -2
100
AcDbLine
 10
234.1925774479988
 20
222.3082639334997
 30
0.0
 11
234.1925774479988
 21
188.3656609137112
 31
0.0
  0
LINE
  5
1239
330
121F
100
AcDbEntity
  8
BEM
 62
     0
370
    -2
100
AcDbLine
 10
139.5925774479989
 20
190.3656609137112
 30
0.0
 11
227.1925774479988
 21
190.3656609137112
 31
0.0
  0
SOLID
  5
123A
330
121F
100
AcDbEntity
  8
BEM
 62
     0
100
AcDbTrace
 10
139.5925774479989
 20
191.5323275803779
 30
0.0
 11
139.5925774479989
 21
189.1989942470446
 31
0.0
 12
132.5925774479989
 22
190.3656609137112
 32
0.0
 13
132.5925774479989
 23
190.3656609137112
 33
0.0
  0
SOLID
  5
123B
330
121F
100
AcDbEntity
  8
BEM
 62
     0
100
AcDbTrace
 10
227.1925774479988
 20
191.5323275803779
 30
0.0
 11
227.1925774479988
 21
189.1989942470446
 31
0.0
 12
234.1925774479988
 22
190.3656609137112
 32
0.0
 13
234.1925774479988
 23
190.3656609137112
 33
0.0
  0
MTEXT
  5
123C
330
121F
100
AcDbEntity
  8
BEM
 62
     1
100
AcDbMText
 10
183.3925774479988
 20
196.8656609137112
 30
0.0
 40
7.0
 41
0.0
 71
     5
 72
     1
  1
\A1;%%c101.6
 73
     1
 44
1.0
  0
POINT
  5
123D
330
121F
100
AcDbEntity
  8
DEFPOINTS
 62
     0
100
AcDbPoint
 10
132.5925774479989
 20
224.3082639335002
 30
0.0
  0
POINT
  5
123E
330
121F
100
AcDbEntity
  8
DEFPOINTS
 62
     0
100
AcDbPoint
 10
234.1925774479988
 20
224.3082639334997
 30
0.0
  0
POINT
  5
123F
330
121F
100
AcDbEntity
  8
DEFPOINTS
 62
     0
100
AcDbPoint
 10
234.1925774479988
 20
190.3656609137112
 30
0.0
  0
ENDBLK
  5
122A
330
121F
100
AcDbEntity
  8
0
100
AcDbBlockEnd
  0
BLOCK
  5
1278
330
126E
100
AcDbEntity
  8
0
100
AcDbBlockBegin
  2
*D4
 70
     1
 10
0.0
 20
0.0
 30
0.0
  3
*D4
  1

  0
LINE
  5
1357
330
126E
100
AcDbEntity
  8
BEM
 62
     0
370
    -2
100
AcDbLine
 10
131.2924867562062
 20
216.3082639335002
 30
0.0
 11
100.7454944576916
 21
216.3082639335002
 31
0.0
  0
LINE
  5
1358
330
126E
100
AcDbEntity
  8
BEM
 62
     0
370
    -2
100
AcDbLine
 10
181.3925774479988
 20
381.3082639334997
 30
0.0
 11
100.7454944576916
 21
381.3082639334998
 31
0.0
  0
LINE
  5
1359
330
126E
100
AcDbEntity
  8
BEM
 62
     0
370
    -2
100
AcDbLine
 10
102.7454944576916
 20
223.3082639335002
 30
0.0
 11
102.7454944576916
 21
374.3082639334998
 31
0.0
  0
SOLID
  5
135A
330
126E
100
AcDbEntity
  8
BEM
 62
     0
100
AcDbTrace
 10
101.5788277910249
 20
223.3082639335002
 30
0.0
 11
103.9121611243582
 21
223.3082639335002
 31
0.0
 12
102.7454944576916
 22
216.3082639335002
 32
0.0
 13
102.7454944576916
 23
216.3082639335002
 33
0.0
  0
SOLID
  5
135B
330
126E
100
AcDbEntity
  8
BEM
 62
     0
100
AcDbTrace
 10
101.5788277910249
 20
374.3082639334998
 30
0.0
 11
103.9121611243583
 21
374.3082639334998
 31
0.0
 12
102.7454944576916
 22
381.3082639334998
 32
0.0
 13
102.7454944576916
 23
381.3082639334998
 33
0.0
  0
MTEXT
  5
135C
330
126E
100
AcDbEntity
  8
BEM
 62
     1
100
AcDbMText
 10
96.24549445769154
 20
298.8082639335
 30
0.0
 40
7.0
 41
0.0
 71
     5
 72
     1
  1
\A1;165
 11
0.0000000000000001
 21
1.0
 31
0.0
 73
     1
 44
1.0
  0
POINT
  5
135D
330
126E
100
AcDbEntity
  8
DEFPOINTS
 62
     0
100
AcDbPoint
 10
133.2924867562062
 20
216.3082639335002
 30
0.0
  0
POINT
  5
135E
330
126E
100
AcDbEntity
  8
DEFPOINTS
 62
     0
100
AcDbPoint
 10
183.3925774479989
 20
381.3082639334997
 30
0.0
  0
POINT
  5
135F
330
126E
100
AcDbEntity
  8
DEFPOINTS
 62
     0
100
AcDbPoint
 10
102.7454944576916
 20
381.3082639334998
 30
0.0
  0
ENDBLK
  5
1279
330
126E
100
AcDbEntity
  8
0
100
AcDbBlockEnd
  0
BLOCK
  5
1285
330
127B
100
AcDbEntity
  8
0
100
AcDbBlockBegin
  2
*D5
 70
     1
 10
0.0
 20
0.0
 30
0.0
  3
*D5
  1

  0
LINE
  5
129E
330
127B
100
AcDbEntity
  8
BEM
 62
     0
370
    -2
100
AcDbLine
 10
343.392577447999
 20
437.9680468522233
 30
0.0
 11
343.392577447999
 21
475.8156946530675
 31
0.0
  0
LINE
  5
129F
330
127B
100
AcDbEntity
  8
BEM
 62
     0
370
    -2
100
AcDbLine
 10
183.3925774479989
 20
383.3082639334998
 30
0.0
 11
183.3925774479989
 21
475.8156946530675
 31
0.0
  0
LINE
  5
12A0
330
127B
100
AcDbEntity
  8
BEM
 62
     0
370
    -2
100
AcDbLine
 10
336.392577447999
 20
473.8156946530676
 30
0.0
 11
190.3925774479989
 21
473.8156946530676
 31
0.0
  0
SOLID
  5
12A1
330
127B
100
AcDbEntity
  8
BEM
 62
     0
100
AcDbTrace
 10
336.392577447999
 20
474.9823613197342
 30
0.0
 11
336.392577447999
 21
472.6490279864008
 31
0.0
 12
343.392577447999
 22
473.8156946530676
 32
0.0
 13
343.392577447999
 23
473.8156946530676
 33
0.0
  0
SOLID
  5
12A2
330
127B
100
AcDbEntity
  8
BEM
 62
     0
100
AcDbTrace
 10
190.3925774479989
 20
474.9823613197342
 30
0.0
 11
190.3925774479989
 21
472.6490279864008
 31
0.0
 12
183.3925774479989
 22
473.8156946530676
 32
0.0
 13
183.3925774479989
 23
473.8156946530676
 33
0.0
  0
MTEXT
  5
12A3
330
127B
100
AcDbEntity
  8
BEM
 62
     1
100
AcDbMText
 10
263.3925774479989
 20
480.3156946530675
 30
0.0
 40
7.0
 41
0.0
 71
     5
 72
     1
  1
\A1;160
 73
     1
 44
1.0
  0
POINT
  5
12A4
330
127B
100
AcDbEntity
  8
DEFPOINTS
 62
     0
100
AcDbPoint
 10
343.392577447999
 20
435.9680468522234
 30
0.0
  0
POINT
  5
12A5
330
127B
100
AcDbEntity
  8
DEFPOINTS
 62
     0
100
AcDbPoint
 10
183.3925774479989
 20
381.3082639334997
 30
0.0
  0
POINT
  5
12A6
330
127B
100
AcDbEntity
  8
DEFPOINTS
 62
     0
100
AcDbPoint
 10
183.3925774479989
 20
473.8156946530676
 30
0.0
  0
ENDBLK
  5
1286
330
127B
100
AcDbEntity
  8
0
100
AcDbBlockEnd
  0
BLOCK
  5
129C
330
1291
100
AcDbEntity
  8
0
100
AcDbBlockBegin
  2
*D6
 70
     1
 10
0.0
 20
0.0
 30
0.0
  3
*D6
  1

  0
LINE
  5
1292
330
1291
100
AcDbEntity
  8
BEM
 62
     0
370
    -2
100
AcDbLine
 10
183.3925774479989
 20
383.3082639334998
 30
0.0
 11
183.3925774479989
 21
462.0219027896774
 31
0.0
  0
ARC
  5
1293
330
1291
100
AcDbEntity
  8
BEM
 62
     0
370
    -2
100
AcDbCircle
 10
183.3925774479989
 20
381.3082639334997
 30
0.0
 40
78.71363885617765
100
AcDbArc
 50
5.096991345081136
 51
84.90300865491901
  0
SOLID
  5
1294
330
1291
100
AcDbEntity
  8
BEM
 62
     0
100
AcDbTrace
 10
262.9604742455977
 20
388.3532163450234
 30
0.0
 11
260.6294487098916
 21
388.2494647362127
 31
0.0
 12
262.1062163041766
 22
381.3082639334999
 32
0.0
 13
262.1062163041766
 23
381.3082639334999
 33
0.0
  0
SOLID
  5
1295
330
1291
100
AcDbEntity
  8
BEM
 62
     0
100
AcDbTrace
 10
190.3337782507117
 20
458.5451351953925
 30
0.0
 11
190.4375298595223
 21
460.8761607310985
 31
0.0
 12
183.3925774479989
 22
460.0219027896773
 32
0.0
 13
183.3925774479989
 23
460.0219027896773
 33
0.0
  0
MTEXT
  5
1296
330
1291
100
AcDbEntity
  8
BEM
 62
     1
100
AcDbMText
 10
243.6477193327835
 20
441.5634058182845
 30
0.0
 40
7.0
 41
0.0
 71
     5
 72
     1
  1
\A1;90°
 11
0.7071067811865481
 21
-0.707106781186547
 31
0.0
 73
     1
 44
1.0
  0
POINT
  5
1297
330
1291
100
AcDbEntity
  8
DEFPOINTS
 62
     0
100
AcDbPoint
 10
251.5605883217626
 20
420.6650833615886
 30
0.0
  0
POINT
  5
1298
330
1291
100
AcDbEntity
  8
DEFPOINTS
 62
     0
100
AcDbPoint
 10
183.3925774479989
 20
381.3082639334997
 30
0.0
  0
POINT
  5
1299
330
1291
100
AcDbEntity
  8
DEFPOINTS
 62
     0
100
AcDbPoint
 10
348.3925774479989
 20
381.3082639335001
 30
0.0
  0
POINT
  5
129A
330
1291
100
AcDbEntity
  8
DEFPOINTS
 62
     0
100
AcDbPoint
 10
183.3925774479989
 20
381.3082639334997
 30
0.0
  0
POINT
  5
129B
330
1291
100
AcDbEntity
  8
DEFPOINTS
 62
     0
100
AcDbPoint
 10
183.3925774479989
 20
211.3082639335002
 30
0.0
  0
ENDBLK
  5
129D
330
1291
100
AcDbEntity
  8
0
100
AcDbBlockEnd
  0
ENDSEC
  0
SECTION
  2
ENTITIES
  0
TEXT
  5
134
330
1E
100
AcDbEntity
  8
TEXT
100
AcDbText
 10
204.4216048581257
 20
63.0896391972351
 30
0.0
 40
4.0
  1
Koeh
 41
0.8
  7
GREEKS
 72
     1
 11
209.6787477152686
 21
63.0896391972351
 31
0.0
100
AcDbText
  0
INSERT
  5
135
330
1E
100
AcDbEntity
  8
STEMPEL
100
AcDbBlockReference
  2
LOGO
 10
150.9955485457794
 20
45.02105276448322
 30
0.0
 41
2.0
 42
2.0
 43
2.0
  0
LINE
  5
136
330
1E
100
AcDbEntity
  8
HILF
100
AcDbLine
 10
420.0
 20
0.0
 30
0.0
 11
0.0
 21
0.0
 31
0.0
  0
LINE
  5
137
330
1E
100
AcDbEntity
  8
HILF
100
AcDbLine
 10
419.9999999999999
 20
594.0000000000002
 30
0.0
 11
0.0
 21
594.0
 31
0.0
  0
LINE
  5
138
330
1E
100
AcDbEntity
  8
STEMPEL
100
AcDbLine
 10
410.0
 20
584.0
 30
0.0
 11
39.99999999999989
 21
584.0
 31
0.0
  0
LINE
  5
139
330
1E
100
AcDbEntity
  8
STEMPEL
100
AcDbLine
 10
410.0
 20
10.0
 30
0.0
 11
39.99999999999989
 21
10.0
 31
0.0
  0
LINE
  5
13A
330
1E
100
AcDbEntity
  8
STEMPEL
100
AcDbLine
 10
49.99999999999989
 20
10.0
 30
0.0
 11
410.0
 21
10.0
 31
0.0
  0
TEXT
  5
13B
330
1E
100
AcDbEntity
  8
TEXT
100
AcDbText
 10
202.4626584226295
 20
73.30961091915225
 30
0.0
 40
4.0
  1
Name
 41
0.8
  7
GREEKS
100
AcDbText
  0
TEXT
  5
13C
330
1E
100
AcDbEntity
  8
TEXT
100
AcDbText
 10
196.5498279101549
 20
102.6506227776589
 30
0.0
 40
5.0
  1
Zul. Abw.
 41
0.8
  7
GREEKS
 72
     4
 11
209.9783993387263
 21
105.1506227776589
 31
0.0
100
AcDbText
  0
LINE
  5
13D
330
1E
100
AcDbEntity
  8
HILF
100
AcDbLine
 10
146.0000000000001
 20
49.99999999999997
 30
0.0
 11
230.0
 21
49.99999999999997
 31
0.0
  0
LINE
  5
13E
330
1E
100
AcDbEntity
  8
HILF
100
AcDbLine
 10
146.0000000000001
 20
59.99999999999997
 30
0.0
 11
230.0
 21
59.99999999999997
 31
0.0
  0
LINE
  5
13F
330
1E
100
AcDbEntity
  8
HILF
100
AcDbLine
 10
146.0000000000001
 20
69.99999999999994
 30
0.0
 11
230.0
 21
69.99999999999994
 31
0.0
  0
LINE
  5
140
330
1E
100
AcDbEntity
  8
STEMPEL
100
AcDbLine
 10
410.0
 20
80.0
 30
0.0
 11
146.0000000000001
 21
79.99999999999994
 31
0.0
  0
LINE
  5
141
330
1E
100
AcDbEntity
  8
STEMPEL
100
AcDbLine
 10
410.0
 20
40.0
 30
0.0
 11
146.0000000000001
 21
39.99999999999997
 31
0.0
  0
LINE
  5
142
330
1E
100
AcDbEntity
  8
STEMPEL
100
AcDbLine
 10
410.0
 20
110.0
 30
0.0
 11
39.99999999999997
 21
110.0
 31
0.0
  0
LINE
  5
143
330
1E
100
AcDbEntity
  8
MITTEL
100
AcDbLine
 10
183.3925774479989
 20
381.3082639334997
 30
0.0
 11
183.3925774479989
 21
211.3082639335002
 31
0.0
  0
LINE
  5
144
330
1E
100
AcDbEntity
  8
HILF
100
AcDbLine
 10
0.0
 20
0.0
 30
0.0
 11
-0.0000000000001137
 21
594.0
 31
0.0
  0
LINE
  5
145
330
1E
100
AcDbEntity
  8
STEMPEL
100
AcDbLine
 10
40.0
 20
10.0
 30
0.0
 11
39.99999999999989
 21
584.0
 31
0.0
  0
LINE
  5
148
330
1E
100
AcDbEntity
  8
HILF
100
AcDbLine
 10
40.00000000000008
 20
39.99999999999997
 30
0.0
 11
146.0000000000001
 21
39.99999999999997
 31
0.0
  0
LINE
  5
149
330
1E
100
AcDbEntity
  8
HILF
100
AcDbLine
 10
40.00000000000008
 20
49.99999999999997
 30
0.0
 11
146.0000000000001
 21
49.99999999999997
 31
0.0
  0
LINE
  5
14A
330
1E
100
AcDbEntity
  8
HILF
100
AcDbLine
 10
40.00000000000008
 20
59.99999999999997
 30
0.0
 11
146.0000000000001
 21
59.99999999999997
 31
0.0
  0
LINE
  5
14B
330
1E
100
AcDbEntity
  8
HILF
100
AcDbLine
 10
40.00000000000008
 20
69.99999999999994
 30
0.0
 11
146.0000000000001
 21
69.99999999999994
 31
0.0
  0
LINE
  5
14C
330
1E
100
AcDbEntity
  8
HILF
100
AcDbLine
 10
40.00000000000008
 20
79.99999999999994
 30
0.0
 11
146.0000000000001
 21
79.99999999999994
 31
0.0
  0
LINE
  5
14D
330
1E
100
AcDbEntity
  8
HILF
100
AcDbLine
 10
40.00000000000008
 20
90.00000000000005
 30
0.0
 11
146.0000000000001
 21
90.00000000000005
 31
0.0
  0
LINE
  5
14E
330
1E
100
AcDbEntity
  8
HILF
100
AcDbLine
 10
40.00000000000008
 20
100.0
 30
0.0
 11
146.0000000000001
 21
100.0
 31
0.0
  0
LINE
  5
14F
330
1E
100
AcDbEntity
  8
STEMPEL
100
AcDbLine
 10
145.9999999999999
 20
29.99999999999997
 30
0.0
 11
39.99999999999997
 21
29.99999999999997
 31
0.0
  0
TEXT
  5
150
330
1E
100
AcDbEntity
  8
TEXT
100
AcDbText
 10
48.26641107045756
 20
13.65465846027192
 30
0.0
 40
4.0
  1
Index
 50
90.0
 41
0.8
  7
GREEKS
100
AcDbText
  0
LINE
  5
151
330
1E
100
AcDbEntity
  8
VOLL
100
AcDbLine
 10
54.00000000000009
 20
110.0
 30
0.0
 11
53.99999999999997
 21
9.999999999999971
 31
0.0
  0
LINE
  5
152
330
1E
100
AcDbEntity
  8
HILF
100
AcDbLine
 10
31.08767135713856
 20
297.0
 30
0.0
 11
0.0000000000001137
 21
297.0
 31
0.0
  0
LINE
  5
154
330
1E
100
AcDbEntity
  8
VOLL
100
AcDbLine
 10
124.0000000000001
 20
109.9999999999999
 30
0.0
 11
124.0
 21
9.999999999999971
 31
0.0
  0
LINE
  5
155
330
1E
100
AcDbEntity
  8
VOLL
100
AcDbLine
 10
104.0000000000001
 20
109.9999999999999
 30
0.0
 11
104.0
 21
9.999999999999971
 31
0.0
  0
LINE
  5
157
330
1E
100
AcDbEntity
  8
STEMPEL
100
AcDbLine
 10
146.0000000000001
 20
109.9999999999999
 30
0.0
 11
146.0
 21
9.999999999999971
 31
0.0
  0
TEXT
  5
159
330
1E
100
AcDbEntity
  8
TEXT
100
AcDbText
 10
172.331167315365
 20
73.31880501229926
 30
0.0
 40
4.0
  1
Tag
 41
0.8
  7
GREEKS
100
AcDbText
  0
TEXT
  5
15A
330
1E
100
AcDbEntity
  8
TEXT
100
AcDbText
 10
147.5836127167615
 20
63.62990369617964
 30
0.0
 40
4.0
  1
Gez.
 41
0.8
  7
GREEKS
100
AcDbText
  0
LINE
  5
15B
330
1E
100
AcDbEntity
  8
VOLL
100
AcDbLine
 10
164.0000000000001
 20
79.99999999999994
 30
0.0
 11
164.0000000000001
 21
39.99999999999997
 31
0.0
  0
TEXT
  5
15C
330
1E
100
AcDbEntity
  8
TEXT
100
AcDbText
 10
147.6006777387303
 20
43.52946389649807
 30
0.0
 40
4.0
  1
Norm.
 41
0.8
  7
GREEKS
100
AcDbText
  0
TEXT
  5
15D
330
1E
100
AcDbEntity
  8
TEXT
100
AcDbText
 10
147.5515086571672
 20
53.68926291428377
 30
0.0
 40
4.0
  1
Gepr.
 41
0.8
  7
GREEKS
100
AcDbText
  0
TEXT
  5
15E
330
1E
100
AcDbEntity
  8
TEXT
 62
     1
100
AcDbText
 10
160.5006306481887
 20
88.14901428913959
 30
0.0
 40
7.0
  1
1:2
 41
0.8
  7
GREEKS
100
AcDbText
  0
TEXT
  5
160
330
1E
100
AcDbEntity
  8
TEXT
100
AcDbText
 10
148.622109822104
 20
73.14025471151666
 30
0.0
 40
4.0
  1
2011
 41
0.8
  7
GREEKS
100
AcDbText
  0
LINE
  5
161
330
1E
100
AcDbEntity
  8
VOLL
100
AcDbLine
 10
190.0000000000001
 20
109.9999999999998
 30
0.0
 11
190.0
 21
39.99999999999997
 31
0.0
  0
LINE
  5
186
330
1E
100
AcDbEntity
  8
HILF
100
AcDbLine
 10
420.0
 20
-0.0000000000001137
 30
0.0
 11
419.9999999999999
 21
594.0
 31
0.0
  0
LINE
  5
187
330
1E
100
AcDbEntity
  8
STEMPEL
100
AcDbLine
 10
410.0
 20
10.0
 30
0.0
 11
410.0
 21
584.0
 31
0.0
  0
TEXT
  5
188
330
1E
100
AcDbEntity
  8
TEXT
100
AcDbText
 10
337.2400861497006
 20
52.07416177878602
 30
0.0
 40
5.0
  1
ersetzt durch:
 41
0.8
  7
GREEKS
100
AcDbText
  0
TEXT
  5
18A
330
1E
100
AcDbEntity
  8
TEXT
100
AcDbText
 10
336.178754957634
 20
102.3132034537136
 30
0.0
 40
5.0
  1
Zeichnungs Nr.
 41
0.8
  7
GREEKS
100
AcDbText
  0
LINE
  5
18B
330
1E
100
AcDbEntity
  8
HILF
100
AcDbLine
 10
233.4909699289885
 20
14.89398258028314
 30
0.0
 11
404.8588839326728
 21
14.89398258028314
 31
0.0
  0
LINE
  5
18C
330
1E
100
AcDbEntity
  8
HILF
100
AcDbLine
 10
336.7238616296993
 20
83.77983636955827
 30
0.0
 11
404.8588839326728
 21
83.77983636955827
 31
0.0
  0
LINE
  5
18D
330
1E
100
AcDbEntity
  8
VOLL
100
AcDbLine
 10
332.0
 20
60.0
 30
0.0
 11
410.0
 21
60.0
 31
0.0
  0
TEXT
  5
18E
330
1E
100
AcDbEntity
  8
TEXT
 62
     1
100
AcDbText
 10
234.9283864320014
 20
87.41748789253779
 30
0.0
 40
7.0
  1
Winkelbogen DN100 90°
 41
0.7
  7
GREEKS
100
AcDbText
  0
LINE
  5
18F
330
1E
100
AcDbEntity
  8
HILF
100
AcDbLine
 10
234.7736801096947
 20
49.99999999999997
 30
0.0
 11
324.835391655631
 21
49.99999999999997
 31
0.0
  0
LINE
  5
190
330
1E
100
AcDbEntity
  8
HILF
100
AcDbLine
 10
234.7736801096947
 20
59.99999999999997
 30
0.0
 11
324.835391655631
 21
59.99999999999997
 31
0.0
  0
LINE
  5
191
330
1E
100
AcDbEntity
  8
HILF
100
AcDbLine
 10
234.7736801096947
 20
69.99999999999994
 30
0.0
 11
324.835391655631
 21
69.99999999999994
 31
0.0
  0
LINE
  5
192
330
1E
100
AcDbEntity
  8
HILF
100
AcDbLine
 10
234.7736801096947
 20
84.03758247564139
 30
0.0
 11
324.8353916556311
 21
84.03758247564139
 31
0.0
  0
LINE
  5
193
330
1E
100
AcDbEntity
  8
STEMPEL
100
AcDbLine
 10
230.0
 20
110.0
 30
0.0
 11
230.0
 21
9.999999999999971
 31
0.0
  0
TEXT
  5
194
330
1E
100
AcDbEntity
  8
TEXT
100
AcDbText
 10
235.1296391125315
 20
71.50334417585288
 30
0.0
 40
5.0
  1
mit engem Radius
 41
0.8
  7
GREEKS
100
AcDbText
  0
TEXT
  5
195
330
1E
100
AcDbEntity
  8
TEXT
100
AcDbText
 10
234.9837501577827
 20
42.62974153022632
 30
0.0
 40
4.0
  1
5500100W.DWG
 41
0.8
  7
GREEKS
100
AcDbText
  0
TEXT
  5
196
330
1E
100
AcDbEntity
  8
TEXT
100
AcDbText
 10
234.742238391136
 20
30.84560570193057
 30
0.0
 40
5.0
  1
Bauvorhaben
 41
0.8
  7
GREEKS
100
AcDbText
  0
TEXT
  5
197
330
1E
100
AcDbEntity
  8
TEXT
100
AcDbText
 10
234.877940380901
 20
102.5489328011779
 30
0.0
 40
5.0
  1
Benennung
 41
0.8
  7
GREEKS
100
AcDbText
  0
LINE
  5
198
330
1E
100
AcDbEntity
  8
STEMPEL
100
AcDbLine
 10
332.0
 20
109.9999999999997
 30
0.0
 11
332.0
 21
40.0
 31
0.0
  0
TEXT
  5
19A
330
1E
100
AcDbEntity
  8
TEXT
 62
     1
100
AcDbText
 10
349.2040881349824
 20
88.14901428913959
 30
0.0
 40
7.0
  1
5500100W
 41
0.8
  7
GREEKS
 72
     1
 11
370.0040881349825
 21
88.14901428913959
 31
0.0
100
AcDbText
  0
TEXT
  5
212
330
1E
100
AcDbEntity
  8
TEXT
100
AcDbText
 10
235.1296391125315
 20
51.50334417585291
 30
0.0
 40
5.0
  1
EDV-Art.Nr. 5.500.100C
 41
0.8
  7
GREEKS
100
AcDbText
  0
TEXT
  5
25D
330
1E
100
AcDbEntity
  8
TEXT
 62
     1
100
AcDbText
 10
308.0879179986679
 20
398.9812731227548
 30
0.0
 40
7.0
  1
DN100
 41
0.8
  7
GREEKS
100
AcDbText
  0
TEXT
  5
E61
330
1E
100
AcDbEntity
  8
TEXT
 62
     1
100
AcDbText
 10
297.0573649355706
 20
132.2248663682012
 30
0.0
 40
7.0
  1
Werkstoff: 1.4404
 41
0.8
  7
GREEKS
100
AcDbText
  0
LINE
  5
E77
330
1E
100
AcDbEntity
  8
MITTEL
100
AcDbLine
 10
348.3925774479989
 20
381.3082639335001
 30
0.0
 11
183.3925774479989
 21
381.3082639334997
 31
0.0
  0
TEXT
  5
10F9
330
1E
100
AcDbEntity
  8
TEXT
100
AcDbText
 10
235.1296391125316
 20
61.50334417585293
 30
0.0
 40
5.0
  1
dünnwandig
 41
0.8
  7
GREEKS
100
AcDbText
  0
TEXT
  5
10FA
330
1E
100
AcDbEntity
  8
TEXT
100
AcDbText
 10
67.93969678957704
 20
18.67381894984134
 30
0.0
 40
4.0
  1
Änderung
 41
0.8
  7
GREEKS
 72
     1
 11
78.68255393243419
 21
18.67381894984134
 31
0.0
100
AcDbText
  0
TEXT
  5
10FB
330
1E
100
AcDbEntity
  8
TEXT
100
AcDbText
 10
110.2820548933125
 20
18.67156269339807
 30
0.0
 40
4.0
  1
Tag
 41
0.8
  7
GREEKS
 72
     1
 11
114.0153882266458
 21
18.67156269339807
 31
0.0
100
AcDbText
  0
TEXT
  5
10FC
330
1E
100
AcDbEntity
  8
TEXT
100
AcDbText
 10
128.9001864118674
 20
18.59324216966411
 30
0.0
 40
4.0
  1
Name
 41
0.8
  7
GREEKS
 72
     1
 11
135.2239959356769
 21
18.59324216966411
 31
0.0
100
AcDbText
  0
TEXT
  5
10FD
330
1E
100
AcDbEntity
  8
TEXT
100
AcDbText
 10
153.5163572150377
 20
102.4620895087088
 30
0.0
 40
5.0
  1
Maßstab
 41
0.8
  7
GREEKS
100
AcDbText
  0
TEXT
  5
10FE
330
1E
100
AcDbEntity
  8
TEXT
100
AcDbText
 10
336.7238616296993
 20
73.1811823709997
 30
0.0
 40
5.0
  1
Ersatz für:
 41
0.8
  7
GREEKS
100
AcDbText
  0
TEXT
  5
10FF
330
1E
100
AcDbEntity
  8
VOLL
100
AcDbText
 10
1439.874693904429
 20
235.2201559463227
 30
0.0
 40
1.8
  1

  7
GREEKS
100
AcDbText
  0
TEXT
  5
1105
330
1E
100
AcDbEntity
  8
TEXT
100
AcDbText
 10
192.6882715247924
 20
88.73450771838452
 30
0.0
 40
4.0
  1
DIN EN1124-3
 41
0.8
  7
GREEKS
 72
     1
 11
209.6787477152686
 21
88.73450771838452
 31
0.0
100
AcDbText
  0
LINE
  5
11FA
330
1E
100
AcDbEntity
  8
STEMPEL
100
AcDbLine
 10
233.4926681397913
 20
216.3082639334997
 30
0.0
 11
133.2924867562062
 21
216.3082639335002
 31
0.0
  0
LINE
  5
11FB
330
1E
100
AcDbEntity
  8
HILF
100
AcDbLine
 10
232.9378026510694
 20
224.3082639334997
 30
0.0
 11
133.8473522449279
 21
224.3082639335002
 31
0.0
  0
DIMENSION
  5
11FC
330
1E
100
AcDbEntity
  8
BEM
100
AcDbDimension
  2
*D1
 10
234.1925774479988
 20
190.3656609137112
 30
0.0
 11
183.3925774479988
 21
196.8656609137112
 31
0.0
 70
    32
  1
%%c<>
 71
     5
 42
101.5999999999999
  3
Standard
100
AcDbAlignedDimension
 13
132.5925774479989
 23
224.3082639335002
 33
0.0
 14
234.1925774479988
 24
224.3082639334997
 34
0.0
100
AcDbRotatedDimension
1001
ACAD
1000
DSTYLE
1002
{
1070
    40
1040
2.0
1070
    41
1040
3.5
1070
    42
1040
1.0
1070
    43
1040
7.0
1070
    44
1040
1.0
1070
    73
1070
     0
1070
    74
1070
     0
1070
    77
1070
     1
1070
    78
1070
     8
1070
    79
1070
     2
1070
   140
1040
3.5
1070
   141
1040
1.5
1070
   146
1040
0.5142857142857144
1070
   147
1040
1.5
1070
   172
1070
     1
1070
   178
1070
     1
1070
   179
1070
     2
1070
   271
1070
     2
1070
   272
1070
     2
1070
   284
1070
     8
1070
   285
1070
     8
1070
   286
1070
     8
1002
}
  0
LINE
  5
11FD
330
1E
100
AcDbEntity
  8
STEMPEL
100
AcDbLine
 10
132.5925774479989
 20
224.3082639335002
 30
0.0
 11
133.2924867562062
 21
216.3082639335002
 31
0.0
  0
LINE
  5
11FF
330
1E
100
AcDbEntity
  8
STEMPEL
100
AcDbLine
 10
234.1925774479988
 20
224.308263933501
 30
0.0
 11
233.4926681397913
 21
216.3082639334997
 31
0.0
  0
LINE
  5
121D
102
{ACAD_REACTORS
330
13EC
102
}
330
1E
100
AcDbEntity
  8
STEMPEL
100
AcDbLine
 10
234.1925774479987
 20
319.2611643310635
 30
0.0
 11
234.1925774479988
 21
224.3082639334997
 31
0.0
  0
LINE
  5
121E
102
{ACAD_REACTORS
330
13EC
102
}
330
1E
100
AcDbEntity
  8
STEMPEL
100
AcDbLine
 10
132.5925774479989
 20
361.3452622681697
 30
0.0
 11
132.5925774479989
 21
224.3082639335002
 31
0.0
  0
LINE
  5
124D
330
1E
100
AcDbEntity
  8
STEMPEL
100
AcDbLine
 10
268.8494507713587
 20
330.5082639335001
 30
0.0
 11
245.4396770504355
 21
330.5082639335002
 31
0.0
  0
LINE
  5
1255
330
1E
100
AcDbEntity
  8
STEMPEL
100
AcDbLine
 10
268.8494507713587
 20
432.1082639335
 30
0.0
 11
203.355579113329
 21
432.1082639334997
 31
0.0
  0
DIMENSION
  5
126D
330
1E
100
AcDbEntity
  8
BEM
100
AcDbDimension
  2
*D4
 10
102.7454944576916
 20
381.3082639334998
 30
0.0
 11
96.24549445769154
 21
298.8082639335
 31
0.0
 70
    32
 71
     5
 42
164.9999999999995
  3
Standard
100
AcDbAlignedDimension
 13
133.2924867562062
 23
216.3082639335002
 33
0.0
 14
183.3925774479989
 24
381.3082639334997
 34
0.0
 50
90.0
100
AcDbRotatedDimension
1001
ACAD
1000
DSTYLE
1002
{
1070
    40
1040
2.0
1070
    41
1040
3.5
1070
    42
1040
1.0
1070
    43
1040
7.0
1070
    44
1040
1.0
1070
    73
1070
     0
1070
    74
1070
     0
1070
    77
1070
     1
1070
    78
1070
     8
1070
    79
1070
     2
1070
   140
1040
3.5
1070
   141
1040
1.5
1070
   146
1040
0.5142857142857144
1070
   147
1040
1.5
1070
   172
1070
     1
1070
   178
1070
     1
1070
   179
1070
     2
1070
   271
1070
     2
1070
   272
1070
     2
1070
   284
1070
     8
1070
   285
1070
     8
1070
   286
1070
     8
1002
}
  0
DIMENSION
  5
127A
330
1E
100
AcDbEntity
  8
BEM
100
AcDbDimension
  2
*D5
 10
183.3925774479989
 20
473.8156946530676
 30
0.0
 11
263.3925774479989
 21
480.3156946530675
 31
0.0
 70
    32
 71
     5
 42
160.0000000000001
  3
Standard
100
AcDbAlignedDimension
 13
343.392577447999
 23
435.9680468522234
 33
0.0
 14
183.3925774479989
 24
381.3082639334997
 34
0.0
100
AcDbRotatedDimension
1001
ACAD
1000
DSTYLE
1002
{
1070
    40
1040
2.0
1070
    41
1040
3.5
1070
    42
1040
1.0
1070
    43
1040
7.0
1070
    44
1040
1.0
1070
    73
1070
     0
1070
    74
1070
     0
1070
    77
1070
     1
1070
    78
1070
     8
1070
    79
1070
     2
1070
   140
1040
3.5
1070
   141
1040
1.5
1070
   146
1040
0.5142857142857144
1070
   147
1040
1.5
1070
   172
1070
     1
1070
   178
1070
     1
1070
   179
1070
     2
1070
   271
1070
     2
1070
   272
1070
     2
1070
   284
1070
     8
1070
   285
1070
     8
1070
   286
1070
     8
1002
}
  0
DIMENSION
  5
1290
330
1E
100
AcDbEntity
  8
BEM
100
AcDbDimension
  2
*D6
 10
183.3925774479989
 20
211.3082639335002
 30
0.0
 11
243.6477193327835
 21
441.5634058182845
 31
0.0
 70
    34
 71
     5
 42
1.570796326794894
  3
Standard
100
AcDb2LineAngularDimension
 13
348.3925774479989
 23
381.3082639335001
 33
0.0
 14
183.3925774479989
 24
381.3082639334997
 34
0.0
 15
183.3925774479989
 25
381.3082639334997
 35
0.0
 16
251.5605883217626
 26
420.6650833615886
 36
0.0
1001
ACAD
1000
DSTYLE
1002
{
1070
    40
1040
2.0
1070
    41
1040
3.5
1070
    42
1040
1.0
1070
    43
1040
7.0
1070
    44
1040
1.0
1070
    73
1070
     0
1070
    74
1070
     0
1070
    77
1070
     1
1070
    78
1070
     8
1070
    79
1070
     2
1070
   140
1040
3.5
1070
   141
1040
1.5
1070
   146
1040
0.5142857142857144
1070
   147
1040
1.5
1070
   172
1070
     1
1070
   178
1070
     1
1070
   179
1070
     2
1070
   271
1070
     2
1070
   272
1070
     2
1070
   284
1070
     8
1070
   285
1070
     8
1070
   286
1070
     8
1002
}
  0
TEXT
  5
12AA
330
1E
100
AcDbEntity
  8
BEM
100
AcDbText
 10
417.3022923857165
 20
10.16790107998861
 30
0.0
 40
4.0
  1
Diese Zeichnung ist urheberrechtlich geschützt und bleibt unser Eigentum. Sie darf weder ganz noch teilweise verfielfältigt und nicht an Dritte weitergegeben werden.
 50
90.0
 41
0.8
  7
GREEKS
100
AcDbText
  0
LINE
  5
12EF
330
1E
100
AcDbEntity
  8
STEMPEL
100
AcDbLine
 10
331.1962665303486
 20
323.4082639335001
 30
0.0
 11
312.6225774479991
 21
323.4082639334999
 31
0.0
  0
ARC
  5
12F0
330
1E
100
AcDbEntity
  8
STEMPEL
100
AcDbCircle
 10
295.8893769173175
 20
314.6082639334999
 30
0.0
 40
12.8
100
AcDbArc
 50
63.11195238227536
 51
89.99999999999998
  0
ARC
  5
12F1
330
1E
100
AcDbEntity
  8
STEMPEL
100
AcDbCircle
 10
268.8494507713587
 20
322.5082639335
 30
0.0
 40
8.0
100
AcDbArc
 50
59.14041890937773
 51
89.99999999999959
  0
ARC
  5
12F2
330
1E
100
AcDbEntity
  8
STEMPEL
100
AcDbCircle
 10
280.1644850178821
 20
341.6082639334999
 30
0.0
 40
14.2
100
AcDbArc
 50
239.3570682370605
 51
270.0
  0
LINE
  5
12F4
330
1E
100
AcDbEntity
  8
STEMPEL
100
AcDbLine
 10
295.8893769173175
 20
327.4082639334999
 30
0.0
 11
280.1644850178822
 21
327.4082639334999
 31
0.0
  0
ARC
  5
12F5
330
1E
100
AcDbEntity
  8
STEMPEL
100
AcDbCircle
 10
312.6225774479991
 20
347.6082639334999
 30
0.0
 40
24.2
100
AcDbArc
 50
243.1119523822754
 51
270.0
  0
ARC
  5
12F6
330
1E
100
AcDbEntity
  8
STEMPEL
100
AcDbCircle
 10
331.1962665303486
 20
347.6082639334999
 30
0.0
 40
24.2
100
AcDbArc
 50
270.0
 51
300.2636519420999
  0
ARC
  5
12F8
330
1E
100
AcDbEntity
  8
STEMPEL
100
AcDbCircle
 10
295.8893769173174
 20
448.0082639334999
 30
0.0
 40
12.8
100
AcDbArc
 50
270.0
 51
296.8880476177247
  0
ARC
  5
12F9
330
1E
100
AcDbEntity
  8
STEMPEL
100
AcDbCircle
 10
312.6225774479991
 20
415.0082639334999
 30
0.0
 40
24.2
100
AcDbArc
 50
89.99999999999998
 51
116.8880476177246
  0
LINE
  5
12FA
330
1E
100
AcDbEntity
  8
STEMPEL
100
AcDbLine
 10
331.1962665303486
 20
439.2082639334999
 30
0.0
 11
312.6225774479991
 21
439.2082639334999
 31
0.0
  0
ARC
  5
12FB
330
1E
100
AcDbEntity
  8
STEMPEL
100
AcDbCircle
 10
268.8494507713587
 20
440.1082639334998
 30
0.0
 40
8.0
100
AcDbArc
 50
270.0000000000004
 51
300.8595810906223
  0
ARC
  5
12FC
330
1E
100
AcDbEntity
  8
STEMPEL
100
AcDbCircle
 10
280.1644850178821
 20
421.0082639334999
 30
0.0
 40
14.2
100
AcDbArc
 50
89.99999999999998
 51
120.6429317629395
  0
LINE
  5
12FE
330
1E
100
AcDbEntity
  8
STEMPEL
100
AcDbLine
 10
295.8893769173175
 20
435.2082639334999
 30
0.0
 11
280.1644850178822
 21
435.2082639335
 31
0.0
  0
ARC
  5
12FF
330
1E
100
AcDbEntity
  8
STEMPEL
100
AcDbCircle
 10
331.1962665303486
 20
415.0082639334999
 30
0.0
 40
24.2
100
AcDbArc
 50
59.73634805790251
 51
89.99999999999998
  0
LINE
  5
1301
330
1E
100
AcDbEntity
  8
STEMPEL
100
AcDbLine
 10
343.3925774479988
 20
326.7063501455234
 30
0.0
 11
343.392577447999
 21
435.9101777214767
 31
0.0
  0
LINE
  5
1302
330
1E
100
AcDbEntity
  8
HILF
100
AcDbLine
 10
270.977909621948
 20
331.4586640877585
 30
0.0
 11
270.977909621948
 21
431.1578637792415
 31
0.0
  0
LINE
  5
1303
330
1E
100
AcDbEntity
  8
HILF
100
AcDbLine
 10
276.4123564928355
 20
329.1615161039851
 30
0.0
 11
276.4123564928356
 21
433.4550117630148
 31
0.0
  0
LINE
  5
1304
330
1E
100
AcDbEntity
  8
HILF
100
AcDbLine
 10
298.8653164691593
 20
328.2883145102991
 30
0.0
 11
298.8653164691593
 21
434.3282133567008
 31
0.0
  0
TEXT
  5
1325
330
1E
100
AcDbEntity
  8
TEXT
100
AcDbText
 10
171.0085209177598
 20
63.10765040825732
 30
0.0
 40
4.0
  1
11.04.
 41
0.8
  7
GREEKS
 72
     1
 11
177.4085209177598
 21
63.10765040825732
 31
0.0
100
AcDbText
  0
LINE
  5
1331
330
1E
100
AcDbEntity
  8
MITTEL
100
AcDbLine
 10
224.3976280818821
 20
381.3082639334998
 30
0.0
 11
183.3925774479989
 21
340.3032132996165
 31
0.0
  0
LINE
  5
1332
102
{ACAD_REACTORS
330
13EC
102
}
330
1E
100
AcDbEntity
  8
STEMPEL
100
AcDbLine
 10
245.4396770504355
 20
330.5082639335002
 30
0.0
 11
234.1925774479987
 21
319.2611643310635
 31
0.0
  0
LINE
  5
1334
102
{ACAD_REACTORS
330
13EC
102
}
330
1E
100
AcDbEntity
  8
STEMPEL
100
AcDbLine
 10
203.355579113329
 20
432.1082639334997
 30
0.0
 11
132.5925774479989
 21
361.3452622681697
 31
0.0
  0
LINE
  5
1335
330
1E
100
AcDbEntity
  8
STEMPEL
100
AcDbLine
 10
245.4396770504355
 20
330.5082639335002
 30
0.0
 11
203.355579113329
 21
432.1082639334997
 31
0.0
  0
LINE
  5
1336
330
1E
100
AcDbEntity
  8
STEMPEL
100
AcDbLine
 10
132.5925774479989
 20
361.3452622681697
 30
0.0
 11
234.1925774479987
 21
319.2611643310635
 31
0.0
  0
ARC
  5
13C7
102
{ACAD_REACTORS
330
13EC
102
}
330
1E
100
AcDbEntity
  8
SCHRAFF
100
AcDbCircle
 10
232.115539227457
 20
320.1215017315794
 30
0.0
 40
4.602799044193714
100
AcDbArc
 50
296.8242618174978
 51
18.17573818250053
  0
ARC
  5
13C8
102
{ACAD_REACTORS
330
13EC
102
}
330
1E
100
AcDbEntity
  8
SCHRAFF
100
AcDbCircle
 10
134.0322438203048
 20
360.7489329314681
 30
0.0
 40
3.016559378088811
100
AcDbArc
 50
73.5062385033245
 51
241.4937614966757
  0
ARC
  5
13C9
330
1E
100
AcDbEntity
  8
SCHRAFF
100
AcDbCircle
 10
132.5925774479989
 20
361.3452622681697
 30
0.0
 40
5.0
100
AcDbArc
 50
300.6301023541561
 51
14.36989764584299
  0
ARC
  5
13CA
330
1E
100
AcDbEntity
  8
SCHRAFF
100
AcDbCircle
 10
137.2119751105553
 20
359.4318451063442
 30
0.0
 40
5.0
100
AcDbArc
 50
300.6301023541561
 51
14.36989764584299
  0
ARC
  5
13CB
330
1E
100
AcDbEntity
  8
SCHRAFF
100
AcDbCircle
 10
141.8313727731117
 20
357.5184279445189
 30
0.0
 40
5.0
100
AcDbArc
 50
300.6301023541561
 51
14.36989764584299
  0
ARC
  5
13CC
330
1E
100
AcDbEntity
  8
SCHRAFF
100
AcDbCircle
 10
146.4507704356682
 20
355.6050107826934
 30
0.0
 40
5.0
100
AcDbArc
 50
300.6301023541561
 51
14.36989764584299
  0
ARC
  5
13CD
330
1E
100
AcDbEntity
  8
SCHRAFF
100
AcDbCircle
 10
151.0701680982246
 20
353.6915936208679
 30
0.0
 40
5.0
100
AcDbArc
 50
300.6301023541561
 51
14.36989764584299
  0
ARC
  5
13CE
330
1E
100
AcDbEntity
  8
SCHRAFF
100
AcDbCircle
 10
155.6895657607811
 20
351.7781764590426
 30
0.0
 40
5.0
100
AcDbArc
 50
300.6301023541561
 51
14.36989764584299
  0
ARC
  5
13CF
330
1E
100
AcDbEntity
  8
SCHRAFF
100
AcDbCircle
 10
160.3089634233375
 20
349.864759297217
 30
0.0
 40
5.0
100
AcDbArc
 50
300.6301023541561
 51
14.36989764584299
  0
ARC
  5
13D0
330
1E
100
AcDbEntity
  8
SCHRAFF
100
AcDbCircle
 10
164.928361085894
 20
347.9513421353916
 30
0.0
 40
5.0
100
AcDbArc
 50
300.6301023541561
 51
14.36989764584299
  0
ARC
  5
13D1
330
1E
100
AcDbEntity
  8
SCHRAFF
100
AcDbCircle
 10
169.5477587484504
 20
346.0379249735662
 30
0.0
 40
5.0
100
AcDbArc
 50
300.6301023541561
 51
14.36989764584299
  0
ARC
  5
13D2
330
1E
100
AcDbEntity
  8
SCHRAFF
100
AcDbCircle
 10
174.1671564110068
 20
344.1245078117408
 30
0.0
 40
5.0
100
AcDbArc
 50
300.6301023541561
 51
14.36989764584299
  0
ARC
  5
13D3
330
1E
100
AcDbEntity
  8
SCHRAFF
100
AcDbCircle
 10
178.7865540735633
 20
342.2110906499153
 30
0.0
 40
5.0
100
AcDbArc
 50
300.6301023541561
 51
14.36989764584299
  0
ARC
  5
13D4
330
1E
100
AcDbEntity
  8
SCHRAFF
100
AcDbCircle
 10
183.3925774479989
 20
340.3032132996166
 30
0.0
 40
5.0
100
AcDbArc
 50
300.6301023541561
 51
14.36989764584299
  0
ARC
  5
13D5
330
1E
100
AcDbEntity
  8
SCHRAFF
100
AcDbCircle
 10
188.0119751105554
 20
338.3897961377912
 30
0.0
 40
5.0
100
AcDbArc
 50
300.6301023541561
 51
14.36989764584299
  0
ARC
  5
13D6
330
1E
100
AcDbEntity
  8
SCHRAFF
100
AcDbCircle
 10
192.6313727731118
 20
336.4763789759657
 30
0.0
 40
5.0
100
AcDbArc
 50
300.6301023541561
 51
14.36989764584299
  0
ARC
  5
13D7
330
1E
100
AcDbEntity
  8
SCHRAFF
100
AcDbCircle
 10
197.2507704356683
 20
334.5629618141402
 30
0.0
 40
5.0
100
AcDbArc
 50
300.6301023541561
 51
14.36989764584299
  0
ARC
  5
13D8
330
1E
100
AcDbEntity
  8
SCHRAFF
100
AcDbCircle
 10
201.8701680982248
 20
332.6495446523149
 30
0.0
 40
5.0
100
AcDbArc
 50
300.6301023541561
 51
14.36989764584299
  0
ARC
  5
13D9
330
1E
100
AcDbEntity
  8
SCHRAFF
100
AcDbCircle
 10
206.4895657607812
 20
330.7361274904894
 30
0.0
 40
5.0
100
AcDbArc
 50
300.6301023541561
 51
14.36989764584299
  0
ARC
  5
13DA
330
1E
100
AcDbEntity
  8
SCHRAFF
100
AcDbCircle
 10
211.1089634233376
 20
328.8227103286639
 30
0.0
 40
5.0
100
AcDbArc
 50
300.6301023541561
 51
14.36989764584299
  0
ARC
  5
13DB
330
1E
100
AcDbEntity
  8
SCHRAFF
100
AcDbCircle
 10
215.728361085894
 20
326.9092931668384
 30
0.0
 40
5.0
100
AcDbArc
 50
300.6301023541561
 51
14.36989764584299
  0
ARC
  5
13DC
330
1E
100
AcDbEntity
  8
SCHRAFF
100
AcDbCircle
 10
220.3477587484505
 20
324.9958760050131
 30
0.0
 40
5.0
100
AcDbArc
 50
300.6301023541561
 51
14.36989764584299
  0
ARC
  5
13DD
330
1E
100
AcDbEntity
  8
SCHRAFF
100
AcDbCircle
 10
224.9671564110069
 20
323.0824588431876
 30
0.0
 40
5.0
100
AcDbArc
 50
300.6301023541561
 51
14.36989764584299
  0
HATCH
  5
13EC
330
1E
100
AcDbEntity
  8
SCHRAFF
100
AcDbHatch
 10
0.0
 20
0.0
 30
0.0
210
0.0
220
0.0
230
1.0
  2
_USER
 70
     0
 71
     1
 91
        2
 92
        7
 72
     1
 73
     1
 93
        3
 10
236.4886780421894
 20
321.5572649252541
 42
0.0
 10
234.1925774479987
 20
319.2611643310635
 42
0.0
 10
234.1925774479987
 20
316.0139877301864
 42
0.3706627958169001
 97
        3
330
1332
330
121D
330
13C7
 92
        7
 72
     1
 73
     1
 93
        3
 10
132.5925774479989
 20
361.3452622681697
 42
0.0
 10
134.8886780421894
 20
363.6413628623602
 42
0.9003054709337327
 10
132.5925774479989
 20
358.0980856672925
 42
0.0
 97
        3
330
1334
330
13C8
330
121E
 75
     0
 76
     0
 52
0.0
 41
0.1
 77
     0
 78
     1
 53
0.0
 43
0.0
 44
0.0
 45
0.0
 46
0.1
 79
     0
 47
0.1567238770619743
 98
        2
 10
234.9778705426333
 20
318.8527586394571
 10
131.9481155159442
 20
359.9144143468182
  0
ARC
  5
1405
330
1E
100
AcDbEntity
  8
SCHRAFF
100
AcDbCircle
 10
203.3555791133289
 20
432.1082639334999
 30
0.0
 40
5.0
100
AcDbArc
 50
255.6301023541572
 51
329.3698976458442
  0
ARC
  5
1406
330
1E
100
AcDbEntity
  8
SCHRAFF
100
AcDbCircle
 10
203.9519084500304
 20
430.668597561194
 30
0.0
 40
3.016559378088811
100
AcDbArc
 50
28.50623850332451
 51
196.4937614966757
  0
ARC
  5
1407
330
1E
100
AcDbEntity
  8
SCHRAFF
100
AcDbCircle
 10
205.2689962751544
 20
427.4888662709435
 30
0.0
 40
5.0
100
AcDbArc
 50
255.6301023541572
 51
329.3698976458442
  0
ARC
  5
1408
330
1E
100
AcDbEntity
  8
SCHRAFF
100
AcDbCircle
 10
220.5763335697579
 20
390.5336849704921
 30
0.0
 40
5.0
100
AcDbArc
 50
255.6301023541572
 51
329.3698976458442
  0
ARC
  5
1409
330
1E
100
AcDbEntity
  8
SCHRAFF
100
AcDbCircle
 10
218.6629164079326
 20
395.1530826330485
 30
0.0
 40
5.0
100
AcDbArc
 50
255.6301023541572
 51
329.3698976458442
  0
ARC
  5
140A
330
1E
100
AcDbEntity
  8
SCHRAFF
100
AcDbCircle
 10
216.7494992461071
 20
399.772480295605
 30
0.0
 40
5.0
100
AcDbArc
 50
255.6301023541572
 51
329.3698976458442
  0
ARC
  5
140B
330
1E
100
AcDbEntity
  8
SCHRAFF
100
AcDbCircle
 10
212.9226649224561
 20
409.0112756207178
 30
0.0
 40
5.0
100
AcDbArc
 50
255.6301023541572
 51
329.3698976458442
  0
ARC
  5
140C
330
1E
100
AcDbEntity
  8
SCHRAFF
100
AcDbCircle
 10
209.0958305988052
 20
418.2500709458306
 30
0.0
 40
5.0
100
AcDbArc
 50
255.6301023541572
 51
329.3698976458442
  0
ARC
  5
140D
330
1E
100
AcDbEntity
  8
SCHRAFF
100
AcDbCircle
 10
207.1824134369797
 20
422.869468608387
 30
0.0
 40
5.0
100
AcDbArc
 50
255.6301023541572
 51
329.3698976458442
  0
ARC
  5
140E
330
1E
100
AcDbEntity
  8
SCHRAFF
100
AcDbCircle
 10
211.0092477606307
 20
413.6306732832742
 30
0.0
 40
5.0
100
AcDbArc
 50
255.6301023541572
 51
329.3698976458442
  0
ARC
  5
140F
330
1E
100
AcDbEntity
  8
SCHRAFF
100
AcDbCircle
 10
214.8360820842816
 20
404.3918779581613
 30
0.0
 40
5.0
100
AcDbArc
 50
255.6301023541572
 51
329.3698976458442
  0
ARC
  5
1410
330
1E
100
AcDbEntity
  8
SCHRAFF
100
AcDbCircle
 10
222.4897507315835
 20
385.9142873079357
 30
0.0
 40
5.0
100
AcDbArc
 50
255.6301023541572
 51
329.3698976458442
  0
ARC
  5
1411
330
1E
100
AcDbEntity
  8
SCHRAFF
100
AcDbCircle
 10
226.3110452437075
 20
376.6888662709436
 30
0.0
 40
5.0
100
AcDbArc
 50
255.6301023541572
 51
329.3698976458442
  0
ARC
  5
1412
330
1E
100
AcDbEntity
  8
SCHRAFF
100
AcDbCircle
 10
224.3976280818821
 20
381.3082639334999
 30
0.0
 40
5.0
100
AcDbArc
 50
255.6301023541572
 51
329.3698976458442
  0
ARC
  5
1413
330
1E
100
AcDbEntity
  8
SCHRAFF
100
AcDbCircle
 10
233.9647138910095
 20
358.2112756207178
 30
0.0
 40
5.0
100
AcDbArc
 50
255.6301023541572
 51
329.3698976458442
  0
ARC
  5
1414
330
1E
100
AcDbEntity
  8
SCHRAFF
100
AcDbCircle
 10
230.1378795673585
 20
367.4500709458306
 30
0.0
 40
5.0
100
AcDbArc
 50
255.6301023541572
 51
329.3698976458442
  0
ARC
  5
1415
330
1E
100
AcDbEntity
  8
SCHRAFF
100
AcDbCircle
 10
228.2244624055331
 20
372.069468608387
 30
0.0
 40
5.0
100
AcDbArc
 50
255.6301023541572
 51
329.3698976458442
  0
ARC
  5
1416
330
1E
100
AcDbEntity
  8
SCHRAFF
100
AcDbCircle
 10
232.0512967291839
 20
362.8306732832742
 30
0.0
 40
5.0
100
AcDbArc
 50
255.6301023541572
 51
329.3698976458442
  0
ARC
  5
1417
330
1E
100
AcDbEntity
  8
SCHRAFF
100
AcDbCircle
 10
235.8781310528349
 20
353.5918779581614
 30
0.0
 40
5.0
100
AcDbArc
 50
255.6301023541572
 51
329.3698976458442
  0
ARC
  5
1418
330
1E
100
AcDbEntity
  8
SCHRAFF
100
AcDbCircle
 10
237.7915482146604
 20
348.9724802956049
 30
0.0
 40
5.0
100
AcDbArc
 50
255.6301023541572
 51
329.3698976458442
  0
ARC
  5
1419
330
1E
100
AcDbEntity
  8
SCHRAFF
100
AcDbCircle
 10
239.7049653764858
 20
344.3530826330485
 30
0.0
 40
5.0
100
AcDbArc
 50
255.6301023541572
 51
329.3698976458442
  0
ARC
  5
141A
330
1E
100
AcDbEntity
  8
SCHRAFF
100
AcDbCircle
 10
241.6183825383113
 20
339.7336849704921
 30
0.0
 40
5.0
100
AcDbArc
 50
255.6301023541572
 51
329.3698976458442
  0
HATCH
  5
141B
330
1E
100
AcDbEntity
  8
SCHRAFF
100
AcDbHatch
 10
0.0
 20
0.0
 30
0.0
210
0.0
220
0.0
230
1.0
  2
_USER
 70
     0
 71
     0
 91
        2
 92
        7
 72
     1
 73
     1
 93
        3
 10
243.1435764562448
 20
328.2121633393097
 42
0.0
 10
245.4396770504354
 20
330.5082639335002
 42
0.0
 10
248.6868536513125
 20
330.5082639335002
 42
-0.3706627958169001
 97
        0
 92
        7
 72
     1
 73
     1
 93
        3
 10
203.3555791133289
 20
432.1082639334999
 42
0.0
 10
201.0594785191383
 20
429.8121633393094
 42
-0.9003054709337327
 10
206.602755714206
 20
432.1082639334999
 42
0.0
 97
        0
 75
     0
 76
     0
 52
0.0
 41
0.1
 77
     0
 78
     1
 53
270.0
 43
564.700841381498
 44
564.7008413815001
 45
-0.1
 46
-0.0000000000000004
 79
     0
 47
0.1567238770619743
 98
        2
 10
245.8480827420419
 20
329.7229708388656
 10
204.7864270346804
 20
432.7527258655546
  0
ARC
  5
141C
330
1E
100
AcDbEntity
  8
SCHRAFF
100
AcDbCircle
 10
244.5793396499196
 20
332.585302154042
 30
0.0
 40
4.602799044193714
100
AcDbArc
 50
251.8242618174997
 51
333.1757381825024
  0
ENDSEC
  0
SECTION
  2
OBJECTS
  0
DICTIONARY
  5
C
330
0
100
AcDbDictionary
281
     1
  3
ACAD_COLOR
350
F4E
  3
ACAD_GROUP
350
D
  3
ACAD_LAYOUT
350
19
  3
ACAD_MATERIAL
350
F4D
  3
ACAD_MLINESTYLE
350
16
  3
ACAD_PLOTSETTINGS
350
18
  3
ACAD_PLOTSTYLENAME
350
E
  3
AcDbVariableDictionary
350
246
  0
DICTIONARY
  5
F4E
102
{ACAD_REACTORS
330
C
102
}
330
C
100
AcDbDictionary
281
     1
  0
DICTIONARY
  5
D
102
{ACAD_REACTORS
330
C
102
}
330
C
100
AcDbDictionary
281
     1
  0
DICTIONARY
  5
19
102
{ACAD_REACTORS
330
C
102
}
330
C
100
AcDbDictionary
281
     1
  3
Layout1
350
1D
  3
Model
350
21
  0
DICTIONARY
  5
F4D
102
{ACAD_REACTORS
330
C
102
}
330
C
100
AcDbDictionary
281
     1
  0
DICTIONARY
  5
16
102
{ACAD_REACTORS
330
C
102
}
330
C
100
AcDbDictionary
281
     1
  3
Standard
350
17
  0
DICTIONARY
  5
18
102
{ACAD_REACTORS
330
C
102
}
330
C
100
AcDbDictionary
281
     1
  0
ACDBDICTIONARYWDFLT
  5
E
102
{ACAD_REACTORS
330
C
102
}
330
C
100
AcDbDictionary
281
     1
  3
Normal
350
F
100
AcDbDictionaryWithDefault
340
F
  0
DICTIONARY
  5
246
102
{ACAD_REACTORS
330
C
102
}
330
C
100
AcDbDictionary
281
     1
  3
DIMASSOC
350
12BE
  3
PROJECTNAME
350
12BF
  3
SORTENTS
350
247
  0
LAYOUT
  5
1D
102
{ACAD_REACTORS
330
19
102
}
330
19
100
AcDbPlotSettings
  1

  2
Tektronix Phaser 740
  4

  6

 40
0.0
 41
0.0
 42
0.0
 43
0.0
 44
0.0
 45
0.0
 46
0.0
 47
0.0
 48
0.0
 49
0.0
140
0.0
141
0.0
142
1.0
143
1.0
 70
   688
 72
     0
 73
     0
 74
     5
  7
monochrome.ctb
 75
    16
147
1.0
 76
     0
 77
     2
 78
   300
148
0.0
149
0.0
100
AcDbLayout
  1
Layout1
 70
     0
 71
     1
 10
0.0
 20
0.0
 11
12.0
 21
9.0
 12
0.0
 22
0.0
 32
0.0
 14
1.000000000000000E+20
 24
1.000000000000000E+20
 34
1.000000000000000E+20
 15
-1.000000000000000E+20
 25
-1.000000000000000E+20
 35
-1.000000000000000E+20
146
0.0
 13
0.0
 23
0.0
 33
0.0
 16
1.0
 26
0.0
 36
0.0
 17
0.0
 27
1.0
 37
0.0
 76
     0
330
1A
  0
LAYOUT
  5
21
102
{ACAD_REACTORS
330
19
102
}
330
19
100
AcDbPlotSettings
  1

  2
Tektronix Phaser 740
  4
A4
  6

 40
5.873749732971191
 41
6.085414409637451
 42
5.577407836914062
 43
5.662078857421875
 44
209.9733276367187
 45
296.9683227539062
 46
0.0
 47
0.0
 48
0.0
 49
0.0
140
0.0
141
0.0
142
1.0
143
1.0
 70
 11952
 72
     0
 73
     1
 74
     0
  7
monochrome.ctb
 75
     0
147
1.0
 76
     0
 77
     2
 78
   300
148
1150.120678237584
149
45.30495740799864
100
AcDbLayout
  1
Model
 70
     1
 71
     0
 10
0.0
 20
0.0
 11
12.0
 21
9.0
 12
0.0
 22
0.0
 32
0.0
 14
0.0
 24
0.0
 34
0.0
 15
0.0
 25
0.0
 35
0.0
146
0.0
 13
0.0
 23
0.0
 33
0.0
 16
1.0
 26
0.0
 36
0.0
 17
0.0
 27
1.0
 37
0.0
 76
     0
330
1E
  0
MLINESTYLE
  5
17
102
{ACAD_REACTORS
330
16
102
}
330
16
100
AcDbMlineStyle
  2
STANDARD
 70
     0
  3

 62
   256
 51
90.0
 52
90.0
 71
     2
 49
0.5
 62
   256
  6
BYLAYER
 49
-0.5
 62
   256
  6
BYLAYER
  0
ACDBPLACEHOLDER
  5
F
102
{ACAD_REACTORS
330
E
102
}
330
E
  0
DICTIONARYVAR
  5
12BE
102
{ACAD_REACTORS
330
246
102
}
330
246
100
DictionaryVariables
280
     0
  1
1
  0
DICTIONARYVAR
  5
12BF
102
{ACAD_REACTORS
330
246
102
}
330
246
100
DictionaryVariables
280
     0
  1

  0
DICTIONARYVAR
  5
247
102
{ACAD_REACTORS
330
246
102
}
330
246
100
DictionaryVariables
280
     0
  1
96
  0
ENDSEC
  0
EOF
