  0
SECTION
  2
HEADER
  9
$ACADVER
  1
AC1018
  9
$ACADMAINTVER
 70
     2
  9
$DWGCODEPAGE
  3
ANSI_1252
  9
$INSBASE
 10
0.0
 20
0.0
 30
0.0
  9
$EXTMIN
 10
-0.0127973346767476
 20
-0.0180990876151555
 30
-0.0000000000000091
  9
$EXTMAX
 10
420.0128271623864
 20
594.0181412725166
 30
0.0000000000000062
  9
$LIMMIN
 10
0.0
 20
0.0
  9
$LIMMAX
 10
419.9999999999999
 20
594.0
  9
$ORTHOMODE
 70
     1
  9
$REGENMODE
 70
     1
  9
$FILLMODE
 70
     1
  9
$QTEXTMODE
 70
     0
  9
$MIRRTEXT
 70
     1
  9
$LTSCALE
 40
20.0
  9
$ATTMODE
 70
     1
  9
$TEXTSIZE
 40
3.5
  9
$TRACEWID
 40
0.5
  9
$TEXTSTYLE
  7
STANDARD
  9
$CLAYER
  8
BEM
  9
$CELTYPE
  6
ByLayer
  9
$CECOLOR
 62
   256
  9
$CELTSCALE
 40
1.0
  9
$DISPSILH
 70
     0
  9
$DIMSCALE
 40
2.0
  9
$DIMASZ
 40
3.5
  9
$DIMEXO
 40
1.0
  9
$DIMDLI
 40
7.0
  9
$DIMRND
 40
0.0
  9
$DIMDLE
 40
0.0
  9
$DIMEXE
 40
1.0
  9
$DIMTP
 40
0.0
  9
$DIMTM
 40
0.0
  9
$DIMTXT
 40
3.5
  9
$DIMCEN
 40
1.5
  9
$DIMTSZ
 40
0.0
  9
$DIMTOL
 70
     0
  9
$DIMLIM
 70
     0
  9
$DIMTIH
 70
     0
  9
$DIMTOH
 70
     0
  9
$DIMSE1
 70
     0
  9
$DIMSE2
 70
     0
  9
$DIMTAD
 70
     1
  9
$DIMZIN
 70
     8
  9
$DIMBLK
  1

  9
$DIMASO
 70
     1
  9
$DIMSHO
 70
     0
  9
$DIMPOST
  1

  9
$DIMAPOST
  1

  9
$DIMALT
 70
     0
  9
$DIMALTD
 70
     2
  9
$DIMALTF
 40
25.4
  9
$DIMLFAC
 40
1.0
  9
$DIMTOFL
 70
     1
  9
$DIMTVP
 40
0.0
  9
$DIMTIX
 70
     0
  9
$DIMSOXD
 70
     0
  9
$DIMSAH
 70
     0
  9
$DIMBLK1
  1

  9
$DIMBLK2
  1

  9
$DIMSTYLE
  2
Standard
  9
$DIMCLRD
 70
     0
  9
$DIMCLRE
 70
     0
  9
$DIMCLRT
 70
     1
  9
$DIMTFAC
 40
0.5142857142857144
  9
$DIMGAP
 40
1.5
  9
$DIMJUST
 70
     0
  9
$DIMSD1
 70
     0
  9
$DIMSD2
 70
     0
  9
$DIMTOLJ
 70
     1
  9
$DIMTZIN
 70
     8
  9
$DIMALTZ
 70
     8
  9
$DIMALTTZ
 70
     8
  9
$DIMUPT
 70
     0
  9
$DIMDEC
 70
     2
  9
$DIMTDEC
 70
     2
  9
$DIMALTU
 70
     2
  9
$DIMALTTD
 70
     2
  9
$DIMTXSTY
  7
STANDARD
  9
$DIMAUNIT
 70
     0
  9
$DIMADEC
 70
     2
  9
$DIMALTRND
 40
0.0
  9
$DIMAZIN
 70
     2
  9
$DIMDSEP
 70
    46
  9
$DIMATFIT
 70
     3
  9
$DIMFRAC
 70
     0
  9
$DIMLDRBLK
  1

  9
$DIMLUNIT
 70
     2
  9
$DIMLWD
 70
    -2
  9
$DIMLWE
 70
    -2
  9
$DIMTMOVE
 70
     0
  9
$LUNITS
 70
     2
  9
$LUPREC
 70
     2
  9
$SKETCHINC
 40
1.0
  9
$FILLETRAD
 40
0.0
  9
$AUNITS
 70
     1
  9
$AUPREC
 70
     3
  9
$MENU
  1
ACAD
  9
$ELEVATION
 40
0.0
  9
$PELEVATION
 40
0.0
  9
$THICKNESS
 40
0.0
  9
$LIMCHECK
 70
     0
  9
$CHAMFERA
 40
0.0
  9
$CHAMFERB
 40
0.0
  9
$CHAMFERC
 40
0.0
  9
$CHAMFERD
 40
0.0
  9
$SKPOLY
 70
     0
  9
$TDCREATE
 40
2452040.637099653
  9
$TDUCREATE
 40
2452040.553766320
  9
$TDUPDATE
 40
2455663.486236991
  9
$TDUUPDATE
 40
2455663.402903657
  9
$TDINDWG
 40
0.3145173727
  9
$TDUSRTIMER
 40
0.3145173727
  9
$USRTIMER
 70
     1
  9
$ANGBASE
 50
0.0
  9
$ANGDIR
 70
     0
  9
$PDMODE
 70
     0
  9
$PDSIZE
 40
0.0
  9
$PLINEWID
 40
0.0
  9
$SPLFRAME
 70
     0
  9
$SPLINETYPE
 70
     6
  9
$SPLINESEGS
 70
     8
  9
$HANDSEED
  5
15A7
  9
$SURFTAB1
 70
     6
  9
$SURFTAB2
 70
     6
  9
$SURFTYPE
 70
     6
  9
$SURFU
 70
     6
  9
$SURFV
 70
     6
  9
$UCSBASE
  2

  9
$UCSNAME
  2

  9
$UCSORG
 10
0.0
 20
0.0
 30
0.0
  9
$UCSXDIR
 10
1.0
 20
0.0
 30
0.0
  9
$UCSYDIR
 10
0.0
 20
1.0
 30
0.0
  9
$UCSORTHOREF
  2

  9
$UCSORTHOVIEW
 70
     0
  9
$UCSORGTOP
 10
0.0
 20
0.0
 30
0.0
  9
$UCSORGBOTTOM
 10
0.0
 20
0.0
 30
0.0
  9
$UCSORGLEFT
 10
0.0
 20
0.0
 30
0.0
  9
$UCSORGRIGHT
 10
0.0
 20
0.0
 30
0.0
  9
$UCSORGFRONT
 10
0.0
 20
0.0
 30
0.0
  9
$UCSORGBACK
 10
0.0
 20
0.0
 30
0.0
  9
$PUCSBASE
  2

  9
$PUCSNAME
  2

  9
$PUCSORG
 10
0.0
 20
0.0
 30
0.0
  9
$PUCSXDIR
 10
1.0
 20
0.0
 30
0.0
  9
$PUCSYDIR
 10
0.0
 20
1.0
 30
0.0
  9
$PUCSORTHOREF
  2

  9
$PUCSORTHOVIEW
 70
     0
  9
$PUCSORGTOP
 10
0.0
 20
0.0
 30
0.0
  9
$PUCSORGBOTTOM
 10
0.0
 20
0.0
 30
0.0
  9
$PUCSORGLEFT
 10
0.0
 20
0.0
 30
0.0
  9
$PUCSORGRIGHT
 10
0.0
 20
0.0
 30
0.0
  9
$PUCSORGFRONT
 10
0.0
 20
0.0
 30
0.0
  9
$PUCSORGBACK
 10
0.0
 20
0.0
 30
0.0
  9
$USERI1
 70
     0
  9
$USERI2
 70
     0
  9
$USERI3
 70
     0
  9
$USERI4
 70
     0
  9
$USERI5
 70
     0
  9
$USERR1
 40
0.0
  9
$USERR2
 40
0.0
  9
$USERR3
 40
0.0
  9
$USERR4
 40
0.0
  9
$USERR5
 40
0.0
  9
$WORLDVIEW
 70
     1
  9
$SHADEDGE
 70
     3
  9
$SHADEDIF
 70
    70
  9
$TILEMODE
 70
     1
  9
$MAXACTVP
 70
    16
  9
$PINSBASE
 10
0.0
 20
0.0
 30
0.0
  9
$PLIMCHECK
 70
     0
  9
$PEXTMIN
 10
1.000000000000000E+20
 20
1.000000000000000E+20
 30
1.000000000000000E+20
  9
$PEXTMAX
 10
-1.000000000000000E+20
 20
-1.000000000000000E+20
 30
-1.000000000000000E+20
  9
$PLIMMIN
 10
0.0
 20
0.0
  9
$PLIMMAX
 10
12.0
 20
9.0
  9
$UNITMODE
 70
     0
  9
$VISRETAIN
 70
     0
  9
$PLINEGEN
 70
     0
  9
$PSLTSCALE
 70
     0
  9
$TREEDEPTH
 70
  3020
  9
$CMLSTYLE
  2
Standard
  9
$CMLJUST
 70
     0
  9
$CMLSCALE
 40
1.0
  9
$PROXYGRAPHICS
 70
     1
  9
$MEASUREMENT
 70
     0
  9
$CELWEIGHT
370
    -1
  9
$ENDCAPS
280
     0
  9
$JOINSTYLE
280
     0
  9
$LWDISPLAY
290
     0
  9
$INSUNITS
 70
     0
  9
$HYPERLINKBASE
  1

  9
$STYLESHEET
  1
monochrome 1.ctb
  9
$XEDIT
290
     1
  9
$CEPSNTYPE
380
     0
  9
$PSTYLEMODE
290
     1
  9
$FINGERPRINTGUID
  2
{7AADB5C8-6110-11D8-B72B-000102183313}
  9
$VERSIONGUID
  2
{09D82FDA-91AD-47D9-BEC0-70A0BB725CA9}
  9
$EXTNAMES
290
     1
  9
$PSVPSCALE
 40
0.0
  9
$OLESTARTUP
290
     0
  9
$SORTENTS
280
    96
  9
$INDEXCTL
280
     0
  9
$HIDETEXT
280
     0
  9
$XCLIPFRAME
290
     0
  9
$HALOGAP
280
     0
  9
$OBSCOLOR
 70
   257
  9
$OBSLTYPE
280
     0
  9
$INTERSECTIONDISPLAY
280
     0
  9
$INTERSECTIONCOLOR
 70
   257
  9
$DIMASSOC
280
     1
  9
$PROJECTNAME
  1

  0
ENDSEC
  0
SECTION
  2
CLASSES
  0
CLASS
  1
ACDBDICTIONARYWDFLT
  2
AcDbDictionaryWithDefault
  3
ObjectDBX Classes
 90
        0
 91
        1
280
     0
281
     0
  0
CLASS
  1
DICTIONARYVAR
  2
AcDbDictionaryVar
  3
ObjectDBX Classes
 90
        0
 91
        3
280
     0
281
     0
  0
ENDSEC
  0
SECTION
  2
TABLES
  0
TABLE
  2
VPORT
  5
8
330
0
100
AcDbSymbolTable
 70
     3
  0
VPORT
  5
15A6
330
8
100
AcDbSymbolTableRecord
100
AcDbViewportTableRecord
  2
*Active
 70
     0
 10
0.0
 20
0.0
 11
1.0
 21
1.0
 12
210.0
 22
297.0
 13
0.0
 23
0.0
 14
1.0
 24
1.0
 15
10.0
 25
10.0
 16
0.0
 26
0.0
 36
1.0
 17
0.0
 27
0.0
 37
0.0
 40
594.0
 41
1.334231805929919
 42
50.0
 43
0.0
 44
0.0
 50
0.0
 51
0.0
 71
     0
 72
  1500
 73
     1
 74
     0
 75
     0
 76
     0
 77
     0
 78
     0
281
     0
 65
     1
110
0.0
120
0.0
130
0.0
111
1.0
121
0.0
131
0.0
112
0.0
122
1.0
132
0.0
 79
     0
146
0.0
  0
ENDTAB
  0
TABLE
  2
LTYPE
  5
5
330
0
100
AcDbSymbolTable
 70
     2
  0
LTYPE
  5
13
330
5
100
AcDbSymbolTableRecord
100
AcDbLinetypeTableRecord
  2
ByBlock
 70
     0
  3

 72
    65
 73
     0
 40
0.0
  0
LTYPE
  5
14
330
5
100
AcDbSymbolTableRecord
100
AcDbLinetypeTableRecord
  2
ByLayer
 70
     0
  3

 72
    65
 73
     0
 40
0.0
  0
LTYPE
  5
15
330
5
100
AcDbSymbolTableRecord
100
AcDbLinetypeTableRecord
  2
Continuous
 70
     0
  3
Solid line
 72
    65
 73
     0
 40
0.0
  0
LTYPE
  5
35
330
5
100
AcDbSymbolTableRecord
100
AcDbLinetypeTableRecord
  2
STRICHPUNKT
 70
     0
  3
__ . __ . __ . __ . __ . __ . __ . __ . __ . __
 72
    65
 73
     4
 40
1.0
 49
0.5
 74
     0
 49
-0.25
 74
     0
 49
0.0
 74
     0
 49
-0.25
 74
     0
  0
ENDTAB
  0
TABLE
  2
LAYER
  5
2
330
0
100
AcDbSymbolTable
 70
     9
  0
LAYER
  5
10
330
2
100
AcDbSymbolTableRecord
100
AcDbLayerTableRecord
  2
0
 70
     0
 62
     7
  6
Continuous
370
    -3
390
F
  0
LAYER
  5
38
330
2
100
AcDbSymbolTableRecord
100
AcDbLayerTableRecord
  2
VOLL
 70
     0
 62
     1
  6
Continuous
370
    -3
390
F
  0
LAYER
  5
39
330
2
100
AcDbSymbolTableRecord
100
AcDbLayerTableRecord
  2
HILF
 70
     0
 62
     2
  6
Continuous
370
    -3
390
F
  0
LAYER
  5
3A
330
2
100
AcDbSymbolTableRecord
100
AcDbLayerTableRecord
  2
MITTEL
 70
     0
 62
     2
  6
STRICHPUNKT
370
    -3
390
F
  0
LAYER
  5
3B
330
2
100
AcDbSymbolTableRecord
100
AcDbLayerTableRecord
  2
BEM
 70
     0
 62
     7
  6
Continuous
370
    -3
390
F
  0
LAYER
  5
3C
330
2
100
AcDbSymbolTableRecord
100
AcDbLayerTableRecord
  2
STEMPEL
 70
     0
 62
     3
  6
Continuous
370
    -3
390
F
  0
LAYER
  5
3D
330
2
100
AcDbSymbolTableRecord
100
AcDbLayerTableRecord
  2
TEXT
 70
     0
 62
     7
  6
Continuous
370
    -3
390
F
  0
LAYER
  5
3E
330
2
100
AcDbSymbolTableRecord
100
AcDbLayerTableRecord
  2
DEFPOINTS
 70
     0
 62
     7
  6
Continuous
290
     0
370
    -3
390
F
  0
LAYER
  5
3F
330
2
100
AcDbSymbolTableRecord
100
AcDbLayerTableRecord
  2
SCHRAFF
 70
     0
 62
     7
  6
Continuous
370
    -3
390
F
  0
ENDTAB
  0
TABLE
  2
STYLE
  5
3
330
0
100
AcDbSymbolTable
 70
     2
  0
STYLE
  5
11
330
3
100
AcDbSymbolTableRecord
100
AcDbTextStyleTableRecord
  2
STANDARD
 70
     0
 40
0.0
 41
0.8
 50
0.0
 71
     0
 42
3.5
  3
simplex.shx
  4

  0
STYLE
  5
34
330
3
100
AcDbSymbolTableRecord
100
AcDbTextStyleTableRecord
  2
GREEKS
 70
     0
 40
0.0
 41
0.8
 50
0.0
 71
     0
 42
2.5
  3
SIMPLEX.shx
  4

  0
ENDTAB
  0
TABLE
  2
VIEW
  5
6
330
0
100
AcDbSymbolTable
 70
     0
  0
ENDTAB
  0
TABLE
  2
UCS
  5
7
330
0
100
AcDbSymbolTable
 70
     0
  0
ENDTAB
  0
TABLE
  2
APPID
  5
9
330
0
100
AcDbSymbolTable
 70
     1
  0
APPID
  5
12
330
9
100
AcDbSymbolTableRecord
100
AcDbRegAppTableRecord
  2
ACAD
 70
     0
  0
ENDTAB
  0
TABLE
  2
DIMSTYLE
  5
A
330
0
100
AcDbSymbolTable
 70
     1
100
AcDbDimStyleTable
 71
     1
340
1CB
  0
DIMSTYLE
105
1CB
102
{ACAD_REACTORS
330
1DB
330
1141
330
1240
330
1423
102
}
330
A
100
AcDbSymbolTableRecord
100
AcDbDimStyleTableRecord
  2
Standard
 70
     0
340
11
  0
ENDTAB
  0
TABLE
  2
BLOCK_RECORD
  5
1
330
0
100
AcDbSymbolTable
 70
     9
  0
BLOCK_RECORD
  5
1E
330
1
100
AcDbSymbolTableRecord
100
AcDbBlockTableRecord
  2
*Model_Space
340
21
  0
BLOCK_RECORD
  5
1A
330
1
100
AcDbSymbolTableRecord
100
AcDbBlockTableRecord
  2
*Paper_Space
340
1D
  0
BLOCK_RECORD
  5
22
330
1
100
AcDbSymbolTableRecord
100
AcDbBlockTableRecord
  2
LOGO
340
0
102
{BLKREFS
331
135
102
}
  0
BLOCK_RECORD
  5
1DC
330
1
100
AcDbSymbolTableRecord
100
AcDbBlockTableRecord
  2
*D1
340
0
  0
BLOCK_RECORD
  5
1152
330
1
100
AcDbSymbolTableRecord
100
AcDbBlockTableRecord
  2
*D2
340
0
  0
BLOCK_RECORD
  5
1241
330
1
100
AcDbSymbolTableRecord
100
AcDbBlockTableRecord
  2
*D3
340
0
  0
BLOCK_RECORD
  5
1451
330
1
100
AcDbSymbolTableRecord
100
AcDbBlockTableRecord
  2
*D5
340
0
  0
ENDTAB
  0
ENDSEC
  0
SECTION
  2
BLOCKS
  0
BLOCK
  5
43
330
1E
100
AcDbEntity
  8
0
100
AcDbBlockBegin
  2
*Model_Space
 70
     0
 10
0.0
 20
0.0
 30
0.0
  3
*Model_Space
  1

  0
ENDBLK
  5
44
330
1E
100
AcDbEntity
  8
0
100
AcDbBlockEnd
  0
BLOCK
  5
41
330
1A
100
AcDbEntity
 67
     1
  8
0
100
AcDbBlockBegin
  2
*Paper_Space
 70
     0
 10
0.0
 20
0.0
 30
0.0
  3
*Paper_Space
  1

  0
ENDBLK
  5
42
330
1A
100
AcDbEntity
 67
     1
  8
0
100
AcDbBlockEnd
  0
BLOCK
  5
45
330
22
100
AcDbEntity
  8
0
100
AcDbBlockBegin
  2
LOGO
 70
     0
 10
0.0
 20
0.0
 30
0.0
  3
LOGO
  1

  0
ARC
  5
46
330
22
100
AcDbEntity
  8
0
100
AcDbCircle
 10
11.59973089678112
 20
-9.271599258481501
 30
0.0
 40
4.5
100
AcDbArc
 50
270.0
 51
231.0575587310159
  0
LINE
  5
47
330
22
100
AcDbEntity
  8
0
100
AcDbLine
 10
3.599730896781125
 20
-4.771599258481529
 30
0.0
 11
3.599730896781153
 21
-11.77159925848133
 31
0.0
  0
LINE
  5
48
330
22
100
AcDbEntity
  8
0
100
AcDbLine
 10
2.599730896781125
 20
-4.771599258481529
 30
0.0
 11
2.599730896781153
 21
-11.77159925848133
 31
0.0
  0
CIRCLE
  5
49
330
22
100
AcDbEntity
  8
0
100
AcDbCircle
 10
11.59973089678112
 20
-9.271599258481501
 30
0.0
 40
3.5
  0
ARC
  5
4A
330
22
100
AcDbEntity
  8
0
100
AcDbCircle
 10
31.59973089678115
 20
-9.271599258481472
 30
0.0
 40
4.5
100
AcDbArc
 50
270.0
 51
231.0575587310182
  0
LINE
  5
4B
330
22
100
AcDbEntity
  8
0
100
AcDbLine
 10
17.59973089678112
 20
-4.771599258481472
 30
0.0
 11
17.59973089678115
 21
-13.77159925848147
 31
0.0
  0
ARC
  5
4C
330
22
100
AcDbEntity
  8
0
100
AcDbCircle
 10
22.59973089678116
 20
-7.271599258481472
 30
0.0
 40
2.5
100
AcDbArc
 50
293.1161887722295
 51
90.0
  0
CIRCLE
  5
4D
330
22
100
AcDbEntity
  8
0
100
AcDbCircle
 10
31.59973089678115
 20
-9.271599258481472
 30
0.0
 40
3.5
  0
ARC
  5
4E
330
22
100
AcDbEntity
  8
0
100
AcDbCircle
 10
4.599730896781153
 20
-11.77159925848133
 30
0.0
 40
1.0
100
AcDbArc
 50
180.0
 51
270.0
  0
ARC
  5
4F
330
22
100
AcDbEntity
  8
0
100
AcDbCircle
 10
4.599730896781153
 20
-11.77159925848133
 30
0.0
 40
2.0
100
AcDbArc
 50
179.9999999999992
 51
270.0
  0
LINE
  5
50
330
22
100
AcDbEntity
  8
0
100
AcDbLine
 10
11.59973089678115
 20
-13.77159925848144
 30
0.0
 11
4.599730896781153
 21
-13.77159925848147
 31
0.0
  0
LINE
  5
51
330
22
100
AcDbEntity
  8
0
100
AcDbLine
 10
8.771303772034769
 20
-12.77159925848136
 30
0.0
 11
4.599730896781153
 21
-12.77159925848133
 31
0.0
  0
LINE
  5
52
330
22
100
AcDbEntity
  8
0
100
AcDbLine
 10
31.59973089678115
 20
-13.77159925848147
 30
0.0
 11
23.6715276665056
 21
-13.77159925848144
 31
0.0
  0
LINE
  5
53
330
22
100
AcDbEntity
  8
0
100
AcDbLine
 10
23.56565672307022
 20
-9.51278021337896
 30
0.0
 11
24.4388546544846
 21
-12.77159925848144
 31
0.0
  0
LINE
  5
54
330
22
100
AcDbEntity
  8
0
100
AcDbLine
 10
22.59973089678116
 20
-9.771599258481472
 30
0.0
 11
18.59973089678112
 21
-9.771599258481472
 31
0.0
  0
LINE
  5
55
330
22
100
AcDbEntity
  8
0
100
AcDbLine
 10
18.59973089678115
 20
-13.77159925848144
 30
0.0
 11
17.59973089678115
 21
-13.77159925848144
 31
0.0
  0
LINE
  5
56
330
22
100
AcDbEntity
  8
0
100
AcDbLine
 10
18.59973089678115
 20
-9.771599258481472
 30
0.0
 11
18.59973089678115
 21
-13.77159925848144
 31
0.0
  0
LINE
  5
57
330
22
100
AcDbEntity
  8
0
100
AcDbLine
 10
22.59973089678116
 20
-9.771599258481472
 30
0.0
 11
23.67152766650562
 21
-13.77159925848147
 31
0.0
  0
ARC
  5
58
330
22
100
AcDbEntity
  8
0
100
AcDbCircle
 10
22.59973089678116
 20
-7.271599258481472
 30
0.0
 40
2.5
100
AcDbArc
 50
270.0
 51
270.0000000000007
  0
LINE
  5
59
330
22
100
AcDbEntity
  8
0
100
AcDbLine
 10
28.77130377203494
 20
-12.77159925848147
 30
0.0
 11
24.43885465448463
 21
-12.77159925848144
 31
0.0
  0
LINE
  5
5A
330
22
100
AcDbEntity
  8
0
100
AcDbLine
 10
3.599730896781125
 20
-4.771599258481472
 30
0.0
 11
2.599730896781125
 21
-4.771599258481472
 31
0.0
  0
LINE
  5
5B
330
22
100
AcDbEntity
  8
0
100
AcDbLine
 10
22.59973089678116
 20
-8.771599258481472
 30
0.0
 11
18.59973089678115
 21
-8.771599258481472
 31
0.0
  0
LINE
  5
5C
330
22
100
AcDbEntity
  8
0
100
AcDbLine
 10
22.59973089678116
 20
-5.771599258481472
 30
0.0
 11
18.59973089678115
 21
-5.771599258481472
 31
0.0
  0
LINE
  5
5D
330
22
100
AcDbEntity
  8
0
100
AcDbLine
 10
22.59973089678116
 20
-4.771599258481472
 30
0.0
 11
17.59973089678115
 21
-4.771599258481472
 31
0.0
  0
LINE
  5
5E
330
22
100
AcDbEntity
  8
0
100
AcDbLine
 10
18.59973089678115
 20
-5.771599258481472
 30
0.0
 11
18.59973089678115
 21
-8.771599258481472
 31
0.0
  0
ARC
  5
5F
330
22
100
AcDbEntity
  8
0
100
AcDbCircle
 10
22.59973089678116
 20
-7.271599258481472
 30
0.0
 40
1.5
100
AcDbArc
 50
270.0
 51
90.0
  0
ENDBLK
  5
60
330
22
100
AcDbEntity
  8
0
100
AcDbBlockEnd
  0
BLOCK
  5
1E6
330
1DC
100
AcDbEntity
  8
0
100
AcDbBlockBegin
  2
*D1
 70
     1
 10
0.0
 20
0.0
 30
0.0
  3
*D1
  1

  0
LINE
  5
159C
330
1DC
100
AcDbEntity
  8
BEM
 62
     0
370
    -2
100
AcDbLine
 10
151.5945864706091
 20
231.7528113538109
 30
0.0
 11
129.366730122944
 21
231.7528113538109
 31
0.0
  0
LINE
  5
159D
330
1DC
100
AcDbEntity
  8
BEM
 62
     0
370
    -2
100
AcDbLine
 10
195.6571431529795
 20
371.8149373509183
 30
0.0
 11
129.366730122944
 21
371.8149373509183
 31
0.0
  0
LINE
  5
159E
330
1DC
100
AcDbEntity
  8
BEM
 62
     0
370
    -2
100
AcDbLine
 10
131.366730122944
 20
238.7528113538109
 30
0.0
 11
131.366730122944
 21
364.8149373509184
 31
0.0
  0
SOLID
  5
159F
330
1DC
100
AcDbEntity
  8
BEM
 62
     0
100
AcDbTrace
 10
130.2000634562773
 20
238.7528113538109
 30
0.0
 11
132.5333967896107
 21
238.7528113538109
 31
0.0
 12
131.366730122944
 22
231.7528113538109
 32
0.0
 13
131.366730122944
 23
231.7528113538109
 33
0.0
  0
SOLID
  5
15A0
330
1DC
100
AcDbEntity
  8
BEM
 62
     0
100
AcDbTrace
 10
130.2000634562774
 20
364.8149373509184
 30
0.0
 11
132.5333967896107
 21
364.8149373509184
 31
0.0
 12
131.366730122944
 22
371.8149373509183
 32
0.0
 13
131.366730122944
 23
371.8149373509183
 33
0.0
  0
MTEXT
  5
15A1
330
1DC
100
AcDbEntity
  8
BEM
 62
     1
100
AcDbMText
 10
124.866730122944
 20
301.7838743523647
 30
0.0
 40
7.0
 41
0.0
 71
     5
 72
     1
  1
\A1;140
 11
0.0000000000000001
 21
1.0
 31
0.0
 73
     1
 44
1.0
  0
POINT
  5
15A2
330
1DC
100
AcDbEntity
  8
DEFPOINTS
 62
     0
100
AcDbPoint
 10
153.5945864706091
 20
231.7528113538109
 30
0.0
  0
POINT
  5
15A3
330
1DC
100
AcDbEntity
  8
DEFPOINTS
 62
     0
100
AcDbPoint
 10
197.6571431529795
 20
371.8149373509183
 30
0.0
  0
POINT
  5
15A4
330
1DC
100
AcDbEntity
  8
DEFPOINTS
 62
     0
100
AcDbPoint
 10
131.366730122944
 20
371.8149373509183
 30
0.0
  0
ENDBLK
  5
1E7
330
1DC
100
AcDbEntity
  8
0
100
AcDbBlockEnd
  0
BLOCK
  5
115C
330
1152
100
AcDbEntity
  8
0
100
AcDbBlockBegin
  2
*D2
 70
     1
 10
0.0
 20
0.0
 30
0.0
  3
*D2
  1

  0
LINE
  5
157F
330
1152
100
AcDbEntity
  8
BEM
 62
     0
370
    -2
100
AcDbLine
 10
197.6571431529795
 20
373.8149373509183
 30
0.0
 11
197.6571431529795
 21
451.2590411727789
 31
0.0
  0
LINE
  5
1580
330
1152
100
AcDbEntity
  8
BEM
 62
     0
370
    -2
100
AcDbLine
 10
332.6571431529795
 20
421.1747202696416
 30
0.0
 11
332.6571431529795
 21
451.2590411727789
 31
0.0
  0
LINE
  5
1581
330
1152
100
AcDbEntity
  8
BEM
 62
     0
370
    -2
100
AcDbLine
 10
204.6571431529796
 20
449.2590411727788
 30
0.0
 11
325.6571431529796
 21
449.2590411727788
 31
0.0
  0
SOLID
  5
1582
330
1152
100
AcDbEntity
  8
BEM
 62
     0
100
AcDbTrace
 10
204.6571431529796
 20
450.4257078394456
 30
0.0
 11
204.6571431529796
 21
448.0923745061121
 31
0.0
 12
197.6571431529795
 22
449.2590411727788
 32
0.0
 13
197.6571431529795
 23
449.2590411727788
 33
0.0
  0
SOLID
  5
1583
330
1152
100
AcDbEntity
  8
BEM
 62
     0
100
AcDbTrace
 10
325.6571431529796
 20
450.4257078394456
 30
0.0
 11
325.6571431529796
 21
448.0923745061121
 31
0.0
 12
332.6571431529795
 22
449.2590411727788
 32
0.0
 13
332.6571431529795
 23
449.2590411727788
 33
0.0
  0
MTEXT
  5
1584
330
1152
100
AcDbEntity
  8
BEM
 62
     1
100
AcDbMText
 10
265.1571431529795
 20
455.7590411727789
 30
0.0
 40
7.0
 41
0.0
 71
     5
 72
     1
  1
\A1;135
 73
     1
 44
1.0
  0
POINT
  5
1585
330
1152
100
AcDbEntity
  8
DEFPOINTS
 62
     0
100
AcDbPoint
 10
197.6571431529795
 20
371.8149373509183
 30
0.0
  0
POINT
  5
1586
330
1152
100
AcDbEntity
  8
DEFPOINTS
 62
     0
100
AcDbPoint
 10
332.6571431529795
 20
419.1747202696415
 30
0.0
  0
POINT
  5
1587
330
1152
100
AcDbEntity
  8
DEFPOINTS
 62
     0
100
AcDbPoint
 10
332.6571431529795
 20
449.2590411727788
 30
0.0
  0
ENDBLK
  5
115D
330
1152
100
AcDbEntity
  8
0
100
AcDbBlockEnd
  0
BLOCK
  5
124C
330
1241
100
AcDbEntity
  8
0
100
AcDbBlockBegin
  2
*D3
 70
     1
 10
0.0
 20
0.0
 30
0.0
  3
*D3
  1

  0
LINE
  5
1592
330
1241
100
AcDbEntity
  8
BEM
 62
     0
370
    -2
100
AcDbLine
 10
197.6571431529796
 20
373.8149373509184
 30
0.0
 11
197.6571431529796
 21
436.5135508460737
 31
0.0
  0
ARC
  5
1593
330
1241
100
AcDbEntity
  8
BEM
 62
     0
370
    -2
100
AcDbCircle
 10
197.6571431529796
 20
371.8149373509184
 30
0.0
 40
62.69861349515526
100
AcDbArc
 50
6.400126366992784
 51
83.59987363300724
  0
SOLID
  5
1594
330
1241
100
AcDbEntity
  8
BEM
 62
     0
100
AcDbTrace
 10
261.1298458922931
 20
378.8691486429899
 30
0.0
 11
258.8001509195046
 21
378.738895895578
 31
0.0
 12
260.3557566481348
 22
371.8149373509184
 32
0.0
 13
260.3557566481348
 23
371.8149373509184
 33
0.0
  0
SOLID
  5
1595
330
1241
100
AcDbEntity
  8
BEM
 62
     0
100
AcDbTrace
 10
204.5811016976391
 20
432.9579451174433
 30
0.0
 11
204.7113544450511
 21
435.2876400902319
 31
0.0
 12
197.6571431529796
 22
434.5135508460736
 32
0.0
 13
197.6571431529796
 23
434.5135508460736
 33
0.0
  0
MTEXT
  5
1596
330
1241
100
AcDbEntity
  8
BEM
 62
     1
100
AcDbMText
 10
240.5280956175595
 20
426.1337144398001
 30
0.0
 40
7.0
 41
0.0
 71
     5
 72
     1
  1
\A1;90°
 11
0.7849691539366558
 21
-0.6195348475816118
 31
0.0
 73
     1
 44
1.0
  0
POINT
  5
1597
330
1241
100
AcDbEntity
  8
DEFPOINTS
 62
     0
100
AcDbPoint
 10
251.9557352218459
 20
403.164244098496
 30
0.0
  0
POINT
  5
1598
330
1241
100
AcDbEntity
  8
DEFPOINTS
 62
     0
100
AcDbPoint
 10
197.6571431529796
 20
371.8149373509184
 30
0.0
  0
POINT
  5
1599
330
1241
100
AcDbEntity
  8
DEFPOINTS
 62
     0
100
AcDbPoint
 10
327.7192691500868
 20
371.8149373509184
 30
0.0
  0
POINT
  5
159A
330
1241
100
AcDbEntity
  8
DEFPOINTS
 62
     0
100
AcDbPoint
 10
197.6571431529796
 20
371.8149373509184
 30
0.0
  0
POINT
  5
159B
330
1241
100
AcDbEntity
  8
DEFPOINTS
 62
     0
100
AcDbPoint
 10
197.6571431529795
 20
226.7528113538112
 30
0.0
  0
ENDBLK
  5
124D
330
1241
100
AcDbEntity
  8
0
100
AcDbBlockEnd
  0
BLOCK
  5
145B
330
1451
100
AcDbEntity
  8
0
100
AcDbBlockBegin
  2
*D5
 70
     1
 10
0.0
 20
0.0
 30
0.0
  3
*D5
  1

  0
LINE
  5
1466
330
1451
100
AcDbEntity
  8
BEM
 62
     0
370
    -2
100
AcDbLine
 10
153.2071431529796
 20
234.7528113538109
 30
0.0
 11
153.2071431529796
 21
209.061926069299
 31
0.0
  0
LINE
  5
1467
330
1451
100
AcDbEntity
  8
BEM
 62
     0
370
    -2
100
AcDbLine
 10
242.1071431529797
 20
234.7528113538139
 30
0.0
 11
242.1071431529797
 21
209.061926069299
 31
0.0
  0
LINE
  5
1468
330
1451
100
AcDbEntity
  8
BEM
 62
     0
370
    -2
100
AcDbLine
 10
160.2071431529796
 20
211.061926069299
 30
0.0
 11
235.1071431529797
 21
211.061926069299
 31
0.0
  0
SOLID
  5
1469
330
1451
100
AcDbEntity
  8
BEM
 62
     0
100
AcDbTrace
 10
160.2071431529796
 20
212.2285927359657
 30
0.0
 11
160.2071431529796
 21
209.8952594026323
 31
0.0
 12
153.2071431529796
 22
211.061926069299
 32
0.0
 13
153.2071431529796
 23
211.061926069299
 33
0.0
  0
SOLID
  5
146A
330
1451
100
AcDbEntity
  8
BEM
 62
     0
100
AcDbTrace
 10
235.1071431529797
 20
212.2285927359657
 30
0.0
 11
235.1071431529797
 21
209.8952594026323
 31
0.0
 12
242.1071431529797
 22
211.061926069299
 32
0.0
 13
242.1071431529797
 23
211.061926069299
 33
0.0
  0
MTEXT
  5
146B
330
1451
100
AcDbEntity
  8
BEM
 62
     1
100
AcDbMText
 10
197.6571431529796
 20
217.561926069299
 30
0.0
 40
7.0
 41
0.0
 71
     5
 72
     1
  1
\A1;%%c88.9
 73
     1
 44
1.0
  0
POINT
  5
146C
330
1451
100
AcDbEntity
  8
DEFPOINTS
 62
     0
100
AcDbPoint
 10
153.2071431529796
 20
236.7528113538109
 30
0.0
  0
POINT
  5
146D
330
1451
100
AcDbEntity
  8
DEFPOINTS
 62
     0
100
AcDbPoint
 10
242.1071431529797
 20
236.7528113538139
 30
0.0
  0
POINT
  5
146E
330
1451
100
AcDbEntity
  8
DEFPOINTS
 62
     0
100
AcDbPoint
 10
242.1071431529797
 20
211.061926069299
 30
0.0
  0
ENDBLK
  5
145C
330
1451
100
AcDbEntity
  8
0
100
AcDbBlockEnd
  0
ENDSEC
  0
SECTION
  2
ENTITIES
  0
TEXT
  5
134
330
1E
100
AcDbEntity
  8
TEXT
100
AcDbText
 10
204.4216048581257
 20
63.0896391972351
 30
0.0
 40
4.0
  1
Koeh
 41
0.8
  7
GREEKS
 72
     1
 11
209.6787477152686
 21
63.0896391972351
 31
0.0
100
AcDbText
  0
INSERT
  5
135
330
1E
100
AcDbEntity
  8
STEMPEL
100
AcDbBlockReference
  2
LOGO
 10
150.9955485457794
 20
45.02105276448322
 30
0.0
 41
2.0
 42
2.0
 43
2.0
  0
LINE
  5
136
330
1E
100
AcDbEntity
  8
HILF
100
AcDbLine
 10
420.0
 20
0.0
 30
0.0
 11
0.0
 21
0.0
 31
0.0
  0
LINE
  5
137
330
1E
100
AcDbEntity
  8
HILF
100
AcDbLine
 10
419.9999999999999
 20
594.0000000000002
 30
0.0
 11
0.0
 21
594.0
 31
0.0
  0
LINE
  5
138
330
1E
100
AcDbEntity
  8
STEMPEL
100
AcDbLine
 10
410.0
 20
584.0
 30
0.0
 11
39.99999999999989
 21
584.0
 31
0.0
  0
LINE
  5
139
330
1E
100
AcDbEntity
  8
STEMPEL
100
AcDbLine
 10
410.0
 20
10.0
 30
0.0
 11
39.99999999999989
 21
10.0
 31
0.0
  0
LINE
  5
13A
330
1E
100
AcDbEntity
  8
STEMPEL
100
AcDbLine
 10
49.99999999999989
 20
10.0
 30
0.0
 11
410.0
 21
10.0
 31
0.0
  0
TEXT
  5
13B
330
1E
100
AcDbEntity
  8
TEXT
100
AcDbText
 10
202.4626584226295
 20
73.30961091915225
 30
0.0
 40
4.0
  1
Name
 41
0.8
  7
GREEKS
100
AcDbText
  0
TEXT
  5
13C
330
1E
100
AcDbEntity
  8
TEXT
100
AcDbText
 10
196.5498279101549
 20
102.6506227776589
 30
0.0
 40
5.0
  1
Zul. Abw.
 41
0.8
  7
GREEKS
 72
     4
 11
209.9783993387263
 21
105.1506227776589
 31
0.0
100
AcDbText
  0
LINE
  5
13D
330
1E
100
AcDbEntity
  8
HILF
100
AcDbLine
 10
146.0000000000001
 20
49.99999999999997
 30
0.0
 11
230.0
 21
49.99999999999997
 31
0.0
  0
LINE
  5
13E
330
1E
100
AcDbEntity
  8
HILF
100
AcDbLine
 10
146.0000000000001
 20
59.99999999999997
 30
0.0
 11
230.0
 21
59.99999999999997
 31
0.0
  0
LINE
  5
13F
330
1E
100
AcDbEntity
  8
HILF
100
AcDbLine
 10
146.0000000000001
 20
69.99999999999994
 30
0.0
 11
230.0
 21
69.99999999999994
 31
0.0
  0
LINE
  5
140
330
1E
100
AcDbEntity
  8
STEMPEL
100
AcDbLine
 10
410.0
 20
80.0
 30
0.0
 11
146.0000000000001
 21
79.99999999999994
 31
0.0
  0
LINE
  5
141
330
1E
100
AcDbEntity
  8
STEMPEL
100
AcDbLine
 10
410.0
 20
40.0
 30
0.0
 11
146.0000000000001
 21
39.99999999999997
 31
0.0
  0
LINE
  5
142
330
1E
100
AcDbEntity
  8
STEMPEL
100
AcDbLine
 10
410.0
 20
110.0
 30
0.0
 11
39.99999999999997
 21
110.0
 31
0.0
  0
LINE
  5
143
330
1E
100
AcDbEntity
  8
MITTEL
100
AcDbLine
 10
197.6571431529795
 20
371.8149373509183
 30
0.0
 11
197.6571431529796
 21
226.7528113538112
 31
0.0
  0
LINE
  5
144
330
1E
100
AcDbEntity
  8
HILF
100
AcDbLine
 10
0.0
 20
0.0
 30
0.0
 11
-0.0000000000001137
 21
594.0
 31
0.0
  0
LINE
  5
145
330
1E
100
AcDbEntity
  8
STEMPEL
100
AcDbLine
 10
40.0
 20
10.0
 30
0.0
 11
39.99999999999989
 21
584.0
 31
0.0
  0
LINE
  5
148
330
1E
100
AcDbEntity
  8
HILF
100
AcDbLine
 10
40.00000000000008
 20
39.99999999999997
 30
0.0
 11
146.0000000000001
 21
39.99999999999997
 31
0.0
  0
LINE
  5
149
330
1E
100
AcDbEntity
  8
HILF
100
AcDbLine
 10
40.00000000000008
 20
49.99999999999997
 30
0.0
 11
146.0000000000001
 21
49.99999999999997
 31
0.0
  0
LINE
  5
14A
330
1E
100
AcDbEntity
  8
HILF
100
AcDbLine
 10
40.00000000000008
 20
59.99999999999997
 30
0.0
 11
146.0000000000001
 21
59.99999999999997
 31
0.0
  0
LINE
  5
14B
330
1E
100
AcDbEntity
  8
HILF
100
AcDbLine
 10
40.00000000000008
 20
69.99999999999994
 30
0.0
 11
146.0000000000001
 21
69.99999999999994
 31
0.0
  0
LINE
  5
14C
330
1E
100
AcDbEntity
  8
HILF
100
AcDbLine
 10
40.00000000000008
 20
79.99999999999994
 30
0.0
 11
146.0000000000001
 21
79.99999999999994
 31
0.0
  0
LINE
  5
14D
330
1E
100
AcDbEntity
  8
HILF
100
AcDbLine
 10
40.00000000000008
 20
90.00000000000005
 30
0.0
 11
146.0000000000001
 21
90.00000000000005
 31
0.0
  0
LINE
  5
14E
330
1E
100
AcDbEntity
  8
HILF
100
AcDbLine
 10
40.00000000000008
 20
100.0
 30
0.0
 11
146.0000000000001
 21
100.0
 31
0.0
  0
LINE
  5
14F
330
1E
100
AcDbEntity
  8
STEMPEL
100
AcDbLine
 10
145.9999999999999
 20
29.99999999999997
 30
0.0
 11
39.99999999999997
 21
29.99999999999997
 31
0.0
  0
TEXT
  5
150
330
1E
100
AcDbEntity
  8
TEXT
100
AcDbText
 10
48.26641107045756
 20
13.65465846027192
 30
0.0
 40
4.0
  1
Index
 50
90.0
 41
0.8
  7
GREEKS
100
AcDbText
  0
LINE
  5
151
330
1E
100
AcDbEntity
  8
VOLL
100
AcDbLine
 10
54.00000000000009
 20
110.0
 30
0.0
 11
53.99999999999997
 21
9.999999999999971
 31
0.0
  0
LINE
  5
152
330
1E
100
AcDbEntity
  8
HILF
100
AcDbLine
 10
31.08767135713856
 20
297.0
 30
0.0
 11
0.0000000000001137
 21
297.0
 31
0.0
  0
LINE
  5
154
330
1E
100
AcDbEntity
  8
VOLL
100
AcDbLine
 10
124.0000000000001
 20
109.9999999999999
 30
0.0
 11
124.0
 21
9.999999999999971
 31
0.0
  0
LINE
  5
155
330
1E
100
AcDbEntity
  8
VOLL
100
AcDbLine
 10
104.0000000000001
 20
109.9999999999999
 30
0.0
 11
104.0
 21
9.999999999999971
 31
0.0
  0
LINE
  5
157
330
1E
100
AcDbEntity
  8
STEMPEL
100
AcDbLine
 10
146.0000000000001
 20
109.9999999999999
 30
0.0
 11
146.0
 21
9.999999999999971
 31
0.0
  0
TEXT
  5
159
330
1E
100
AcDbEntity
  8
TEXT
100
AcDbText
 10
172.331167315365
 20
73.31880501229926
 30
0.0
 40
4.0
  1
Tag
 41
0.8
  7
GREEKS
100
AcDbText
  0
TEXT
  5
15A
330
1E
100
AcDbEntity
  8
TEXT
100
AcDbText
 10
147.5836127167615
 20
63.62990369617964
 30
0.0
 40
4.0
  1
Gez.
 41
0.8
  7
GREEKS
100
AcDbText
  0
LINE
  5
15B
330
1E
100
AcDbEntity
  8
VOLL
100
AcDbLine
 10
164.0000000000001
 20
79.99999999999994
 30
0.0
 11
164.0000000000001
 21
39.99999999999997
 31
0.0
  0
TEXT
  5
15C
330
1E
100
AcDbEntity
  8
TEXT
100
AcDbText
 10
147.6006777387303
 20
43.52946389649807
 30
0.0
 40
4.0
  1
Norm.
 41
0.8
  7
GREEKS
100
AcDbText
  0
TEXT
  5
15D
330
1E
100
AcDbEntity
  8
TEXT
100
AcDbText
 10
147.5515086571672
 20
53.68926291428377
 30
0.0
 40
4.0
  1
Gepr.
 41
0.8
  7
GREEKS
100
AcDbText
  0
TEXT
  5
15E
330
1E
100
AcDbEntity
  8
TEXT
 62
     1
100
AcDbText
 10
160.5006306481887
 20
88.14901428913959
 30
0.0
 40
7.0
  1
1:2
 41
0.8
  7
GREEKS
100
AcDbText
  0
TEXT
  5
160
330
1E
100
AcDbEntity
  8
TEXT
100
AcDbText
 10
148.622109822104
 20
73.14025471151666
 30
0.0
 40
4.0
  1
2011
 41
0.8
  7
GREEKS
100
AcDbText
  0
LINE
  5
161
330
1E
100
AcDbEntity
  8
VOLL
100
AcDbLine
 10
190.0000000000001
 20
109.9999999999998
 30
0.0
 11
190.0
 21
39.99999999999997
 31
0.0
  0
LINE
  5
186
330
1E
100
AcDbEntity
  8
HILF
100
AcDbLine
 10
420.0
 20
-0.0000000000001137
 30
0.0
 11
419.9999999999999
 21
594.0
 31
0.0
  0
LINE
  5
187
330
1E
100
AcDbEntity
  8
STEMPEL
100
AcDbLine
 10
410.0
 20
10.0
 30
0.0
 11
410.0
 21
584.0
 31
0.0
  0
TEXT
  5
188
330
1E
100
AcDbEntity
  8
TEXT
100
AcDbText
 10
337.2400861497006
 20
52.07416177878602
 30
0.0
 40
5.0
  1
ersetzt durch:
 41
0.8
  7
GREEKS
100
AcDbText
  0
TEXT
  5
18A
330
1E
100
AcDbEntity
  8
TEXT
100
AcDbText
 10
336.178754957634
 20
102.3132034537136
 30
0.0
 40
5.0
  1
Zeichnungs Nr.
 41
0.8
  7
GREEKS
100
AcDbText
  0
LINE
  5
18B
330
1E
100
AcDbEntity
  8
HILF
100
AcDbLine
 10
233.4909699289885
 20
14.89398258028314
 30
0.0
 11
404.8588839326728
 21
14.89398258028314
 31
0.0
  0
LINE
  5
18C
330
1E
100
AcDbEntity
  8
HILF
100
AcDbLine
 10
336.7238616296993
 20
83.77983636955827
 30
0.0
 11
404.8588839326728
 21
83.77983636955827
 31
0.0
  0
LINE
  5
18D
330
1E
100
AcDbEntity
  8
VOLL
100
AcDbLine
 10
332.0
 20
60.0
 30
0.0
 11
410.0
 21
60.0
 31
0.0
  0
TEXT
  5
18E
330
1E
100
AcDbEntity
  8
TEXT
 62
     1
100
AcDbText
 10
234.9283864320014
 20
87.41748789253779
 30
0.0
 40
7.0
  1
Winkelbogen DN80 90°
 41
0.75
  7
GREEKS
100
AcDbText
  0
LINE
  5
18F
330
1E
100
AcDbEntity
  8
HILF
100
AcDbLine
 10
234.7736801096947
 20
49.99999999999997
 30
0.0
 11
324.835391655631
 21
49.99999999999997
 31
0.0
  0
LINE
  5
190
330
1E
100
AcDbEntity
  8
HILF
100
AcDbLine
 10
234.7736801096947
 20
59.99999999999997
 30
0.0
 11
324.835391655631
 21
59.99999999999997
 31
0.0
  0
LINE
  5
191
330
1E
100
AcDbEntity
  8
HILF
100
AcDbLine
 10
234.7736801096947
 20
69.99999999999994
 30
0.0
 11
324.835391655631
 21
69.99999999999994
 31
0.0
  0
LINE
  5
192
330
1E
100
AcDbEntity
  8
HILF
100
AcDbLine
 10
234.7736801096947
 20
84.03758247564139
 30
0.0
 11
324.8353916556311
 21
84.03758247564139
 31
0.0
  0
LINE
  5
193
330
1E
100
AcDbEntity
  8
STEMPEL
100
AcDbLine
 10
230.0
 20
110.0
 30
0.0
 11
230.0
 21
9.999999999999971
 31
0.0
  0
TEXT
  5
194
330
1E
100
AcDbEntity
  8
TEXT
100
AcDbText
 10
235.1296391125315
 20
71.50334417585288
 30
0.0
 40
5.0
  1
mit engem Radius
 41
0.8
  7
GREEKS
100
AcDbText
  0
TEXT
  5
195
330
1E
100
AcDbEntity
  8
TEXT
100
AcDbText
 10
234.9837501577827
 20
42.62974153022632
 30
0.0
 40
4.0
  1
5500080W.DWG
 41
0.8
  7
GREEKS
100
AcDbText
  0
TEXT
  5
196
330
1E
100
AcDbEntity
  8
TEXT
100
AcDbText
 10
234.742238391136
 20
30.84560570193057
 30
0.0
 40
5.0
  1
Bauvorhaben
 41
0.8
  7
GREEKS
100
AcDbText
  0
TEXT
  5
197
330
1E
100
AcDbEntity
  8
TEXT
100
AcDbText
 10
234.877940380901
 20
102.5489328011779
 30
0.0
 40
5.0
  1
Benennung
 41
0.8
  7
GREEKS
100
AcDbText
  0
LINE
  5
198
330
1E
100
AcDbEntity
  8
STEMPEL
100
AcDbLine
 10
332.0
 20
109.9999999999997
 30
0.0
 11
332.0
 21
40.0
 31
0.0
  0
TEXT
  5
19A
330
1E
100
AcDbEntity
  8
TEXT
 62
     1
100
AcDbText
 10
351.485440693835
 20
88.14901428913959
 30
0.0
 40
7.0
  1
5500080W
 41
0.8
  7
GREEKS
 72
     1
 11
372.8187740271684
 21
88.14901428913959
 31
0.0
100
AcDbText
  0
DIMENSION
  5
1DB
330
1E
100
AcDbEntity
  8
BEM
100
AcDbDimension
  2
*D1
 10
131.366730122944
 20
371.8149373509183
 30
0.0
 11
124.866730122944
 21
301.7838743523647
 31
0.0
 70
    32
  1
140
 71
     5
 42
140.0621259971074
  3
Standard
100
AcDbAlignedDimension
 13
153.5945864706091
 23
231.7528113538109
 33
0.0
 14
197.6571431529795
 24
371.8149373509183
 34
0.0
 50
90.0
100
AcDbRotatedDimension
1001
ACAD
1000
DSTYLE
1002
{
1070
    40
1040
2.0
1070
    41
1040
3.5
1070
    42
1040
1.0
1070
    43
1040
7.0
1070
    44
1040
1.0
1070
    73
1070
     0
1070
    74
1070
     0
1070
    77
1070
     1
1070
    78
1070
     8
1070
    79
1070
     2
1070
   140
1040
3.5
1070
   141
1040
1.5
1070
   146
1040
0.5142857142857144
1070
   147
1040
1.5
1070
   172
1070
     1
1070
   178
1070
     1
1070
   179
1070
     2
1070
   271
1070
     2
1070
   272
1070
     2
1070
   284
1070
     8
1070
   285
1070
     8
1070
   286
1070
     8
1002
}
  0
TEXT
  5
212
330
1E
100
AcDbEntity
  8
TEXT
100
AcDbText
 10
235.1296391125315
 20
51.50334417585291
 30
0.0
 40
5.0
  1
EDV-Art.Nr. 5.500.080C
 41
0.8
  7
GREEKS
100
AcDbText
  0
TEXT
  5
1122
330
1E
100
AcDbEntity
  8
TEXT
 62
     1
100
AcDbText
 10
297.0573649355706
 20
132.2248663682012
 30
0.0
 40
7.0
  1
Werkstoff: 1.4404
 41
0.8
  7
GREEKS
100
AcDbText
  0
DIMENSION
  5
1141
330
1E
100
AcDbEntity
  8
BEM
100
AcDbDimension
  2
*D2
 10
332.6571431529795
 20
449.2590411727788
 30
0.0
 11
265.1571431529795
 21
455.7590411727789
 31
0.0
 70
    32
 71
     5
 42
134.9999999999999
  3
Standard
100
AcDbAlignedDimension
 13
197.6571431529795
 23
371.8149373509183
 33
0.0
 14
332.6571431529795
 24
419.1747202696415
 34
0.0
 50
359.9999999999991
100
AcDbRotatedDimension
1001
ACAD
1000
DSTYLE
1002
{
1070
    40
1040
2.0
1070
    41
1040
3.5
1070
    42
1040
1.0
1070
    43
1040
7.0
1070
    44
1040
1.0
1070
    73
1070
     0
1070
    74
1070
     0
1070
    77
1070
     1
1070
    78
1070
     8
1070
    79
1070
     2
1070
   140
1040
3.5
1070
   141
1040
1.5
1070
   146
1040
0.5142857142857144
1070
   147
1040
1.5
1070
   172
1070
     1
1070
   178
1070
     1
1070
   179
1070
     2
1070
   271
1070
     2
1070
   272
1070
     2
1070
   284
1070
     8
1070
   285
1070
     8
1070
   286
1070
     8
1002
}
  0
LINE
  5
114A
330
1E
100
AcDbEntity
  8
MITTEL
100
AcDbLine
 10
337.6571431529796
 20
371.8149373509183
 30
0.0
 11
197.6571431529795
 21
371.8149373509183
 31
0.0
  0
LINE
  5
11E1
330
1E
100
AcDbEntity
  8
STEMPEL
100
AcDbLine
 10
214.3925365631099
 20
416.2649373509184
 30
0.0
 11
251.2161222580779
 21
327.3649373509185
 31
0.0
  0
ARC
  5
11E5
330
1E
100
AcDbEntity
  8
SCHRAFF
100
AcDbCircle
 10
218.6234330517404
 20
406.0506496670695
 30
0.0
 40
5.0
100
AcDbArc
 50
262.5000000000002
 51
322.5000000000002
  0
ARC
  5
11E6
330
1E
100
AcDbEntity
  8
SCHRAFF
100
AcDbCircle
 10
220.5368502135659
 20
401.4312520045131
 30
0.0
 40
5.0
100
AcDbArc
 50
262.5000000000002
 51
322.5000000000002
  0
ARC
  5
11E7
330
1E
100
AcDbEntity
  8
SCHRAFF
100
AcDbCircle
 10
216.7100158899149
 20
410.6700473296259
 30
0.0
 40
5.0
100
AcDbArc
 50
262.5000000000023
 51
322.5000000000022
  0
ARC
  5
11E8
330
1E
100
AcDbEntity
  8
SCHRAFF
100
AcDbCircle
 10
222.4502673753914
 20
396.8118543419567
 30
0.0
 40
5.0
100
AcDbArc
 50
262.5000000000002
 51
322.5000000000002
  0
ARC
  5
11E9
330
1E
100
AcDbEntity
  8
SCHRAFF
100
AcDbCircle
 10
224.3636845372168
 20
392.1924566794004
 30
0.0
 40
5.0
100
AcDbArc
 50
262.5000000000002
 51
322.5000000000002
  0
ARC
  5
11EA
330
1E
100
AcDbEntity
  8
SCHRAFF
100
AcDbCircle
 10
226.2771016990423
 20
387.5730590168439
 30
0.0
 40
5.0
100
AcDbArc
 50
262.5000000000002
 51
322.5000000000002
  0
ARC
  5
11EB
330
1E
100
AcDbEntity
  8
SCHRAFF
100
AcDbCircle
 10
228.1905188608677
 20
382.9536613542874
 30
0.0
 40
5.0
100
AcDbArc
 50
262.5000000000002
 51
322.5000000000002
  0
ARC
  5
11EC
330
1E
100
AcDbEntity
  8
SCHRAFF
100
AcDbCircle
 10
230.1039360226931
 20
378.3342636917309
 30
0.0
 40
5.0
100
AcDbArc
 50
262.5000000000002
 51
322.5000000000002
  0
ARC
  5
11ED
330
1E
100
AcDbEntity
  8
SCHRAFF
100
AcDbCircle
 10
232.0173531845186
 20
373.7148660291745
 30
0.0
 40
5.0
100
AcDbArc
 50
262.5000000000002
 51
322.5000000000002
  0
ARC
  5
11EE
330
1E
100
AcDbEntity
  8
SCHRAFF
100
AcDbCircle
 10
245.4112733172966
 20
341.3790823912793
 30
0.0
 40
5.0
100
AcDbArc
 50
262.5000000000002
 51
322.5000000000002
  0
ARC
  5
11EF
330
1E
100
AcDbEntity
  8
SCHRAFF
100
AcDbCircle
 10
237.7576046699949
 20
359.8566730415052
 30
0.0
 40
5.0
100
AcDbArc
 50
262.5000000000002
 51
322.5000000000002
  0
ARC
  5
11F0
330
1E
100
AcDbEntity
  8
SCHRAFF
100
AcDbCircle
 10
235.8441875081694
 20
364.4760707040617
 30
0.0
 40
5.0
100
AcDbArc
 50
262.5000000000002
 51
322.5000000000002
  0
ARC
  5
11F1
330
1E
100
AcDbEntity
  8
SCHRAFF
100
AcDbCircle
 10
241.5844389936457
 20
350.6178777163923
 30
0.0
 40
5.0
100
AcDbArc
 50
262.5000000000002
 51
322.5000000000002
  0
ARC
  5
11F2
330
1E
100
AcDbEntity
  8
SCHRAFF
100
AcDbCircle
 10
239.6710218318203
 20
355.2372753789488
 30
0.0
 40
5.0
100
AcDbArc
 50
262.5000000000002
 51
322.5000000000002
  0
ARC
  5
11F3
330
1E
100
AcDbEntity
  8
SCHRAFF
100
AcDbCircle
 10
243.4978561554712
 20
345.9984800538358
 30
0.0
 40
5.0
100
AcDbArc
 50
262.5000000000002
 51
322.5000000000002
  0
ARC
  5
11F4
330
1E
100
AcDbEntity
  8
SCHRAFF
100
AcDbCircle
 10
247.3246904791221
 20
336.7596847287229
 30
0.0
 40
5.0
100
AcDbArc
 50
262.5000000000002
 51
322.5000000000002
  0
ARC
  5
11F5
330
1E
100
AcDbEntity
  8
SCHRAFF
100
AcDbCircle
 10
233.930770346344
 20
369.0954683666181
 30
0.0
 40
5.0
100
AcDbArc
 50
262.5000000000002
 51
322.5000000000002
  0
ARC
  5
11F7
102
{ACAD_REACTORS
330
1503
102
}
330
1E
100
AcDbEntity
  8
SCHRAFF
100
AcDbCircle
 10
214.8903207132588
 20
415.0631801044928
 30
0.0
 40
2.804477762408662
100
AcDbArc
 50
25.37327508344125
 51
199.6267249165621
  0
ARC
  5
11FD
102
{ACAD_REACTORS
330
1503
102
}
330
1E
100
AcDbEntity
  8
SCHRAFF
100
AcDbCircle
 10
251.0192119708553
 20
327.8403208369019
 30
0.0
 40
3.200744900272148
100
AcDbArc
 50
233.5413283891593
 51
351.458671610845
  0
TEXT
  5
1201
330
1E
100
AcDbEntity
  8
TEXT
100
AcDbText
 10
235.1296391125315
 20
61.50334417585291
 30
0.0
 40
5.0
  1
dünnwandig
 41
0.8
  7
GREEKS
100
AcDbText
  0
DIMENSION
  5
1240
330
1E
100
AcDbEntity
  8
BEM
100
AcDbDimension
  2
*D3
 10
197.6571431529796
 20
226.7528113538112
 30
0.0
 11
236.501119108279
 21
421.0314149392117
 31
0.0
 70
   162
 71
     5
 42
1.570796326794895
  3
Standard
100
AcDb2LineAngularDimension
 13
327.7192691500868
 23
371.8149373509183
 33
0.0
 14
197.6571431529795
 24
371.8149373509183
 34
0.0
 15
197.6571431529795
 25
371.8149373509183
 35
0.0
 16
251.9557352218459
 26
403.164244098496
 36
0.0
1001
ACAD
1000
DSTYLE
1002
{
1070
    40
1040
2.0
1070
    41
1040
3.5
1070
    42
1040
1.0
1070
    43
1040
7.0
1070
    44
1040
1.0
1070
    73
1070
     0
1070
    74
1070
     0
1070
    77
1070
     1
1070
    78
1070
     8
1070
    79
1070
     2
1070
   140
1040
3.5
1070
   141
1040
1.5
1070
   146
1040
0.5142857142857144
1070
   147
1040
1.5
1070
   172
1070
     1
1070
   178
1070
     1
1070
   179
1070
     2
1070
   271
1070
     2
1070
   272
1070
     2
1070
   284
1070
     8
1070
   285
1070
     8
1070
   286
1070
     8
1002
}
  0
TEXT
  5
1285
330
1E
100
AcDbEntity
  8
BEM
100
AcDbText
 10
416.5811541437436
 20
12.14804815338303
 30
0.0
 40
4.0
  1
Diese Zeichnung ist urheberrechtlich geschützt und bleibt unser Eigentum. Sie darf weder ganz noch teilweise vervielfältigt und nicht an Dritte weitergegeben werden.
 50
90.0
 41
0.8
  7
GREEKS
100
AcDbText
  0
TEXT
  5
1286
330
1E
100
AcDbEntity
  8
TEXT
100
AcDbText
 10
336.7238616296993
 20
73.1811823709997
 30
0.0
 40
5.0
  1
Ersatz für:
 41
0.8
  7
GREEKS
100
AcDbText
  0
TEXT
  5
1287
330
1E
100
AcDbEntity
  8
TEXT
100
AcDbText
 10
192.6882715247924
 20
89.50150693558043
 30
0.0
 40
4.0
  1
DIN EN1124-3
 41
0.8
  7
GREEKS
 72
     1
 11
209.6787477152686
 21
89.50150693558043
 31
0.0
100
AcDbText
  0
TEXT
  5
1288
330
1E
100
AcDbEntity
  8
TEXT
100
AcDbText
 10
153.5163572150377
 20
102.4620895087088
 30
0.0
 40
5.0
  1
Maßstab
 41
0.8
  7
GREEKS
100
AcDbText
  0
TEXT
  5
1289
330
1E
100
AcDbEntity
  8
TEXT
100
AcDbText
 10
41.85509950977674
 20
111.6719999999999
 30
0.0
 40
5.0
  1
Erstellt mit AUTOCAD 2004
 41
0.8
  7
GREEKS
100
AcDbText
  0
TEXT
  5
128A
330
1E
100
AcDbEntity
  8
TEXT
100
AcDbText
 10
129.3020371565846
 20
18.59324216966408
 30
0.0
 40
4.0
  1
Name
 41
0.8
  7
GREEKS
 72
     1
 11
135.6258466803941
 21
18.59324216966408
 31
0.0
100
AcDbText
  0
TEXT
  5
128B
330
1E
100
AcDbEntity
  8
TEXT
100
AcDbText
 10
110.2468354498985
 20
18.6715626933981
 30
0.0
 40
4.0
  1
Tag
 41
0.8
  7
GREEKS
 72
     1
 11
113.9801687832318
 21
18.6715626933981
 31
0.0
100
AcDbText
  0
TEXT
  5
128C
330
1E
100
AcDbEntity
  8
TEXT
100
AcDbText
 10
66.72469466776535
 20
18.67381894984132
 30
0.0
 40
4.0
  1
Änderung
 41
0.8
  7
GREEKS
 72
     1
 11
77.46755181062249
 21
18.67381894984132
 31
0.0
100
AcDbText
  0
LINE
  5
1421
330
1E
100
AcDbEntity
  8
STEMPEL
100
AcDbLine
 10
241.66969983535
 20
231.7528113538111
 30
0.0
 11
153.6445864706093
 21
231.7528113538109
 31
0.0
  0
LINE
  5
1422
330
1E
100
AcDbEntity
  8
HILF
100
AcDbLine
 10
240.9025593479275
 20
236.7528113538111
 30
0.0
 11
154.4117269580317
 21
236.7528113538109
 31
0.0
  0
DIMENSION
  5
1423
330
1E
100
AcDbEntity
  8
BEM
100
AcDbDimension
  2
*D5
 10
242.1071431529797
 20
211.061926069299
 30
0.0
 11
197.6571431529796
 21
217.561926069299
 31
0.0
 70
    32
  1
%%c<>
 71
     5
 42
88.90000000000009
  3
Standard
100
AcDbAlignedDimension
 13
153.2071431529796
 23
236.7528113538109
 33
0.0
 14
242.1071431529797
 24
236.7528113538139
 34
0.0
100
AcDbRotatedDimension
1001
ACAD
1000
DSTYLE
1002
{
1070
    40
1040
2.0
1070
    41
1040
3.5
1070
    42
1040
1.0
1070
    43
1040
7.0
1070
    44
1040
1.0
1070
    73
1070
     0
1070
    74
1070
     0
1070
    77
1070
     1
1070
    78
1070
     8
1070
    79
1070
     2
1070
   140
1040
3.5
1070
   141
1040
1.5
1070
   146
1040
0.5
1070
   147
1040
1.5
1070
   172
1070
     1
1070
   178
1070
     1
1070
   179
1070
     2
1070
   271
1070
     2
1070
   272
1070
     2
1070
   284
1070
     8
1070
   285
1070
     8
1070
   286
1070
     8
1002
}
  0
LINE
  5
1424
330
1E
100
AcDbEntity
  8
STEMPEL
100
AcDbLine
 10
153.2071431529796
 20
236.7528113538109
 30
0.0
 11
153.6445864706093
 21
231.7528113538109
 31
0.0
  0
LINE
  5
1442
330
1E
100
AcDbEntity
  8
STEMPEL
100
AcDbLine
 10
242.1071431529797
 20
236.7528113538139
 30
0.0
 11
241.66969983535
 21
231.7528113538111
 31
0.0
  0
LINE
  5
1443
102
{ACAD_REACTORS
330
1503
102
}
330
1E
100
AcDbEntity
  8
STEMPEL
100
AcDbLine
 10
242.1071431529796
 20
318.25595824582
 30
0.0
 11
242.1071431529797
 21
236.7528113538139
 31
0.0
  0
LINE
  5
1444
102
{ACAD_REACTORS
330
1503
102
}
330
1E
100
AcDbEntity
  8
STEMPEL
100
AcDbLine
 10
153.2071431529795
 20
355.0795439407882
 30
0.0
 11
153.2071431529796
 21
236.7528113538109
 31
0.0
  0
LINE
  5
148A
102
{ACAD_REACTORS
330
1503
102
}
330
1E
100
AcDbEntity
  8
STEMPEL
100
AcDbLine
 10
267.8074008917867
 20
416.2649373509183
 30
0.0
 11
214.3925365631095
 21
416.264937350918
 31
0.0
  0
LINE
  5
148C
102
{ACAD_REACTORS
330
1503
102
}
330
1E
100
AcDbEntity
  8
STEMPEL
100
AcDbLine
 10
267.8074008917868
 20
327.3649373509185
 30
0.0
 11
251.2161222580781
 21
327.3649373509185
 31
0.0
  0
ARC
  5
148D
330
1E
100
AcDbEntity
  8
STEMPEL
100
AcDbCircle
 10
296.8716151479055
 20
311.1649373509185
 30
0.0
 40
13.6
100
AcDbArc
 50
65.14949765977128
 51
89.99999999999998
  0
ARC
  5
148E
330
1E
100
AcDbEntity
  8
STEMPEL
100
AcDbCircle
 10
296.8716151479055
 20
432.4649373509181
 30
0.0
 40
13.6
100
AcDbArc
 50
270.0
 51
294.8505023402287
  0
LINE
  5
148F
330
1E
100
AcDbEntity
  8
HILF
100
AcDbLine
 10
270.1074008917867
 20
328.3074222535444
 30
0.0
 11
270.1074008917867
 21
415.322452448292
 31
0.0
  0
LINE
  5
1490
330
1E
100
AcDbEntity
  8
HILF
100
AcDbLine
 10
274.977157591926
 20
326.3774451731994
 30
0.0
 11
274.977157591926
 21
417.2524295286372
 31
0.0
  0
LINE
  5
1491
330
1E
100
AcDbEntity
  8
HILF
100
AcDbLine
 10
299.7978692317067
 20
325.6727641019185
 30
0.0
 11
299.7978692317067
 21
417.9571105999182
 31
0.0
  0
ARC
  5
1492
330
1E
100
AcDbEntity
  8
STEMPEL
100
AcDbCircle
 10
277.8771575919259
 20
407.2649373509181
 30
0.0
 40
11.6
100
AcDbArc
 50
89.99999999999998
 51
118.9550243718593
  0
ARC
  5
1493
330
1E
100
AcDbEntity
  8
STEMPEL
100
AcDbCircle
 10
267.8074008917868
 20
425.4649373509182
 30
0.0
 40
9.200000000000001
100
AcDbArc
 50
270.0
 51
298.9550243718593
  0
LINE
  5
1494
330
1E
100
AcDbEntity
  8
STEMPEL
100
AcDbLine
 10
296.8716151479054
 20
418.8649373509183
 30
0.0
 11
277.8771575919258
 21
418.8649373509183
 31
0.0
  0
ARC
  5
1495
330
1E
100
AcDbEntity
  8
STEMPEL
100
AcDbCircle
 10
277.8771575919259
 20
336.3649373509185
 30
0.0
 40
11.6
100
AcDbArc
 50
241.0449756281406
 51
270.0
  0
ARC
  5
1496
330
1E
100
AcDbEntity
  8
STEMPEL
100
AcDbCircle
 10
267.8074008917868
 20
318.1649373509182
 30
0.0
 40
9.200000000000001
100
AcDbArc
 50
61.0449756281406
 51
89.99999999999998
  0
LINE
  5
1497
330
1E
100
AcDbEntity
  8
STEMPEL
100
AcDbLine
 10
296.8716151479055
 20
324.7649373509184
 30
0.0
 11
277.8771575919259
 21
324.7649373509184
 31
0.0
  0
LINE
  5
1498
330
1E
100
AcDbEntity
  8
STEMPEL
100
AcDbLine
 10
332.6571431529796
 20
324.5630235629418
 30
0.0
 11
332.6571431529796
 21
419.0668511388948
 31
0.0
  0
ARC
  5
1499
330
1E
100
AcDbEntity
  8
STEMPEL
100
AcDbCircle
 10
320.4608322353292
 20
398.1649373509183
 30
0.0
 40
24.2
100
AcDbArc
 50
59.7363480579037
 51
89.99999999999998
  0
ARC
  5
149A
330
1E
100
AcDbEntity
  8
STEMPEL
100
AcDbCircle
 10
312.7571431529797
 20
398.1649373509183
 30
0.0
 40
24.2
100
AcDbArc
 50
89.99999999999998
 51
114.8505023402287
  0
LINE
  5
149B
330
1E
100
AcDbEntity
  8
STEMPEL
100
AcDbLine
 10
320.4608322353292
 20
422.3649373509182
 30
0.0
 11
312.7571431529797
 21
422.3649373509182
 31
0.0
  0
TEXT
  5
149C
330
1E
100
AcDbEntity
  8
TEXT
 62
     1
100
AcDbText
 10
307.0851762584193
 20
388.8917853929358
 30
0.0
 40
7.0
  1
DN80
 41
0.8
  7
GREEKS
100
AcDbText
  0
ARC
  5
149D
330
1E
100
AcDbEntity
  8
STEMPEL
100
AcDbCircle
 10
320.4608322353292
 20
345.4649373509184
 30
0.0
 40
24.2
100
AcDbArc
 50
270.0
 51
300.2636519420962
  0
ARC
  5
149E
330
1E
100
AcDbEntity
  8
STEMPEL
100
AcDbCircle
 10
312.7571431529797
 20
345.4649373509184
 30
0.0
 40
24.2
100
AcDbArc
 50
245.1494976597713
 51
270.0
  0
LINE
  5
149F
330
1E
100
AcDbEntity
  8
STEMPEL
100
AcDbLine
 10
320.4608322353292
 20
321.2649373509184
 30
0.0
 11
312.7571431529797
 21
321.2649373509184
 31
0.0
  0
TEXT
  5
14CB
330
1E
100
AcDbEntity
  8
TEXT
100
AcDbText
 10
171.0085209177598
 20
63.10765040825732
 30
0.0
 40
4.0
  1
11.04.
 41
0.8
  7
GREEKS
 72
     1
 11
177.4085209177598
 21
63.10765040825732
 31
0.0
100
AcDbText
  0
LINE
  5
14D6
330
1E
100
AcDbEntity
  8
MITTEL
100
AcDbLine
 10
232.8043294105938
 20
371.8149373509183
 30
0.0
 11
197.6571431529795
 21
336.6677510933041
 31
0.0
  0
LINE
  5
14D7
330
1E
100
AcDbEntity
  8
STEMPEL
100
AcDbLine
 10
153.2071431529794
 20
355.079543940788
 30
0.0
 11
242.1071431529796
 21
318.2559582458201
 31
0.0
  0
ARC
  5
14D8
330
1E
100
AcDbEntity
  8
SCHRAFF
100
AcDbCircle
 10
218.8542027875058
 20
327.8876415102522
 30
0.0
 40
5.0
100
AcDbArc
 50
307.4999999999998
 51
7.499999999999837
  0
ARC
  5
14D9
330
1E
100
AcDbEntity
  8
SCHRAFF
100
AcDbCircle
 10
214.2348051249493
 20
329.8010586720777
 30
0.0
 40
5.0
100
AcDbArc
 50
307.4999999999998
 51
7.499999999999837
  0
ARC
  5
14DA
330
1E
100
AcDbEntity
  8
SCHRAFF
100
AcDbCircle
 10
177.2796238244976
 20
345.1083959666811
 30
0.0
 40
5.0
100
AcDbArc
 50
307.4999999999998
 51
7.499999999999837
  0
ARC
  5
14DB
330
1E
100
AcDbEntity
  8
SCHRAFF
100
AcDbCircle
 10
181.8990214870541
 20
343.1949788048557
 30
0.0
 40
5.0
100
AcDbArc
 50
307.4999999999998
 51
7.499999999999837
  0
ARC
  5
14DC
330
1E
100
AcDbEntity
  8
SCHRAFF
100
AcDbCircle
 10
200.3766121372799
 20
335.5413101575539
 30
0.0
 40
5.0
100
AcDbArc
 50
307.4999999999998
 51
7.499999999999837
  0
ARC
  5
14DD
330
1E
100
AcDbEntity
  8
SCHRAFF
100
AcDbCircle
 10
209.6154074623929
 20
331.7144758339031
 30
0.0
 40
5.0
100
AcDbArc
 50
307.4999999999998
 51
7.499999999999837
  0
ARC
  5
14DE
330
1E
100
AcDbEntity
  8
SCHRAFF
100
AcDbCircle
 10
204.9960097998364
 20
333.6278929957285
 30
0.0
 40
5.0
100
AcDbArc
 50
307.4999999999998
 51
7.499999999999837
  0
ARC
  5
14DF
330
1E
100
AcDbEntity
  8
SCHRAFF
100
AcDbCircle
 10
195.7572144747236
 20
337.4547273193793
 30
0.0
 40
5.0
100
AcDbArc
 50
307.4999999999998
 51
7.499999999999837
  0
ARC
  5
14E0
330
1E
100
AcDbEntity
  8
SCHRAFF
100
AcDbCircle
 10
186.5184191496106
 20
341.2815616430303
 30
0.0
 40
5.0
100
AcDbArc
 50
307.4999999999998
 51
7.499999999999837
  0
ARC
  5
14E1
330
1E
100
AcDbEntity
  8
SCHRAFF
100
AcDbCircle
 10
191.1378168121671
 20
339.3681444812048
 30
0.0
 40
5.0
100
AcDbArc
 50
307.4999999999998
 51
7.499999999999837
  0
ARC
  5
14E3
102
{ACAD_REACTORS
330
1503
102
}
330
1E
100
AcDbEntity
  8
SCHRAFF
100
AcDbCircle
 10
241.6317596669961
 20
318.4528685330427
 30
0.0
 40
3.200744900272148
100
AcDbArc
 50
278.541328389158
 51
36.45867161083964
  0
ARC
  5
14E4
330
1E
100
AcDbEntity
  8
SCHRAFF
100
AcDbCircle
 10
232.7123957751751
 20
322.1473900247759
 30
0.0
 40
5.0
100
AcDbArc
 50
307.4999999999998
 51
7.499999999999837
  0
ARC
  5
14E5
330
1E
100
AcDbEntity
  8
SCHRAFF
100
AcDbCircle
 10
228.0929981126187
 20
324.0608071866014
 30
0.0
 40
5.0
100
AcDbArc
 50
307.4999999999998
 51
7.499999999999837
  0
ARC
  5
14E6
330
1E
100
AcDbEntity
  8
SCHRAFF
100
AcDbCircle
 10
223.4736004500622
 20
325.9742243484268
 30
0.0
 40
5.0
100
AcDbArc
 50
307.4999999999998
 51
7.499999999999837
  0
ARC
  5
14E7
330
1E
100
AcDbEntity
  8
SCHRAFF
100
AcDbCircle
 10
172.6602261619413
 20
347.0218131285066
 30
0.0
 40
5.0
100
AcDbArc
 50
307.4999999999998
 51
7.499999999999837
  0
ARC
  5
14E8
330
1E
100
AcDbEntity
  8
SCHRAFF
100
AcDbCircle
 10
163.4214308368284
 20
350.8486474521575
 30
0.0
 40
5.0
100
AcDbArc
 50
307.4999999999998
 51
7.499999999999837
  0
ARC
  5
14E9
330
1E
100
AcDbEntity
  8
SCHRAFF
100
AcDbCircle
 10
158.8020331742721
 20
352.7620646139831
 30
0.0
 40
5.0
100
AcDbArc
 50
307.4999999999978
 51
7.499999999997801
  0
ARC
  5
14EB
330
1E
100
AcDbEntity
  8
SCHRAFF
100
AcDbCircle
 10
168.0408284993848
 20
348.935230290332
 30
0.0
 40
5.0
100
AcDbArc
 50
307.4999999999998
 51
7.499999999999837
  0
LINE
  5
14EC
102
{ACAD_REACTORS
330
1503
102
}
330
1E
100
AcDbEntity
  8
STEMPEL
100
AcDbLine
 10
214.3925365631099
 20
416.2649373509185
 30
0.0
 11
153.2071431529794
 21
355.079543940788
 31
0.0
  0
LINE
  5
14ED
102
{ACAD_REACTORS
330
1503
102
}
330
1E
100
AcDbEntity
  8
STEMPEL
100
AcDbLine
 10
251.2161222580781
 20
327.3649373509185
 30
0.0
 11
242.1071431529796
 21
318.2559582458201
 31
0.0
  0
ARC
  5
14EE
330
1E
100
AcDbEntity
  8
SCHRAFF
100
AcDbCircle
 10
214.7965987280896
 20
415.2894449921824
 30
0.0
 40
5.0
100
AcDbArc
 50
262.5000000000002
 51
322.5000000000002
  0
ARC
  5
14F1
102
{ACAD_REACTORS
330
1503
102
}
330
1E
100
AcDbEntity
  8
SCHRAFF
100
AcDbCircle
 10
154.408900399405
 20
354.5817597906391
 30
0.0
 40
2.804477762408662
100
AcDbArc
 50
70.37327508343792
 51
244.6267249165588
  0
ARC
  5
14F2
330
1E
100
AcDbEntity
  8
SCHRAFF
100
AcDbCircle
 10
154.1826355117155
 20
354.6754817758083
 30
0.0
 40
5.0
100
AcDbArc
 50
307.4999999999998
 51
7.499999999999837
  0
HATCH
  5
1503
330
1E
100
AcDbEntity
  8
SCHRAFF
100
AcDbHatch
 10
0.0
 20
0.0
 30
0.0
210
0.0
220
0.0
230
1.0
  2
_USER
 70
     0
 71
     1
 91
        4
 92
        7
 72
     1
 73
     1
 93
        3
 10
212.2487806324185
 20
414.1211814202271
 42
0.0
 10
214.3925365631095
 20
416.264937350918
 42
0.0
 10
217.4242652747103
 20
416.264937350918
 42
0.951068544530573
 97
        3
330
14EC
330
148A
330
11F7
 92
        7
 72
     1
 73
     1
 93
        3
 10
153.2071431529795
 20
352.0478152291878
 42
0.0
 10
153.2071431529795
 20
355.0795439407882
 42
0.0
 10
155.3508990836709
 20
357.2232998714795
 42
0.9510685445306446
 97
        3
330
14F1
330
1444
330
14EC
 92
        7
 72
     1
 73
     1
 93
        3
 10
249.1171923692506
 20
325.2660074620911
 42
0.5652967707833785
 10
254.1844573733276
 20
327.3649373509185
 42
0.0
 10
251.2161222580781
 20
327.3649373509186
 42
0.0
 97
        3
330
148C
330
14ED
330
11FD
 92
        7
 72
     1
 73
     1
 93
        3
 10
244.2060730418069
 20
320.3548881346474
 42
0.0
 10
242.1071431529797
 20
318.2559582458201
 42
0.0
 10
242.1071431529797
 20
315.2876231305703
 42
0.5652967707833625
 97
        3
330
14ED
330
1443
330
14E3
 75
     0
 76
     0
 52
0.0
 41
0.1
 77
     0
 78
     1
 53
0.0
 43
0.0
 44
0.0
 45
0.0
 46
0.1
 79
     0
 47
0.2265880105019352
 98
        4
 10
213.7962933050808
 20
416.9521427134334
 10
152.354946647983
 20
355.5467914453191
 10
251.2052327831729
 20
326.0903500562206
 10
243.7234453065516
 20
318.1597696290357
  0
ENDSEC
  0
SECTION
  2
OBJECTS
  0
DICTIONARY
  5
C
330
0
100
AcDbDictionary
281
     1
  3
ACAD_COLOR
350
1277
  3
ACAD_GROUP
350
D
  3
ACAD_LAYOUT
350
19
  3
ACAD_MATERIAL
350
1276
  3
ACAD_MLINESTYLE
350
16
  3
ACAD_PLOTSETTINGS
350
18
  3
ACAD_PLOTSTYLENAME
350
E
  3
AcDbVariableDictionary
350
246
  0
DICTIONARY
  5
1277
102
{ACAD_REACTORS
330
C
102
}
330
C
100
AcDbDictionary
281
     1
  0
DICTIONARY
  5
D
102
{ACAD_REACTORS
330
C
102
}
330
C
100
AcDbDictionary
281
     1
  0
DICTIONARY
  5
19
102
{ACAD_REACTORS
330
C
102
}
330
C
100
AcDbDictionary
281
     1
  3
Layout1
350
1D
  3
Model
350
21
  0
DICTIONARY
  5
1276
102
{ACAD_REACTORS
330
C
102
}
330
C
100
AcDbDictionary
281
     1
  0
DICTIONARY
  5
16
102
{ACAD_REACTORS
330
C
102
}
330
C
100
AcDbDictionary
281
     1
  3
Standard
350
17
  0
DICTIONARY
  5
18
102
{ACAD_REACTORS
330
C
102
}
330
C
100
AcDbDictionary
281
     1
  0
ACDBDICTIONARYWDFLT
  5
E
102
{ACAD_REACTORS
330
C
102
}
330
C
100
AcDbDictionary
281
     1
  3
Normal
350
F
100
AcDbDictionaryWithDefault
340
F
  0
DICTIONARY
  5
246
102
{ACAD_REACTORS
330
C
102
}
330
C
100
AcDbDictionary
281
     1
  3
DIMASSOC
350
14B0
  3
PROJECTNAME
350
14B1
  3
SORTENTS
350
247
  0
LAYOUT
  5
1D
102
{ACAD_REACTORS
330
19
102
}
330
19
100
AcDbPlotSettings
  1

  2
Tektronix Phaser 740
  4

  6

 40
0.0
 41
0.0
 42
0.0
 43
0.0
 44
0.0
 45
0.0
 46
0.0
 47
0.0
 48
0.0
 49
0.0
140
0.0
141
0.0
142
1.0
143
1.0
 70
   688
 72
     0
 73
     0
 74
     5
  7
monochrome.ctb
 75
    16
147
1.0
 76
     0
 77
     2
 78
   300
148
0.0
149
0.0
100
AcDbLayout
  1
Layout1
 70
     0
 71
     1
 10
0.0
 20
0.0
 11
12.0
 21
9.0
 12
0.0
 22
0.0
 32
0.0
 14
1.000000000000000E+20
 24
1.000000000000000E+20
 34
1.000000000000000E+20
 15
-1.000000000000000E+20
 25
-1.000000000000000E+20
 35
-1.000000000000000E+20
146
0.0
 13
0.0
 23
0.0
 33
0.0
 16
1.0
 26
0.0
 36
0.0
 17
0.0
 27
1.0
 37
0.0
 76
     0
330
1A
  0
LAYOUT
  5
21
102
{ACAD_REACTORS
330
19
102
}
330
19
100
AcDbPlotSettings
  1

  2
Tektronix Phaser 740
  4
A4
  6

 40
5.873749732971191
 41
6.085414409637451
 42
5.577407836914062
 43
5.662078857421875
 44
209.9733276367187
 45
296.9683227539062
 46
0.0
 47
0.0
 48
0.0
 49
0.0
140
0.0
141
0.0
142
1.0
143
1.0
 70
 11952
 72
     0
 73
     1
 74
     0
  7
monochrome.ctb
 75
     0
147
1.0
 76
     0
 77
     2
 78
   300
148
1150.120678237584
149
45.30495740799864
100
AcDbLayout
  1
Model
 70
     1
 71
     0
 10
0.0
 20
0.0
 11
12.0
 21
9.0
 12
0.0
 22
0.0
 32
0.0
 14
0.0
 24
0.0
 34
0.0
 15
0.0
 25
0.0
 35
0.0
146
0.0
 13
0.0
 23
0.0
 33
0.0
 16
1.0
 26
0.0
 36
0.0
 17
0.0
 27
1.0
 37
0.0
 76
     0
330
1E
  0
MLINESTYLE
  5
17
102
{ACAD_REACTORS
330
16
102
}
330
16
100
AcDbMlineStyle
  2
STANDARD
 70
     0
  3

 62
   256
 51
90.0
 52
90.0
 71
     2
 49
0.5
 62
   256
  6
BYLAYER
 49
-0.5
 62
   256
  6
BYLAYER
  0
ACDBPLACEHOLDER
  5
F
102
{ACAD_REACTORS
330
E
102
}
330
E
  0
DICTIONARYVAR
  5
14B0
102
{ACAD_REACTORS
330
246
102
}
330
246
100
DictionaryVariables
280
     0
  1
1
  0
DICTIONARYVAR
  5
14B1
102
{ACAD_REACTORS
330
246
102
}
330
246
100
DictionaryVariables
280
     0
  1

  0
DICTIONARYVAR
  5
247
102
{ACAD_REACTORS
330
246
102
}
330
246
100
DictionaryVariables
280
     0
  1
96
  0
ENDSEC
  0
EOF
