  0
SECTION
  2
HEADER
  9
$ACADVER
  1
AC1018
  9
$ACADMAINTVER
 70
     2
  9
$DWGCODEPAGE
  3
ANSI_1252
  9
$INSBASE
 10
0.0
 20
0.0
 30
0.0
  9
$EXTMIN
 10
-0.0032020964374624
 20
-0.0045286792473007
 30
-0.0000000000112498
  9
$EXTMAX
 10
210.0032050302827
 20
297.0045328285429
 30
0.0000000000002956
  9
$LIMMIN
 10
0.0
 20
0.0
  9
$LIMMAX
 10
210.0
 20
297.0
  9
$ORTHOMODE
 70
     1
  9
$REGENMODE
 70
     1
  9
$FILLMODE
 70
     1
  9
$QTEXTMODE
 70
     0
  9
$MIRRTEXT
 70
     1
  9
$LTSCALE
 40
10.0
  9
$ATTMODE
 70
     1
  9
$TEXTSIZE
 40
3.5
  9
$TRACEWID
 40
0.5
  9
$TEXTSTYLE
  7
STANDARD
  9
$CLAYER
  8
BEM
  9
$CELTYPE
  6
ByLayer
  9
$CECOLOR
 62
   256
  9
$CELTSCALE
 40
1.0
  9
$DISPSILH
 70
     0
  9
$DIMSCALE
 40
1.0
  9
$DIMASZ
 40
3.5
  9
$DIMEXO
 40
1.0
  9
$DIMDLI
 40
7.0
  9
$DIMRND
 40
0.0
  9
$DIMDLE
 40
0.0
  9
$DIMEXE
 40
1.0
  9
$DIMTP
 40
0.0
  9
$DIMTM
 40
0.0
  9
$DIMTXT
 40
3.5
  9
$DIMCEN
 40
1.5
  9
$DIMTSZ
 40
0.0
  9
$DIMTOL
 70
     0
  9
$DIMLIM
 70
     0
  9
$DIMTIH
 70
     0
  9
$DIMTOH
 70
     0
  9
$DIMSE1
 70
     0
  9
$DIMSE2
 70
     0
  9
$DIMTAD
 70
     1
  9
$DIMZIN
 70
     8
  9
$DIMBLK
  1

  9
$DIMASO
 70
     1
  9
$DIMSHO
 70
     0
  9
$DIMPOST
  1

  9
$DIMAPOST
  1

  9
$DIMALT
 70
     0
  9
$DIMALTD
 70
     2
  9
$DIMALTF
 40
25.4
  9
$DIMLFAC
 40
1.0
  9
$DIMTOFL
 70
     1
  9
$DIMTVP
 40
0.0
  9
$DIMTIX
 70
     0
  9
$DIMSOXD
 70
     0
  9
$DIMSAH
 70
     0
  9
$DIMBLK1
  1

  9
$DIMBLK2
  1

  9
$DIMSTYLE
  2
Standard
  9
$DIMCLRD
 70
     0
  9
$DIMCLRE
 70
     0
  9
$DIMCLRT
 70
     1
  9
$DIMTFAC
 40
0.5142857142857144
  9
$DIMGAP
 40
1.5
  9
$DIMJUST
 70
     0
  9
$DIMSD1
 70
     0
  9
$DIMSD2
 70
     0
  9
$DIMTOLJ
 70
     1
  9
$DIMTZIN
 70
     8
  9
$DIMALTZ
 70
     8
  9
$DIMALTTZ
 70
     8
  9
$DIMUPT
 70
     0
  9
$DIMDEC
 70
     2
  9
$DIMTDEC
 70
     2
  9
$DIMALTU
 70
     2
  9
$DIMALTTD
 70
     2
  9
$DIMTXSTY
  7
STANDARD
  9
$DIMAUNIT
 70
     0
  9
$DIMADEC
 70
     2
  9
$DIMALTRND
 40
0.0
  9
$DIMAZIN
 70
     2
  9
$DIMDSEP
 70
    46
  9
$DIMATFIT
 70
     3
  9
$DIMFRAC
 70
     0
  9
$DIMLDRBLK
  1

  9
$DIMLUNIT
 70
     2
  9
$DIMLWD
 70
    -2
  9
$DIMLWE
 70
    -2
  9
$DIMTMOVE
 70
     0
  9
$LUNITS
 70
     2
  9
$LUPREC
 70
     2
  9
$SKETCHINC
 40
1.0
  9
$FILLETRAD
 40
50.0
  9
$AUNITS
 70
     1
  9
$AUPREC
 70
     3
  9
$MENU
  1
ACAD
  9
$ELEVATION
 40
0.0
  9
$PELEVATION
 40
0.0
  9
$THICKNESS
 40
0.0
  9
$LIMCHECK
 70
     0
  9
$CHAMFERA
 40
0.0
  9
$CHAMFERB
 40
0.0
  9
$CHAMFERC
 40
0.0
  9
$CHAMFERD
 40
0.0
  9
$SKPOLY
 70
     0
  9
$TDCREATE
 40
2452040.637099653
  9
$TDUCREATE
 40
2452040.553766320
  9
$TDUPDATE
 40
2455663.484600278
  9
$TDUUPDATE
 40
2455663.401266945
  9
$TDINDWG
 40
0.2525943171
  9
$TDUSRTIMER
 40
0.2525943171
  9
$USRTIMER
 70
     1
  9
$ANGBASE
 50
0.0
  9
$ANGDIR
 70
     0
  9
$PDMODE
 70
     0
  9
$PDSIZE
 40
0.0
  9
$PLINEWID
 40
0.0
  9
$SPLFRAME
 70
     0
  9
$SPLINETYPE
 70
     6
  9
$SPLINESEGS
 70
     8
  9
$HANDSEED
  5
10AC
  9
$SURFTAB1
 70
     6
  9
$SURFTAB2
 70
     6
  9
$SURFTYPE
 70
     6
  9
$SURFU
 70
     6
  9
$SURFV
 70
     6
  9
$UCSBASE
  2

  9
$UCSNAME
  2

  9
$UCSORG
 10
0.0
 20
0.0
 30
0.0
  9
$UCSXDIR
 10
1.0
 20
0.0
 30
0.0
  9
$UCSYDIR
 10
0.0
 20
1.0
 30
0.0
  9
$UCSORTHOREF
  2

  9
$UCSORTHOVIEW
 70
     0
  9
$UCSORGTOP
 10
0.0
 20
0.0
 30
0.0
  9
$UCSORGBOTTOM
 10
0.0
 20
0.0
 30
0.0
  9
$UCSORGLEFT
 10
0.0
 20
0.0
 30
0.0
  9
$UCSORGRIGHT
 10
0.0
 20
0.0
 30
0.0
  9
$UCSORGFRONT
 10
0.0
 20
0.0
 30
0.0
  9
$UCSORGBACK
 10
0.0
 20
0.0
 30
0.0
  9
$PUCSBASE
  2

  9
$PUCSNAME
  2

  9
$PUCSORG
 10
0.0
 20
0.0
 30
0.0
  9
$PUCSXDIR
 10
1.0
 20
0.0
 30
0.0
  9
$PUCSYDIR
 10
0.0
 20
1.0
 30
0.0
  9
$PUCSORTHOREF
  2

  9
$PUCSORTHOVIEW
 70
     0
  9
$PUCSORGTOP
 10
0.0
 20
0.0
 30
0.0
  9
$PUCSORGBOTTOM
 10
0.0
 20
0.0
 30
0.0
  9
$PUCSORGLEFT
 10
0.0
 20
0.0
 30
0.0
  9
$PUCSORGRIGHT
 10
0.0
 20
0.0
 30
0.0
  9
$PUCSORGFRONT
 10
0.0
 20
0.0
 30
0.0
  9
$PUCSORGBACK
 10
0.0
 20
0.0
 30
0.0
  9
$USERI1
 70
     0
  9
$USERI2
 70
     0
  9
$USERI3
 70
     0
  9
$USERI4
 70
     0
  9
$USERI5
 70
     0
  9
$USERR1
 40
0.0
  9
$USERR2
 40
0.0
  9
$USERR3
 40
0.0
  9
$USERR4
 40
0.0
  9
$USERR5
 40
0.0
  9
$WORLDVIEW
 70
     1
  9
$SHADEDGE
 70
     3
  9
$SHADEDIF
 70
    70
  9
$TILEMODE
 70
     1
  9
$MAXACTVP
 70
    16
  9
$PINSBASE
 10
0.0
 20
0.0
 30
0.0
  9
$PLIMCHECK
 70
     0
  9
$PEXTMIN
 10
1.000000000000000E+20
 20
1.000000000000000E+20
 30
1.000000000000000E+20
  9
$PEXTMAX
 10
-1.000000000000000E+20
 20
-1.000000000000000E+20
 30
-1.000000000000000E+20
  9
$PLIMMIN
 10
0.0
 20
0.0
  9
$PLIMMAX
 10
12.0
 20
9.0
  9
$UNITMODE
 70
     0
  9
$VISRETAIN
 70
     0
  9
$PLINEGEN
 70
     0
  9
$PSLTSCALE
 70
     0
  9
$TREEDEPTH
 70
  3020
  9
$CMLSTYLE
  2
Standard
  9
$CMLJUST
 70
     0
  9
$CMLSCALE
 40
1.0
  9
$PROXYGRAPHICS
 70
     1
  9
$MEASUREMENT
 70
     0
  9
$CELWEIGHT
370
    -1
  9
$ENDCAPS
280
     0
  9
$JOINSTYLE
280
     0
  9
$LWDISPLAY
290
     0
  9
$INSUNITS
 70
     0
  9
$HYPERLINKBASE
  1

  9
$STYLESHEET
  1
monochrome 1.ctb
  9
$XEDIT
290
     1
  9
$CEPSNTYPE
380
     0
  9
$PSTYLEMODE
290
     1
  9
$FINGERPRINTGUID
  2
{7AADB5C8-6110-11D8-B72B-000102183313}
  9
$VERSIONGUID
  2
{9955D3D7-28DC-4CB5-9B9F-B7ABE967EFBC}
  9
$EXTNAMES
290
     1
  9
$PSVPSCALE
 40
0.0
  9
$OLESTARTUP
290
     0
  9
$SORTENTS
280
    96
  9
$INDEXCTL
280
     0
  9
$HIDETEXT
280
     0
  9
$XCLIPFRAME
290
     0
  9
$HALOGAP
280
     0
  9
$OBSCOLOR
 70
   257
  9
$OBSLTYPE
280
     0
  9
$INTERSECTIONDISPLAY
280
     0
  9
$INTERSECTIONCOLOR
 70
   257
  9
$DIMASSOC
280
     1
  9
$PROJECTNAME
  1

  0
ENDSEC
  0
SECTION
  2
CLASSES
  0
CLASS
  1
ACDBDICTIONARYWDFLT
  2
AcDbDictionaryWithDefault
  3
ObjectDBX Classes
 90
        0
 91
        1
280
     0
281
     0
  0
CLASS
  1
DICTIONARYVAR
  2
AcDbDictionaryVar
  3
ObjectDBX Classes
 90
        0
 91
        3
280
     0
281
     0
  0
ENDSEC
  0
SECTION
  2
TABLES
  0
TABLE
  2
VPORT
  5
8
330
0
100
AcDbSymbolTable
 70
     3
  0
VPORT
  5
10AB
330
8
100
AcDbSymbolTableRecord
100
AcDbViewportTableRecord
  2
*Active
 70
     0
 10
0.0
 20
0.0
 11
1.0
 21
1.0
 12
105.0
 22
148.5
 13
0.0
 23
0.0
 14
1.0
 24
1.0
 15
10.0
 25
10.0
 16
0.0
 26
0.0
 36
1.0
 17
0.0
 27
0.0
 37
0.0
 40
297.0
 41
1.334231805929919
 42
50.0
 43
0.0
 44
0.0
 50
0.0
 51
0.0
 71
     0
 72
  1500
 73
     1
 74
     0
 75
     0
 76
     0
 77
     0
 78
     0
281
     0
 65
     1
110
0.0
120
0.0
130
0.0
111
1.0
121
0.0
131
0.0
112
0.0
122
1.0
132
0.0
 79
     0
146
0.0
  0
ENDTAB
  0
TABLE
  2
LTYPE
  5
5
330
0
100
AcDbSymbolTable
 70
     2
  0
LTYPE
  5
13
330
5
100
AcDbSymbolTableRecord
100
AcDbLinetypeTableRecord
  2
ByBlock
 70
     0
  3

 72
    65
 73
     0
 40
0.0
  0
LTYPE
  5
14
330
5
100
AcDbSymbolTableRecord
100
AcDbLinetypeTableRecord
  2
ByLayer
 70
     0
  3

 72
    65
 73
     0
 40
0.0
  0
LTYPE
  5
15
330
5
100
AcDbSymbolTableRecord
100
AcDbLinetypeTableRecord
  2
Continuous
 70
     0
  3
Solid line
 72
    65
 73
     0
 40
0.0
  0
LTYPE
  5
35
330
5
100
AcDbSymbolTableRecord
100
AcDbLinetypeTableRecord
  2
STRICHPUNKT
 70
     0
  3
__ . __ . __ . __ . __ . __ . __ . __ . __ . __
 72
    65
 73
     4
 40
1.0
 49
0.5
 74
     0
 49
-0.25
 74
     0
 49
0.0
 74
     0
 49
-0.25
 74
     0
  0
ENDTAB
  0
TABLE
  2
LAYER
  5
2
330
0
100
AcDbSymbolTable
 70
     9
  0
LAYER
  5
10
330
2
100
AcDbSymbolTableRecord
100
AcDbLayerTableRecord
  2
0
 70
     0
 62
     7
  6
Continuous
370
    -3
390
F
  0
LAYER
  5
38
330
2
100
AcDbSymbolTableRecord
100
AcDbLayerTableRecord
  2
VOLL
 70
     0
 62
     1
  6
Continuous
370
    -3
390
F
  0
LAYER
  5
39
330
2
100
AcDbSymbolTableRecord
100
AcDbLayerTableRecord
  2
HILF
 70
     0
 62
     2
  6
Continuous
370
    -3
390
F
  0
LAYER
  5
3A
330
2
100
AcDbSymbolTableRecord
100
AcDbLayerTableRecord
  2
MITTEL
 70
     0
 62
     2
  6
STRICHPUNKT
370
    -3
390
F
  0
LAYER
  5
3B
330
2
100
AcDbSymbolTableRecord
100
AcDbLayerTableRecord
  2
BEM
 70
     0
 62
     7
  6
Continuous
370
    -3
390
F
  0
LAYER
  5
3C
330
2
100
AcDbSymbolTableRecord
100
AcDbLayerTableRecord
  2
STEMPEL
 70
     0
 62
     3
  6
Continuous
370
    -3
390
F
  0
LAYER
  5
3D
330
2
100
AcDbSymbolTableRecord
100
AcDbLayerTableRecord
  2
TEXT
 70
     0
 62
     7
  6
Continuous
370
    -3
390
F
  0
LAYER
  5
3E
330
2
100
AcDbSymbolTableRecord
100
AcDbLayerTableRecord
  2
DEFPOINTS
 70
     0
 62
     7
  6
Continuous
290
     0
370
    -3
390
F
  0
LAYER
  5
3F
330
2
100
AcDbSymbolTableRecord
100
AcDbLayerTableRecord
  2
SCHRAFF
 70
     0
 62
     7
  6
Continuous
370
    -3
390
F
  0
ENDTAB
  0
TABLE
  2
STYLE
  5
3
330
0
100
AcDbSymbolTable
 70
     2
  0
STYLE
  5
11
330
3
100
AcDbSymbolTableRecord
100
AcDbTextStyleTableRecord
  2
STANDARD
 70
     0
 40
0.0
 41
0.8
 50
0.0
 71
     0
 42
3.5
  3
simplex.shx
  4

  0
STYLE
  5
34
330
3
100
AcDbSymbolTableRecord
100
AcDbTextStyleTableRecord
  2
GREEKS
 70
     0
 40
0.0
 41
0.8
 50
0.0
 71
     0
 42
2.5
  3
SIMPLEX.shx
  4

  0
ENDTAB
  0
TABLE
  2
VIEW
  5
6
330
0
100
AcDbSymbolTable
 70
     0
  0
ENDTAB
  0
TABLE
  2
UCS
  5
7
330
0
100
AcDbSymbolTable
 70
     0
  0
ENDTAB
  0
TABLE
  2
APPID
  5
9
330
0
100
AcDbSymbolTable
 70
     1
  0
APPID
  5
12
330
9
100
AcDbSymbolTableRecord
100
AcDbRegAppTableRecord
  2
ACAD
 70
     0
  0
ENDTAB
  0
TABLE
  2
DIMSTYLE
  5
A
330
0
100
AcDbSymbolTable
 70
     1
100
AcDbDimStyleTable
 71
     1
340
1CB
  0
DIMSTYLE
105
1CB
102
{ACAD_REACTORS
330
DB3
330
1DB
330
D41
330
F06
330
F3C
102
}
330
A
100
AcDbSymbolTableRecord
100
AcDbDimStyleTableRecord
  2
Standard
 70
     0
340
11
  0
ENDTAB
  0
TABLE
  2
BLOCK_RECORD
  5
1
330
0
100
AcDbSymbolTable
 70
     7
  0
BLOCK_RECORD
  5
1E
330
1
100
AcDbSymbolTableRecord
100
AcDbBlockTableRecord
  2
*Model_Space
340
21
  0
BLOCK_RECORD
  5
1A
330
1
100
AcDbSymbolTableRecord
100
AcDbBlockTableRecord
  2
*Paper_Space
340
1D
  0
BLOCK_RECORD
  5
22
330
1
100
AcDbSymbolTableRecord
100
AcDbBlockTableRecord
  2
LOGO
340
0
102
{BLKREFS
331
135
102
}
  0
BLOCK_RECORD
  5
1DC
330
1
100
AcDbSymbolTableRecord
100
AcDbBlockTableRecord
  2
*D1
340
0
  0
BLOCK_RECORD
  5
D42
330
1
100
AcDbSymbolTableRecord
100
AcDbBlockTableRecord
  2
*D3
340
0
  0
BLOCK_RECORD
  5
DC4
330
1
100
AcDbSymbolTableRecord
100
AcDbBlockTableRecord
  2
*D4
340
0
  0
BLOCK_RECORD
  5
F07
330
1
100
AcDbSymbolTableRecord
100
AcDbBlockTableRecord
  2
*D5
340
0
  0
BLOCK_RECORD
  5
F3D
330
1
100
AcDbSymbolTableRecord
100
AcDbBlockTableRecord
  2
*D6
340
0
  0
ENDTAB
  0
ENDSEC
  0
SECTION
  2
BLOCKS
  0
BLOCK
  5
43
330
1E
100
AcDbEntity
  8
0
100
AcDbBlockBegin
  2
*Model_Space
 70
     0
 10
0.0
 20
0.0
 30
0.0
  3
*Model_Space
  1

  0
ENDBLK
  5
44
330
1E
100
AcDbEntity
  8
0
100
AcDbBlockEnd
  0
BLOCK
  5
41
330
1A
100
AcDbEntity
 67
     1
  8
0
100
AcDbBlockBegin
  2
*Paper_Space
 70
     0
 10
0.0
 20
0.0
 30
0.0
  3
*Paper_Space
  1

  0
ENDBLK
  5
42
330
1A
100
AcDbEntity
 67
     1
  8
0
100
AcDbBlockEnd
  0
BLOCK
  5
45
330
22
100
AcDbEntity
  8
0
100
AcDbBlockBegin
  2
LOGO
 70
     0
 10
0.0
 20
0.0
 30
0.0
  3
LOGO
  1

  0
ARC
  5
46
330
22
100
AcDbEntity
  8
0
100
AcDbCircle
 10
11.59973089678112
 20
-9.271599258481501
 30
0.0
 40
4.5
100
AcDbArc
 50
270.0
 51
231.0575587310159
  0
LINE
  5
47
330
22
100
AcDbEntity
  8
0
100
AcDbLine
 10
3.599730896781125
 20
-4.771599258481529
 30
0.0
 11
3.599730896781153
 21
-11.77159925848133
 31
0.0
  0
LINE
  5
48
330
22
100
AcDbEntity
  8
0
100
AcDbLine
 10
2.599730896781125
 20
-4.771599258481529
 30
0.0
 11
2.599730896781153
 21
-11.77159925848133
 31
0.0
  0
CIRCLE
  5
49
330
22
100
AcDbEntity
  8
0
100
AcDbCircle
 10
11.59973089678112
 20
-9.271599258481501
 30
0.0
 40
3.5
  0
ARC
  5
4A
330
22
100
AcDbEntity
  8
0
100
AcDbCircle
 10
31.59973089678115
 20
-9.271599258481472
 30
0.0
 40
4.5
100
AcDbArc
 50
270.0
 51
231.0575587310182
  0
LINE
  5
4B
330
22
100
AcDbEntity
  8
0
100
AcDbLine
 10
17.59973089678112
 20
-4.771599258481472
 30
0.0
 11
17.59973089678115
 21
-13.77159925848147
 31
0.0
  0
ARC
  5
4C
330
22
100
AcDbEntity
  8
0
100
AcDbCircle
 10
22.59973089678116
 20
-7.271599258481472
 30
0.0
 40
2.5
100
AcDbArc
 50
293.1161887722295
 51
90.0
  0
CIRCLE
  5
4D
330
22
100
AcDbEntity
  8
0
100
AcDbCircle
 10
31.59973089678115
 20
-9.271599258481472
 30
0.0
 40
3.5
  0
ARC
  5
4E
330
22
100
AcDbEntity
  8
0
100
AcDbCircle
 10
4.599730896781153
 20
-11.77159925848133
 30
0.0
 40
1.0
100
AcDbArc
 50
180.0
 51
270.0
  0
ARC
  5
4F
330
22
100
AcDbEntity
  8
0
100
AcDbCircle
 10
4.599730896781153
 20
-11.77159925848133
 30
0.0
 40
2.0
100
AcDbArc
 50
179.9999999999992
 51
270.0
  0
LINE
  5
50
330
22
100
AcDbEntity
  8
0
100
AcDbLine
 10
11.59973089678115
 20
-13.77159925848144
 30
0.0
 11
4.599730896781153
 21
-13.77159925848147
 31
0.0
  0
LINE
  5
51
330
22
100
AcDbEntity
  8
0
100
AcDbLine
 10
8.771303772034769
 20
-12.77159925848136
 30
0.0
 11
4.599730896781153
 21
-12.77159925848133
 31
0.0
  0
LINE
  5
52
330
22
100
AcDbEntity
  8
0
100
AcDbLine
 10
31.59973089678115
 20
-13.77159925848147
 30
0.0
 11
23.6715276665056
 21
-13.77159925848144
 31
0.0
  0
LINE
  5
53
330
22
100
AcDbEntity
  8
0
100
AcDbLine
 10
23.56565672307022
 20
-9.51278021337896
 30
0.0
 11
24.4388546544846
 21
-12.77159925848144
 31
0.0
  0
LINE
  5
54
330
22
100
AcDbEntity
  8
0
100
AcDbLine
 10
22.59973089678116
 20
-9.771599258481472
 30
0.0
 11
18.59973089678112
 21
-9.771599258481472
 31
0.0
  0
LINE
  5
55
330
22
100
AcDbEntity
  8
0
100
AcDbLine
 10
18.59973089678115
 20
-13.77159925848144
 30
0.0
 11
17.59973089678115
 21
-13.77159925848144
 31
0.0
  0
LINE
  5
56
330
22
100
AcDbEntity
  8
0
100
AcDbLine
 10
18.59973089678115
 20
-9.771599258481472
 30
0.0
 11
18.59973089678115
 21
-13.77159925848144
 31
0.0
  0
LINE
  5
57
330
22
100
AcDbEntity
  8
0
100
AcDbLine
 10
22.59973089678116
 20
-9.771599258481472
 30
0.0
 11
23.67152766650562
 21
-13.77159925848147
 31
0.0
  0
ARC
  5
58
330
22
100
AcDbEntity
  8
0
100
AcDbCircle
 10
22.59973089678116
 20
-7.271599258481472
 30
0.0
 40
2.5
100
AcDbArc
 50
270.0
 51
270.0000000000007
  0
LINE
  5
59
330
22
100
AcDbEntity
  8
0
100
AcDbLine
 10
28.77130377203494
 20
-12.77159925848147
 30
0.0
 11
24.43885465448463
 21
-12.77159925848144
 31
0.0
  0
LINE
  5
5A
330
22
100
AcDbEntity
  8
0
100
AcDbLine
 10
3.599730896781125
 20
-4.771599258481472
 30
0.0
 11
2.599730896781125
 21
-4.771599258481472
 31
0.0
  0
LINE
  5
5B
330
22
100
AcDbEntity
  8
0
100
AcDbLine
 10
22.59973089678116
 20
-8.771599258481472
 30
0.0
 11
18.59973089678115
 21
-8.771599258481472
 31
0.0
  0
LINE
  5
5C
330
22
100
AcDbEntity
  8
0
100
AcDbLine
 10
22.59973089678116
 20
-5.771599258481472
 30
0.0
 11
18.59973089678115
 21
-5.771599258481472
 31
0.0
  0
LINE
  5
5D
330
22
100
AcDbEntity
  8
0
100
AcDbLine
 10
22.59973089678116
 20
-4.771599258481472
 30
0.0
 11
17.59973089678115
 21
-4.771599258481472
 31
0.0
  0
LINE
  5
5E
330
22
100
AcDbEntity
  8
0
100
AcDbLine
 10
18.59973089678115
 20
-5.771599258481472
 30
0.0
 11
18.59973089678115
 21
-8.771599258481472
 31
0.0
  0
ARC
  5
5F
330
22
100
AcDbEntity
  8
0
100
AcDbCircle
 10
22.59973089678116
 20
-7.271599258481472
 30
0.0
 40
1.5
100
AcDbArc
 50
270.0
 51
90.0
  0
ENDBLK
  5
60
330
22
100
AcDbEntity
  8
0
100
AcDbBlockEnd
  0
BLOCK
  5
1E6
330
1DC
100
AcDbEntity
  8
0
100
AcDbBlockBegin
  2
*D1
 70
     1
 10
0.0
 20
0.0
 30
0.0
  3
*D1
  1

  0
LINE
  5
1084
330
1DC
100
AcDbEntity
  8
BEM
 62
     0
370
    -2
100
AcDbLine
 10
38.02936280128785
 20
91.04211744510731
 30
0.0
 11
27.7993043505266
 21
91.04211744510733
 31
0.0
  0
LINE
  5
1085
330
1DC
100
AcDbEntity
  8
BEM
 62
     0
370
    -2
100
AcDbLine
 10
74.09191948365823
 20
211.0438891093634
 30
0.0
 11
27.79930435052663
 21
211.0438891093635
 31
0.0
  0
LINE
  5
1086
330
1DC
100
AcDbEntity
  8
BEM
 62
     0
370
    -2
100
AcDbLine
 10
28.7993043505266
 20
94.54211744510732
 30
0.0
 11
28.79930435052663
 21
207.5438891093634
 31
0.0
  0
SOLID
  5
1087
330
1DC
100
AcDbEntity
  8
BEM
 62
     0
100
AcDbTrace
 10
28.21597101719327
 20
94.54211744510732
 30
0.0
 11
29.38263768385994
 21
94.54211744510732
 31
0.0
 12
28.7993043505266
 22
91.04211744510733
 32
0.0
 13
28.7993043505266
 23
91.04211744510733
 33
0.0
  0
SOLID
  5
1088
330
1DC
100
AcDbEntity
  8
BEM
 62
     0
100
AcDbTrace
 10
28.2159710171933
 20
207.5438891093634
 30
0.0
 11
29.38263768385996
 21
207.5438891093634
 31
0.0
 12
28.79930435052663
 22
211.0438891093635
 32
0.0
 13
28.79930435052663
 23
211.0438891093635
 33
0.0
  0
MTEXT
  5
1089
330
1DC
100
AcDbEntity
  8
BEM
 62
     1
100
AcDbMText
 10
25.54930435052659
 20
151.0430032772354
 30
0.0
 40
3.5
 41
0.0
 71
     5
 72
     1
  1
\A1;120
 11
0.0000000000000001
 21
1.0
 31
0.0
 73
     1
 44
1.0
  0
POINT
  5
108A
330
1DC
100
AcDbEntity
  8
DEFPOINTS
 62
     0
100
AcDbPoint
 10
39.02936280128784
 20
91.04211744510731
 30
0.0
  0
POINT
  5
108B
330
1DC
100
AcDbEntity
  8
DEFPOINTS
 62
     0
100
AcDbPoint
 10
75.09191948365823
 20
211.0438891093634
 30
0.0
  0
POINT
  5
108C
330
1DC
100
AcDbEntity
  8
DEFPOINTS
 62
     0
100
AcDbPoint
 10
28.79930435052663
 20
211.0438891093635
 30
0.0
  0
ENDBLK
  5
1E7
330
1DC
100
AcDbEntity
  8
0
100
AcDbBlockEnd
  0
BLOCK
  5
D4C
330
D42
100
AcDbEntity
  8
0
100
AcDbBlockBegin
  2
*D3
 70
     1
 10
0.0
 20
0.0
 30
0.0
  3
*D3
  1

  0
LINE
  5
107B
330
D42
100
AcDbEntity
  8
BEM
 62
     0
370
    -2
100
AcDbLine
 10
38.59191948365825
 20
95.04211744510751
 30
0.0
 11
38.59191948365825
 21
76.25457462909666
 31
0.0
  0
LINE
  5
107C
330
D42
100
AcDbEntity
  8
BEM
 62
     0
370
    -2
100
AcDbLine
 10
111.5919194836582
 20
95.04211744510785
 30
0.0
 11
111.5919194836582
 21
76.25457462909666
 31
0.0
  0
LINE
  5
107D
330
D42
100
AcDbEntity
  8
BEM
 62
     0
370
    -2
100
AcDbLine
 10
42.09191948365824
 20
77.25457462909666
 30
0.0
 11
108.0919194836582
 21
77.25457462909666
 31
0.0
  0
SOLID
  5
107E
330
D42
100
AcDbEntity
  8
BEM
 62
     0
100
AcDbTrace
 10
42.09191948365824
 20
77.83790796243
 30
0.0
 11
42.09191948365824
 21
76.67124129576333
 31
0.0
 12
38.59191948365825
 22
77.25457462909666
 32
0.0
 13
38.59191948365825
 23
77.25457462909666
 33
0.0
  0
SOLID
  5
107F
330
D42
100
AcDbEntity
  8
BEM
 62
     0
100
AcDbTrace
 10
108.0919194836582
 20
77.83790796243
 30
0.0
 11
108.0919194836582
 21
76.67124129576333
 31
0.0
 12
111.5919194836582
 22
77.25457462909666
 32
0.0
 13
111.5919194836582
 23
77.25457462909666
 33
0.0
  0
MTEXT
  5
1080
330
D42
100
AcDbEntity
  8
BEM
 62
     1
100
AcDbMText
 10
75.09191948365823
 20
80.50457462909667
 30
0.0
 40
3.5
 41
0.0
 71
     5
 72
     1
  1
\A1;%%c73
 73
     1
 44
1.0
  0
POINT
  5
1081
330
D42
100
AcDbEntity
  8
DEFPOINTS
 62
     0
100
AcDbPoint
 10
38.59191948365825
 20
96.04211744510751
 30
0.0
  0
POINT
  5
1082
330
D42
100
AcDbEntity
  8
DEFPOINTS
 62
     0
100
AcDbPoint
 10
111.5919194836582
 20
96.04211744510784
 30
0.0
  0
POINT
  5
1083
330
D42
100
AcDbEntity
  8
DEFPOINTS
 62
     0
100
AcDbPoint
 10
111.5919194836582
 20
77.25457462909666
 30
0.0
  0
ENDBLK
  5
D4D
330
D42
100
AcDbEntity
  8
0
100
AcDbBlockEnd
  0
BLOCK
  5
DCE
330
DC4
100
AcDbEntity
  8
0
100
AcDbBlockBegin
  2
*D4
 70
     1
 10
0.0
 20
0.0
 30
0.0
  3
*D4
  1

  0
LINE
  5
FD0
330
DC4
100
AcDbEntity
  8
BEM
 62
     0
370
    -2
100
AcDbLine
 10
75.09191948365823
 20
212.0438891093634
 30
0.0
 11
75.09191948365823
 21
269.6306375714396
 31
0.0
  0
LINE
  5
FD1
330
DC4
100
AcDbEntity
  8
BEM
 62
     0
370
    -2
100
AcDbLine
 10
193.0936911479142
 20
251.3345269979438
 30
0.0
 11
193.0936911479142
 21
269.6306375714396
 31
0.0
  0
LINE
  5
FD2
330
DC4
100
AcDbEntity
  8
BEM
 62
     0
370
    -2
100
AcDbLine
 10
78.59191948365823
 20
268.6306375714397
 30
0.0
 11
189.5936911479142
 21
268.6306375714397
 31
0.0
  0
SOLID
  5
FD3
330
DC4
100
AcDbEntity
  8
BEM
 62
     0
100
AcDbTrace
 10
78.59191948365823
 20
269.2139709047729
 30
0.0
 11
78.59191948365823
 21
268.0473042381063
 31
0.0
 12
75.09191948365823
 22
268.6306375714397
 32
0.0
 13
75.09191948365823
 23
268.6306375714397
 33
0.0
  0
SOLID
  5
FD4
330
DC4
100
AcDbEntity
  8
BEM
 62
     0
100
AcDbTrace
 10
189.5936911479142
 20
269.2139709047729
 30
0.0
 11
189.5936911479142
 21
268.0473042381063
 31
0.0
 12
193.0936911479142
 22
268.6306375714397
 32
0.0
 13
193.0936911479142
 23
268.6306375714397
 33
0.0
  0
MTEXT
  5
FD5
330
DC4
100
AcDbEntity
  8
BEM
 62
     1
100
AcDbMText
 10
134.0928053157862
 20
271.8806375714397
 30
0.0
 40
3.5
 41
0.0
 71
     5
 72
     1
  1
\A1;118
 73
     1
 44
1.0
  0
POINT
  5
FD6
330
DC4
100
AcDbEntity
  8
DEFPOINTS
 62
     0
100
AcDbPoint
 10
75.09191948365823
 20
211.0438891093634
 30
0.0
  0
POINT
  5
FD7
330
DC4
100
AcDbEntity
  8
DEFPOINTS
 62
     0
100
AcDbPoint
 10
193.0936911479142
 20
250.3345269979438
 30
0.0
  0
POINT
  5
FD8
330
DC4
100
AcDbEntity
  8
DEFPOINTS
 62
     0
100
AcDbPoint
 10
193.0936911479142
 20
268.6306375714397
 30
0.0
  0
ENDBLK
  5
DCF
330
DC4
100
AcDbEntity
  8
0
100
AcDbBlockEnd
  0
BLOCK
  5
F0D
330
F07
100
AcDbEntity
  8
0
100
AcDbBlockBegin
  2
*D5
 70
     1
 10
0.0
 20
0.0
 30
0.0
  3
*D5
  1

  0
LINE
  5
FA6
330
F07
100
AcDbEntity
  8
BEM
 62
     0
370
    -2
100
AcDbLine
 10
108.8059265240914
 20
189.3613315156269
 30
0.0
 11
101.9093070565197
 21
201.3529015141977
 31
0.0
  0
MTEXT
  5
FA7
330
F07
100
AcDbEntity
  8
BEM
 62
     1
100
AcDbMText
 10
109.0473772647831
 20
195.4604007875948
 30
0.0
 40
3.5
 41
0.0
 71
     5
 72
     1
  1
\A1;R50
 11
0.498550804884701
 21
-0.866860481824392
 31
0.0
 73
     1
 44
1.0
  0
SOLID
  5
FA8
330
F07
100
AcDbEntity
  8
BEM
 62
     0
100
AcDbTrace
 10
102.4149756709173
 20
201.6437228170471
 30
0.0
 11
101.4036384421221
 21
201.0620802113483
 31
0.0
 12
100.1643792394233
 22
204.3869132005831
 32
0.0
 13
100.1643792394233
 23
204.3869132005831
 33
0.0
  0
POINT
  5
FA9
330
F07
100
AcDbEntity
  8
DEFPOINTS
 62
     0
100
AcDbPoint
 10
100.1643792394233
 20
204.3869132005831
 30
0.0
  0
POINT
  5
FAA
330
F07
100
AcDbEntity
  8
DEFPOINTS
 62
     0
100
AcDbPoint
 10
125.0919194836584
 20
161.0438891093633
 30
0.0
  0
ENDBLK
  5
F0E
330
F07
100
AcDbEntity
  8
0
100
AcDbBlockEnd
  0
BLOCK
  5
F48
330
F3D
100
AcDbEntity
  8
0
100
AcDbBlockBegin
  2
*D6
 70
     1
 10
0.0
 20
0.0
 30
0.0
  3
*D6
  1

  0
LINE
  5
1097
330
F3D
100
AcDbEntity
  8
BEM
 62
     0
370
    -2
100
AcDbLine
 10
75.09191948365821
 20
212.0438891093634
 30
0.0
 11
75.09191948365821
 21
262.2985066103212
 31
0.0
  0
ARC
  5
1098
330
F3D
100
AcDbEntity
  8
BEM
 62
     0
370
    -2
100
AcDbCircle
 10
75.09191948365823
 20
211.0438891093634
 30
0.0
 40
50.25461750095774
100
AcDbArc
 50
3.991191042459484
 51
86.00880895754064
  0
SOLID
  5
1099
330
F3D
100
AcDbEntity
  8
BEM
 62
     0
100
AcDbTrace
 10
125.8076371825964
 20
214.5620796080716
 30
0.0
 11
124.6416780912327
 21
214.5214531588379
 31
0.0
 12
125.3465369846159
 22
211.0438891093636
 32
0.0
 13
125.3465369846159
 23
211.0438891093636
 33
0.0
  0
SOLID
  5
109A
330
F3D
100
AcDbEntity
  8
BEM
 62
     0
100
AcDbTrace
 10
78.56948353313254
 20
260.5936477169379
 30
0.0
 11
78.61010998236634
 21
261.7596068083017
 31
0.0
 12
75.09191948365823
 22
261.2985066103212
 32
0.0
 13
75.09191948365823
 23
261.2985066103212
 33
0.0
  0
MTEXT
  5
109B
330
F3D
100
AcDbEntity
  8
BEM
 62
     1
100
AcDbMText
 10
109.3602623090482
 20
252.1343353703294
 30
0.0
 40
3.5
 41
0.0
 71
     5
 72
     1
  1
\A1;90°
 11
0.7679794414048562
 21
-0.6404744940897218
 31
0.0
 73
     1
 44
1.0
  0
POINT
  5
109C
330
F3D
100
AcDbEntity
  8
DEFPOINTS
 62
     0
100
AcDbPoint
 10
118.6136948969576
 20
236.1711978598424
 30
0.0
  0
POINT
  5
109D
330
F3D
100
AcDbEntity
  8
DEFPOINTS
 62
     0
100
AcDbPoint
 10
75.09191948365823
 20
211.0438891093634
 30
0.0
  0
POINT
  5
109E
330
F3D
100
AcDbEntity
  8
DEFPOINTS
 62
     0
100
AcDbPoint
 10
198.0936911479142
 20
211.0438891093635
 30
0.0
  0
POINT
  5
109F
330
F3D
100
AcDbEntity
  8
DEFPOINTS
 62
     0
100
AcDbPoint
 10
75.09191948365823
 20
211.0438891093634
 30
0.0
  0
POINT
  5
10A0
330
F3D
100
AcDbEntity
  8
DEFPOINTS
 62
     0
100
AcDbPoint
 10
75.09191948365828
 20
86.04211744510756
 30
0.0
  0
ENDBLK
  5
F49
330
F3D
100
AcDbEntity
  8
0
100
AcDbBlockEnd
  0
ENDSEC
  0
SECTION
  2
ENTITIES
  0
TEXT
  5
134
330
1E
100
AcDbEntity
  8
TEXT
100
AcDbText
 10
102.2108024290628
 20
31.54481959861755
 30
0.0
 40
2.0
  1
Koeh
 41
0.8
  7
GREEKS
 72
     1
 11
104.8393738576343
 21
31.54481959861755
 31
0.0
100
AcDbText
  0
INSERT
  5
135
330
1E
100
AcDbEntity
  8
STEMPEL
100
AcDbBlockReference
  2
LOGO
 10
75.4977742728897
 20
22.51052638224161
 30
0.0
  0
LINE
  5
136
330
1E
100
AcDbEntity
  8
HILF
100
AcDbLine
 10
210.0
 20
0.0
 30
0.0
 11
0.0
 21
0.0
 31
0.0
  0
LINE
  5
137
330
1E
100
AcDbEntity
  8
HILF
100
AcDbLine
 10
210.0
 20
297.0000000000001
 30
0.0
 11
0.0
 21
297.0
 31
0.0
  0
LINE
  5
138
330
1E
100
AcDbEntity
  8
STEMPEL
100
AcDbLine
 10
205.0
 20
292.0
 30
0.0
 11
19.99999999999994
 21
292.0
 31
0.0
  0
LINE
  5
139
330
1E
100
AcDbEntity
  8
STEMPEL
100
AcDbLine
 10
205.0
 20
5.0
 30
0.0
 11
19.99999999999994
 21
5.0
 31
0.0
  0
LINE
  5
13A
330
1E
100
AcDbEntity
  8
STEMPEL
100
AcDbLine
 10
24.99999999999995
 20
5.0
 30
0.0
 11
205.0
 21
5.0
 31
0.0
  0
TEXT
  5
13B
330
1E
100
AcDbEntity
  8
TEXT
100
AcDbText
 10
101.2313292113147
 20
36.65480545957612
 30
0.0
 40
2.0
  1
Name
 41
0.8
  7
GREEKS
100
AcDbText
  0
TEXT
  5
13C
330
1E
100
AcDbEntity
  8
TEXT
100
AcDbText
 10
98.27491395507747
 20
51.32531138882947
 30
0.0
 40
2.5
  1
Zul. Abw.
 41
0.8
  7
GREEKS
 72
     4
 11
104.9891996693631
 21
52.57531138882947
 31
0.0
100
AcDbText
  0
LINE
  5
13D
330
1E
100
AcDbEntity
  8
HILF
100
AcDbLine
 10
73.00000000000006
 20
24.99999999999999
 30
0.0
 11
115.0
 21
24.99999999999999
 31
0.0
  0
LINE
  5
13E
330
1E
100
AcDbEntity
  8
HILF
100
AcDbLine
 10
73.00000000000006
 20
29.99999999999999
 30
0.0
 11
115.0
 21
29.99999999999999
 31
0.0
  0
LINE
  5
13F
330
1E
100
AcDbEntity
  8
HILF
100
AcDbLine
 10
73.00000000000006
 20
34.99999999999997
 30
0.0
 11
115.0
 21
34.99999999999997
 31
0.0
  0
LINE
  5
140
330
1E
100
AcDbEntity
  8
STEMPEL
100
AcDbLine
 10
205.0
 20
40.0
 30
0.0
 11
73.00000000000006
 21
39.99999999999997
 31
0.0
  0
LINE
  5
141
330
1E
100
AcDbEntity
  8
STEMPEL
100
AcDbLine
 10
205.0
 20
20.0
 30
0.0
 11
73.00000000000006
 21
19.99999999999998
 31
0.0
  0
LINE
  5
142
330
1E
100
AcDbEntity
  8
STEMPEL
100
AcDbLine
 10
205.0
 20
55.00000000000003
 30
0.0
 11
19.99999999999998
 21
55.0
 31
0.0
  0
LINE
  5
143
330
1E
100
AcDbEntity
  8
MITTEL
100
AcDbLine
 10
75.09191948365823
 20
211.0438891093634
 30
0.0
 11
75.09191948365828
 21
86.04211744510756
 31
0.0
  0
LINE
  5
144
330
1E
100
AcDbEntity
  8
HILF
100
AcDbLine
 10
0.0
 20
0.0
 30
0.0
 11
-0.0000000000000568
 21
297.0
 31
0.0
  0
LINE
  5
145
330
1E
100
AcDbEntity
  8
STEMPEL
100
AcDbLine
 10
20.0
 20
5.0
 30
0.0
 11
19.99999999999994
 21
292.0
 31
0.0
  0
LINE
  5
148
330
1E
100
AcDbEntity
  8
HILF
100
AcDbLine
 10
20.00000000000004
 20
19.99999999999998
 30
0.0
 11
73.00000000000006
 21
19.99999999999998
 31
0.0
  0
LINE
  5
149
330
1E
100
AcDbEntity
  8
HILF
100
AcDbLine
 10
20.00000000000004
 20
24.99999999999999
 30
0.0
 11
73.00000000000006
 21
24.99999999999999
 31
0.0
  0
LINE
  5
14A
330
1E
100
AcDbEntity
  8
HILF
100
AcDbLine
 10
20.00000000000004
 20
29.99999999999999
 30
0.0
 11
73.00000000000006
 21
29.99999999999999
 31
0.0
  0
LINE
  5
14B
330
1E
100
AcDbEntity
  8
HILF
100
AcDbLine
 10
20.00000000000004
 20
34.99999999999997
 30
0.0
 11
73.00000000000006
 21
34.99999999999997
 31
0.0
  0
LINE
  5
14C
330
1E
100
AcDbEntity
  8
HILF
100
AcDbLine
 10
20.00000000000004
 20
39.99999999999997
 30
0.0
 11
73.00000000000006
 21
39.99999999999997
 31
0.0
  0
LINE
  5
14D
330
1E
100
AcDbEntity
  8
HILF
100
AcDbLine
 10
20.00000000000004
 20
45.00000000000002
 30
0.0
 11
73.00000000000006
 21
45.00000000000002
 31
0.0
  0
LINE
  5
14E
330
1E
100
AcDbEntity
  8
HILF
100
AcDbLine
 10
20.00000000000004
 20
50.00000000000003
 30
0.0
 11
73.00000000000006
 21
50.00000000000003
 31
0.0
  0
LINE
  5
14F
330
1E
100
AcDbEntity
  8
STEMPEL
100
AcDbLine
 10
72.99999999999994
 20
14.99999999999998
 30
0.0
 11
19.99999999999998
 21
14.99999999999998
 31
0.0
  0
TEXT
  5
150
330
1E
100
AcDbEntity
  8
TEXT
100
AcDbText
 10
24.13320553522878
 20
6.827329230135958
 30
0.0
 40
2.0
  1
Index
 50
90.0
 41
0.8
  7
GREEKS
100
AcDbText
  0
LINE
  5
151
330
1E
100
AcDbEntity
  8
VOLL
100
AcDbLine
 10
27.00000000000005
 20
55.00000000000003
 30
0.0
 11
26.99999999999999
 21
4.999999999999985
 31
0.0
  0
LINE
  5
152
330
1E
100
AcDbEntity
  8
HILF
100
AcDbLine
 10
15.54383567856928
 20
148.5
 30
0.0
 11
0.0000000000000568
 21
148.5
 31
0.0
  0
LINE
  5
154
330
1E
100
AcDbEntity
  8
VOLL
100
AcDbLine
 10
62.00000000000006
 20
54.99999999999997
 30
0.0
 11
62.0
 21
4.999999999999985
 31
0.0
  0
LINE
  5
155
330
1E
100
AcDbEntity
  8
VOLL
100
AcDbLine
 10
52.00000000000006
 20
54.99999999999997
 30
0.0
 11
52.0
 21
4.999999999999985
 31
0.0
  0
LINE
  5
157
330
1E
100
AcDbEntity
  8
STEMPEL
100
AcDbLine
 10
73.00000000000006
 20
54.99999999999997
 30
0.0
 11
73.0
 21
4.999999999999985
 31
0.0
  0
TEXT
  5
159
330
1E
100
AcDbEntity
  8
TEXT
100
AcDbText
 10
86.16558365768254
 20
36.65940250614963
 30
0.0
 40
2.0
  1
Tag
 41
0.8
  7
GREEKS
100
AcDbText
  0
TEXT
  5
15A
330
1E
100
AcDbEntity
  8
TEXT
100
AcDbText
 10
73.79180635838077
 20
31.81495184808982
 30
0.0
 40
2.0
  1
Gez.
 41
0.8
  7
GREEKS
100
AcDbText
  0
LINE
  5
15B
330
1E
100
AcDbEntity
  8
VOLL
100
AcDbLine
 10
82.00000000000006
 20
39.99999999999997
 30
0.0
 11
82.00000000000006
 21
19.99999999999998
 31
0.0
  0
TEXT
  5
15C
330
1E
100
AcDbEntity
  8
TEXT
100
AcDbText
 10
73.80033886936519
 20
21.76473194824904
 30
0.0
 40
2.0
  1
Norm.
 41
0.8
  7
GREEKS
100
AcDbText
  0
TEXT
  5
15D
330
1E
100
AcDbEntity
  8
TEXT
100
AcDbText
 10
73.77575432858361
 20
26.84463145714189
 30
0.0
 40
2.0
  1
Gepr.
 41
0.8
  7
GREEKS
100
AcDbText
  0
TEXT
  5
15E
330
1E
100
AcDbEntity
  8
TEXT
 62
     1
100
AcDbText
 10
80.25031532409434
 20
44.07450714456979
 30
0.0
 40
3.5
  1
1:1
 41
0.8
  7
GREEKS
100
AcDbText
  0
TEXT
  5
160
330
1E
100
AcDbEntity
  8
TEXT
100
AcDbText
 10
74.31105491105199
 20
36.57012735575833
 30
0.0
 40
2.0
  1
2011
 41
0.8
  7
GREEKS
100
AcDbText
  0
LINE
  5
161
330
1E
100
AcDbEntity
  8
VOLL
100
AcDbLine
 10
95.00000000000005
 20
54.99999999999992
 30
0.0
 11
95.0
 21
19.99999999999998
 31
0.0
  0
LINE
  5
186
330
1E
100
AcDbEntity
  8
HILF
100
AcDbLine
 10
210.0
 20
-0.0000000000000568
 30
0.0
 11
210.0
 21
297.0
 31
0.0
  0
LINE
  5
187
330
1E
100
AcDbEntity
  8
STEMPEL
100
AcDbLine
 10
205.0
 20
5.0
 30
0.0
 11
205.0
 21
292.0
 31
0.0
  0
TEXT
  5
188
330
1E
100
AcDbEntity
  8
TEXT
100
AcDbText
 10
168.6200430748503
 20
26.03708088939301
 30
0.0
 40
2.5
  1
ersetzt durch:
 41
0.8
  7
GREEKS
100
AcDbText
  0
TEXT
  5
18A
330
1E
100
AcDbEntity
  8
TEXT
100
AcDbText
 10
168.089377478817
 20
51.15660172685682
 30
0.0
 40
2.5
  1
Zeichnungs Nr.
 41
0.8
  7
GREEKS
100
AcDbText
  0
LINE
  5
18B
330
1E
100
AcDbEntity
  8
HILF
100
AcDbLine
 10
116.7454849644942
 20
7.446991290141568
 30
0.0
 11
202.4294419663364
 21
7.446991290141568
 31
0.0
  0
LINE
  5
18C
330
1E
100
AcDbEntity
  8
HILF
100
AcDbLine
 10
168.3619308148496
 20
41.88991818477913
 30
0.0
 11
202.4294419663364
 21
41.88991818477913
 31
0.0
  0
LINE
  5
18D
330
1E
100
AcDbEntity
  8
VOLL
100
AcDbLine
 10
166.0
 20
30.0
 30
0.0
 11
205.0
 21
30.0
 31
0.0
  0
TEXT
  5
18E
330
1E
100
AcDbEntity
  8
TEXT
 62
     1
100
AcDbText
 10
117.4641932160007
 20
43.70874394626889
 30
0.0
 40
3.5
  1
Winkelbogen DN70 90°
 41
0.7800000000000001
  7
GREEKS
100
AcDbText
  0
LINE
  5
18F
330
1E
100
AcDbEntity
  8
HILF
100
AcDbLine
 10
117.3868400548473
 20
24.99999999999999
 30
0.0
 11
162.4176958278155
 21
24.99999999999999
 31
0.0
  0
LINE
  5
190
330
1E
100
AcDbEntity
  8
HILF
100
AcDbLine
 10
117.3868400548473
 20
29.99999999999999
 30
0.0
 11
162.4176958278155
 21
29.99999999999999
 31
0.0
  0
LINE
  5
191
330
1E
100
AcDbEntity
  8
HILF
100
AcDbLine
 10
117.3868400548473
 20
34.99999999999997
 30
0.0
 11
162.4176958278155
 21
34.99999999999997
 31
0.0
  0
LINE
  5
192
330
1E
100
AcDbEntity
  8
HILF
100
AcDbLine
 10
117.3868400548473
 20
42.01879123782069
 30
0.0
 11
162.4176958278155
 21
42.01879123782069
 31
0.0
  0
LINE
  5
193
330
1E
100
AcDbEntity
  8
STEMPEL
100
AcDbLine
 10
115.0
 20
55.00000000000003
 30
0.0
 11
115.0
 21
4.999999999999985
 31
0.0
  0
TEXT
  5
194
330
1E
100
AcDbEntity
  8
TEXT
100
AcDbText
 10
117.5648195562657
 20
35.75167208792644
 30
0.0
 40
2.5
  1
mit engem Radius
 41
0.8
  7
GREEKS
100
AcDbText
  0
TEXT
  5
195
330
1E
100
AcDbEntity
  8
TEXT
100
AcDbText
 10
117.4918750788913
 20
21.31487076511316
 30
0.0
 40
2.0
  1
5500070W.DWG
 41
0.8
  7
GREEKS
100
AcDbText
  0
TEXT
  5
196
330
1E
100
AcDbEntity
  8
TEXT
100
AcDbText
 10
117.371119195568
 20
15.42280285096528
 30
0.0
 40
2.5
  1
Bauvorhaben
 41
0.8
  7
GREEKS
100
AcDbText
  0
TEXT
  5
197
330
1E
100
AcDbEntity
  8
TEXT
100
AcDbText
 10
117.4389701904505
 20
51.27446640058898
 30
0.0
 40
2.5
  1
Benennung
 41
0.8
  7
GREEKS
100
AcDbText
  0
LINE
  5
198
330
1E
100
AcDbEntity
  8
STEMPEL
100
AcDbLine
 10
166.0
 20
54.99999999999989
 30
0.0
 11
166.0
 21
20.0
 31
0.0
  0
TEXT
  5
19A
330
1E
100
AcDbEntity
  8
TEXT
 62
     1
100
AcDbText
 10
174.19635415039
 20
44.07450714456979
 30
0.0
 40
3.5
  1
5500070W
 41
0.8
  7
GREEKS
 72
     1
 11
184.8630208170567
 21
44.07450714456979
 31
0.0
100
AcDbText
  0
LINE
  5
1D4
330
1E
100
AcDbEntity
  8
STEMPEL
100
AcDbLine
 10
111.1544761660286
 20
91.04211744510751
 30
0.0
 11
39.02936280128784
 21
91.04211744510728
 31
0.0
  0
LINE
  5
1D7
330
1E
100
AcDbEntity
  8
STEMPEL
100
AcDbLine
 10
38.59191948365825
 20
96.04211744510728
 30
0.0
 11
39.02936280128784
 21
91.04211744510728
 31
0.0
  0
LINE
  5
1D8
330
1E
100
AcDbEntity
  8
STEMPEL
100
AcDbLine
 10
111.5919194836582
 20
96.04211744510797
 30
0.0
 11
111.1544761660286
 21
91.04211744510751
 31
0.0
  0
DIMENSION
  5
1DB
330
1E
100
AcDbEntity
  8
BEM
100
AcDbDimension
  2
*D1
 10
28.79930435052663
 20
211.0438891093635
 30
0.0
 11
25.54930435052659
 21
151.0430032772354
 31
0.0
 70
    32
 71
     5
 42
120.0017716642561
  3
Standard
100
AcDbAlignedDimension
 13
39.02936280128784
 23
91.04211744510731
 33
0.0
 14
75.09191948365823
 24
211.0438891093634
 34
0.0
 50
90.0
100
AcDbRotatedDimension
1001
ACAD
1000
DSTYLE
1002
{
1070
    41
1040
3.5
1070
    42
1040
1.0
1070
    43
1040
7.0
1070
    44
1040
1.0
1070
    73
1070
     0
1070
    74
1070
     0
1070
    77
1070
     1
1070
    78
1070
     8
1070
    79
1070
     2
1070
   140
1040
3.5
1070
   141
1040
1.5
1070
   146
1040
0.5142857142857144
1070
   147
1040
1.5
1070
   172
1070
     1
1070
   178
1070
     1
1070
   179
1070
     2
1070
   271
1070
     2
1070
   272
1070
     2
1070
   284
1070
     8
1070
   285
1070
     8
1070
   286
1070
     8
1002
}
  0
TEXT
  5
212
330
1E
100
AcDbEntity
  8
TEXT
100
AcDbText
 10
117.5648195562657
 20
25.75167208792646
 30
0.0
 40
2.5
  1
EDV-Art.Nr. 5.500.070C
 41
0.8
  7
GREEKS
100
AcDbText
  0
TEXT
  5
255
330
1E
100
AcDbEntity
  8
TEXT
 62
     1
100
AcDbText
 10
148.5286824677853
 20
66.1124331841006
 30
0.0
 40
3.5
  1
Werkstoff: 1.4404
 41
0.8
  7
GREEKS
100
AcDbText
  0
TEXT
  5
25D
330
1E
100
AcDbEntity
  8
TEXT
 62
     1
100
AcDbText
 10
66.70381640465122
 20
127.6736289053774
 30
0.0
 40
3.5
  1
DN70
 50
90.0
 41
0.8
  7
GREEKS
100
AcDbText
  0
LINE
  5
CE5
330
1E
100
AcDbEntity
  8
HILF
100
AcDbLine
 10
110.3419194836582
 20
96.04211744510756
 30
0.0
 11
39.84191948365825
 21
96.04211744510756
 31
0.0
  0
DIMENSION
  5
D41
330
1E
100
AcDbEntity
  8
BEM
100
AcDbDimension
  2
*D3
 10
111.5919194836582
 20
77.25457462909666
 30
0.0
 11
75.09191948365823
 21
80.50457462909667
 31
0.0
 70
    32
  1
%%c<>
 71
     5
 42
72.99999999999997
  3
Standard
100
AcDbAlignedDimension
 13
38.59191948365825
 23
96.04211744510751
 33
0.0
 14
111.5919194836582
 24
96.04211744510784
 34
0.0
100
AcDbRotatedDimension
1001
ACAD
1000
DSTYLE
1002
{
1070
    41
1040
3.5
1070
    42
1040
1.0
1070
    43
1040
7.0
1070
    44
1040
1.0
1070
    73
1070
     0
1070
    74
1070
     0
1070
    77
1070
     1
1070
    78
1070
     8
1070
    79
1070
     2
1070
   140
1040
3.5
1070
   141
1040
1.5
1070
   146
1040
0.5142857142857144
1070
   147
1040
1.5
1070
   172
1070
     1
1070
   178
1070
     1
1070
   179
1070
     2
1070
   271
1070
     2
1070
   272
1070
     2
1070
   284
1070
     8
1070
   285
1070
     8
1070
   286
1070
     8
1002
}
  0
LINE
  5
D68
330
1E
100
AcDbEntity
  8
STEMPEL
100
AcDbLine
 10
111.5919194836582
 20
161.0438891093634
 30
0.0
 11
111.5919194836582
 21
96.04211744510784
 31
0.0
  0
LINE
  5
D69
330
1E
100
AcDbEntity
  8
STEMPEL
100
AcDbLine
 10
38.59191948365826
 20
161.0438891093634
 30
0.0
 11
38.59191948365825
 21
96.04211744510751
 31
0.0
  0
LINE
  5
DAD
330
1E
100
AcDbEntity
  8
HILF
  6
Continuous
100
AcDbLine
 10
136.2171635339697
 20
246.7174447038489
 30
0.0
 11
136.2171635339696
 21
175.3703335148782
 31
0.0
  0
LINE
  5
DAE
330
1E
100
AcDbEntity
  8
HILF
  6
Continuous
100
AcDbLine
 10
162.5956854115784
 20
249.1756007356932
 30
0.0
 11
162.5956854115785
 21
172.9121774830338
 31
0.0
  0
LINE
  5
DAF
330
1E
100
AcDbEntity
  8
HILF
  6
Continuous
100
AcDbLine
 10
140.7388854576822
 20
248.6222776885881
 30
0.0
 11
140.7388854576822
 21
173.4655005301388
 31
0.0
  0
LINE
  5
DB1
330
1E
100
AcDbEntity
  8
STEMPEL
100
AcDbLine
 10
193.0936911479141
 20
171.7532512207831
 30
0.0
 11
193.0936911479142
 21
250.3345269979438
 31
0.0
  0
LINE
  5
DB2
330
1E
100
AcDbEntity
  8
STEMPEL
100
AcDbLine
 10
133.4501472426624
 20
247.5438891093636
 30
0.0
 11
125.0919194836581
 21
247.5438891093636
 31
0.0
  0
DIMENSION
  5
DB3
330
1E
100
AcDbEntity
  8
BEM
100
AcDbDimension
  2
*D4
 10
193.0936911479142
 20
268.6306375714397
 30
0.0
 11
134.0928053157862
 21
271.8806375714397
 31
0.0
 70
    32
 71
     5
 42
118.0017716642559
  3
Standard
100
AcDbAlignedDimension
 13
75.09191948365823
 23
211.0438891093634
 33
0.0
 14
193.0936911479142
 24
250.3345269979438
 34
0.0
 50
359.9999999999991
100
AcDbRotatedDimension
1001
ACAD
1000
DSTYLE
1002
{
1070
    41
1040
3.5
1070
    42
1040
1.0
1070
    43
1040
7.0
1070
    44
1040
1.0
1070
    73
1070
     0
1070
    74
1070
     0
1070
    77
1070
     1
1070
    78
1070
     8
1070
    79
1070
     2
1070
   140
1040
3.5
1070
   141
1040
1.5
1070
   146
1040
0.5142857142857144
1070
   147
1040
1.5
1070
   172
1070
     1
1070
   178
1070
     1
1070
   179
1070
     2
1070
   271
1070
     2
1070
   272
1070
     2
1070
   284
1070
     8
1070
   285
1070
     8
1070
   286
1070
     8
1002
}
  0
LINE
  5
DB4
330
1E
100
AcDbEntity
  8
STEMPEL
100
AcDbLine
 10
160.0959122301896
 20
250.1938891093635
 30
0.0
 11
143.3052220774872
 21
250.1938891093636
 31
0.0
  0
ARC
  5
DB5
330
1E
100
AcDbEntity
  8
STEMPEL
100
AcDbCircle
 10
133.4501472426624
 20
255.5438891093635
 30
0.0
 40
8.0
100
AcDbArc
 50
270.0
 51
300.1013105468023
  0
ARC
  5
DB6
330
1E
100
AcDbEntity
  8
STEMPEL
100
AcDbCircle
 10
143.3052220774872
 20
238.5438891093634
 30
0.0
 40
11.65
100
AcDbArc
 50
89.99999999999998
 51
120.1013105468009
  0
LINE
  5
DB7
330
1E
100
AcDbEntity
  8
STEMPEL
100
AcDbLine
 10
182.5949948501506
 20
252.6938891093635
 30
0.0
 11
173.5319711961051
 21
252.6938891093635
 31
0.0
  0
ARC
  5
DB8
330
1E
100
AcDbEntity
  8
STEMPEL
100
AcDbCircle
 10
160.0959122301895
 20
262.5438891093635
 30
0.0
 40
12.35
100
AcDbArc
 50
270.0
 51
291.1831543930343
  0
ARC
  5
DB9
330
1E
100
AcDbEntity
  8
STEMPEL
100
AcDbCircle
 10
173.4659122301897
 20
228.0438891093635
 30
0.0
 40
24.65009324312573
100
AcDbArc
 50
89.83825256874435
 51
111.1831543930343
  0
ARC
  5
DBA
330
1E
100
AcDbEntity
  8
STEMPEL
100
AcDbCircle
 10
182.5698817954648
 20
228.0439025851263
 30
0.0
 40
24.65
100
AcDbArc
 50
64.72715153216372
 51
90.06149027010312
  0
LINE
  5
DBB
330
1E
100
AcDbEntity
  8
STEMPEL
100
AcDbLine
 10
133.4501472426624
 20
174.5438891093634
 30
0.0
 11
125.0919194836582
 21
174.5438891093634
 31
0.0
  0
LINE
  5
DBC
330
1E
100
AcDbEntity
  8
MITTEL
100
AcDbLine
 10
198.0936911479142
 20
211.0438891093635
 30
0.0
 11
75.09191948365823
 21
211.0438891093634
 31
0.0
  0
LINE
  5
DBD
330
1E
100
AcDbEntity
  8
STEMPEL
100
AcDbLine
 10
160.0959122301896
 20
171.8938891093636
 30
0.0
 11
143.3052220774873
 21
171.8938891093635
 31
0.0
  0
ARC
  5
DBE
330
1E
100
AcDbEntity
  8
STEMPEL
100
AcDbCircle
 10
133.4501472426624
 20
166.5438891093635
 30
0.0
 40
8.0
100
AcDbArc
 50
59.89868945319764
 51
89.99999999999998
  0
ARC
  5
DBF
330
1E
100
AcDbEntity
  8
STEMPEL
100
AcDbCircle
 10
143.3052220774872
 20
183.5438891093637
 30
0.0
 40
11.65
100
AcDbArc
 50
239.8986894531991
 51
270.0
  0
LINE
  5
DC0
330
1E
100
AcDbEntity
  8
STEMPEL
100
AcDbLine
 10
182.5949948501505
 20
169.3938891093635
 30
0.0
 11
173.531971196105
 21
169.3938891093636
 31
0.0
  0
ARC
  5
DC1
330
1E
100
AcDbEntity
  8
STEMPEL
100
AcDbCircle
 10
173.4659122301897
 20
194.0438891093635
 30
0.0
 40
24.65009324312573
100
AcDbArc
 50
248.8168456069657
 51
270.1617474312556
  0
ARC
  5
DC2
330
1E
100
AcDbEntity
  8
STEMPEL
100
AcDbCircle
 10
160.0959122301895
 20
159.5438891093635
 30
0.0
 40
12.35
100
AcDbArc
 50
68.81684560696567
 51
89.99999999999998
  0
ARC
  5
DC3
330
1E
100
AcDbEntity
  8
STEMPEL
100
AcDbCircle
 10
182.5698817954648
 20
194.0438756336007
 30
0.0
 40
24.65
100
AcDbArc
 50
269.9385097298968
 51
295.2728484678362
  0
ARC
  5
EC6
330
1E
100
AcDbEntity
  8
MITTEL
100
AcDbCircle
 10
125.0919194836582
 20
161.0438891093634
 30
0.0
 40
50.0
100
AcDbArc
 50
90.00000000000003
 51
180.0
  0
ARC
  5
EC7
330
1E
100
AcDbEntity
  8
STEMPEL
100
AcDbCircle
 10
125.0919194836582
 20
161.0438891093634
 30
0.0
 40
86.5
100
AcDbArc
 50
90.0
 51
180.0
  0
ARC
  5
EC8
330
1E
100
AcDbEntity
  8
STEMPEL
100
AcDbCircle
 10
125.0919194836582
 20
161.0438891093634
 30
0.0
 40
13.5
100
AcDbArc
 50
89.99999999999976
 51
180.0
  0
LINE
  5
EC9
330
1E
100
AcDbEntity
  8
STEMPEL
100
AcDbLine
 10
63.9271829110219
 20
222.2086256819998
 30
0.0
 11
115.5459779376398
 21
170.5898306553818
 31
0.0
  0
ARC
  5
EE7
330
1E
100
AcDbEntity
  8
SCHRAFF
100
AcDbCircle
 10
62.15941595805552
 20
223.9763926349661
 30
0.0
 40
5.0
100
AcDbArc
 50
285.0
 51
344.9999999999999
  0
ARC
  5
EE8
330
1E
100
AcDbEntity
  8
SCHRAFF
100
AcDbCircle
 10
65.69494986398827
 20
220.4408587290334
 30
0.0
 40
5.0
100
AcDbArc
 50
285.0
 51
344.9999999999999
  0
ARC
  5
EE9
330
1E
100
AcDbEntity
  8
SCHRAFF
100
AcDbCircle
 10
69.23048376992101
 20
216.9053248231007
 30
0.0
 40
5.0
100
AcDbArc
 50
285.0000000000004
 51
345.0000000000003
  0
ARC
  5
EEA
330
1E
100
AcDbEntity
  8
SCHRAFF
100
AcDbCircle
 10
72.76601767585376
 20
213.3697909171679
 30
0.0
 40
5.0
100
AcDbArc
 50
285.0
 51
344.9999999999999
  0
ARC
  5
EEC
330
1E
100
AcDbEntity
  8
SCHRAFF
100
AcDbCircle
 10
76.30155158178649
 20
209.8342570112352
 30
0.0
 40
5.0
100
AcDbArc
 50
285.0
 51
344.9999999999999
  0
ARC
  5
EED
330
1E
100
AcDbEntity
  8
SCHRAFF
100
AcDbCircle
 10
79.83708548771923
 20
206.2987231053025
 30
0.0
 40
5.0
100
AcDbArc
 50
285.0
 51
344.9999999999999
  0
ARC
  5
EEE
330
1E
100
AcDbEntity
  8
SCHRAFF
100
AcDbCircle
 10
83.37261939365196
 20
202.7631891993697
 30
0.0
 40
5.0
100
AcDbArc
 50
285.0
 51
344.9999999999999
  0
ARC
  5
EEF
330
1E
100
AcDbEntity
  8
SCHRAFF
100
AcDbCircle
 10
86.9081532995847
 20
199.2276552934369
 30
0.0
 40
5.0
100
AcDbArc
 50
285.0000000000004
 51
345.0000000000003
  0
ARC
  5
EF0
330
1E
100
AcDbEntity
  8
SCHRAFF
100
AcDbCircle
 10
90.44368720551744
 20
195.6921213875042
 30
0.0
 40
5.0
100
AcDbArc
 50
285.0
 51
344.9999999999999
  0
ARC
  5
EF1
330
1E
100
AcDbEntity
  8
SCHRAFF
100
AcDbCircle
 10
93.97922111145019
 20
192.1565874815715
 30
0.0
 40
5.0
100
AcDbArc
 50
285.0
 51
344.9999999999999
  0
ARC
  5
EF2
330
1E
100
AcDbEntity
  8
SCHRAFF
100
AcDbCircle
 10
97.51475501738292
 20
188.6210535756387
 30
0.0
 40
5.0
100
AcDbArc
 50
285.0
 51
344.9999999999999
  0
ARC
  5
EF3
330
1E
100
AcDbEntity
  8
SCHRAFF
100
AcDbCircle
 10
101.0502889233156
 20
185.085519669706
 30
0.0
 40
5.0
100
AcDbArc
 50
285.0
 51
344.9999999999999
  0
ARC
  5
EF4
330
1E
100
AcDbEntity
  8
SCHRAFF
100
AcDbCircle
 10
104.5858228292484
 20
181.5499857637732
 30
0.0
 40
5.0
100
AcDbArc
 50
285.0000000000004
 51
345.0000000000003
  0
ARC
  5
EF5
330
1E
100
AcDbEntity
  8
SCHRAFF
100
AcDbCircle
 10
108.1213567351811
 20
178.0144518578405
 30
0.0
 40
5.0
100
AcDbArc
 50
285.0
 51
344.9999999999999
  0
ARC
  5
EF6
330
1E
100
AcDbEntity
  8
SCHRAFF
100
AcDbCircle
 10
111.6568906411139
 20
174.4789179519078
 30
0.0
 40
5.0
100
AcDbArc
 50
285.0
 51
344.9999999999999
  0
ARC
  5
EF8
330
1E
100
AcDbEntity
  8
SCHRAFF
100
AcDbCircle
 10
114.3060792525659
 20
171.8297293404558
 30
0.0
 40
3.19344625107037
100
AcDbArc
 50
263.4774297756296
 51
6.522570224370294
  0
ARC
  5
EF9
330
1E
100
AcDbEntity
  8
SCHRAFF
100
AcDbCircle
 10
65.08523731066222
 20
221.0505712823595
 30
0.0
 40
2.969028029146136
100
AcDbArc
 50
77.64527423180647
 51
192.354725768193
  0
HATCH
  5
EFF
330
1E
100
AcDbEntity
  8
SCHRAFF
100
AcDbHatch
 10
0.0
 20
0.0
 30
0.0
210
0.0
220
0.0
230
1.0
  2
_USER
 70
     0
 71
     0
 91
        1
 92
        7
 72
     1
 73
     1
 93
        2
 10
62.18496706016082
 20
220.4153076269282
 42
-0.0144538860523412
 10
65.72050096609354
 20
223.9508415328609
 42
0.5469706025359404
 97
        0
 75
     0
 76
     0
 52
-1.500000000000022
 41
0.1
 77
     0
 78
     1
 53
358.5
 43
-8.205725901733927
 44
0.6076209860802067
 45
0.0026176948307874
 46
0.0999657324975558
 79
     0
 47
0.0563433416782171
 98
        1
 10
63.30184167159399
 20
222.6182564690624
  0
HATCH
  5
F02
330
1E
100
AcDbEntity
  8
SCHRAFF
100
AcDbHatch
 10
0.0
 20
0.0
 30
0.0
210
0.0
220
0.0
230
1.0
  2
_USER
 70
     0
 71
     0
 91
        1
 92
        7
 72
     1
 73
     1
 93
        2
 10
117.4788549169778
 20
172.1924875819766
 42
0.0934003354313608
 10
113.943321011045
 20
168.6569536760439
 42
0.482585550436733
 97
        0
 75
     0
 76
     0
 52
-1.500000000000022
 41
0.1
 77
     0
 78
     1
 53
358.5
 43
-8.205725901733927
 44
0.6076209860802067
 45
0.0026176948307874
 46
0.0999657324975558
 79
     0
 47
0.0539957026145032
 98
        1
 10
115.4963241892162
 20
169.5234948182305
  0
TEXT
  5
F03
330
1E
100
AcDbEntity
  8
TEXT
100
AcDbText
 10
117.5648195562657
 20
30.75167208792646
 30
0.0
 40
2.5
  1
dünnwandig
 41
0.8
  7
GREEKS
100
AcDbText
  0
DIMENSION
  5
F06
330
1E
100
AcDbEntity
  8
BEM
100
AcDbDimension
  2
*D5
 10
125.0919194836584
 20
161.0438891093633
 30
0.0
 11
106.2300806988538
 21
193.8401106717195
 31
0.0
 70
   164
 71
     5
 42
50.00000000000014
  3
Standard
100
AcDbRadialDimension
 15
100.1643792394233
 25
204.3869132005831
 35
0.0
 40
0.0
1001
ACAD
1000
DSTYLE
1002
{
1070
    41
1040
3.5
1070
    42
1040
1.0
1070
    43
1040
7.0
1070
    44
1040
1.0
1070
    73
1070
     0
1070
    74
1070
     0
1070
    77
1070
     1
1070
    78
1070
     8
1070
    79
1070
     2
1070
   140
1040
3.5
1070
   141
1040
1.5
1070
   146
1040
0.5142857142857144
1070
   147
1040
1.5
1070
   172
1070
     1
1070
   178
1070
     1
1070
   179
1070
     2
1070
   271
1070
     2
1070
   272
1070
     2
1070
   284
1070
     8
1070
   285
1070
     8
1070
   286
1070
     8
1070
   288
1070
     1
1002
}
  0
DIMENSION
  5
F3C
330
1E
100
AcDbEntity
  8
BEM
100
AcDbDimension
  2
*D6
 10
75.09191948365828
 20
86.04211744510756
 30
0.0
 11
107.2787202032566
 21
249.6384021857636
 31
0.0
 70
   162
 71
     5
 42
1.570796326794894
  3
Standard
100
AcDb2LineAngularDimension
 13
198.0936911479142
 23
211.0438891093635
 33
0.0
 14
75.09191948365823
 24
211.0438891093634
 34
0.0
 15
75.09191948365823
 25
211.0438891093634
 35
0.0
 16
118.6136948969576
 26
236.1711978598424
 36
0.0
1001
ACAD
1000
DSTYLE
1002
{
1070
    41
1040
3.5
1070
    42
1040
1.0
1070
    43
1040
7.0
1070
    44
1040
1.0
1070
    73
1070
     0
1070
    74
1070
     0
1070
    77
1070
     1
1070
    78
1070
     8
1070
    79
1070
     2
1070
   140
1040
3.5
1070
   141
1040
1.5
1070
   146
1040
0.5142857142857144
1070
   147
1040
1.5
1070
   172
1070
     1
1070
   178
1070
     1
1070
   179
1070
     2
1070
   271
1070
     2
1070
   272
1070
     2
1070
   284
1070
     8
1070
   285
1070
     8
1070
   286
1070
     8
1002
}
  0
TEXT
  5
FF9
330
1E
100
AcDbEntity
  8
TEXT
100
AcDbText
 10
20.92754975488837
 20
55.83599999999997
 30
0.0
 40
2.5
  1
Erstellt mit AUTOCAD 2004
 41
0.8
  7
GREEKS
100
AcDbText
  0
TEXT
  5
FFA
330
1E
100
AcDbEntity
  8
TEXT
100
AcDbText
 10
96.34413576239619
 20
44.50323185339641
 30
0.0
 40
2.0
  1
DIN EN1124-3
 41
0.8
  7
GREEKS
 72
     1
 11
104.8393738576343
 21
44.50323185339641
 31
0.0
100
AcDbText
  0
TEXT
  5
FFB
330
1E
100
AcDbEntity
  8
TEXT
100
AcDbText
 10
55.17481598333814
 20
9.33578134669905
 30
0.0
 40
2.0
  1
Tag
 41
0.8
  7
GREEKS
 72
     1
 11
57.04148265000481
 21
9.33578134669905
 31
0.0
100
AcDbText
  0
TEXT
  5
FFC
330
1E
100
AcDbEntity
  8
TEXT
100
AcDbText
 10
33.49933939241158
 20
9.336909474920659
 30
0.0
 40
2.0
  1
Änderung
 41
0.8
  7
GREEKS
 72
     1
 11
38.87076796384015
 21
9.336909474920659
 31
0.0
100
AcDbText
  0
TEXT
  5
FFD
330
1E
100
AcDbEntity
  8
TEXT
100
AcDbText
 10
64.61958341495059
 20
9.29662108483204
 30
0.0
 40
2.0
  1
Name
 41
0.8
  7
GREEKS
 72
     1
 11
67.78148817685536
 21
9.29662108483204
 31
0.0
100
AcDbText
  0
TEXT
  5
FFE
330
1E
100
AcDbEntity
  8
TEXT
100
AcDbText
 10
76.75817860751886
 20
51.23104475435443
 30
0.0
 40
2.5
  1
Maßstab
 41
0.8
  7
GREEKS
100
AcDbText
  0
TEXT
  5
FFF
330
1E
100
AcDbEntity
  8
TEXT
100
AcDbText
 10
168.3619308148496
 20
36.59059118549985
 30
0.0
 40
2.5
  1
Ersatz für:
 41
0.8
  7
GREEKS
100
AcDbText
  0
TEXT
  5
1000
330
1E
100
AcDbEntity
  8
BEM
100
AcDbText
 10
208.2905770718718
 20
6.074024076691515
 30
0.0
 40
2.0
  1
Diese Zeichnung ist urheberrechtlich geschützt und bleibt unser Eigentum. Sie darf weder ganz noch teilweise vervielfältigt und nicht an Dritte weitergegeben werden.
 50
90.0
 41
0.8
  7
GREEKS
100
AcDbText
  0
TEXT
  5
1038
330
1E
100
AcDbEntity
  8
TEXT
100
AcDbText
 10
85.50426045887993
 20
31.55382520412866
 30
0.0
 40
2.0
  1
11.04.
 41
0.8
  7
GREEKS
 72
     1
 11
88.70426045887993
 21
31.55382520412866
 31
0.0
100
AcDbText
  0
ENDSEC
  0
SECTION
  2
OBJECTS
  0
DICTIONARY
  5
C
330
0
100
AcDbDictionary
281
     1
  3
ACAD_COLOR
350
F76
  3
ACAD_GROUP
350
D
  3
ACAD_LAYOUT
350
19
  3
ACAD_MATERIAL
350
F75
  3
ACAD_MLINESTYLE
350
16
  3
ACAD_PLOTSETTINGS
350
18
  3
ACAD_PLOTSTYLENAME
350
E
  3
AcDbVariableDictionary
350
246
  0
DICTIONARY
  5
F76
102
{ACAD_REACTORS
330
C
102
}
330
C
100
AcDbDictionary
281
     1
  0
DICTIONARY
  5
D
102
{ACAD_REACTORS
330
C
102
}
330
C
100
AcDbDictionary
281
     1
  0
DICTIONARY
  5
19
102
{ACAD_REACTORS
330
C
102
}
330
C
100
AcDbDictionary
281
     1
  3
Layout1
350
1D
  3
Model
350
21
  0
DICTIONARY
  5
F75
102
{ACAD_REACTORS
330
C
102
}
330
C
100
AcDbDictionary
281
     1
  0
DICTIONARY
  5
16
102
{ACAD_REACTORS
330
C
102
}
330
C
100
AcDbDictionary
281
     1
  3
Standard
350
17
  0
DICTIONARY
  5
18
102
{ACAD_REACTORS
330
C
102
}
330
C
100
AcDbDictionary
281
     1
  0
ACDBDICTIONARYWDFLT
  5
E
102
{ACAD_REACTORS
330
C
102
}
330
C
100
AcDbDictionary
281
     1
  3
Normal
350
F
100
AcDbDictionaryWithDefault
340
F
  0
DICTIONARY
  5
246
102
{ACAD_REACTORS
330
C
102
}
330
C
100
AcDbDictionary
281
     1
  3
DIMASSOC
350
1009
  3
PROJECTNAME
350
100A
  3
SORTENTS
350
247
  0
LAYOUT
  5
1D
102
{ACAD_REACTORS
330
19
102
}
330
19
100
AcDbPlotSettings
  1

  2
Tektronix Phaser 740
  4

  6

 40
0.0
 41
0.0
 42
0.0
 43
0.0
 44
0.0
 45
0.0
 46
0.0
 47
0.0
 48
0.0
 49
0.0
140
0.0
141
0.0
142
1.0
143
1.0
 70
   688
 72
     0
 73
     0
 74
     5
  7
monochrome.ctb
 75
    16
147
1.0
 76
     0
 77
     2
 78
   300
148
0.0
149
0.0
100
AcDbLayout
  1
Layout1
 70
     0
 71
     1
 10
0.0
 20
0.0
 11
12.0
 21
9.0
 12
0.0
 22
0.0
 32
0.0
 14
1.000000000000000E+20
 24
1.000000000000000E+20
 34
1.000000000000000E+20
 15
-1.000000000000000E+20
 25
-1.000000000000000E+20
 35
-1.000000000000000E+20
146
0.0
 13
0.0
 23
0.0
 33
0.0
 16
1.0
 26
0.0
 36
0.0
 17
0.0
 27
1.0
 37
0.0
 76
     0
330
1A
  0
LAYOUT
  5
21
102
{ACAD_REACTORS
330
19
102
}
330
19
100
AcDbPlotSettings
  1

  2
Tektronix Phaser 740
  4
A4
  6

 40
5.873749732971191
 41
6.085414409637451
 42
5.577407836914062
 43
5.662078857421875
 44
209.9733276367187
 45
296.9683227539062
 46
0.0
 47
0.0
 48
0.0
 49
0.0
140
0.0
141
0.0
142
1.0
143
1.0
 70
 11952
 72
     0
 73
     1
 74
     0
  7
monochrome.ctb
 75
     0
147
1.0
 76
     0
 77
     2
 78
   300
148
1150.120678237584
149
45.30495740799864
100
AcDbLayout
  1
Model
 70
     1
 71
     0
 10
0.0
 20
0.0
 11
12.0
 21
9.0
 12
0.0
 22
0.0
 32
0.0
 14
0.0
 24
0.0
 34
0.0
 15
0.0
 25
0.0
 35
0.0
146
0.0
 13
0.0
 23
0.0
 33
0.0
 16
1.0
 26
0.0
 36
0.0
 17
0.0
 27
1.0
 37
0.0
 76
     0
330
1E
  0
MLINESTYLE
  5
17
102
{ACAD_REACTORS
330
16
102
}
330
16
100
AcDbMlineStyle
  2
STANDARD
 70
     0
  3

 62
   256
 51
90.0
 52
90.0
 71
     2
 49
0.5
 62
   256
  6
BYLAYER
 49
-0.5
 62
   256
  6
BYLAYER
  0
ACDBPLACEHOLDER
  5
F
102
{ACAD_REACTORS
330
E
102
}
330
E
  0
DICTIONARYVAR
  5
1009
102
{ACAD_REACTORS
330
246
102
}
330
246
100
DictionaryVariables
280
     0
  1
1
  0
DICTIONARYVAR
  5
100A
102
{ACAD_REACTORS
330
246
102
}
330
246
100
DictionaryVariables
280
     0
  1

  0
DICTIONARYVAR
  5
247
102
{ACAD_REACTORS
330
246
102
}
330
246
100
DictionaryVariables
280
     0
  1
96
  0
ENDSEC
  0
EOF
