  0
SECTION
  2
HEADER
  9
$ACADVER
  1
AC1018
  9
$ACADMAINTVER
 70
     2
  9
$DWGCODEPAGE
  3
ANSI_1252
  9
$INSBASE
 10
0.0
 20
0.0
 30
0.0
  9
$EXTMIN
 10
-0.0192082752314491
 20
-0.0271659892566731
 30
-0.0000000000000019
  9
$EXTMAX
 10
420.0192346800471
 20
594.0272033332087
 30
0.0000000000000133
  9
$LIMMIN
 10
0.0
 20
0.0
  9
$LIMMAX
 10
419.9999999999999
 20
594.0
  9
$ORTHOMODE
 70
     1
  9
$REGENMODE
 70
     1
  9
$FILLMODE
 70
     1
  9
$QTEXTMODE
 70
     0
  9
$MIRRTEXT
 70
     1
  9
$LTSCALE
 40
20.0
  9
$ATTMODE
 70
     1
  9
$TEXTSIZE
 40
3.5
  9
$TRACEWID
 40
0.5
  9
$TEXTSTYLE
  7
STANDARD
  9
$CLAYER
  8
SCHRAFF
  9
$CELTYPE
  6
ByLayer
  9
$CECOLOR
 62
   256
  9
$CELTSCALE
 40
1.0
  9
$DISPSILH
 70
     0
  9
$DIMSCALE
 40
2.0
  9
$DIMASZ
 40
3.5
  9
$DIMEXO
 40
1.0
  9
$DIMDLI
 40
7.0
  9
$DIMRND
 40
0.0
  9
$DIMDLE
 40
0.0
  9
$DIMEXE
 40
1.0
  9
$DIMTP
 40
0.0
  9
$DIMTM
 40
0.0
  9
$DIMTXT
 40
3.5
  9
$DIMCEN
 40
1.5
  9
$DIMTSZ
 40
0.0
  9
$DIMTOL
 70
     0
  9
$DIMLIM
 70
     0
  9
$DIMTIH
 70
     0
  9
$DIMTOH
 70
     0
  9
$DIMSE1
 70
     0
  9
$DIMSE2
 70
     0
  9
$DIMTAD
 70
     1
  9
$DIMZIN
 70
     8
  9
$DIMBLK
  1

  9
$DIMASO
 70
     1
  9
$DIMSHO
 70
     0
  9
$DIMPOST
  1

  9
$DIMAPOST
  1

  9
$DIMALT
 70
     0
  9
$DIMALTD
 70
     2
  9
$DIMALTF
 40
25.4
  9
$DIMLFAC
 40
1.0
  9
$DIMTOFL
 70
     1
  9
$DIMTVP
 40
0.0
  9
$DIMTIX
 70
     0
  9
$DIMSOXD
 70
     0
  9
$DIMSAH
 70
     0
  9
$DIMBLK1
  1

  9
$DIMBLK2
  1

  9
$DIMSTYLE
  2
Standard
  9
$DIMCLRD
 70
     0
  9
$DIMCLRE
 70
     0
  9
$DIMCLRT
 70
     1
  9
$DIMTFAC
 40
0.5142857142857144
  9
$DIMGAP
 40
1.5
  9
$DIMJUST
 70
     0
  9
$DIMSD1
 70
     0
  9
$DIMSD2
 70
     0
  9
$DIMTOLJ
 70
     1
  9
$DIMTZIN
 70
     8
  9
$DIMALTZ
 70
     8
  9
$DIMALTTZ
 70
     8
  9
$DIMUPT
 70
     0
  9
$DIMDEC
 70
     2
  9
$DIMTDEC
 70
     2
  9
$DIMALTU
 70
     2
  9
$DIMALTTD
 70
     2
  9
$DIMTXSTY
  7
STANDARD
  9
$DIMAUNIT
 70
     0
  9
$DIMADEC
 70
     2
  9
$DIMALTRND
 40
0.0
  9
$DIMAZIN
 70
     2
  9
$DIMDSEP
 70
    46
  9
$DIMATFIT
 70
     3
  9
$DIMFRAC
 70
     0
  9
$DIMLDRBLK
  1

  9
$DIMLUNIT
 70
     2
  9
$DIMLWD
 70
    -2
  9
$DIMLWE
 70
    -2
  9
$DIMTMOVE
 70
     0
  9
$LUNITS
 70
     2
  9
$LUPREC
 70
     2
  9
$SKETCHINC
 40
1.0
  9
$FILLETRAD
 40
70.0
  9
$AUNITS
 70
     1
  9
$AUPREC
 70
     3
  9
$MENU
  1
ACAD
  9
$ELEVATION
 40
0.0
  9
$PELEVATION
 40
0.0
  9
$THICKNESS
 40
0.0
  9
$LIMCHECK
 70
     0
  9
$CHAMFERA
 40
0.0
  9
$CHAMFERB
 40
0.0
  9
$CHAMFERC
 40
0.0
  9
$CHAMFERD
 40
0.0
  9
$SKPOLY
 70
     0
  9
$TDCREATE
 40
2452040.637099653
  9
$TDUCREATE
 40
2452040.553766320
  9
$TDUPDATE
 40
2455663.480040301
  9
$TDUUPDATE
 40
2455663.396706968
  9
$TDINDWG
 40
0.2883984375
  9
$TDUSRTIMER
 40
0.2883984375
  9
$USRTIMER
 70
     1
  9
$ANGBASE
 50
0.0
  9
$ANGDIR
 70
     0
  9
$PDMODE
 70
     0
  9
$PDSIZE
 40
0.0
  9
$PLINEWID
 40
0.0
  9
$SPLFRAME
 70
     0
  9
$SPLINETYPE
 70
     6
  9
$SPLINESEGS
 70
     8
  9
$HANDSEED
  5
161E
  9
$SURFTAB1
 70
     6
  9
$SURFTAB2
 70
     6
  9
$SURFTYPE
 70
     6
  9
$SURFU
 70
     6
  9
$SURFV
 70
     6
  9
$UCSBASE
  2

  9
$UCSNAME
  2

  9
$UCSORG
 10
0.0
 20
0.0
 30
0.0
  9
$UCSXDIR
 10
1.0
 20
0.0
 30
0.0
  9
$UCSYDIR
 10
0.0
 20
1.0
 30
0.0
  9
$UCSORTHOREF
  2

  9
$UCSORTHOVIEW
 70
     0
  9
$UCSORGTOP
 10
0.0
 20
0.0
 30
0.0
  9
$UCSORGBOTTOM
 10
0.0
 20
0.0
 30
0.0
  9
$UCSORGLEFT
 10
0.0
 20
0.0
 30
0.0
  9
$UCSORGRIGHT
 10
0.0
 20
0.0
 30
0.0
  9
$UCSORGFRONT
 10
0.0
 20
0.0
 30
0.0
  9
$UCSORGBACK
 10
0.0
 20
0.0
 30
0.0
  9
$PUCSBASE
  2

  9
$PUCSNAME
  2

  9
$PUCSORG
 10
0.0
 20
0.0
 30
0.0
  9
$PUCSXDIR
 10
1.0
 20
0.0
 30
0.0
  9
$PUCSYDIR
 10
0.0
 20
1.0
 30
0.0
  9
$PUCSORTHOREF
  2

  9
$PUCSORTHOVIEW
 70
     0
  9
$PUCSORGTOP
 10
0.0
 20
0.0
 30
0.0
  9
$PUCSORGBOTTOM
 10
0.0
 20
0.0
 30
0.0
  9
$PUCSORGLEFT
 10
0.0
 20
0.0
 30
0.0
  9
$PUCSORGRIGHT
 10
0.0
 20
0.0
 30
0.0
  9
$PUCSORGFRONT
 10
0.0
 20
0.0
 30
0.0
  9
$PUCSORGBACK
 10
0.0
 20
0.0
 30
0.0
  9
$USERI1
 70
     0
  9
$USERI2
 70
     0
  9
$USERI3
 70
     0
  9
$USERI4
 70
     0
  9
$USERI5
 70
     0
  9
$USERR1
 40
0.0
  9
$USERR2
 40
0.0
  9
$USERR3
 40
0.0
  9
$USERR4
 40
0.0
  9
$USERR5
 40
0.0
  9
$WORLDVIEW
 70
     1
  9
$SHADEDGE
 70
     3
  9
$SHADEDIF
 70
    70
  9
$TILEMODE
 70
     1
  9
$MAXACTVP
 70
    16
  9
$PINSBASE
 10
0.0
 20
0.0
 30
0.0
  9
$PLIMCHECK
 70
     0
  9
$PEXTMIN
 10
1.000000000000000E+20
 20
1.000000000000000E+20
 30
1.000000000000000E+20
  9
$PEXTMAX
 10
-1.000000000000000E+20
 20
-1.000000000000000E+20
 30
-1.000000000000000E+20
  9
$PLIMMIN
 10
0.0
 20
0.0
  9
$PLIMMAX
 10
12.0
 20
9.0
  9
$UNITMODE
 70
     0
  9
$VISRETAIN
 70
     0
  9
$PLINEGEN
 70
     0
  9
$PSLTSCALE
 70
     0
  9
$TREEDEPTH
 70
  3020
  9
$CMLSTYLE
  2
Standard
  9
$CMLJUST
 70
     0
  9
$CMLSCALE
 40
1.0
  9
$PROXYGRAPHICS
 70
     1
  9
$MEASUREMENT
 70
     0
  9
$CELWEIGHT
370
    -1
  9
$ENDCAPS
280
     0
  9
$JOINSTYLE
280
     0
  9
$LWDISPLAY
290
     0
  9
$INSUNITS
 70
     0
  9
$HYPERLINKBASE
  1

  9
$STYLESHEET
  1
monochrome 1.ctb
  9
$XEDIT
290
     1
  9
$CEPSNTYPE
380
     0
  9
$PSTYLEMODE
290
     1
  9
$FINGERPRINTGUID
  2
{7AADB5C8-6110-11D8-B72B-000102183313}
  9
$VERSIONGUID
  2
{682DC287-C735-4AB9-8D49-9EDDD7003059}
  9
$EXTNAMES
290
     1
  9
$PSVPSCALE
 40
0.0
  9
$OLESTARTUP
290
     0
  9
$SORTENTS
280
    96
  9
$INDEXCTL
280
     0
  9
$HIDETEXT
280
     0
  9
$XCLIPFRAME
290
     0
  9
$HALOGAP
280
     0
  9
$OBSCOLOR
 70
   257
  9
$OBSLTYPE
280
     0
  9
$INTERSECTIONDISPLAY
280
     0
  9
$INTERSECTIONCOLOR
 70
   257
  9
$DIMASSOC
280
     1
  9
$PROJECTNAME
  1

  0
ENDSEC
  0
SECTION
  2
CLASSES
  0
CLASS
  1
ACDBDICTIONARYWDFLT
  2
AcDbDictionaryWithDefault
  3
ObjectDBX Classes
 90
        0
 91
        1
280
     0
281
     0
  0
CLASS
  1
DICTIONARYVAR
  2
AcDbDictionaryVar
  3
ObjectDBX Classes
 90
        0
 91
        3
280
     0
281
     0
  0
ENDSEC
  0
SECTION
  2
TABLES
  0
TABLE
  2
VPORT
  5
8
330
0
100
AcDbSymbolTable
 70
     3
  0
VPORT
  5
161D
330
8
100
AcDbSymbolTableRecord
100
AcDbViewportTableRecord
  2
*Active
 70
     0
 10
0.0
 20
0.0
 11
1.0
 21
1.0
 12
210.0
 22
297.0
 13
0.0
 23
0.0
 14
1.0
 24
1.0
 15
10.0
 25
10.0
 16
0.0
 26
0.0
 36
1.0
 17
0.0
 27
0.0
 37
0.0
 40
594.0
 41
1.334231805929919
 42
50.0
 43
0.0
 44
0.0
 50
0.0
 51
0.0
 71
     0
 72
  1500
 73
     1
 74
     0
 75
     0
 76
     0
 77
     0
 78
     0
281
     0
 65
     1
110
0.0
120
0.0
130
0.0
111
1.0
121
0.0
131
0.0
112
0.0
122
1.0
132
0.0
 79
     0
146
0.0
  0
ENDTAB
  0
TABLE
  2
LTYPE
  5
5
330
0
100
AcDbSymbolTable
 70
     2
  0
LTYPE
  5
13
330
5
100
AcDbSymbolTableRecord
100
AcDbLinetypeTableRecord
  2
ByBlock
 70
     0
  3

 72
    65
 73
     0
 40
0.0
  0
LTYPE
  5
14
330
5
100
AcDbSymbolTableRecord
100
AcDbLinetypeTableRecord
  2
ByLayer
 70
     0
  3

 72
    65
 73
     0
 40
0.0
  0
LTYPE
  5
15
330
5
100
AcDbSymbolTableRecord
100
AcDbLinetypeTableRecord
  2
Continuous
 70
     0
  3
Solid line
 72
    65
 73
     0
 40
0.0
  0
LTYPE
  5
35
330
5
100
AcDbSymbolTableRecord
100
AcDbLinetypeTableRecord
  2
STRICHPUNKT
 70
     0
  3
__ . __ . __ . __ . __ . __ . __ . __ . __ . __
 72
    65
 73
     4
 40
1.0
 49
0.5
 74
     0
 49
-0.25
 74
     0
 49
0.0
 74
     0
 49
-0.25
 74
     0
  0
ENDTAB
  0
TABLE
  2
LAYER
  5
2
330
0
100
AcDbSymbolTable
 70
     9
  0
LAYER
  5
10
330
2
100
AcDbSymbolTableRecord
100
AcDbLayerTableRecord
  2
0
 70
     0
 62
     7
  6
Continuous
370
    -3
390
F
  0
LAYER
  5
38
330
2
100
AcDbSymbolTableRecord
100
AcDbLayerTableRecord
  2
VOLL
 70
     0
 62
     1
  6
Continuous
370
    -3
390
F
  0
LAYER
  5
39
330
2
100
AcDbSymbolTableRecord
100
AcDbLayerTableRecord
  2
HILF
 70
     0
 62
     2
  6
Continuous
370
    -3
390
F
  0
LAYER
  5
3A
330
2
100
AcDbSymbolTableRecord
100
AcDbLayerTableRecord
  2
MITTEL
 70
     0
 62
     2
  6
STRICHPUNKT
370
    -3
390
F
  0
LAYER
  5
3B
330
2
100
AcDbSymbolTableRecord
100
AcDbLayerTableRecord
  2
BEM
 70
     0
 62
     7
  6
Continuous
370
    -3
390
F
  0
LAYER
  5
3C
330
2
100
AcDbSymbolTableRecord
100
AcDbLayerTableRecord
  2
STEMPEL
 70
     0
 62
     3
  6
Continuous
370
    -3
390
F
  0
LAYER
  5
3D
330
2
100
AcDbSymbolTableRecord
100
AcDbLayerTableRecord
  2
TEXT
 70
     0
 62
     7
  6
Continuous
370
    -3
390
F
  0
LAYER
  5
3E
330
2
100
AcDbSymbolTableRecord
100
AcDbLayerTableRecord
  2
DEFPOINTS
 70
     0
 62
     7
  6
Continuous
290
     0
370
    -3
390
F
  0
LAYER
  5
3F
330
2
100
AcDbSymbolTableRecord
100
AcDbLayerTableRecord
  2
SCHRAFF
 70
     0
 62
     7
  6
Continuous
370
    -3
390
F
  0
ENDTAB
  0
TABLE
  2
STYLE
  5
3
330
0
100
AcDbSymbolTable
 70
     2
  0
STYLE
  5
11
330
3
100
AcDbSymbolTableRecord
100
AcDbTextStyleTableRecord
  2
STANDARD
 70
     0
 40
0.0
 41
0.8
 50
0.0
 71
     0
 42
3.5
  3
simplex.shx
  4

  0
STYLE
  5
34
330
3
100
AcDbSymbolTableRecord
100
AcDbTextStyleTableRecord
  2
GREEKS
 70
     0
 40
0.0
 41
0.8
 50
0.0
 71
     0
 42
2.5
  3
SIMPLEX.shx
  4

  0
ENDTAB
  0
TABLE
  2
VIEW
  5
6
330
0
100
AcDbSymbolTable
 70
     0
  0
ENDTAB
  0
TABLE
  2
UCS
  5
7
330
0
100
AcDbSymbolTable
 70
     0
  0
ENDTAB
  0
TABLE
  2
APPID
  5
9
330
0
100
AcDbSymbolTable
 70
     2
  0
APPID
  5
12
330
9
100
AcDbSymbolTableRecord
100
AcDbRegAppTableRecord
  2
ACAD
 70
     0
  0
APPID
  5
DDB
330
9
100
AcDbSymbolTableRecord
100
AcDbRegAppTableRecord
  2
AVE_RENDER
 70
     0
  0
ENDTAB
  0
TABLE
  2
DIMSTYLE
  5
A
330
0
100
AcDbSymbolTable
 70
     1
100
AcDbDimStyleTable
 71
     1
340
1CB
  0
DIMSTYLE
105
1CB
102
{ACAD_REACTORS
330
1491
330
1492
330
1493
330
1494
102
}
330
A
100
AcDbSymbolTableRecord
100
AcDbDimStyleTableRecord
  2
Standard
 70
     0
340
11
  0
ENDTAB
  0
TABLE
  2
BLOCK_RECORD
  5
1
330
0
100
AcDbSymbolTable
 70
     7
  0
BLOCK_RECORD
  5
1E
330
1
100
AcDbSymbolTableRecord
100
AcDbBlockTableRecord
  2
*Model_Space
340
21
  0
BLOCK_RECORD
  5
1A
330
1
100
AcDbSymbolTableRecord
100
AcDbBlockTableRecord
  2
*Paper_Space
340
1D
  0
BLOCK_RECORD
  5
22
330
1
100
AcDbSymbolTableRecord
100
AcDbBlockTableRecord
  2
LOGO
340
0
102
{BLKREFS
331
135
102
}
  0
BLOCK_RECORD
  5
1501
330
1
100
AcDbSymbolTableRecord
100
AcDbBlockTableRecord
  2
*D3
340
0
  0
BLOCK_RECORD
  5
1510
330
1
100
AcDbSymbolTableRecord
100
AcDbBlockTableRecord
  2
*D4
340
0
  0
BLOCK_RECORD
  5
151C
330
1
100
AcDbSymbolTableRecord
100
AcDbBlockTableRecord
  2
*D5
340
0
  0
BLOCK_RECORD
  5
1528
330
1
100
AcDbSymbolTableRecord
100
AcDbBlockTableRecord
  2
*D6
340
0
  0
ENDTAB
  0
ENDSEC
  0
SECTION
  2
BLOCKS
  0
BLOCK
  5
43
330
1E
100
AcDbEntity
  8
0
100
AcDbBlockBegin
  2
*Model_Space
 70
     0
 10
0.0
 20
0.0
 30
0.0
  3
*Model_Space
  1

  0
ENDBLK
  5
44
330
1E
100
AcDbEntity
  8
0
100
AcDbBlockEnd
  0
BLOCK
  5
41
330
1A
100
AcDbEntity
 67
     1
  8
0
100
AcDbBlockBegin
  2
*Paper_Space
 70
     0
 10
0.0
 20
0.0
 30
0.0
  3
*Paper_Space
  1

  0
ENDBLK
  5
42
330
1A
100
AcDbEntity
 67
     1
  8
0
100
AcDbBlockEnd
  0
BLOCK
  5
45
330
22
100
AcDbEntity
  8
0
100
AcDbBlockBegin
  2
LOGO
 70
     0
 10
0.0
 20
0.0
 30
0.0
  3
LOGO
  1

  0
ARC
  5
46
330
22
100
AcDbEntity
  8
0
100
AcDbCircle
 10
11.59973089678112
 20
-9.271599258481501
 30
0.0
 40
4.5
100
AcDbArc
 50
270.0
 51
231.0575587310159
  0
LINE
  5
47
330
22
100
AcDbEntity
  8
0
100
AcDbLine
 10
3.599730896781125
 20
-4.771599258481529
 30
0.0
 11
3.599730896781153
 21
-11.77159925848133
 31
0.0
  0
LINE
  5
48
330
22
100
AcDbEntity
  8
0
100
AcDbLine
 10
2.599730896781125
 20
-4.771599258481529
 30
0.0
 11
2.599730896781153
 21
-11.77159925848133
 31
0.0
  0
CIRCLE
  5
49
330
22
100
AcDbEntity
  8
0
100
AcDbCircle
 10
11.59973089678112
 20
-9.271599258481501
 30
0.0
 40
3.5
  0
ARC
  5
4A
330
22
100
AcDbEntity
  8
0
100
AcDbCircle
 10
31.59973089678115
 20
-9.271599258481472
 30
0.0
 40
4.5
100
AcDbArc
 50
270.0
 51
231.0575587310182
  0
LINE
  5
4B
330
22
100
AcDbEntity
  8
0
100
AcDbLine
 10
17.59973089678112
 20
-4.771599258481472
 30
0.0
 11
17.59973089678115
 21
-13.77159925848147
 31
0.0
  0
ARC
  5
4C
330
22
100
AcDbEntity
  8
0
100
AcDbCircle
 10
22.59973089678116
 20
-7.271599258481472
 30
0.0
 40
2.5
100
AcDbArc
 50
293.1161887722295
 51
90.0
  0
CIRCLE
  5
4D
330
22
100
AcDbEntity
  8
0
100
AcDbCircle
 10
31.59973089678115
 20
-9.271599258481472
 30
0.0
 40
3.5
  0
ARC
  5
4E
330
22
100
AcDbEntity
  8
0
100
AcDbCircle
 10
4.599730896781153
 20
-11.77159925848133
 30
0.0
 40
1.0
100
AcDbArc
 50
180.0
 51
270.0
  0
ARC
  5
4F
330
22
100
AcDbEntity
  8
0
100
AcDbCircle
 10
4.599730896781153
 20
-11.77159925848133
 30
0.0
 40
2.0
100
AcDbArc
 50
179.9999999999992
 51
270.0
  0
LINE
  5
50
330
22
100
AcDbEntity
  8
0
100
AcDbLine
 10
11.59973089678115
 20
-13.77159925848144
 30
0.0
 11
4.599730896781153
 21
-13.77159925848147
 31
0.0
  0
LINE
  5
51
330
22
100
AcDbEntity
  8
0
100
AcDbLine
 10
8.771303772034769
 20
-12.77159925848136
 30
0.0
 11
4.599730896781153
 21
-12.77159925848133
 31
0.0
  0
LINE
  5
52
330
22
100
AcDbEntity
  8
0
100
AcDbLine
 10
31.59973089678115
 20
-13.77159925848147
 30
0.0
 11
23.6715276665056
 21
-13.77159925848144
 31
0.0
  0
LINE
  5
53
330
22
100
AcDbEntity
  8
0
100
AcDbLine
 10
23.56565672307022
 20
-9.51278021337896
 30
0.0
 11
24.4388546544846
 21
-12.77159925848144
 31
0.0
  0
LINE
  5
54
330
22
100
AcDbEntity
  8
0
100
AcDbLine
 10
22.59973089678116
 20
-9.771599258481472
 30
0.0
 11
18.59973089678112
 21
-9.771599258481472
 31
0.0
  0
LINE
  5
55
330
22
100
AcDbEntity
  8
0
100
AcDbLine
 10
18.59973089678115
 20
-13.77159925848144
 30
0.0
 11
17.59973089678115
 21
-13.77159925848144
 31
0.0
  0
LINE
  5
56
330
22
100
AcDbEntity
  8
0
100
AcDbLine
 10
18.59973089678115
 20
-9.771599258481472
 30
0.0
 11
18.59973089678115
 21
-13.77159925848144
 31
0.0
  0
LINE
  5
57
330
22
100
AcDbEntity
  8
0
100
AcDbLine
 10
22.59973089678116
 20
-9.771599258481472
 30
0.0
 11
23.67152766650562
 21
-13.77159925848147
 31
0.0
  0
ARC
  5
58
330
22
100
AcDbEntity
  8
0
100
AcDbCircle
 10
22.59973089678116
 20
-7.271599258481472
 30
0.0
 40
2.5
100
AcDbArc
 50
270.0
 51
270.0000000000007
  0
LINE
  5
59
330
22
100
AcDbEntity
  8
0
100
AcDbLine
 10
28.77130377203494
 20
-12.77159925848147
 30
0.0
 11
24.43885465448463
 21
-12.77159925848144
 31
0.0
  0
LINE
  5
5A
330
22
100
AcDbEntity
  8
0
100
AcDbLine
 10
3.599730896781125
 20
-4.771599258481472
 30
0.0
 11
2.599730896781125
 21
-4.771599258481472
 31
0.0
  0
LINE
  5
5B
330
22
100
AcDbEntity
  8
0
100
AcDbLine
 10
22.59973089678116
 20
-8.771599258481472
 30
0.0
 11
18.59973089678115
 21
-8.771599258481472
 31
0.0
  0
LINE
  5
5C
330
22
100
AcDbEntity
  8
0
100
AcDbLine
 10
22.59973089678116
 20
-5.771599258481472
 30
0.0
 11
18.59973089678115
 21
-5.771599258481472
 31
0.0
  0
LINE
  5
5D
330
22
100
AcDbEntity
  8
0
100
AcDbLine
 10
22.59973089678116
 20
-4.771599258481472
 30
0.0
 11
17.59973089678115
 21
-4.771599258481472
 31
0.0
  0
LINE
  5
5E
330
22
100
AcDbEntity
  8
0
100
AcDbLine
 10
18.59973089678115
 20
-5.771599258481472
 30
0.0
 11
18.59973089678115
 21
-8.771599258481472
 31
0.0
  0
ARC
  5
5F
330
22
100
AcDbEntity
  8
0
100
AcDbCircle
 10
22.59973089678116
 20
-7.271599258481472
 30
0.0
 40
1.5
100
AcDbArc
 50
270.0
 51
90.0
  0
ENDBLK
  5
60
330
22
100
AcDbEntity
  8
0
100
AcDbBlockEnd
  0
BLOCK
  5
150E
330
1501
100
AcDbEntity
  8
0
100
AcDbBlockBegin
  2
*D3
 70
     1
 10
0.0
 20
0.0
 30
0.0
  3
*D3
  1

  0
LINE
  5
15B4
330
1501
100
AcDbEntity
  8
BEM
 62
     0
370
    -2
100
AcDbLine
 10
215.3635500426457
 20
362.3659080236576
 30
0.0
 11
215.3635500426457
 21
428.9647284263335
 31
0.0
  0
ARC
  5
15B5
330
1501
100
AcDbEntity
  8
BEM
 62
     0
370
    -2
100
AcDbCircle
 10
215.3635500426457
 20
360.3659080236575
 30
0.0
 40
66.59882040267598
100
AcDbArc
 50
51.02496112259933
 51
83.97503887740077
  0
SOLID
  5
15B6
330
1501
100
AcDbEntity
  8
BEM
 62
     0
100
AcDbTrace
 10
258.0334571301785
 20
413.0083388672414
 30
0.0
 11
256.4725301318684
 21
411.2739942214483
 31
0.0
 12
262.4560275684028
 22
407.4583855494148
 32
0.0
 13
262.4560275684028
 23
407.4583855494148
 33
0.0
  0
SOLID
  5
15B7
330
1501
100
AcDbEntity
  8
BEM
 62
     0
100
AcDbTrace
 10
222.2925644215806
 20
425.4317995800968
 30
0.0
 11
222.4151892160933
 21
427.7619085054938
 31
0.0
 12
215.3635500426457
 22
426.9647284263334
 32
0.0
 13
215.3635500426457
 23
426.9647284263334
 33
0.0
  0
MTEXT
  5
15B8
330
1501
100
AcDbEntity
  8
BEM
 62
     1
100
AcDbMText
 10
242.6640252984066
 20
428.1753586560897
 30
0.0
 40
7.0
 41
0.0
 71
     5
 72
     1
  1
\A1;45°
 11
0.9276408327643807
 21
-0.3734735404124457
 31
0.0
 73
     1
 44
1.0
  0
POINT
  5
15B9
330
1501
100
AcDbEntity
  8
DEFPOINTS
 62
     0
100
AcDbPoint
 10
248.6629602439836
 20
418.0421783544522
 30
0.0
  0
POINT
  5
15BA
330
1501
100
AcDbEntity
  8
DEFPOINTS
 62
     0
100
AcDbPoint
 10
215.3635500426457
 20
360.3659080236575
 30
0.0
  0
POINT
  5
15BB
330
1501
100
AcDbEntity
  8
DEFPOINTS
 62
     0
100
AcDbPoint
 10
306.576753478242
 20
451.5791114592542
 30
0.0
  0
POINT
  5
15BC
330
1501
100
AcDbEntity
  8
DEFPOINTS
 62
     0
100
AcDbPoint
 10
215.3635500426457
 20
360.3659080236575
 30
0.0
  0
POINT
  5
15BD
330
1501
100
AcDbEntity
  8
DEFPOINTS
 62
     0
100
AcDbPoint
 10
215.3635500426457
 20
231.3609586575414
 30
0.0
  0
ENDBLK
  5
150F
330
1501
100
AcDbEntity
  8
0
100
AcDbBlockEnd
  0
BLOCK
  5
151A
330
1510
100
AcDbEntity
  8
0
100
AcDbBlockBegin
  2
*D4
 70
     1
 10
0.0
 20
0.0
 30
0.0
  3
*D4
  1

  0
LINE
  5
15DF
330
1510
100
AcDbEntity
  8
BEM
 62
     0
370
    -2
100
AcDbLine
 10
262.9767028499224
 20
488.1080942757086
 30
0.0
 11
243.515429015001
 21
507.5693681106299
 31
0.0
  0
LINE
  5
15E0
330
1510
100
AcDbEntity
  8
BEM
 62
     0
370
    -2
100
AcDbLine
 10
213.9493364802726
 20
361.7801215860307
 30
0.0
 11
155.8377594853372
 21
419.891698580966
 31
0.0
  0
LINE
  5
15E1
330
1510
100
AcDbEntity
  8
BEM
 62
     0
370
    -2
100
AcDbLine
 10
239.9798951090683
 20
501.205407079951
 30
0.0
 11
162.2017205160162
 21
423.4272324868987
 31
0.0
  0
SOLID
  5
15E2
330
1510
100
AcDbEntity
  8
BEM
 62
     0
100
AcDbTrace
 10
239.154937197684
 20
502.0303649913352
 30
0.0
 11
240.8048530204526
 21
500.3804491685666
 31
0.0
 12
244.9296425773741
 22
506.1551545482569
 32
0.0
 13
244.9296425773741
 23
506.1551545482569
 33
0.0
  0
SOLID
  5
15E3
330
1510
100
AcDbEntity
  8
BEM
 62
     0
100
AcDbTrace
 10
161.3767626046318
 20
424.252190398283
 30
0.0
 11
163.0266784274004
 21
422.6022745755144
 31
0.0
 12
157.2519730477103
 22
418.4774850185929
 32
0.0
 13
157.2519730477103
 23
418.4774850185929
 33
0.0
  0
MTEXT
  5
15E4
330
1510
100
AcDbEntity
  8
BEM
 62
     1
100
AcDbMText
 10
196.4946137348297
 20
466.9125138611374
 30
0.0
 40
7.0
 41
0.0
 71
     5
 72
     1
  1
\A1;124
 11
0.7071067811865476
 21
0.7071067811865475
 31
0.0
 73
     1
 44
1.0
  0
POINT
  5
15E5
330
1510
100
AcDbEntity
  8
DEFPOINTS
 62
     0
100
AcDbPoint
 10
264.3909164122955
 20
486.6938807133355
 30
0.0
  0
POINT
  5
15E6
330
1510
100
AcDbEntity
  8
DEFPOINTS
 62
     0
100
AcDbPoint
 10
215.3635500426457
 20
360.3659080236575
 30
0.0
  0
POINT
  5
15E7
330
1510
100
AcDbEntity
  8
DEFPOINTS
 62
     0
100
AcDbPoint
 10
157.2519730477103
 20
418.4774850185929
 30
0.0
  0
ENDBLK
  5
151B
330
1510
100
AcDbEntity
  8
0
100
AcDbBlockEnd
  0
BLOCK
  5
1526
330
151C
100
AcDbEntity
  8
0
100
AcDbBlockBegin
  2
*D5
 70
     1
 10
0.0
 20
0.0
 30
0.0
  3
*D5
  1

  0
LINE
  5
1557
330
151C
100
AcDbEntity
  8
BEM
 62
     0
370
    -2
100
AcDbLine
 10
163.263459350853
 20
236.3609586575415
 30
0.0
 11
140.1920087370608
 21
236.3609586575415
 31
0.0
  0
LINE
  5
1558
330
151C
100
AcDbEntity
  8
BEM
 62
     0
370
    -2
100
AcDbLine
 10
213.3635500426457
 20
360.3659080236575
 30
0.0
 11
140.1920087370608
 21
360.3659080236575
 31
0.0
  0
LINE
  5
1559
330
151C
100
AcDbEntity
  8
BEM
 62
     0
370
    -2
100
AcDbLine
 10
142.1920087370608
 20
243.3609586575415
 30
0.0
 11
142.1920087370608
 21
353.3659080236575
 31
0.0
  0
SOLID
  5
155A
330
151C
100
AcDbEntity
  8
BEM
 62
     0
100
AcDbTrace
 10
141.0253420703941
 20
243.3609586575415
 30
0.0
 11
143.3586754037275
 21
243.3609586575415
 31
0.0
 12
142.1920087370608
 22
236.3609586575415
 32
0.0
 13
142.1920087370608
 23
236.3609586575415
 33
0.0
  0
SOLID
  5
155B
330
151C
100
AcDbEntity
  8
BEM
 62
     0
100
AcDbTrace
 10
141.0253420703942
 20
353.3659080236575
 30
0.0
 11
143.3586754037275
 21
353.3659080236575
 31
0.0
 12
142.1920087370608
 22
360.3659080236575
 32
0.0
 13
142.1920087370608
 23
360.3659080236575
 33
0.0
  0
MTEXT
  5
155C
330
151C
100
AcDbEntity
  8
BEM
 62
     1
100
AcDbMText
 10
135.6920087370608
 20
298.3634333405996
 30
0.0
 40
7.0
 41
0.0
 71
     5
 72
     1
  1
\A1;124
 11
0.0000000000000001
 21
1.0
 31
0.0
 73
     1
 44
1.0
  0
POINT
  5
155D
330
151C
100
AcDbEntity
  8
DEFPOINTS
 62
     0
100
AcDbPoint
 10
165.263459350853
 20
236.3609586575415
 30
0.0
  0
POINT
  5
155E
330
151C
100
AcDbEntity
  8
DEFPOINTS
 62
     0
100
AcDbPoint
 10
215.3635500426457
 20
360.3659080236575
 30
0.0
  0
POINT
  5
155F
330
151C
100
AcDbEntity
  8
DEFPOINTS
 62
     0
100
AcDbPoint
 10
142.1920087370608
 20
360.3659080236575
 30
0.0
  0
ENDBLK
  5
1527
330
151C
100
AcDbEntity
  8
0
100
AcDbBlockEnd
  0
BLOCK
  5
1532
330
1528
100
AcDbEntity
  8
0
100
AcDbBlockBegin
  2
*D6
 70
     1
 10
0.0
 20
0.0
 30
0.0
  3
*D6
  1

  0
LINE
  5
1560
330
1528
100
AcDbEntity
  8
BEM
 62
     0
370
    -2
100
AcDbLine
 10
164.5635500426457
 20
242.3609586575415
 30
0.0
 11
164.5635500426457
 21
208.4183556377525
 31
0.0
  0
LINE
  5
1561
330
1528
100
AcDbEntity
  8
BEM
 62
     0
370
    -2
100
AcDbLine
 10
266.1635500426456
 20
242.3609586575409
 30
0.0
 11
266.1635500426456
 21
208.4183556377525
 31
0.0
  0
LINE
  5
1562
330
1528
100
AcDbEntity
  8
BEM
 62
     0
370
    -2
100
AcDbLine
 10
171.5635500426457
 20
210.4183556377525
 30
0.0
 11
259.1635500426456
 21
210.4183556377525
 31
0.0
  0
SOLID
  5
1563
330
1528
100
AcDbEntity
  8
BEM
 62
     0
100
AcDbTrace
 10
171.5635500426457
 20
211.5850223044192
 30
0.0
 11
171.5635500426457
 21
209.2516889710858
 31
0.0
 12
164.5635500426457
 22
210.4183556377525
 32
0.0
 13
164.5635500426457
 23
210.4183556377525
 33
0.0
  0
SOLID
  5
1564
330
1528
100
AcDbEntity
  8
BEM
 62
     0
100
AcDbTrace
 10
259.1635500426456
 20
211.5850223044192
 30
0.0
 11
259.1635500426456
 21
209.2516889710858
 31
0.0
 12
266.1635500426456
 22
210.4183556377525
 32
0.0
 13
266.1635500426456
 23
210.4183556377525
 33
0.0
  0
MTEXT
  5
1565
330
1528
100
AcDbEntity
  8
BEM
 62
     1
100
AcDbMText
 10
215.3635500426457
 20
216.9183556377525
 30
0.0
 40
7.0
 41
0.0
 71
     5
 72
     1
  1
\A1;%%c101.6
 73
     1
 44
1.0
  0
POINT
  5
1566
330
1528
100
AcDbEntity
  8
DEFPOINTS
 62
     0
100
AcDbPoint
 10
164.5635500426457
 20
244.3609586575415
 30
0.0
  0
POINT
  5
1567
330
1528
100
AcDbEntity
  8
DEFPOINTS
 62
     0
100
AcDbPoint
 10
266.1635500426456
 20
244.3609586575409
 30
0.0
  0
POINT
  5
1568
330
1528
100
AcDbEntity
  8
DEFPOINTS
 62
     0
100
AcDbPoint
 10
266.1635500426456
 20
210.4183556377525
 30
0.0
  0
ENDBLK
  5
1533
330
1528
100
AcDbEntity
  8
0
100
AcDbBlockEnd
  0
ENDSEC
  0
SECTION
  2
ENTITIES
  0
TEXT
  5
134
330
1E
100
AcDbEntity
  8
TEXT
100
AcDbText
 10
204.4216048581257
 20
63.0896391972351
 30
0.0
 40
4.0
  1
Koeh
 41
0.8
  7
GREEKS
 72
     1
 11
209.6787477152686
 21
63.0896391972351
 31
0.0
100
AcDbText
  0
INSERT
  5
135
330
1E
100
AcDbEntity
  8
STEMPEL
100
AcDbBlockReference
  2
LOGO
 10
150.9955485457794
 20
45.02105276448322
 30
0.0
 41
2.0
 42
2.0
 43
2.0
  0
LINE
  5
136
330
1E
100
AcDbEntity
  8
HILF
100
AcDbLine
 10
420.0
 20
0.0
 30
0.0
 11
0.0
 21
0.0
 31
0.0
  0
LINE
  5
137
330
1E
100
AcDbEntity
  8
HILF
100
AcDbLine
 10
419.9999999999999
 20
594.0000000000002
 30
0.0
 11
0.0
 21
594.0
 31
0.0
  0
LINE
  5
138
330
1E
100
AcDbEntity
  8
STEMPEL
100
AcDbLine
 10
410.0
 20
584.0
 30
0.0
 11
39.99999999999989
 21
584.0
 31
0.0
  0
LINE
  5
139
330
1E
100
AcDbEntity
  8
STEMPEL
100
AcDbLine
 10
410.0
 20
10.0
 30
0.0
 11
39.99999999999989
 21
10.0
 31
0.0
  0
LINE
  5
13A
330
1E
100
AcDbEntity
  8
STEMPEL
100
AcDbLine
 10
49.99999999999989
 20
10.0
 30
0.0
 11
410.0
 21
10.0
 31
0.0
  0
TEXT
  5
13B
330
1E
100
AcDbEntity
  8
TEXT
100
AcDbText
 10
202.4626584226295
 20
73.30961091915225
 30
0.0
 40
4.0
  1
Name
 41
0.8
  7
GREEKS
100
AcDbText
  0
TEXT
  5
13C
330
1E
100
AcDbEntity
  8
TEXT
100
AcDbText
 10
196.5498279101549
 20
102.6506227776589
 30
0.0
 40
5.0
  1
Zul. Abw.
 41
0.8
  7
GREEKS
 72
     4
 11
209.9783993387263
 21
105.1506227776589
 31
0.0
100
AcDbText
  0
LINE
  5
13D
330
1E
100
AcDbEntity
  8
HILF
100
AcDbLine
 10
146.0000000000001
 20
49.99999999999997
 30
0.0
 11
230.0
 21
49.99999999999997
 31
0.0
  0
LINE
  5
13E
330
1E
100
AcDbEntity
  8
HILF
100
AcDbLine
 10
146.0000000000001
 20
59.99999999999997
 30
0.0
 11
230.0
 21
59.99999999999997
 31
0.0
  0
LINE
  5
13F
330
1E
100
AcDbEntity
  8
HILF
100
AcDbLine
 10
146.0000000000001
 20
69.99999999999994
 30
0.0
 11
230.0
 21
69.99999999999994
 31
0.0
  0
LINE
  5
140
330
1E
100
AcDbEntity
  8
STEMPEL
100
AcDbLine
 10
410.0
 20
80.0
 30
0.0
 11
146.0000000000001
 21
79.99999999999994
 31
0.0
  0
LINE
  5
141
330
1E
100
AcDbEntity
  8
STEMPEL
100
AcDbLine
 10
410.0
 20
40.0
 30
0.0
 11
146.0000000000001
 21
39.99999999999997
 31
0.0
  0
LINE
  5
142
330
1E
100
AcDbEntity
  8
STEMPEL
100
AcDbLine
 10
410.0
 20
110.0
 30
0.0
 11
39.99999999999997
 21
110.0
 31
0.0
  0
LINE
  5
144
330
1E
100
AcDbEntity
  8
HILF
100
AcDbLine
 10
0.0
 20
0.0
 30
0.0
 11
-0.0000000000001137
 21
594.0
 31
0.0
  0
LINE
  5
145
330
1E
100
AcDbEntity
  8
STEMPEL
100
AcDbLine
 10
40.0
 20
10.0
 30
0.0
 11
39.99999999999989
 21
584.0
 31
0.0
  0
LINE
  5
148
330
1E
100
AcDbEntity
  8
HILF
100
AcDbLine
 10
40.00000000000008
 20
39.99999999999997
 30
0.0
 11
146.0000000000001
 21
39.99999999999997
 31
0.0
  0
LINE
  5
149
330
1E
100
AcDbEntity
  8
HILF
100
AcDbLine
 10
40.00000000000008
 20
49.99999999999997
 30
0.0
 11
146.0000000000001
 21
49.99999999999997
 31
0.0
  0
LINE
  5
14A
330
1E
100
AcDbEntity
  8
HILF
100
AcDbLine
 10
40.00000000000008
 20
59.99999999999997
 30
0.0
 11
146.0000000000001
 21
59.99999999999997
 31
0.0
  0
LINE
  5
14B
330
1E
100
AcDbEntity
  8
HILF
100
AcDbLine
 10
40.00000000000008
 20
69.99999999999994
 30
0.0
 11
146.0000000000001
 21
69.99999999999994
 31
0.0
  0
LINE
  5
14C
330
1E
100
AcDbEntity
  8
HILF
100
AcDbLine
 10
40.00000000000008
 20
79.99999999999994
 30
0.0
 11
146.0000000000001
 21
79.99999999999994
 31
0.0
  0
LINE
  5
14D
330
1E
100
AcDbEntity
  8
HILF
100
AcDbLine
 10
40.00000000000008
 20
90.00000000000005
 30
0.0
 11
146.0000000000001
 21
90.00000000000005
 31
0.0
  0
LINE
  5
14E
330
1E
100
AcDbEntity
  8
HILF
100
AcDbLine
 10
40.00000000000008
 20
100.0
 30
0.0
 11
146.0000000000001
 21
100.0
 31
0.0
  0
LINE
  5
14F
330
1E
100
AcDbEntity
  8
STEMPEL
100
AcDbLine
 10
145.9999999999999
 20
29.99999999999997
 30
0.0
 11
39.99999999999997
 21
29.99999999999997
 31
0.0
  0
TEXT
  5
150
330
1E
100
AcDbEntity
  8
TEXT
100
AcDbText
 10
48.26641107045756
 20
13.65465846027192
 30
0.0
 40
4.0
  1
Index
 50
90.0
 41
0.8
  7
GREEKS
100
AcDbText
  0
LINE
  5
151
330
1E
100
AcDbEntity
  8
VOLL
100
AcDbLine
 10
54.00000000000009
 20
110.0
 30
0.0
 11
53.99999999999997
 21
9.999999999999971
 31
0.0
  0
LINE
  5
152
330
1E
100
AcDbEntity
  8
HILF
100
AcDbLine
 10
31.08767135713856
 20
297.0
 30
0.0
 11
0.0000000000001137
 21
297.0
 31
0.0
  0
LINE
  5
154
330
1E
100
AcDbEntity
  8
VOLL
100
AcDbLine
 10
124.0000000000001
 20
109.9999999999999
 30
0.0
 11
124.0
 21
9.999999999999971
 31
0.0
  0
LINE
  5
155
330
1E
100
AcDbEntity
  8
VOLL
100
AcDbLine
 10
104.0000000000001
 20
109.9999999999999
 30
0.0
 11
104.0
 21
9.999999999999971
 31
0.0
  0
LINE
  5
157
330
1E
100
AcDbEntity
  8
STEMPEL
100
AcDbLine
 10
146.0000000000001
 20
109.9999999999999
 30
0.0
 11
146.0
 21
9.999999999999971
 31
0.0
  0
TEXT
  5
158
330
1E
100
AcDbEntity
  8
TEXT
100
AcDbText
 10
171.0085209177598
 20
63.10765040825732
 30
0.0
 40
4.0
  1
11.04.
 41
0.8
  7
GREEKS
 72
     1
 11
177.4085209177598
 21
63.10765040825732
 31
0.0
100
AcDbText
  0
TEXT
  5
159
330
1E
100
AcDbEntity
  8
TEXT
100
AcDbText
 10
172.331167315365
 20
73.31880501229926
 30
0.0
 40
4.0
  1
Tag
 41
0.8
  7
GREEKS
100
AcDbText
  0
TEXT
  5
15A
330
1E
100
AcDbEntity
  8
TEXT
100
AcDbText
 10
147.5836127167615
 20
63.62990369617964
 30
0.0
 40
4.0
  1
Gez.
 41
0.8
  7
GREEKS
100
AcDbText
  0
LINE
  5
15B
330
1E
100
AcDbEntity
  8
VOLL
100
AcDbLine
 10
164.0000000000001
 20
79.99999999999994
 30
0.0
 11
164.0000000000001
 21
39.99999999999997
 31
0.0
  0
TEXT
  5
15C
330
1E
100
AcDbEntity
  8
TEXT
100
AcDbText
 10
147.6006777387303
 20
43.52946389649807
 30
0.0
 40
4.0
  1
Norm.
 41
0.8
  7
GREEKS
100
AcDbText
  0
TEXT
  5
15D
330
1E
100
AcDbEntity
  8
TEXT
100
AcDbText
 10
147.5515086571672
 20
53.68926291428377
 30
0.0
 40
4.0
  1
Gepr.
 41
0.8
  7
GREEKS
100
AcDbText
  0
TEXT
  5
15E
330
1E
100
AcDbEntity
  8
TEXT
 62
     1
100
AcDbText
 10
160.5006306481887
 20
88.14901428913959
 30
0.0
 40
7.0
  1
1:2
 41
0.8
  7
GREEKS
100
AcDbText
  0
TEXT
  5
160
330
1E
100
AcDbEntity
  8
TEXT
100
AcDbText
 10
148.622109822104
 20
73.14025471151666
 30
0.0
 40
4.0
  1
2011
 41
0.8
  7
GREEKS
100
AcDbText
  0
LINE
  5
161
330
1E
100
AcDbEntity
  8
VOLL
100
AcDbLine
 10
190.0000000000001
 20
109.9999999999998
 30
0.0
 11
190.0
 21
39.99999999999997
 31
0.0
  0
LINE
  5
186
330
1E
100
AcDbEntity
  8
HILF
100
AcDbLine
 10
420.0
 20
-0.0000000000001137
 30
0.0
 11
419.9999999999999
 21
594.0
 31
0.0
  0
LINE
  5
187
330
1E
100
AcDbEntity
  8
STEMPEL
100
AcDbLine
 10
410.0
 20
10.0
 30
0.0
 11
410.0
 21
584.0
 31
0.0
  0
TEXT
  5
188
330
1E
100
AcDbEntity
  8
TEXT
100
AcDbText
 10
337.2400861497006
 20
52.07416177878602
 30
0.0
 40
5.0
  1
ersetzt durch:
 41
0.8
  7
GREEKS
100
AcDbText
  0
TEXT
  5
18A
330
1E
100
AcDbEntity
  8
TEXT
100
AcDbText
 10
336.178754957634
 20
102.3132034537136
 30
0.0
 40
5.0
  1
Zeichnungs Nr.
 41
0.8
  7
GREEKS
100
AcDbText
  0
LINE
  5
18B
330
1E
100
AcDbEntity
  8
HILF
100
AcDbLine
 10
233.4909699289885
 20
14.89398258028314
 30
0.0
 11
404.8588839326728
 21
14.89398258028314
 31
0.0
  0
LINE
  5
18C
330
1E
100
AcDbEntity
  8
HILF
100
AcDbLine
 10
336.7238616296993
 20
83.77983636955827
 30
0.0
 11
404.8588839326728
 21
83.77983636955827
 31
0.0
  0
LINE
  5
18D
330
1E
100
AcDbEntity
  8
VOLL
100
AcDbLine
 10
332.0
 20
60.0
 30
0.0
 11
410.0
 21
60.0
 31
0.0
  0
TEXT
  5
18E
330
1E
100
AcDbEntity
  8
TEXT
 62
     1
100
AcDbText
 10
234.9283864320014
 20
87.41748789253779
 30
0.0
 40
7.0
  1
Bogen DN100 45°
 41
0.8
  7
GREEKS
100
AcDbText
  0
LINE
  5
18F
330
1E
100
AcDbEntity
  8
HILF
100
AcDbLine
 10
234.7736801096947
 20
49.99999999999997
 30
0.0
 11
324.835391655631
 21
49.99999999999997
 31
0.0
  0
LINE
  5
190
330
1E
100
AcDbEntity
  8
HILF
100
AcDbLine
 10
234.7736801096947
 20
59.99999999999997
 30
0.0
 11
324.835391655631
 21
59.99999999999997
 31
0.0
  0
LINE
  5
191
330
1E
100
AcDbEntity
  8
HILF
100
AcDbLine
 10
234.7736801096947
 20
69.99999999999994
 30
0.0
 11
324.835391655631
 21
69.99999999999994
 31
0.0
  0
LINE
  5
192
330
1E
100
AcDbEntity
  8
HILF
100
AcDbLine
 10
234.7736801096947
 20
84.03758247564139
 30
0.0
 11
324.8353916556311
 21
84.03758247564139
 31
0.0
  0
LINE
  5
193
330
1E
100
AcDbEntity
  8
STEMPEL
100
AcDbLine
 10
230.0
 20
110.0
 30
0.0
 11
230.0
 21
9.999999999999971
 31
0.0
  0
TEXT
  5
194
330
1E
100
AcDbEntity
  8
TEXT
100
AcDbText
 10
235.1296391125315
 20
71.50334417585288
 30
0.0
 40
5.0
  1
mit engem Radius
 41
0.8
  7
GREEKS
100
AcDbText
  0
TEXT
  5
195
330
1E
100
AcDbEntity
  8
TEXT
100
AcDbText
 10
234.9837501577827
 20
42.62974153022632
 30
0.0
 40
4.0
  1
5352100W.DWG
 41
0.8
  7
GREEKS
100
AcDbText
  0
TEXT
  5
196
330
1E
100
AcDbEntity
  8
TEXT
100
AcDbText
 10
234.742238391136
 20
30.84560570193057
 30
0.0
 40
5.0
  1
Bauvorhaben
 41
0.8
  7
GREEKS
100
AcDbText
  0
TEXT
  5
197
330
1E
100
AcDbEntity
  8
TEXT
100
AcDbText
 10
234.877940380901
 20
102.5489328011779
 30
0.0
 40
5.0
  1
Benennung
 41
0.8
  7
GREEKS
100
AcDbText
  0
LINE
  5
198
330
1E
100
AcDbEntity
  8
STEMPEL
100
AcDbLine
 10
332.0
 20
109.9999999999997
 30
0.0
 11
332.0
 21
40.0
 31
0.0
  0
TEXT
  5
19A
330
1E
100
AcDbEntity
  8
TEXT
 62
     1
100
AcDbText
 10
349.2040881349824
 20
88.14901428913959
 30
0.0
 40
7.0
  1
5352100W
 41
0.8
  7
GREEKS
 72
     1
 11
370.0040881349825
 21
88.14901428913959
 31
0.0
100
AcDbText
  0
TEXT
  5
212
330
1E
100
AcDbEntity
  8
TEXT
100
AcDbText
 10
235.1296391125315
 20
51.50334417585291
 30
0.0
 40
5.0
  1
EDV-Art.Nr. 5.352.100C
 41
0.8
  7
GREEKS
100
AcDbText
  0
TEXT
  5
E61
330
1E
100
AcDbEntity
  8
TEXT
 62
     1
100
AcDbText
 10
297.0573649355706
 20
132.2248663682012
 30
0.0
 40
7.0
  1
Werkstoff: 1.4404
 41
0.8
  7
GREEKS
100
AcDbText
  0
TEXT
  5
10F9
330
1E
100
AcDbEntity
  8
TEXT
100
AcDbText
 10
235.1296391125316
 20
61.50334417585293
 30
0.0
 40
5.0
  1
dünnwandig
 41
0.8
  7
GREEKS
100
AcDbText
  0
TEXT
  5
10FA
330
1E
100
AcDbEntity
  8
TEXT
100
AcDbText
 10
67.93969678957704
 20
18.67381894984134
 30
0.0
 40
4.0
  1
Änderung
 41
0.8
  7
GREEKS
 72
     1
 11
78.68255393243419
 21
18.67381894984134
 31
0.0
100
AcDbText
  0
TEXT
  5
10FB
330
1E
100
AcDbEntity
  8
TEXT
100
AcDbText
 10
110.2820548933125
 20
18.67156269339807
 30
0.0
 40
4.0
  1
Tag
 41
0.8
  7
GREEKS
 72
     1
 11
114.0153882266458
 21
18.67156269339807
 31
0.0
100
AcDbText
  0
TEXT
  5
10FC
330
1E
100
AcDbEntity
  8
TEXT
100
AcDbText
 10
128.9001864118674
 20
18.59324216966411
 30
0.0
 40
4.0
  1
Name
 41
0.8
  7
GREEKS
 72
     1
 11
135.2239959356769
 21
18.59324216966411
 31
0.0
100
AcDbText
  0
TEXT
  5
10FD
330
1E
100
AcDbEntity
  8
TEXT
100
AcDbText
 10
153.5163572150377
 20
102.4620895087088
 30
0.0
 40
5.0
  1
Maßstab
 41
0.8
  7
GREEKS
100
AcDbText
  0
TEXT
  5
10FE
330
1E
100
AcDbEntity
  8
TEXT
100
AcDbText
 10
336.7238616296993
 20
73.1811823709997
 30
0.0
 40
5.0
  1
Ersatz für:
 41
0.8
  7
GREEKS
100
AcDbText
  0
TEXT
  5
10FF
330
1E
100
AcDbEntity
  8
VOLL
100
AcDbText
 10
1439.874693904429
 20
235.2201559463227
 30
0.0
 40
1.8
  1

  7
GREEKS
100
AcDbText
  0
TEXT
  5
1105
330
1E
100
AcDbEntity
  8
TEXT
100
AcDbText
 10
192.6882715247924
 20
88.73450771838452
 30
0.0
 40
4.0
  1
DIN EN1124-3
 41
0.8
  7
GREEKS
 72
     1
 11
209.6787477152686
 21
88.73450771838452
 31
0.0
100
AcDbText
  0
TEXT
  5
12AA
330
1E
100
AcDbEntity
  8
BEM
100
AcDbText
 10
417.3022923857165
 20
10.16790107998861
 30
0.0
 40
4.0
  1
Diese Zeichnung ist urheberrechtlich geschützt und bleibt unser Eigentum. Sie darf weder ganz noch teilweise verfielfältigt und nicht an Dritte weitergegeben werden.
 50
90.0
 41
0.8
  7
GREEKS
100
AcDbText
  0
TEXT
  5
130B
330
1E
100
AcDbEntity
  8
TEXT
100
AcDbText
 10
43.44427648932685
 20
113.5753531527347
 30
0.0
 40
5.0
  1
Erstellt mit AUTOCAD 2004
 41
0.8
  7
GREEKS
100
AcDbText
  0
DIMENSION
  5
1491
330
1E
100
AcDbEntity
  8
BEM
100
AcDbDimension
  2
*D3
 10
215.3635500426457
 20
231.3609586575414
 30
0.0
 11
240.2364472857257
 21
422.1456932431213
 31
0.0
 70
   162
 71
     5
 42
0.7853981633974465
  3
Standard
100
AcDb2LineAngularDimension
 13
306.576753478242
 23
451.5791114592542
 33
0.0
 14
215.3635500426457
 24
360.3659080236575
 34
0.0
 15
215.3635500426457
 25
360.3659080236575
 35
0.0
 16
248.6629602439836
 26
418.0421783544522
 36
0.0
1001
ACAD
1000
DSTYLE
1002
{
1070
    40
1040
2.0
1070
    41
1040
3.5
1070
    42
1040
1.0
1070
    43
1040
7.0
1070
    44
1040
1.0
1070
    73
1070
     0
1070
    74
1070
     0
1070
    77
1070
     1
1070
    78
1070
     8
1070
    79
1070
     2
1070
   140
1040
3.5
1070
   141
1040
1.5
1070
   146
1040
0.5142857142857144
1070
   147
1040
1.5
1070
   172
1070
     1
1070
   178
1070
     1
1070
   179
1070
     2
1070
   271
1070
     2
1070
   272
1070
     2
1070
   284
1070
     8
1070
   285
1070
     8
1070
   286
1070
     8
1002
}
  0
DIMENSION
  5
1492
330
1E
100
AcDbEntity
  8
BEM
100
AcDbDimension
  2
*D4
 10
157.2519730477103
 20
418.4774850185929
 30
0.0
 11
196.4946137348297
 21
466.9125138611374
 31
0.0
 70
    32
  1
124
 71
     5
 42
123.9949493661169
  3
Standard
100
AcDbAlignedDimension
 13
264.3909164122955
 23
486.6938807133355
 33
0.0
 14
215.3635500426457
 24
360.3659080236575
 34
0.0
 50
45.0
100
AcDbRotatedDimension
1001
ACAD
1000
DSTYLE
1002
{
1070
    40
1040
2.0
1070
    41
1040
3.5
1070
    42
1040
1.0
1070
    43
1040
7.0
1070
    44
1040
1.0
1070
    73
1070
     0
1070
    74
1070
     0
1070
    77
1070
     1
1070
    78
1070
     8
1070
    79
1070
     2
1070
   140
1040
3.5
1070
   141
1040
1.5
1070
   146
1040
0.5142857142857144
1070
   147
1040
1.5
1070
   172
1070
     1
1070
   178
1070
     1
1070
   179
1070
     2
1070
   271
1070
     2
1070
   272
1070
     2
1070
   284
1070
     8
1070
   285
1070
     8
1070
   286
1070
     8
1002
}
  0
DIMENSION
  5
1493
330
1E
100
AcDbEntity
  8
BEM
100
AcDbDimension
  2
*D5
 10
142.1920087370608
 20
360.3659080236575
 30
0.0
 11
135.6920087370608
 21
298.3634333405996
 31
0.0
 70
    32
 71
     5
 42
124.0049493661161
  3
Standard
100
AcDbAlignedDimension
 13
165.263459350853
 23
236.3609586575415
 33
0.0
 14
215.3635500426457
 24
360.3659080236575
 34
0.0
 50
90.0
100
AcDbRotatedDimension
1001
ACAD
1000
DSTYLE
1002
{
1070
    40
1040
2.0
1070
    41
1040
3.5
1070
    42
1040
1.0
1070
    43
1040
7.0
1070
    44
1040
1.0
1070
    73
1070
     0
1070
    74
1070
     0
1070
    77
1070
     1
1070
    78
1070
     8
1070
    79
1070
     2
1070
   140
1040
3.5
1070
   141
1040
1.5
1070
   146
1040
0.5142857142857144
1070
   147
1040
1.5
1070
   172
1070
     1
1070
   178
1070
     1
1070
   179
1070
     2
1070
   271
1070
     2
1070
   272
1070
     2
1070
   284
1070
     8
1070
   285
1070
     8
1070
   286
1070
     8
1002
}
  0
DIMENSION
  5
1494
330
1E
100
AcDbEntity
  8
BEM
100
AcDbDimension
  2
*D6
 10
266.1635500426456
 20
210.4183556377525
 30
0.0
 11
215.3635500426457
 21
216.9183556377525
 31
0.0
 70
    32
  1
%%c<>
 71
     5
 42
101.5999999999999
  3
Standard
100
AcDbAlignedDimension
 13
164.5635500426457
 23
244.3609586575415
 33
0.0
 14
266.1635500426456
 24
244.3609586575409
 34
0.0
100
AcDbRotatedDimension
1001
ACAD
1000
DSTYLE
1002
{
1070
    40
1040
2.0
1070
    41
1040
3.5
1070
    42
1040
1.0
1070
    43
1040
7.0
1070
    44
1040
1.0
1070
    73
1070
     0
1070
    74
1070
     0
1070
    77
1070
     1
1070
    78
1070
     8
1070
    79
1070
     2
1070
   140
1040
3.5
1070
   141
1040
1.5
1070
   146
1040
0.5142857142857144
1070
   147
1040
1.5
1070
   172
1070
     1
1070
   178
1070
     1
1070
   179
1070
     2
1070
   271
1070
     2
1070
   272
1070
     2
1070
   284
1070
     8
1070
   285
1070
     8
1070
   286
1070
     8
1002
}
  0
LINE
  5
1495
330
1E
100
AcDbEntity
  8
HILF
100
AcDbLine
 10
264.9087752457162
 20
244.3609586575409
 30
0.0
 11
165.8183248395747
 21
244.3609586575414
 31
0.0
  0
LINE
  5
1496
330
1E
100
AcDbEntity
  8
STEMPEL
100
AcDbLine
 10
265.4636407344382
 20
236.3609586575409
 30
0.0
 11
165.263459350853
 21
236.3609586575415
 31
0.0
  0
LINE
  5
1497
102
{ACAD_REACTORS
330
15DE
102
}
330
1E
100
AcDbEntity
  8
STEMPEL
100
AcDbLine
 10
214.3392390208334
 20
431.1836459703989
 30
0.0
 11
164.5635500426457
 21
381.4079569922109
 31
0.0
  0
LINE
  5
1498
330
1E
100
AcDbEntity
  8
STEMPEL
100
AcDbLine
 10
164.5635500426459
 20
381.407956992211
 30
0.0
 11
266.1635500426456
 21
339.3238590551048
 31
0.0
  0
LINE
  5
1499
102
{ACAD_REACTORS
330
15DE
102
}
330
1E
100
AcDbEntity
  8
STEMPEL
100
AcDbLine
 10
164.5635500426457
 20
381.4079569922109
 30
0.0
 11
164.5635500426457
 21
244.3609586575415
 31
0.0
  0
LINE
  5
149A
330
1E
100
AcDbEntity
  8
STEMPEL
100
AcDbLine
 10
164.5635500426457
 20
244.3609586575415
 30
0.0
 11
165.263459350853
 21
236.3609586575415
 31
0.0
  0
ARC
  5
149C
330
1E
100
AcDbEntity
  8
SCHRAFF
100
AcDbCircle
 10
171.7263675437574
 20
378.4410208384473
 30
0.0
 40
5.0
100
AcDbArc
 50
300.630102354156
 51
14.36989764584346
  0
ARC
  5
149F
330
1E
100
AcDbEntity
  8
SCHRAFF
100
AcDbCircle
 10
190.2039581939831
 20
370.7873521911456
 30
0.0
 40
5.0
100
AcDbArc
 50
300.630102354156
 51
14.36989764584346
  0
ARC
  5
14A0
330
1E
100
AcDbEntity
  8
SCHRAFF
100
AcDbCircle
 10
180.9651628688703
 20
374.6141865147964
 30
0.0
 40
5.0
100
AcDbArc
 50
300.630102354156
 51
14.36989764584346
  0
ARC
  5
14A1
330
1E
100
AcDbEntity
  8
SCHRAFF
100
AcDbCircle
 10
176.3457652063138
 20
376.5276036766218
 30
0.0
 40
5.0
100
AcDbArc
 50
300.630102354156
 51
14.36989764584346
  0
ARC
  5
14A2
330
1E
100
AcDbEntity
  8
SCHRAFF
100
AcDbCircle
 10
185.5845605314267
 20
372.700769352971
 30
0.0
 40
5.0
100
AcDbArc
 50
300.630102354156
 51
14.36989764584346
  0
ARC
  5
14A3
330
1E
100
AcDbEntity
  8
SCHRAFF
100
AcDbCircle
 10
194.8233558565394
 20
368.8739350293201
 30
0.0
 40
5.0
100
AcDbArc
 50
300.630102354156
 51
14.36989764584346
  0
ARC
  5
14A4
330
1E
100
AcDbEntity
  8
SCHRAFF
100
AcDbCircle
 10
199.4427535190959
 20
366.9605178674947
 30
0.0
 40
5.0
100
AcDbArc
 50
300.630102354156
 51
14.36989764584346
  0
ARC
  5
14A5
330
1E
100
AcDbEntity
  8
SCHRAFF
100
AcDbCircle
 10
204.0621511816522
 20
365.0471007056693
 30
0.0
 40
5.0
100
AcDbArc
 50
300.630102354156
 51
14.36989764584346
  0
LINE
  5
14A6
330
1E
100
AcDbEntity
  8
MITTEL
100
AcDbLine
 10
215.3635500426457
 20
360.3659080236575
 30
0.0
 11
215.3635500426457
 21
231.3609586575414
 31
0.0
  0
LINE
  5
14A7
102
{ACAD_REACTORS
330
15DE
102
}
330
1E
100
AcDbEntity
  8
STEMPEL
100
AcDbLine
 10
266.1635500426455
 20
339.3238590551047
 30
0.0
 11
266.1635500426456
 21
244.3609586575409
 31
0.0
  0
LINE
  5
14A9
330
1E
100
AcDbEntity
  8
STEMPEL
100
AcDbLine
 10
266.1635500426456
 20
244.3609586575421
 30
0.0
 11
265.4636407344382
 21
236.3609586575409
 31
0.0
  0
ARC
  5
14C7
330
1E
100
AcDbEntity
  8
STEMPEL
100
AcDbCircle
 10
318.2466239429658
 20
415.5899848720049
 30
0.0
 40
24.25
100
AcDbArc
 50
315.0
 51
345.1947437153302
  0
LINE
  5
14C8
330
1E
100
AcDbEntity
  8
STEMPEL
100
AcDbLine
 10
341.6915227323229
 20
409.3932743933077
 30
0.0
 11
264.3909164122955
 21
486.6938807133355
 31
0.0
  0
ARC
  5
14C9
330
1E
100
AcDbEntity
  8
STEMPEL
100
AcDbCircle
 10
270.5876268909924
 20
463.2489819239782
 30
0.0
 40
24.25
100
AcDbArc
 50
104.8052562846722
 51
135.0
  0
TEXT
  5
14CB
330
1E
100
AcDbEntity
  8
TEXT
 62
     1
100
AcDbText
 10
265.5803508265115
 20
435.5761180909121
 30
0.0
 40
7.0
  1
DN100
 50
45.0
 41
0.8
  7
GREEKS
100
AcDbText
  0
LINE
  5
14CC
102
{ACAD_REACTORS
330
15DE
102
}
330
1E
100
AcDbEntity
  8
STEMPEL
100
AcDbLine
 10
286.1812879893867
 20
359.3415970018457
 30
0.0
 11
266.1635500426455
 21
339.3238590551047
 31
0.0
  0
LINE
  5
14CD
330
1E
100
AcDbEntity
  8
HILF
100
AcDbLine
 10
309.0364527129716
 20
379.0608481423275
 30
0.0
 11
234.0584901613152
 21
454.0388106939839
 31
0.0
  0
LINE
  5
14CE
330
1E
100
AcDbEntity
  8
HILF
100
AcDbLine
 10
292.5143988230593
 20
363.7869210695826
 30
0.0
 11
218.7845630885702
 21
437.5167568040716
 31
0.0
  0
LINE
  5
14CF
330
1E
100
AcDbEntity
  8
HILF
100
AcDbLine
 10
286.9779655414496
 20
361.5550148232391
 30
0.0
 11
216.5526568422268
 21
431.980323522462
 31
0.0
  0
LINE
  5
14D0
330
1E
100
AcDbEntity
  8
MITTEL
100
AcDbLine
 10
306.576753478242
 20
451.5791114592542
 30
0.0
 11
215.3635500426457
 21
360.3659080236575
 31
0.0
  0
ARC
  5
14D2
330
1E
100
AcDbEntity
  8
SCHRAFF
100
AcDbCircle
 10
222.5397418318778
 20
357.3934320583675
 30
0.0
 40
5.0
100
AcDbArc
 50
300.630102354156
 51
14.36989764584346
  0
ARC
  5
14D3
330
1E
100
AcDbEntity
  8
SCHRAFF
100
AcDbCircle
 10
213.300946506765
 20
361.2202663820184
 30
0.0
 40
5.0
100
AcDbArc
 50
300.630102354156
 51
14.36989764584346
  0
ARC
  5
14D4
330
1E
100
AcDbEntity
  8
SCHRAFF
100
AcDbCircle
 10
208.6815488442087
 20
363.1336835438438
 30
0.0
 40
5.0
100
AcDbArc
 50
300.630102354156
 51
14.36989764584346
  0
ARC
  5
14D5
330
1E
100
AcDbEntity
  8
SCHRAFF
100
AcDbCircle
 10
217.9203441693215
 20
359.306849220193
 30
0.0
 40
5.0
100
AcDbArc
 50
300.630102354156
 51
14.36989764584346
  0
ARC
  5
14D6
330
1E
100
AcDbEntity
  8
SCHRAFF
100
AcDbCircle
 10
231.7785371569907
 20
353.5665977347166
 30
0.0
 40
5.0
100
AcDbArc
 50
300.630102354156
 51
14.36989764584346
  0
ARC
  5
14D7
330
1E
100
AcDbEntity
  8
SCHRAFF
100
AcDbCircle
 10
227.1591394944342
 20
355.480014896542
 30
0.0
 40
5.0
100
AcDbArc
 50
300.630102354156
 51
14.36989764584346
  0
ARC
  5
14D8
330
1E
100
AcDbEntity
  8
SCHRAFF
100
AcDbCircle
 10
236.3979348195471
 20
351.6531805728912
 30
0.0
 40
5.0
100
AcDbArc
 50
300.630102354156
 51
14.36989764584346
  0
ARC
  5
14DA
330
1E
100
AcDbEntity
  8
SCHRAFF
100
AcDbCircle
 10
250.2561278072163
 20
345.9129290874149
 30
0.0
 40
5.0
100
AcDbArc
 50
300.630102354156
 51
14.36989764584346
  0
ARC
  5
14DB
330
1E
100
AcDbEntity
  8
SCHRAFF
100
AcDbCircle
 10
245.6367301446599
 20
347.8263462492403
 30
0.0
 40
5.0
100
AcDbArc
 50
300.630102354156
 51
14.36989764584346
  0
ARC
  5
14DC
330
1E
100
AcDbEntity
  8
SCHRAFF
100
AcDbCircle
 10
254.8755254697727
 20
343.9995119255895
 30
0.0
 40
5.0
100
AcDbArc
 50
300.630102354156
 51
14.36989764584346
  0
ARC
  5
14DF
330
1E
100
AcDbEntity
  8
SCHRAFF
100
AcDbCircle
 10
259.494923132329
 20
342.086094763764
 30
0.0
 40
5.0
100
AcDbArc
 50
300.630102354156
 51
14.36989764584346
  0
ARC
  5
14E0
330
1E
100
AcDbEntity
  8
SCHRAFF
100
AcDbCircle
 10
241.0173324821034
 20
349.7397634110657
 30
0.0
 40
5.0
100
AcDbArc
 50
300.630102354156
 51
14.36989764584346
  0
LINE
  5
14E1
330
1E
100
AcDbEntity
  8
STEMPEL
100
AcDbLine
 10
253.4402874472187
 20
480.3963213677518
 30
0.0
 11
240.3067059454388
 21
467.2627398659719
 31
0.0
  0
ARC
  5
14E2
330
1E
100
AcDbEntity
  8
STEMPEL
100
AcDbCircle
 10
230.2582079346933
 20
431.4048443419176
 30
0.0
 40
14.25
100
AcDbArc
 50
135.0
 51
165.8595810906249
  0
ARC
  5
14E3
330
1E
100
AcDbEntity
  8
STEMPEL
100
AcDbCircle
 10
208.682384771341
 20
436.8405002198913
 30
0.0
 40
8.0
100
AcDbArc
 50
315.0
 51
345.8595810906249
  0
LINE
  5
14E4
330
1E
100
AcDbEntity
  8
STEMPEL
100
AcDbLine
 10
231.3029735039857
 20
452.6021531750265
 30
0.0
 11
220.181936302785
 21
441.4811159738257
 31
0.0
  0
ARC
  5
14E5
330
1E
100
AcDbEntity
  8
STEMPEL
100
AcDbCircle
 10
257.4540453892125
 20
450.1154004221982
 30
0.0
 40
24.25
100
AcDbArc
 50
135.0
 51
161.8880476177231
  0
ARC
  5
14E6
330
1E
100
AcDbEntity
  8
STEMPEL
100
AcDbCircle
 10
222.2873620438571
 20
461.6177646351551
 30
0.0
 40
12.75
100
AcDbArc
 50
315.0
 51
341.8880476177232
  0
LINE
  5
14E7
330
1E
100
AcDbEntity
  8
STEMPEL
100
AcDbLine
 10
335.3939633867396
 20
398.4426454282311
 30
0.0
 11
322.2603818849596
 21
385.3090639264512
 31
0.0
  0
ARC
  5
14E8
330
1E
100
AcDbEntity
  8
STEMPEL
100
AcDbCircle
 10
316.6154066541426
 20
367.2897200248696
 30
0.0
 40
12.75
100
AcDbArc
 50
108.1119523822758
 51
135.0
  0
ARC
  5
14E9
330
1E
100
AcDbEntity
  8
STEMPEL
100
AcDbCircle
 10
286.4024863609052
 20
375.2605659157057
 30
0.0
 40
14.25
100
AcDbArc
 50
284.1404189093783
 51
315.0
  0
ARC
  5
14EA
330
1E
100
AcDbEntity
  8
STEMPEL
100
AcDbCircle
 10
291.838142238879
 20
353.6847427523535
 30
0.0
 40
8.0
100
AcDbArc
 50
104.1404189093782
 51
135.0
  0
LINE
  5
14EB
330
1E
100
AcDbEntity
  8
STEMPEL
100
AcDbLine
 10
307.5997951940142
 20
376.3053314849981
 30
0.0
 11
296.4787579928135
 21
365.1842942837974
 31
0.0
  0
ARC
  5
14EC
330
1E
100
AcDbEntity
  8
STEMPEL
100
AcDbCircle
 10
305.1130424411858
 20
402.456403370225
 30
0.0
 40
24.25
100
AcDbArc
 50
288.1119523822759
 51
315.0
  0
ARC
  5
15CD
330
1E
100
AcDbEntity
  8
SCHRAFF
100
AcDbCircle
 10
167.106969881201
 20
380.3544380002728
 30
0.0
 40
5.0
100
AcDbArc
 50
300.630102354156
 51
14.36989764584346
  0
ARC
  5
15CE
330
1E
100
AcDbEntity
  8
SCHRAFF
100
AcDbCircle
 10
162.4875722186446
 20
382.2678551620982
 30
0.0
 40
5.0
100
AcDbArc
 50
300.630102354156
 51
14.36989764584346
  0
ARC
  5
15D1
102
{ACAD_REACTORS
330
15DE
102
}
330
1E
100
AcDbEntity
  8
SCHRAFF
100
AcDbCircle
 10
265.2998519621478
 20
339.6816145138425
 30
0.0
 40
3.706954211842269
100
AcDbArc
 50
283.4734052394085
 51
31.52659476059163
  0
ARC
  5
15D2
102
{ACAD_REACTORS
330
15DE
102
}
330
1E
100
AcDbEntity
  8
SCHRAFF
100
AcDbCircle
 10
166.0003103898394
 20
380.8128313705237
 30
0.0
 40
3.016231869649331
100
AcDbArc
 50
73.44681594040356
 51
241.5531840595906
  0
HATCH
  5
15DE
330
1E
100
AcDbEntity
  8
SCHRAFF
100
AcDbHatch
 10
0.0
 20
0.0
 30
0.0
210
0.0
220
0.0
230
1.0
  2
_USER
 70
     0
 71
     1
 91
        2
 92
        7
 72
     1
 73
     1
 93
        3
 10
268.4596506368361
 20
341.6199596492953
 42
0.0
 10
266.1635500426456
 20
339.3238590551048
 42
0.0
 10
266.1635500426456
 20
336.0766824542275
 42
0.5098178196615752
 97
        3
330
14CC
330
14A7
330
15D1
 92
        7
 72
     1
 73
     1
 93
        3
 10
166.8596506368364
 20
383.7040575864016
 42
0.9012447877589798
 10
164.5635500426457
 20
378.1607803913342
 42
0.0
 10
164.5635500426457
 20
381.4079569922109
 42
0.0
 97
        3
330
15D2
330
1499
330
1497
 75
     0
 76
     0
 52
0.0
 41
0.1
 77
     0
 78
     1
 53
0.0
 43
0.0
 44
0.0
 45
0.0
 46
0.1
 79
     0
 47
0.2001926868639942
 98
        2
 10
267.3190149062102
 20
338.9022254709471
 10
164.1575348703945
 20
382.143845854846
  0
ENDSEC
  0
SECTION
  2
OBJECTS
  0
DICTIONARY
  5
C
330
0
100
AcDbDictionary
281
     1
  3
ACAD_COLOR
350
F4E
  3
ACAD_GROUP
350
D
  3
ACAD_LAYOUT
350
19
  3
ACAD_MATERIAL
350
F4D
  3
ACAD_MLINESTYLE
350
16
  3
ACAD_PLOTSETTINGS
350
18
  3
ACAD_PLOTSTYLENAME
350
E
  3
AcDbVariableDictionary
350
246
  0
DICTIONARY
  5
F4E
102
{ACAD_REACTORS
330
C
102
}
330
C
100
AcDbDictionary
281
     1
  0
DICTIONARY
  5
D
102
{ACAD_REACTORS
330
C
102
}
330
C
100
AcDbDictionary
281
     1
  0
DICTIONARY
  5
19
102
{ACAD_REACTORS
330
C
102
}
330
C
100
AcDbDictionary
281
     1
  3
Layout1
350
1D
  3
Model
350
21
  0
DICTIONARY
  5
F4D
102
{ACAD_REACTORS
330
C
102
}
330
C
100
AcDbDictionary
281
     1
  0
DICTIONARY
  5
16
102
{ACAD_REACTORS
330
C
102
}
330
C
100
AcDbDictionary
281
     1
  3
Standard
350
17
  0
DICTIONARY
  5
18
102
{ACAD_REACTORS
330
C
102
}
330
C
100
AcDbDictionary
281
     1
  0
ACDBDICTIONARYWDFLT
  5
E
102
{ACAD_REACTORS
330
C
102
}
330
C
100
AcDbDictionary
281
     1
  3
Normal
350
F
100
AcDbDictionaryWithDefault
340
F
  0
DICTIONARY
  5
246
102
{ACAD_REACTORS
330
C
102
}
330
C
100
AcDbDictionary
281
     1
  3
DIMASSOC
350
12BE
  3
PROJECTNAME
350
12BF
  3
SORTENTS
350
247
  0
LAYOUT
  5
1D
102
{ACAD_REACTORS
330
19
102
}
330
19
100
AcDbPlotSettings
  1

  2
Tektronix Phaser 740
  4

  6

 40
0.0
 41
0.0
 42
0.0
 43
0.0
 44
0.0
 45
0.0
 46
0.0
 47
0.0
 48
0.0
 49
0.0
140
0.0
141
0.0
142
1.0
143
1.0
 70
   688
 72
     0
 73
     0
 74
     5
  7
monochrome.ctb
 75
    16
147
1.0
 76
     0
 77
     2
 78
   300
148
0.0
149
0.0
100
AcDbLayout
  1
Layout1
 70
     0
 71
     1
 10
0.0
 20
0.0
 11
12.0
 21
9.0
 12
0.0
 22
0.0
 32
0.0
 14
1.000000000000000E+20
 24
1.000000000000000E+20
 34
1.000000000000000E+20
 15
-1.000000000000000E+20
 25
-1.000000000000000E+20
 35
-1.000000000000000E+20
146
0.0
 13
0.0
 23
0.0
 33
0.0
 16
1.0
 26
0.0
 36
0.0
 17
0.0
 27
1.0
 37
0.0
 76
     0
330
1A
  0
LAYOUT
  5
21
102
{ACAD_REACTORS
330
19
102
}
330
19
100
AcDbPlotSettings
  1

  2
Tektronix Phaser 740
  4
A4
  6

 40
5.873749732971191
 41
6.085414409637451
 42
5.577407836914062
 43
5.662078857421875
 44
209.9733276367187
 45
296.9683227539062
 46
0.0
 47
0.0
 48
0.0
 49
0.0
140
0.0
141
0.0
142
1.0
143
1.0
 70
 11952
 72
     0
 73
     1
 74
     0
  7
monochrome.ctb
 75
     0
147
1.0
 76
     0
 77
     2
 78
   300
148
1150.120678237584
149
45.30495740799864
100
AcDbLayout
  1
Model
 70
     1
 71
     0
 10
0.0
 20
0.0
 11
12.0
 21
9.0
 12
0.0
 22
0.0
 32
0.0
 14
0.0
 24
0.0
 34
0.0
 15
0.0
 25
0.0
 35
0.0
146
0.0
 13
0.0
 23
0.0
 33
0.0
 16
1.0
 26
0.0
 36
0.0
 17
0.0
 27
1.0
 37
0.0
 76
     0
330
1E
  0
MLINESTYLE
  5
17
102
{ACAD_REACTORS
330
16
102
}
330
16
100
AcDbMlineStyle
  2
STANDARD
 70
     0
  3

 62
   256
 51
90.0
 52
90.0
 71
     2
 49
0.5
 62
   256
  6
BYLAYER
 49
-0.5
 62
   256
  6
BYLAYER
  0
ACDBPLACEHOLDER
  5
F
102
{ACAD_REACTORS
330
E
102
}
330
E
  0
DICTIONARYVAR
  5
12BE
102
{ACAD_REACTORS
330
246
102
}
330
246
100
DictionaryVariables
280
     0
  1
1
  0
DICTIONARYVAR
  5
12BF
102
{ACAD_REACTORS
330
246
102
}
330
246
100
DictionaryVariables
280
     0
  1

  0
DICTIONARYVAR
  5
247
102
{ACAD_REACTORS
330
246
102
}
330
246
100
DictionaryVariables
280
     0
  1
96
  0
ENDSEC
  0
EOF
