  0
SECTION
  2
HEADER
  9
$ACADVER
  1
AC1018
  9
$ACADMAINTVER
 70
     2
  9
$DWGCODEPAGE
  3
ANSI_1252
  9
$INSBASE
 10
0.0
 20
0.0
 30
0.0
  9
$EXTMIN
 10
-0.0256145215533934
 20
-0.0362262519120122
 30
-0.0000000000000092
  9
$EXTMAX
 10
420.0256463051597
 20
594.0362712030105
 30
0.0000000000000061
  9
$LIMMIN
 10
0.0
 20
0.0
  9
$LIMMAX
 10
419.9999999999999
 20
594.0
  9
$ORTHOMODE
 70
     1
  9
$REGENMODE
 70
     1
  9
$FILLMODE
 70
     1
  9
$QTEXTMODE
 70
     0
  9
$MIRRTEXT
 70
     1
  9
$LTSCALE
 40
20.0
  9
$ATTMODE
 70
     1
  9
$TEXTSIZE
 40
3.5
  9
$TRACEWID
 40
0.5
  9
$TEXTSTYLE
  7
STANDARD
  9
$CLAYER
  8
SCHRAFF
  9
$CELTYPE
  6
ByLayer
  9
$CECOLOR
 62
   256
  9
$CELTSCALE
 40
1.0
  9
$DISPSILH
 70
     0
  9
$DIMSCALE
 40
2.0
  9
$DIMASZ
 40
3.5
  9
$DIMEXO
 40
1.0
  9
$DIMDLI
 40
7.0
  9
$DIMRND
 40
0.0
  9
$DIMDLE
 40
0.0
  9
$DIMEXE
 40
1.0
  9
$DIMTP
 40
0.0
  9
$DIMTM
 40
0.0
  9
$DIMTXT
 40
3.5
  9
$DIMCEN
 40
1.5
  9
$DIMTSZ
 40
0.0
  9
$DIMTOL
 70
     0
  9
$DIMLIM
 70
     0
  9
$DIMTIH
 70
     0
  9
$DIMTOH
 70
     0
  9
$DIMSE1
 70
     0
  9
$DIMSE2
 70
     0
  9
$DIMTAD
 70
     1
  9
$DIMZIN
 70
     8
  9
$DIMBLK
  1

  9
$DIMASO
 70
     1
  9
$DIMSHO
 70
     0
  9
$DIMPOST
  1

  9
$DIMAPOST
  1

  9
$DIMALT
 70
     0
  9
$DIMALTD
 70
     2
  9
$DIMALTF
 40
25.4
  9
$DIMLFAC
 40
1.0
  9
$DIMTOFL
 70
     1
  9
$DIMTVP
 40
0.0
  9
$DIMTIX
 70
     0
  9
$DIMSOXD
 70
     0
  9
$DIMSAH
 70
     0
  9
$DIMBLK1
  1

  9
$DIMBLK2
  1

  9
$DIMSTYLE
  2
Standard
  9
$DIMCLRD
 70
     0
  9
$DIMCLRE
 70
     0
  9
$DIMCLRT
 70
     1
  9
$DIMTFAC
 40
0.5142857142857144
  9
$DIMGAP
 40
1.5
  9
$DIMJUST
 70
     0
  9
$DIMSD1
 70
     0
  9
$DIMSD2
 70
     0
  9
$DIMTOLJ
 70
     1
  9
$DIMTZIN
 70
     8
  9
$DIMALTZ
 70
     8
  9
$DIMALTTZ
 70
     8
  9
$DIMUPT
 70
     0
  9
$DIMDEC
 70
     2
  9
$DIMTDEC
 70
     2
  9
$DIMALTU
 70
     2
  9
$DIMALTTD
 70
     2
  9
$DIMTXSTY
  7
STANDARD
  9
$DIMAUNIT
 70
     0
  9
$DIMADEC
 70
     2
  9
$DIMALTRND
 40
0.0
  9
$DIMAZIN
 70
     2
  9
$DIMDSEP
 70
    46
  9
$DIMATFIT
 70
     3
  9
$DIMFRAC
 70
     0
  9
$DIMLDRBLK
  1

  9
$DIMLUNIT
 70
     2
  9
$DIMLWD
 70
    -2
  9
$DIMLWE
 70
    -2
  9
$DIMTMOVE
 70
     0
  9
$LUNITS
 70
     2
  9
$LUPREC
 70
     2
  9
$SKETCHINC
 40
1.0
  9
$FILLETRAD
 40
8.0
  9
$AUNITS
 70
     1
  9
$AUPREC
 70
     3
  9
$MENU
  1
ACAD
  9
$ELEVATION
 40
0.0
  9
$PELEVATION
 40
0.0
  9
$THICKNESS
 40
0.0
  9
$LIMCHECK
 70
     0
  9
$CHAMFERA
 40
0.0
  9
$CHAMFERB
 40
0.0
  9
$CHAMFERC
 40
0.0
  9
$CHAMFERD
 40
0.0
  9
$SKPOLY
 70
     0
  9
$TDCREATE
 40
2452040.637099653
  9
$TDUCREATE
 40
2452040.553766320
  9
$TDUPDATE
 40
2455663.478774387
  9
$TDUUPDATE
 40
2455663.395441054
  9
$TDINDWG
 40
0.3014039583
  9
$TDUSRTIMER
 40
0.3014039583
  9
$USRTIMER
 70
     1
  9
$ANGBASE
 50
0.0
  9
$ANGDIR
 70
     0
  9
$PDMODE
 70
     0
  9
$PDSIZE
 40
0.0
  9
$PLINEWID
 40
0.0
  9
$SPLFRAME
 70
     0
  9
$SPLINETYPE
 70
     6
  9
$SPLINESEGS
 70
     8
  9
$HANDSEED
  5
146D
  9
$SURFTAB1
 70
     6
  9
$SURFTAB2
 70
     6
  9
$SURFTYPE
 70
     6
  9
$SURFU
 70
     6
  9
$SURFV
 70
     6
  9
$UCSBASE
  2

  9
$UCSNAME
  2

  9
$UCSORG
 10
0.0
 20
0.0
 30
0.0
  9
$UCSXDIR
 10
1.0
 20
0.0
 30
0.0
  9
$UCSYDIR
 10
0.0
 20
1.0
 30
0.0
  9
$UCSORTHOREF
  2

  9
$UCSORTHOVIEW
 70
     0
  9
$UCSORGTOP
 10
0.0
 20
0.0
 30
0.0
  9
$UCSORGBOTTOM
 10
0.0
 20
0.0
 30
0.0
  9
$UCSORGLEFT
 10
0.0
 20
0.0
 30
0.0
  9
$UCSORGRIGHT
 10
0.0
 20
0.0
 30
0.0
  9
$UCSORGFRONT
 10
0.0
 20
0.0
 30
0.0
  9
$UCSORGBACK
 10
0.0
 20
0.0
 30
0.0
  9
$PUCSBASE
  2

  9
$PUCSNAME
  2

  9
$PUCSORG
 10
0.0
 20
0.0
 30
0.0
  9
$PUCSXDIR
 10
1.0
 20
0.0
 30
0.0
  9
$PUCSYDIR
 10
0.0
 20
1.0
 30
0.0
  9
$PUCSORTHOREF
  2

  9
$PUCSORTHOVIEW
 70
     0
  9
$PUCSORGTOP
 10
0.0
 20
0.0
 30
0.0
  9
$PUCSORGBOTTOM
 10
0.0
 20
0.0
 30
0.0
  9
$PUCSORGLEFT
 10
0.0
 20
0.0
 30
0.0
  9
$PUCSORGRIGHT
 10
0.0
 20
0.0
 30
0.0
  9
$PUCSORGFRONT
 10
0.0
 20
0.0
 30
0.0
  9
$PUCSORGBACK
 10
0.0
 20
0.0
 30
0.0
  9
$USERI1
 70
     0
  9
$USERI2
 70
     0
  9
$USERI3
 70
     0
  9
$USERI4
 70
     0
  9
$USERI5
 70
     0
  9
$USERR1
 40
0.0
  9
$USERR2
 40
0.0
  9
$USERR3
 40
0.0
  9
$USERR4
 40
0.0
  9
$USERR5
 40
0.0
  9
$WORLDVIEW
 70
     1
  9
$SHADEDGE
 70
     3
  9
$SHADEDIF
 70
    70
  9
$TILEMODE
 70
     1
  9
$MAXACTVP
 70
    16
  9
$PINSBASE
 10
0.0
 20
0.0
 30
0.0
  9
$PLIMCHECK
 70
     0
  9
$PEXTMIN
 10
1.000000000000000E+20
 20
1.000000000000000E+20
 30
1.000000000000000E+20
  9
$PEXTMAX
 10
-1.000000000000000E+20
 20
-1.000000000000000E+20
 30
-1.000000000000000E+20
  9
$PLIMMIN
 10
0.0
 20
0.0
  9
$PLIMMAX
 10
12.0
 20
9.0
  9
$UNITMODE
 70
     0
  9
$VISRETAIN
 70
     0
  9
$PLINEGEN
 70
     0
  9
$PSLTSCALE
 70
     0
  9
$TREEDEPTH
 70
  3020
  9
$CMLSTYLE
  2
Standard
  9
$CMLJUST
 70
     0
  9
$CMLSCALE
 40
1.0
  9
$PROXYGRAPHICS
 70
     1
  9
$MEASUREMENT
 70
     0
  9
$CELWEIGHT
370
    -1
  9
$ENDCAPS
280
     0
  9
$JOINSTYLE
280
     0
  9
$LWDISPLAY
290
     0
  9
$INSUNITS
 70
     0
  9
$HYPERLINKBASE
  1

  9
$STYLESHEET
  1
monochrome 1.ctb
  9
$XEDIT
290
     1
  9
$CEPSNTYPE
380
     0
  9
$PSTYLEMODE
290
     1
  9
$FINGERPRINTGUID
  2
{7AADB5C8-6110-11D8-B72B-000102183313}
  9
$VERSIONGUID
  2
{64C58E35-7A20-4FF8-8087-8F50155F90A7}
  9
$EXTNAMES
290
     1
  9
$PSVPSCALE
 40
0.0
  9
$OLESTARTUP
290
     0
  9
$SORTENTS
280
    96
  9
$INDEXCTL
280
     0
  9
$HIDETEXT
280
     0
  9
$XCLIPFRAME
290
     0
  9
$HALOGAP
280
     0
  9
$OBSCOLOR
 70
   257
  9
$OBSLTYPE
280
     0
  9
$INTERSECTIONDISPLAY
280
     0
  9
$INTERSECTIONCOLOR
 70
   257
  9
$DIMASSOC
280
     1
  9
$PROJECTNAME
  1

  0
ENDSEC
  0
SECTION
  2
CLASSES
  0
CLASS
  1
ACDBDICTIONARYWDFLT
  2
AcDbDictionaryWithDefault
  3
ObjectDBX Classes
 90
        0
 91
        1
280
     0
281
     0
  0
CLASS
  1
DICTIONARYVAR
  2
AcDbDictionaryVar
  3
ObjectDBX Classes
 90
        0
 91
        3
280
     0
281
     0
  0
ENDSEC
  0
SECTION
  2
TABLES
  0
TABLE
  2
VPORT
  5
8
330
0
100
AcDbSymbolTable
 70
     3
  0
VPORT
  5
146C
330
8
100
AcDbSymbolTableRecord
100
AcDbViewportTableRecord
  2
*Active
 70
     0
 10
0.0
 20
0.0
 11
1.0
 21
1.0
 12
210.0
 22
297.0
 13
0.0
 23
0.0
 14
1.0
 24
1.0
 15
10.0
 25
10.0
 16
0.0
 26
0.0
 36
1.0
 17
0.0
 27
0.0
 37
0.0
 40
594.0
 41
1.334231805929919
 42
50.0
 43
0.0
 44
0.0
 50
0.0
 51
0.0
 71
     0
 72
  1500
 73
     1
 74
     0
 75
     0
 76
     0
 77
     0
 78
     0
281
     0
 65
     1
110
0.0
120
0.0
130
0.0
111
1.0
121
0.0
131
0.0
112
0.0
122
1.0
132
0.0
 79
     0
146
0.0
  0
ENDTAB
  0
TABLE
  2
LTYPE
  5
5
330
0
100
AcDbSymbolTable
 70
     2
  0
LTYPE
  5
13
330
5
100
AcDbSymbolTableRecord
100
AcDbLinetypeTableRecord
  2
ByBlock
 70
     0
  3

 72
    65
 73
     0
 40
0.0
  0
LTYPE
  5
14
330
5
100
AcDbSymbolTableRecord
100
AcDbLinetypeTableRecord
  2
ByLayer
 70
     0
  3

 72
    65
 73
     0
 40
0.0
  0
LTYPE
  5
15
330
5
100
AcDbSymbolTableRecord
100
AcDbLinetypeTableRecord
  2
Continuous
 70
     0
  3
Solid line
 72
    65
 73
     0
 40
0.0
  0
LTYPE
  5
35
330
5
100
AcDbSymbolTableRecord
100
AcDbLinetypeTableRecord
  2
STRICHPUNKT
 70
     0
  3
__ . __ . __ . __ . __ . __ . __ . __ . __ . __
 72
    65
 73
     4
 40
1.0
 49
0.5
 74
     0
 49
-0.25
 74
     0
 49
0.0
 74
     0
 49
-0.25
 74
     0
  0
ENDTAB
  0
TABLE
  2
LAYER
  5
2
330
0
100
AcDbSymbolTable
 70
     9
  0
LAYER
  5
10
330
2
100
AcDbSymbolTableRecord
100
AcDbLayerTableRecord
  2
0
 70
     0
 62
     7
  6
Continuous
370
    -3
390
F
  0
LAYER
  5
38
330
2
100
AcDbSymbolTableRecord
100
AcDbLayerTableRecord
  2
VOLL
 70
     0
 62
     1
  6
Continuous
370
    -3
390
F
  0
LAYER
  5
39
330
2
100
AcDbSymbolTableRecord
100
AcDbLayerTableRecord
  2
HILF
 70
     0
 62
     2
  6
Continuous
370
    -3
390
F
  0
LAYER
  5
3A
330
2
100
AcDbSymbolTableRecord
100
AcDbLayerTableRecord
  2
MITTEL
 70
     0
 62
     2
  6
STRICHPUNKT
370
    -3
390
F
  0
LAYER
  5
3B
330
2
100
AcDbSymbolTableRecord
100
AcDbLayerTableRecord
  2
BEM
 70
     0
 62
     7
  6
Continuous
370
    -3
390
F
  0
LAYER
  5
3C
330
2
100
AcDbSymbolTableRecord
100
AcDbLayerTableRecord
  2
STEMPEL
 70
     0
 62
     3
  6
Continuous
370
    -3
390
F
  0
LAYER
  5
3D
330
2
100
AcDbSymbolTableRecord
100
AcDbLayerTableRecord
  2
TEXT
 70
     0
 62
     7
  6
Continuous
370
    -3
390
F
  0
LAYER
  5
3E
330
2
100
AcDbSymbolTableRecord
100
AcDbLayerTableRecord
  2
DEFPOINTS
 70
     0
 62
     7
  6
Continuous
290
     0
370
    -3
390
F
  0
LAYER
  5
3F
330
2
100
AcDbSymbolTableRecord
100
AcDbLayerTableRecord
  2
SCHRAFF
 70
     0
 62
     7
  6
Continuous
370
    -3
390
F
  0
ENDTAB
  0
TABLE
  2
STYLE
  5
3
330
0
100
AcDbSymbolTable
 70
     2
  0
STYLE
  5
11
330
3
100
AcDbSymbolTableRecord
100
AcDbTextStyleTableRecord
  2
STANDARD
 70
     0
 40
0.0
 41
0.8
 50
0.0
 71
     0
 42
3.5
  3
simplex.shx
  4

  0
STYLE
  5
34
330
3
100
AcDbSymbolTableRecord
100
AcDbTextStyleTableRecord
  2
GREEKS
 70
     0
 40
0.0
 41
0.8
 50
0.0
 71
     0
 42
2.5
  3
SIMPLEX.shx
  4

  0
ENDTAB
  0
TABLE
  2
VIEW
  5
6
330
0
100
AcDbSymbolTable
 70
     0
  0
ENDTAB
  0
TABLE
  2
UCS
  5
7
330
0
100
AcDbSymbolTable
 70
     0
  0
ENDTAB
  0
TABLE
  2
APPID
  5
9
330
0
100
AcDbSymbolTable
 70
     1
  0
APPID
  5
12
330
9
100
AcDbSymbolTableRecord
100
AcDbRegAppTableRecord
  2
ACAD
 70
     0
  0
ENDTAB
  0
TABLE
  2
DIMSTYLE
  5
A
330
0
100
AcDbSymbolTable
 70
     1
100
AcDbDimStyleTable
 71
     1
340
1CB
  0
DIMSTYLE
105
1CB
102
{ACAD_REACTORS
330
1141
330
126B
330
137A
330
13CE
102
}
330
A
100
AcDbSymbolTableRecord
100
AcDbDimStyleTableRecord
  2
Standard
 70
     0
340
11
  0
ENDTAB
  0
TABLE
  2
BLOCK_RECORD
  5
1
330
0
100
AcDbSymbolTable
 70
     6
  0
BLOCK_RECORD
  5
1E
330
1
100
AcDbSymbolTableRecord
100
AcDbBlockTableRecord
  2
*Model_Space
340
21
  0
BLOCK_RECORD
  5
1A
330
1
100
AcDbSymbolTableRecord
100
AcDbBlockTableRecord
  2
*Paper_Space
340
1D
  0
BLOCK_RECORD
  5
22
330
1
100
AcDbSymbolTableRecord
100
AcDbBlockTableRecord
  2
LOGO
340
0
102
{BLKREFS
331
135
102
}
  0
BLOCK_RECORD
  5
1152
330
1
100
AcDbSymbolTableRecord
100
AcDbBlockTableRecord
  2
*D1
340
0
  0
BLOCK_RECORD
  5
126C
330
1
100
AcDbSymbolTableRecord
100
AcDbBlockTableRecord
  2
*D2
340
0
  0
BLOCK_RECORD
  5
139E
330
1
100
AcDbSymbolTableRecord
100
AcDbBlockTableRecord
  2
*D3
340
0
  0
BLOCK_RECORD
  5
13CF
330
1
100
AcDbSymbolTableRecord
100
AcDbBlockTableRecord
  2
*D5
340
0
  0
ENDTAB
  0
ENDSEC
  0
SECTION
  2
BLOCKS
  0
BLOCK
  5
43
330
1E
100
AcDbEntity
  8
0
100
AcDbBlockBegin
  2
*Model_Space
 70
     0
 10
0.0
 20
0.0
 30
0.0
  3
*Model_Space
  1

  0
ENDBLK
  5
44
330
1E
100
AcDbEntity
  8
0
100
AcDbBlockEnd
  0
BLOCK
  5
41
330
1A
100
AcDbEntity
 67
     1
  8
0
100
AcDbBlockBegin
  2
*Paper_Space
 70
     0
 10
0.0
 20
0.0
 30
0.0
  3
*Paper_Space
  1

  0
ENDBLK
  5
42
330
1A
100
AcDbEntity
 67
     1
  8
0
100
AcDbBlockEnd
  0
BLOCK
  5
45
330
22
100
AcDbEntity
  8
0
100
AcDbBlockBegin
  2
LOGO
 70
     0
 10
0.0
 20
0.0
 30
0.0
  3
LOGO
  1

  0
ARC
  5
46
330
22
100
AcDbEntity
  8
0
100
AcDbCircle
 10
11.59973089678112
 20
-9.271599258481501
 30
0.0
 40
4.5
100
AcDbArc
 50
270.0
 51
231.0575587310159
  0
LINE
  5
47
330
22
100
AcDbEntity
  8
0
100
AcDbLine
 10
3.599730896781125
 20
-4.771599258481529
 30
0.0
 11
3.599730896781153
 21
-11.77159925848133
 31
0.0
  0
LINE
  5
48
330
22
100
AcDbEntity
  8
0
100
AcDbLine
 10
2.599730896781125
 20
-4.771599258481529
 30
0.0
 11
2.599730896781153
 21
-11.77159925848133
 31
0.0
  0
CIRCLE
  5
49
330
22
100
AcDbEntity
  8
0
100
AcDbCircle
 10
11.59973089678112
 20
-9.271599258481501
 30
0.0
 40
3.5
  0
ARC
  5
4A
330
22
100
AcDbEntity
  8
0
100
AcDbCircle
 10
31.59973089678115
 20
-9.271599258481472
 30
0.0
 40
4.5
100
AcDbArc
 50
270.0
 51
231.0575587310182
  0
LINE
  5
4B
330
22
100
AcDbEntity
  8
0
100
AcDbLine
 10
17.59973089678112
 20
-4.771599258481472
 30
0.0
 11
17.59973089678115
 21
-13.77159925848147
 31
0.0
  0
ARC
  5
4C
330
22
100
AcDbEntity
  8
0
100
AcDbCircle
 10
22.59973089678116
 20
-7.271599258481472
 30
0.0
 40
2.5
100
AcDbArc
 50
293.1161887722295
 51
90.0
  0
CIRCLE
  5
4D
330
22
100
AcDbEntity
  8
0
100
AcDbCircle
 10
31.59973089678115
 20
-9.271599258481472
 30
0.0
 40
3.5
  0
ARC
  5
4E
330
22
100
AcDbEntity
  8
0
100
AcDbCircle
 10
4.599730896781153
 20
-11.77159925848133
 30
0.0
 40
1.0
100
AcDbArc
 50
180.0
 51
270.0
  0
ARC
  5
4F
330
22
100
AcDbEntity
  8
0
100
AcDbCircle
 10
4.599730896781153
 20
-11.77159925848133
 30
0.0
 40
2.0
100
AcDbArc
 50
179.9999999999992
 51
270.0
  0
LINE
  5
50
330
22
100
AcDbEntity
  8
0
100
AcDbLine
 10
11.59973089678115
 20
-13.77159925848144
 30
0.0
 11
4.599730896781153
 21
-13.77159925848147
 31
0.0
  0
LINE
  5
51
330
22
100
AcDbEntity
  8
0
100
AcDbLine
 10
8.771303772034769
 20
-12.77159925848136
 30
0.0
 11
4.599730896781153
 21
-12.77159925848133
 31
0.0
  0
LINE
  5
52
330
22
100
AcDbEntity
  8
0
100
AcDbLine
 10
31.59973089678115
 20
-13.77159925848147
 30
0.0
 11
23.6715276665056
 21
-13.77159925848144
 31
0.0
  0
LINE
  5
53
330
22
100
AcDbEntity
  8
0
100
AcDbLine
 10
23.56565672307022
 20
-9.51278021337896
 30
0.0
 11
24.4388546544846
 21
-12.77159925848144
 31
0.0
  0
LINE
  5
54
330
22
100
AcDbEntity
  8
0
100
AcDbLine
 10
22.59973089678116
 20
-9.771599258481472
 30
0.0
 11
18.59973089678112
 21
-9.771599258481472
 31
0.0
  0
LINE
  5
55
330
22
100
AcDbEntity
  8
0
100
AcDbLine
 10
18.59973089678115
 20
-13.77159925848144
 30
0.0
 11
17.59973089678115
 21
-13.77159925848144
 31
0.0
  0
LINE
  5
56
330
22
100
AcDbEntity
  8
0
100
AcDbLine
 10
18.59973089678115
 20
-9.771599258481472
 30
0.0
 11
18.59973089678115
 21
-13.77159925848144
 31
0.0
  0
LINE
  5
57
330
22
100
AcDbEntity
  8
0
100
AcDbLine
 10
22.59973089678116
 20
-9.771599258481472
 30
0.0
 11
23.67152766650562
 21
-13.77159925848147
 31
0.0
  0
ARC
  5
58
330
22
100
AcDbEntity
  8
0
100
AcDbCircle
 10
22.59973089678116
 20
-7.271599258481472
 30
0.0
 40
2.5
100
AcDbArc
 50
270.0
 51
270.0000000000007
  0
LINE
  5
59
330
22
100
AcDbEntity
  8
0
100
AcDbLine
 10
28.77130377203494
 20
-12.77159925848147
 30
0.0
 11
24.43885465448463
 21
-12.77159925848144
 31
0.0
  0
LINE
  5
5A
330
22
100
AcDbEntity
  8
0
100
AcDbLine
 10
3.599730896781125
 20
-4.771599258481472
 30
0.0
 11
2.599730896781125
 21
-4.771599258481472
 31
0.0
  0
LINE
  5
5B
330
22
100
AcDbEntity
  8
0
100
AcDbLine
 10
22.59973089678116
 20
-8.771599258481472
 30
0.0
 11
18.59973089678115
 21
-8.771599258481472
 31
0.0
  0
LINE
  5
5C
330
22
100
AcDbEntity
  8
0
100
AcDbLine
 10
22.59973089678116
 20
-5.771599258481472
 30
0.0
 11
18.59973089678115
 21
-5.771599258481472
 31
0.0
  0
LINE
  5
5D
330
22
100
AcDbEntity
  8
0
100
AcDbLine
 10
22.59973089678116
 20
-4.771599258481472
 30
0.0
 11
17.59973089678115
 21
-4.771599258481472
 31
0.0
  0
LINE
  5
5E
330
22
100
AcDbEntity
  8
0
100
AcDbLine
 10
18.59973089678115
 20
-5.771599258481472
 30
0.0
 11
18.59973089678115
 21
-8.771599258481472
 31
0.0
  0
ARC
  5
5F
330
22
100
AcDbEntity
  8
0
100
AcDbCircle
 10
22.59973089678116
 20
-7.271599258481472
 30
0.0
 40
1.5
100
AcDbArc
 50
270.0
 51
90.0
  0
ENDBLK
  5
60
330
22
100
AcDbEntity
  8
0
100
AcDbBlockEnd
  0
BLOCK
  5
115C
330
1152
100
AcDbEntity
  8
0
100
AcDbBlockBegin
  2
*D1
 70
     1
 10
0.0
 20
0.0
 30
0.0
  3
*D1
  1

  0
LINE
  5
1459
330
1152
100
AcDbEntity
  8
BEM
 62
     0
370
    -2
100
AcDbLine
 10
224.9525336792828
 20
338.0819646556772
 30
0.0
 11
169.7653775589334
 21
393.2691207760276
 31
0.0
  0
LINE
  5
145A
330
1152
100
AcDbEntity
  8
BEM
 62
     0
370
    -2
100
AcDbLine
 10
255.043573641706
 20
435.1498519328044
 30
0.0
 11
233.3448411787089
 21
456.8485843958018
 31
0.0
  0
LINE
  5
145B
330
1152
100
AcDbEntity
  8
BEM
 62
     0
370
    -2
100
AcDbLine
 10
176.1293385896123
 20
396.8046546819603
 30
0.0
 11
229.8093072727761
 21
450.484623365123
 31
0.0
  0
SOLID
  5
145C
330
1152
100
AcDbEntity
  8
BEM
 62
     0
100
AcDbTrace
 10
175.3043806782281
 20
397.6296125933445
 30
0.0
 11
176.9542965009966
 21
395.9796967705759
 31
0.0
 12
171.1795911213065
 22
391.8549072136545
 32
0.0
 13
171.1795911213065
 23
391.8549072136545
 33
0.0
  0
SOLID
  5
145D
330
1152
100
AcDbEntity
  8
BEM
 62
     0
100
AcDbTrace
 10
228.9843493613918
 20
451.3095812765072
 30
0.0
 11
230.6342651841604
 21
449.6596654537387
 31
0.0
 12
234.759054741082
 22
455.4343708334287
 32
0.0
 13
234.759054741082
 23
455.4343708334287
 33
0.0
  0
MTEXT
  5
145E
330
1152
100
AcDbEntity
  8
BEM
 62
     1
100
AcDbMText
 10
198.3731288534817
 20
428.2408331012542
 30
0.0
 40
7.0
 41
0.0
 71
     5
 72
     1
  1
\A1;90
 11
0.7071067811865541
 21
0.707106781186541
 31
0.0
 73
     1
 44
1.0
  0
POINT
  5
145F
330
1152
100
AcDbEntity
  8
DEFPOINTS
 62
     0
100
AcDbPoint
 10
226.3667472416559
 20
336.6677510933041
 30
0.0
  0
POINT
  5
1460
330
1152
100
AcDbEntity
  8
DEFPOINTS
 62
     0
100
AcDbPoint
 10
256.457787204079
 20
433.7356383704313
 30
0.0
  0
POINT
  5
1461
330
1152
100
AcDbEntity
  8
DEFPOINTS
 62
     0
100
AcDbPoint
 10
234.759054741082
 20
455.4343708334287
 30
0.0
  0
ENDBLK
  5
115D
330
1152
100
AcDbEntity
  8
0
100
AcDbBlockEnd
  0
BLOCK
  5
1278
330
126C
100
AcDbEntity
  8
0
100
AcDbBlockBegin
  2
*D2
 70
     1
 10
0.0
 20
0.0
 30
0.0
  3
*D2
  1

  0
LINE
  5
144F
330
126C
100
AcDbEntity
  8
BEM
 62
     0
370
    -2
100
AcDbLine
 10
226.3667472416559
 20
338.667751093304
 30
0.0
 11
226.3667472416559
 21
415.7617932325756
 31
0.0
  0
ARC
  5
1450
330
126C
100
AcDbEntity
  8
BEM
 62
     0
370
    -2
100
AcDbCircle
 10
226.3667472416559
 20
336.667751093304
 30
0.0
 40
77.09404213927166
100
AcDbArc
 50
50.20414219208444
 51
84.79585780791559
  0
SOLID
  5
1451
330
126C
100
AcDbEntity
  8
BEM
 62
     0
100
AcDbTrace
 10
276.4977642024336
 20
396.7629606030105
 30
0.0
 11
274.9244542500719
 21
395.0398412692893
 31
0.0
 12
280.8804672274163
 22
391.1814710790645
 32
0.0
 13
280.8804672274163
 23
391.1814710790645
 33
0.0
  0
SOLID
  5
1452
330
126C
100
AcDbEntity
  8
BEM
 62
     0
100
AcDbTrace
 10
233.3065641326072
 20
412.2785357932962
 30
0.0
 11
233.4124953620518
 21
414.6094632951874
 31
0.0
 12
226.3667472416559
 22
413.7617932325757
 32
0.0
 13
226.3667472416559
 23
413.7617932325757
 33
0.0
  0
MTEXT
  5
1453
330
126C
100
AcDbEntity
  8
BEM
 62
     1
100
AcDbMText
 10
257.1566223614502
 20
414.3848500567226
 30
0.0
 40
7.0
 41
0.0
 71
     5
 72
     1
  1
\A1;45°
 11
0.929696626392802
 21
-0.3683261908605513
 31
0.0
 73
     1
 44
1.0
  0
POINT
  5
1454
330
126C
100
AcDbEntity
  8
DEFPOINTS
 62
     0
100
AcDbPoint
 10
264.9137683112917
 20
403.4331500663413
 30
0.0
  0
POINT
  5
1455
330
126C
100
AcDbEntity
  8
DEFPOINTS
 62
     0
100
AcDbPoint
 10
226.3667472416559
 20
336.667751093304
 30
0.0
  0
POINT
  5
1456
330
126C
100
AcDbEntity
  8
DEFPOINTS
 62
     0
100
AcDbPoint
 10
293.4817447673638
 20
403.782748619012
 30
0.0
  0
POINT
  5
1457
330
126C
100
AcDbEntity
  8
DEFPOINTS
 62
     0
100
AcDbPoint
 10
226.3667472416559
 20
336.667751093304
 30
0.0
  0
POINT
  5
1458
330
126C
100
AcDbEntity
  8
DEFPOINTS
 62
     0
100
AcDbPoint
 10
226.3667472416559
 20
226.7528113538112
 30
0.0
  0
ENDBLK
  5
1279
330
126C
100
AcDbEntity
  8
0
100
AcDbBlockEnd
  0
BLOCK
  5
13A8
330
139E
100
AcDbEntity
  8
0
100
AcDbBlockBegin
  2
*D3
 70
     1
 10
0.0
 20
0.0
 30
0.0
  3
*D3
  1

  0
LINE
  5
1411
330
139E
100
AcDbEntity
  8
BEM
 62
     0
370
    -2
100
AcDbLine
 10
181.9167472416559
 20
234.7528113538109
 30
0.0
 11
181.9167472416559
 21
209.061926069299
 31
0.0
  0
LINE
  5
1412
330
139E
100
AcDbEntity
  8
BEM
 62
     0
370
    -2
100
AcDbLine
 10
270.816747241656
 20
234.7528113538139
 30
0.0
 11
270.816747241656
 21
209.061926069299
 31
0.0
  0
LINE
  5
1413
330
139E
100
AcDbEntity
  8
BEM
 62
     0
370
    -2
100
AcDbLine
 10
188.9167472416559
 20
211.061926069299
 30
0.0
 11
263.816747241656
 21
211.061926069299
 31
0.0
  0
SOLID
  5
1414
330
139E
100
AcDbEntity
  8
BEM
 62
     0
100
AcDbTrace
 10
188.9167472416559
 20
212.2285927359657
 30
0.0
 11
188.9167472416559
 21
209.8952594026324
 31
0.0
 12
181.9167472416559
 22
211.061926069299
 32
0.0
 13
181.9167472416559
 23
211.061926069299
 33
0.0
  0
SOLID
  5
1415
330
139E
100
AcDbEntity
  8
BEM
 62
     0
100
AcDbTrace
 10
263.816747241656
 20
212.2285927359657
 30
0.0
 11
263.816747241656
 21
209.8952594026324
 31
0.0
 12
270.816747241656
 22
211.061926069299
 32
0.0
 13
270.816747241656
 23
211.061926069299
 33
0.0
  0
MTEXT
  5
1416
330
139E
100
AcDbEntity
  8
BEM
 62
     1
100
AcDbMText
 10
226.3667472416559
 20
217.561926069299
 30
0.0
 40
7.0
 41
0.0
 71
     5
 72
     1
  1
\A1;%%c88.9
 73
     1
 44
1.0
  0
POINT
  5
1417
330
139E
100
AcDbEntity
  8
DEFPOINTS
 62
     0
100
AcDbPoint
 10
181.9167472416559
 20
236.7528113538109
 30
0.0
  0
POINT
  5
1418
330
139E
100
AcDbEntity
  8
DEFPOINTS
 62
     0
100
AcDbPoint
 10
270.816747241656
 20
236.7528113538139
 30
0.0
  0
POINT
  5
1419
330
139E
100
AcDbEntity
  8
DEFPOINTS
 62
     0
100
AcDbPoint
 10
270.816747241656
 20
211.061926069299
 30
0.0
  0
ENDBLK
  5
13A9
330
139E
100
AcDbEntity
  8
0
100
AcDbBlockEnd
  0
BLOCK
  5
13D9
330
13CF
100
AcDbEntity
  8
0
100
AcDbBlockBegin
  2
*D5
 70
     1
 10
0.0
 20
0.0
 30
0.0
  3
*D5
  1

  0
LINE
  5
1462
330
13CF
100
AcDbEntity
  8
BEM
 62
     0
370
    -2
100
AcDbLine
 10
180.3541905592856
 20
231.7528113538109
 30
0.0
 11
147.787752240516
 21
231.7528113538109
 31
0.0
  0
LINE
  5
1463
330
13CF
100
AcDbEntity
  8
BEM
 62
     0
370
    -2
100
AcDbLine
 10
224.3667472416559
 20
336.667751093304
 30
0.0
 11
147.787752240516
 21
336.667751093304
 31
0.0
  0
LINE
  5
1464
330
13CF
100
AcDbEntity
  8
BEM
 62
     0
370
    -2
100
AcDbLine
 10
149.787752240516
 20
238.7528113538109
 30
0.0
 11
149.787752240516
 21
329.667751093304
 31
0.0
  0
SOLID
  5
1465
330
13CF
100
AcDbEntity
  8
BEM
 62
     0
100
AcDbTrace
 10
148.6210855738493
 20
238.7528113538109
 30
0.0
 11
150.9544189071827
 21
238.7528113538109
 31
0.0
 12
149.787752240516
 22
231.7528113538109
 32
0.0
 13
149.787752240516
 23
231.7528113538109
 33
0.0
  0
SOLID
  5
1466
330
13CF
100
AcDbEntity
  8
BEM
 62
     0
100
AcDbTrace
 10
148.6210855738494
 20
329.667751093304
 30
0.0
 11
150.9544189071827
 21
329.667751093304
 31
0.0
 12
149.787752240516
 22
336.667751093304
 32
0.0
 13
149.787752240516
 23
336.667751093304
 33
0.0
  0
MTEXT
  5
1467
330
13CF
100
AcDbEntity
  8
BEM
 62
     1
100
AcDbMText
 10
143.287752240516
 20
284.2102812235575
 30
0.0
 40
7.0
 41
0.0
 71
     5
 72
     1
  1
\A1;105
 11
0.0000000000000001
 21
1.0
 31
0.0
 73
     1
 44
1.0
  0
POINT
  5
1468
330
13CF
100
AcDbEntity
  8
DEFPOINTS
 62
     0
100
AcDbPoint
 10
182.3541905592856
 20
231.7528113538109
 30
0.0
  0
POINT
  5
1469
330
13CF
100
AcDbEntity
  8
DEFPOINTS
 62
     0
100
AcDbPoint
 10
226.3667472416559
 20
336.667751093304
 30
0.0
  0
POINT
  5
146A
330
13CF
100
AcDbEntity
  8
DEFPOINTS
 62
     0
100
AcDbPoint
 10
149.787752240516
 20
336.667751093304
 30
0.0
  0
ENDBLK
  5
13DA
330
13CF
100
AcDbEntity
  8
0
100
AcDbBlockEnd
  0
ENDSEC
  0
SECTION
  2
ENTITIES
  0
TEXT
  5
134
330
1E
100
AcDbEntity
  8
TEXT
100
AcDbText
 10
204.4216048581257
 20
63.0896391972351
 30
0.0
 40
4.0
  1
Koeh
 41
0.8
  7
GREEKS
 72
     1
 11
209.6787477152686
 21
63.0896391972351
 31
0.0
100
AcDbText
  0
INSERT
  5
135
330
1E
100
AcDbEntity
  8
STEMPEL
100
AcDbBlockReference
  2
LOGO
 10
150.9955485457794
 20
45.02105276448322
 30
0.0
 41
2.0
 42
2.0
 43
2.0
  0
LINE
  5
136
330
1E
100
AcDbEntity
  8
HILF
100
AcDbLine
 10
420.0
 20
0.0
 30
0.0
 11
0.0
 21
0.0
 31
0.0
  0
LINE
  5
137
330
1E
100
AcDbEntity
  8
HILF
100
AcDbLine
 10
419.9999999999999
 20
594.0000000000002
 30
0.0
 11
0.0
 21
594.0
 31
0.0
  0
LINE
  5
138
330
1E
100
AcDbEntity
  8
STEMPEL
100
AcDbLine
 10
410.0
 20
584.0
 30
0.0
 11
39.99999999999989
 21
584.0
 31
0.0
  0
LINE
  5
139
330
1E
100
AcDbEntity
  8
STEMPEL
100
AcDbLine
 10
410.0
 20
10.0
 30
0.0
 11
39.99999999999989
 21
10.0
 31
0.0
  0
LINE
  5
13A
330
1E
100
AcDbEntity
  8
STEMPEL
100
AcDbLine
 10
49.99999999999989
 20
10.0
 30
0.0
 11
410.0
 21
10.0
 31
0.0
  0
TEXT
  5
13B
330
1E
100
AcDbEntity
  8
TEXT
100
AcDbText
 10
202.4626584226295
 20
73.30961091915225
 30
0.0
 40
4.0
  1
Name
 41
0.8
  7
GREEKS
100
AcDbText
  0
TEXT
  5
13C
330
1E
100
AcDbEntity
  8
TEXT
100
AcDbText
 10
196.5498279101549
 20
102.6506227776589
 30
0.0
 40
5.0
  1
Zul. Abw.
 41
0.8
  7
GREEKS
 72
     4
 11
209.9783993387263
 21
105.1506227776589
 31
0.0
100
AcDbText
  0
LINE
  5
13D
330
1E
100
AcDbEntity
  8
HILF
100
AcDbLine
 10
146.0000000000001
 20
49.99999999999997
 30
0.0
 11
230.0
 21
49.99999999999997
 31
0.0
  0
LINE
  5
13E
330
1E
100
AcDbEntity
  8
HILF
100
AcDbLine
 10
146.0000000000001
 20
59.99999999999997
 30
0.0
 11
230.0
 21
59.99999999999997
 31
0.0
  0
LINE
  5
13F
330
1E
100
AcDbEntity
  8
HILF
100
AcDbLine
 10
146.0000000000001
 20
69.99999999999994
 30
0.0
 11
230.0
 21
69.99999999999994
 31
0.0
  0
LINE
  5
140
330
1E
100
AcDbEntity
  8
STEMPEL
100
AcDbLine
 10
410.0
 20
80.0
 30
0.0
 11
146.0000000000001
 21
79.99999999999994
 31
0.0
  0
LINE
  5
141
330
1E
100
AcDbEntity
  8
STEMPEL
100
AcDbLine
 10
410.0
 20
40.0
 30
0.0
 11
146.0000000000001
 21
39.99999999999997
 31
0.0
  0
LINE
  5
142
330
1E
100
AcDbEntity
  8
STEMPEL
100
AcDbLine
 10
410.0
 20
110.0
 30
0.0
 11
39.99999999999997
 21
110.0
 31
0.0
  0
LINE
  5
143
330
1E
100
AcDbEntity
  8
MITTEL
100
AcDbLine
 10
226.3667472416559
 20
336.667751093304
 30
0.0
 11
226.3667472416559
 21
226.7528113538112
 31
0.0
  0
LINE
  5
144
330
1E
100
AcDbEntity
  8
HILF
100
AcDbLine
 10
0.0
 20
0.0
 30
0.0
 11
-0.0000000000001137
 21
594.0
 31
0.0
  0
LINE
  5
145
330
1E
100
AcDbEntity
  8
STEMPEL
100
AcDbLine
 10
40.0
 20
10.0
 30
0.0
 11
39.99999999999989
 21
584.0
 31
0.0
  0
LINE
  5
148
330
1E
100
AcDbEntity
  8
HILF
100
AcDbLine
 10
40.00000000000008
 20
39.99999999999997
 30
0.0
 11
146.0000000000001
 21
39.99999999999997
 31
0.0
  0
LINE
  5
149
330
1E
100
AcDbEntity
  8
HILF
100
AcDbLine
 10
40.00000000000008
 20
49.99999999999997
 30
0.0
 11
146.0000000000001
 21
49.99999999999997
 31
0.0
  0
LINE
  5
14A
330
1E
100
AcDbEntity
  8
HILF
100
AcDbLine
 10
40.00000000000008
 20
59.99999999999997
 30
0.0
 11
146.0000000000001
 21
59.99999999999997
 31
0.0
  0
LINE
  5
14B
330
1E
100
AcDbEntity
  8
HILF
100
AcDbLine
 10
40.00000000000008
 20
69.99999999999994
 30
0.0
 11
146.0000000000001
 21
69.99999999999994
 31
0.0
  0
LINE
  5
14C
330
1E
100
AcDbEntity
  8
HILF
100
AcDbLine
 10
40.00000000000008
 20
79.99999999999994
 30
0.0
 11
146.0000000000001
 21
79.99999999999994
 31
0.0
  0
LINE
  5
14D
330
1E
100
AcDbEntity
  8
HILF
100
AcDbLine
 10
40.00000000000008
 20
90.00000000000005
 30
0.0
 11
146.0000000000001
 21
90.00000000000005
 31
0.0
  0
LINE
  5
14E
330
1E
100
AcDbEntity
  8
HILF
100
AcDbLine
 10
40.00000000000008
 20
100.0
 30
0.0
 11
146.0000000000001
 21
100.0
 31
0.0
  0
LINE
  5
14F
330
1E
100
AcDbEntity
  8
STEMPEL
100
AcDbLine
 10
145.9999999999999
 20
29.99999999999997
 30
0.0
 11
39.99999999999997
 21
29.99999999999997
 31
0.0
  0
TEXT
  5
150
330
1E
100
AcDbEntity
  8
TEXT
100
AcDbText
 10
48.26641107045756
 20
13.65465846027192
 30
0.0
 40
4.0
  1
Index
 50
90.0
 41
0.8
  7
GREEKS
100
AcDbText
  0
LINE
  5
151
330
1E
100
AcDbEntity
  8
VOLL
100
AcDbLine
 10
54.00000000000009
 20
110.0
 30
0.0
 11
53.99999999999997
 21
9.999999999999971
 31
0.0
  0
LINE
  5
152
330
1E
100
AcDbEntity
  8
HILF
100
AcDbLine
 10
31.08767135713856
 20
297.0
 30
0.0
 11
0.0000000000001137
 21
297.0
 31
0.0
  0
LINE
  5
154
330
1E
100
AcDbEntity
  8
VOLL
100
AcDbLine
 10
124.0000000000001
 20
109.9999999999999
 30
0.0
 11
124.0
 21
9.999999999999971
 31
0.0
  0
LINE
  5
155
330
1E
100
AcDbEntity
  8
VOLL
100
AcDbLine
 10
104.0000000000001
 20
109.9999999999999
 30
0.0
 11
104.0
 21
9.999999999999971
 31
0.0
  0
LINE
  5
157
330
1E
100
AcDbEntity
  8
STEMPEL
100
AcDbLine
 10
146.0000000000001
 20
109.9999999999999
 30
0.0
 11
146.0
 21
9.999999999999971
 31
0.0
  0
TEXT
  5
159
330
1E
100
AcDbEntity
  8
TEXT
100
AcDbText
 10
172.331167315365
 20
73.31880501229926
 30
0.0
 40
4.0
  1
Tag
 41
0.8
  7
GREEKS
100
AcDbText
  0
TEXT
  5
15A
330
1E
100
AcDbEntity
  8
TEXT
100
AcDbText
 10
147.5836127167615
 20
63.62990369617964
 30
0.0
 40
4.0
  1
Gez.
 41
0.8
  7
GREEKS
100
AcDbText
  0
LINE
  5
15B
330
1E
100
AcDbEntity
  8
VOLL
100
AcDbLine
 10
164.0000000000001
 20
79.99999999999994
 30
0.0
 11
164.0000000000001
 21
39.99999999999997
 31
0.0
  0
TEXT
  5
15C
330
1E
100
AcDbEntity
  8
TEXT
100
AcDbText
 10
147.6006777387303
 20
43.52946389649807
 30
0.0
 40
4.0
  1
Norm.
 41
0.8
  7
GREEKS
100
AcDbText
  0
TEXT
  5
15D
330
1E
100
AcDbEntity
  8
TEXT
100
AcDbText
 10
147.5515086571672
 20
53.68926291428377
 30
0.0
 40
4.0
  1
Gepr.
 41
0.8
  7
GREEKS
100
AcDbText
  0
TEXT
  5
15E
330
1E
100
AcDbEntity
  8
TEXT
 62
     1
100
AcDbText
 10
160.5006306481887
 20
88.14901428913959
 30
0.0
 40
7.0
  1
1:2
 41
0.8
  7
GREEKS
100
AcDbText
  0
TEXT
  5
160
330
1E
100
AcDbEntity
  8
TEXT
100
AcDbText
 10
148.622109822104
 20
73.14025471151666
 30
0.0
 40
4.0
  1
2011
 41
0.8
  7
GREEKS
100
AcDbText
  0
LINE
  5
161
330
1E
100
AcDbEntity
  8
VOLL
100
AcDbLine
 10
190.0000000000001
 20
109.9999999999998
 30
0.0
 11
190.0
 21
39.99999999999997
 31
0.0
  0
LINE
  5
186
330
1E
100
AcDbEntity
  8
HILF
100
AcDbLine
 10
420.0
 20
-0.0000000000001137
 30
0.0
 11
419.9999999999999
 21
594.0
 31
0.0
  0
LINE
  5
187
330
1E
100
AcDbEntity
  8
STEMPEL
100
AcDbLine
 10
410.0
 20
10.0
 30
0.0
 11
410.0
 21
584.0
 31
0.0
  0
TEXT
  5
188
330
1E
100
AcDbEntity
  8
TEXT
100
AcDbText
 10
337.2400861497006
 20
52.07416177878602
 30
0.0
 40
5.0
  1
ersetzt durch:
 41
0.8
  7
GREEKS
100
AcDbText
  0
TEXT
  5
18A
330
1E
100
AcDbEntity
  8
TEXT
100
AcDbText
 10
336.178754957634
 20
102.3132034537136
 30
0.0
 40
5.0
  1
Zeichnungs Nr.
 41
0.8
  7
GREEKS
100
AcDbText
  0
LINE
  5
18B
330
1E
100
AcDbEntity
  8
HILF
100
AcDbLine
 10
233.4909699289885
 20
14.89398258028314
 30
0.0
 11
404.8588839326728
 21
14.89398258028314
 31
0.0
  0
LINE
  5
18C
330
1E
100
AcDbEntity
  8
HILF
100
AcDbLine
 10
336.7238616296993
 20
83.77983636955827
 30
0.0
 11
404.8588839326728
 21
83.77983636955827
 31
0.0
  0
LINE
  5
18D
330
1E
100
AcDbEntity
  8
VOLL
100
AcDbLine
 10
332.0
 20
60.0
 30
0.0
 11
410.0
 21
60.0
 31
0.0
  0
TEXT
  5
18E
330
1E
100
AcDbEntity
  8
TEXT
 62
     1
100
AcDbText
 10
234.9283864320014
 20
87.41748789253779
 30
0.0
 40
7.0
  1
Bogen DN80 45°
 41
0.8
  7
GREEKS
100
AcDbText
  0
LINE
  5
18F
330
1E
100
AcDbEntity
  8
HILF
100
AcDbLine
 10
234.7736801096947
 20
49.99999999999997
 30
0.0
 11
324.835391655631
 21
49.99999999999997
 31
0.0
  0
LINE
  5
190
330
1E
100
AcDbEntity
  8
HILF
100
AcDbLine
 10
234.7736801096947
 20
59.99999999999997
 30
0.0
 11
324.835391655631
 21
59.99999999999997
 31
0.0
  0
LINE
  5
191
330
1E
100
AcDbEntity
  8
HILF
100
AcDbLine
 10
234.7736801096947
 20
69.99999999999994
 30
0.0
 11
324.835391655631
 21
69.99999999999994
 31
0.0
  0
LINE
  5
192
330
1E
100
AcDbEntity
  8
HILF
100
AcDbLine
 10
234.7736801096947
 20
84.03758247564139
 30
0.0
 11
324.8353916556311
 21
84.03758247564139
 31
0.0
  0
LINE
  5
193
330
1E
100
AcDbEntity
  8
STEMPEL
100
AcDbLine
 10
230.0
 20
110.0
 30
0.0
 11
230.0
 21
9.999999999999971
 31
0.0
  0
TEXT
  5
194
330
1E
100
AcDbEntity
  8
TEXT
100
AcDbText
 10
235.1296391125315
 20
71.50334417585288
 30
0.0
 40
5.0
  1
mit engem Radius
 41
0.8
  7
GREEKS
100
AcDbText
  0
TEXT
  5
195
330
1E
100
AcDbEntity
  8
TEXT
100
AcDbText
 10
234.9837501577827
 20
42.62974153022632
 30
0.0
 40
4.0
  1
5352080W.DWG
 41
0.8
  7
GREEKS
100
AcDbText
  0
TEXT
  5
196
330
1E
100
AcDbEntity
  8
TEXT
100
AcDbText
 10
234.742238391136
 20
30.84560570193057
 30
0.0
 40
5.0
  1
Bauvorhaben
 41
0.8
  7
GREEKS
100
AcDbText
  0
TEXT
  5
197
330
1E
100
AcDbEntity
  8
TEXT
100
AcDbText
 10
234.877940380901
 20
102.5489328011779
 30
0.0
 40
5.0
  1
Benennung
 41
0.8
  7
GREEKS
100
AcDbText
  0
LINE
  5
198
330
1E
100
AcDbEntity
  8
STEMPEL
100
AcDbLine
 10
332.0
 20
109.9999999999997
 30
0.0
 11
332.0
 21
40.0
 31
0.0
  0
TEXT
  5
19A
330
1E
100
AcDbEntity
  8
TEXT
 62
     1
100
AcDbText
 10
347.8789099470489
 20
88.14901428913959
 30
0.0
 40
7.0
  1
5352080W
 41
0.8
  7
GREEKS
 72
     1
 11
369.2122432803823
 21
88.14901428913959
 31
0.0
100
AcDbText
  0
TEXT
  5
212
330
1E
100
AcDbEntity
  8
TEXT
100
AcDbText
 10
235.1296391125315
 20
51.50334417585291
 30
0.0
 40
5.0
  1
EDV-Art.Nr. 5.352.080C
 41
0.8
  7
GREEKS
100
AcDbText
  0
TEXT
  5
25D
330
1E
100
AcDbEntity
  8
TEXT
 62
     1
100
AcDbText
 10
209.8664278393917
 20
281.1661275632062
 30
0.0
 40
7.0
  1
DN80
 50
90.0
 41
0.8
  7
GREEKS
100
AcDbText
  0
TEXT
  5
1122
330
1E
100
AcDbEntity
  8
TEXT
 62
     1
100
AcDbText
 10
297.0573649355706
 20
132.2248663682012
 30
0.0
 40
7.0
  1
Werkstoff: 1.4404
 41
0.8
  7
GREEKS
100
AcDbText
  0
LINE
  5
113B
330
1E
100
AcDbEntity
  8
HILF
100
AcDbLine
 10
217.1578888248789
 20
391.9070958243828
 30
0.0
 11
281.6060919727345
 21
327.4588926765272
 31
0.0
  0
LINE
  5
113C
330
1E
100
AcDbEntity
  8
HILF
100
AcDbLine
 10
234.1612950963461
 20
409.8314944422199
 30
0.0
 11
299.5304905905717
 21
344.4622989479946
 31
0.0
  0
LINE
  5
113D
330
1E
100
AcDbEntity
  8
HILF
100
AcDbLine
 10
215.3053626729592
 20
387.3649415065086
 30
0.0
 11
277.0639376548603
 21
325.6063665246074
 31
0.0
  0
LINE
  5
113F
330
1E
100
AcDbEntity
  8
STEMPEL
100
AcDbLine
 10
323.4346345187829
 20
366.7587910557275
 30
0.0
 11
256.457787204079
 21
433.7356383704313
 31
0.0
  0
DIMENSION
  5
1141
330
1E
100
AcDbEntity
  8
BEM
100
AcDbDimension
  2
*D1
 10
234.759054741082
 20
455.4343708334287
 30
0.0
 11
198.3731288534817
 21
428.2408331012542
 31
0.0
 70
    32
  1
90
 71
     5
 42
89.91493973949246
  3
Standard
100
AcDbAlignedDimension
 13
226.3667472416559
 23
336.667751093304
 33
0.0
 14
256.457787204079
 24
433.7356383704313
 34
0.0
 50
44.99999999999948
100
AcDbRotatedDimension
1001
ACAD
1000
DSTYLE
1002
{
1070
    40
1040
2.0
1070
    41
1040
3.5
1070
    42
1040
1.0
1070
    43
1040
7.0
1070
    44
1040
1.0
1070
    73
1070
     0
1070
    74
1070
     0
1070
    77
1070
     1
1070
    78
1070
     8
1070
    79
1070
     2
1070
   140
1040
3.5
1070
   141
1040
1.5
1070
   146
1040
0.5142857142857144
1070
   147
1040
1.5
1070
   172
1070
     1
1070
   178
1070
     1
1070
   179
1070
     2
1070
   271
1070
     2
1070
   272
1070
     2
1070
   284
1070
     8
1070
   285
1070
     8
1070
   286
1070
     8
1002
}
  0
LINE
  5
1142
330
1E
100
AcDbEntity
  8
STEMPEL
100
AcDbLine
 10
231.4301505903081
 20
408.4113239078479
 30
0.0
 11
217.8838161374716
 21
394.8649894550115
 31
0.0
  0
ARC
  5
1144
330
1E
100
AcDbEntity
  8
STEMPEL
100
AcDbCircle
 10
226.1923208164138
 20
386.5564847760694
 30
0.0
 40
11.75
100
AcDbArc
 50
135.0
 51
165.311855191734
  0
ARC
  5
1145
330
1E
100
AcDbEntity
  8
STEMPEL
100
AcDbCircle
 10
262.6544976827761
 20
410.2907395810739
 30
0.0
 40
24.25
100
AcDbArc
 50
104.8052562846694
 51
135.0
  0
ARC
  5
1146
330
1E
100
AcDbEntity
  8
STEMPEL
100
AcDbCircle
 10
222.7680925207729
 20
417.0733819773828
 30
0.0
 40
12.25
100
AcDbArc
 50
315.0
 51
340.1566347254617
  0
LINE
  5
1147
330
1E
100
AcDbEntity
  8
STEMPEL
100
AcDbLine
 10
245.5071582390023
 20
427.4380790248478
 30
0.0
 11
240.062684454031
 21
421.9936052398765
 31
0.0
  0
ARC
  5
1148
330
1E
100
AcDbEntity
  8
STEMPEL
100
AcDbCircle
 10
257.563577288398
 20
404.4927124055094
 30
0.0
 40
24.75
100
AcDbArc
 50
135.0
 51
160.0876278415066
  0
LINE
  5
114A
330
1E
100
AcDbEntity
  8
MITTEL
100
AcDbLine
 10
293.4817447673638
 20
403.782748619012
 30
0.0
 11
226.3667472416559
 21
336.667751093304
 31
0.0
  0
LINE
  5
114B
330
1E
100
AcDbEntity
  8
STEMPEL
100
AcDbLine
 10
298.1103200561994
 20
341.7311544419564
 30
0.0
 11
284.5639856033631
 21
328.1848199891202
 31
0.0
  0
ARC
  5
114D
330
1E
100
AcDbEntity
  8
STEMPEL
100
AcDbCircle
 10
276.2554809244213
 20
336.493324668062
 30
0.0
 40
11.75
100
AcDbArc
 50
284.6881448082663
 51
315.0
  0
ARC
  5
114E
330
1E
100
AcDbEntity
  8
STEMPEL
100
AcDbCircle
 10
294.1917085538612
 20
367.8645811400464
 30
0.0
 40
24.75
100
AcDbArc
 50
289.9123721584933
 51
315.0
  0
ARC
  5
114F
330
1E
100
AcDbEntity
  8
STEMPEL
100
AcDbCircle
 10
299.9897357294258
 20
372.9555015344244
 30
0.0
 40
24.25
100
AcDbArc
 50
315.0
 51
345.1947437153306
  0
ARC
  5
1150
330
1E
100
AcDbEntity
  8
STEMPEL
100
AcDbCircle
 10
306.7723781257347
 20
333.0690963724212
 30
0.0
 40
12.25
100
AcDbArc
 50
109.8433652745382
 51
135.0
  0
LINE
  5
1151
330
1E
100
AcDbEntity
  8
STEMPEL
100
AcDbLine
 10
317.1370751731994
 20
355.8081620906506
 30
0.0
 11
311.6926013882281
 21
350.3636883056793
 31
0.0
  0
TEXT
  5
1201
330
1E
100
AcDbEntity
  8
TEXT
100
AcDbText
 10
235.1296391125315
 20
61.50334417585291
 30
0.0
 40
5.0
  1
dünnwandig
 41
0.8
  7
GREEKS
100
AcDbText
  0
DIMENSION
  5
126B
330
1E
100
AcDbEntity
  8
BEM
100
AcDbDimension
  2
*D2
 10
226.3667472416559
 20
226.7528113538112
 30
0.0
 11
254.7625021208566
 21
408.3418219851694
 31
0.0
 70
   162
 71
     5
 42
0.7853981633974476
  3
Standard
100
AcDb2LineAngularDimension
 13
293.4817447673638
 23
403.782748619012
 33
0.0
 14
226.3667472416559
 24
336.667751093304
 34
0.0
 15
226.3667472416559
 25
336.667751093304
 35
0.0
 16
264.9137683112917
 26
403.4331500663413
 36
0.0
1001
ACAD
1000
DSTYLE
1002
{
1070
    40
1040
2.0
1070
    41
1040
3.5
1070
    42
1040
1.0
1070
    43
1040
7.0
1070
    44
1040
1.0
1070
    73
1070
     0
1070
    74
1070
     0
1070
    77
1070
     1
1070
    78
1070
     8
1070
    79
1070
     2
1070
   140
1040
3.5
1070
   141
1040
1.5
1070
   146
1040
0.5142857142857144
1070
   147
1040
1.5
1070
   172
1070
     1
1070
   178
1070
     1
1070
   179
1070
     2
1070
   271
1070
     2
1070
   272
1070
     2
1070
   284
1070
     8
1070
   285
1070
     8
1070
   286
1070
     8
1002
}
  0
TEXT
  5
12E5
330
1E
100
AcDbEntity
  8
TEXT
100
AcDbText
 10
41.85509950977674
 20
111.6719999999999
 30
0.0
 40
5.0
  1
Erstellt mit AUTOCAD 2004
 41
0.8
  7
GREEKS
100
AcDbText
  0
TEXT
  5
12E6
330
1E
100
AcDbEntity
  8
TEXT
100
AcDbText
 10
153.5163572150377
 20
102.4620895087088
 30
0.0
 40
5.0
  1
Maßstab
 41
0.8
  7
GREEKS
100
AcDbText
  0
TEXT
  5
12E7
330
1E
100
AcDbEntity
  8
TEXT
100
AcDbText
 10
192.6882715247924
 20
89.50150693558043
 30
0.0
 40
4.0
  1
DIN EN1124-3
 41
0.8
  7
GREEKS
 72
     1
 11
209.6787477152686
 21
89.50150693558043
 31
0.0
100
AcDbText
  0
TEXT
  5
12E8
330
1E
100
AcDbEntity
  8
TEXT
100
AcDbText
 10
66.72469466776535
 20
18.67381894984132
 30
0.0
 40
4.0
  1
Änderung
 41
0.8
  7
GREEKS
 72
     1
 11
77.46755181062249
 21
18.67381894984132
 31
0.0
100
AcDbText
  0
TEXT
  5
12E9
330
1E
100
AcDbEntity
  8
TEXT
100
AcDbText
 10
110.2468354498985
 20
18.6715626933981
 30
0.0
 40
4.0
  1
Tag
 41
0.8
  7
GREEKS
 72
     1
 11
113.9801687832318
 21
18.6715626933981
 31
0.0
100
AcDbText
  0
TEXT
  5
12EA
330
1E
100
AcDbEntity
  8
TEXT
100
AcDbText
 10
129.3020371565846
 20
18.59324216966408
 30
0.0
 40
4.0
  1
Name
 41
0.8
  7
GREEKS
 72
     1
 11
135.6258466803941
 21
18.59324216966408
 31
0.0
100
AcDbText
  0
TEXT
  5
12EB
330
1E
100
AcDbEntity
  8
TEXT
100
AcDbText
 10
336.7238616296993
 20
73.1811823709997
 30
0.0
 40
5.0
  1
Ersatz für:
 41
0.8
  7
GREEKS
100
AcDbText
  0
TEXT
  5
12EC
330
1E
100
AcDbEntity
  8
BEM
100
AcDbText
 10
416.5811541437436
 20
12.14804815338303
 30
0.0
 40
4.0
  1
Diese Zeichnung ist urheberrechtlich geschützt und bleibt unser Eigentum. Sie darf weder ganz noch teilweise vervielfältigt und nicht an Dritte weitergegeben werden.
 50
90.0
 41
0.8
  7
GREEKS
100
AcDbText
  0
TEXT
  5
132E
330
1E
100
AcDbEntity
  8
TEXT
100
AcDbText
 10
171.4290321728254
 20
63.29410943275274
 30
0.0
 40
4.24
  1
11.04.
 41
0.8
  7
GREEKS
 72
     1
 11
178.2130321728255
 21
63.29410943275274
 31
0.0
100
AcDbText
  0
LINE
  5
1339
330
1E
100
AcDbEntity
  8
STEMPEL
100
AcDbLine
 10
270.8167472416559
 20
318.25595824582
 30
0.0
 11
181.9167472416559
 21
355.079543940788
 31
0.0
  0
DIMENSION
  5
137A
330
1E
100
AcDbEntity
  8
BEM
100
AcDbDimension
  2
*D3
 10
270.816747241656
 20
211.061926069299
 30
0.0
 11
226.3667472416559
 21
217.561926069299
 31
0.0
 70
    32
  1
%%c<>
 71
     5
 42
88.90000000000009
  3
Standard
100
AcDbAlignedDimension
 13
181.9167472416559
 23
236.7528113538109
 33
0.0
 14
270.816747241656
 24
236.7528113538139
 34
0.0
100
AcDbRotatedDimension
1001
ACAD
1000
DSTYLE
1002
{
1070
    40
1040
2.0
1070
    41
1040
3.5
1070
    42
1040
1.0
1070
    43
1040
7.0
1070
    44
1040
1.0
1070
    73
1070
     0
1070
    74
1070
     0
1070
    77
1070
     1
1070
    78
1070
     8
1070
    79
1070
     2
1070
   140
1040
3.5
1070
   141
1040
1.5
1070
   146
1040
0.5
1070
   147
1040
1.5
1070
   172
1070
     1
1070
   178
1070
     1
1070
   179
1070
     2
1070
   271
1070
     2
1070
   272
1070
     2
1070
   284
1070
     8
1070
   285
1070
     8
1070
   286
1070
     8
1002
}
  0
LINE
  5
137B
330
1E
100
AcDbEntity
  8
HILF
100
AcDbLine
 10
269.6121634366039
 20
236.7528113538112
 30
0.0
 11
183.1213310467081
 21
236.7528113538109
 31
0.0
  0
LINE
  5
137C
330
1E
100
AcDbEntity
  8
STEMPEL
100
AcDbLine
 10
270.3793039240263
 20
231.7528113538111
 30
0.0
 11
182.3541905592856
 21
231.7528113538109
 31
0.0
  0
LINE
  5
137D
102
{ACAD_REACTORS
330
1407
102
}
330
1E
100
AcDbEntity
  8
STEMPEL
100
AcDbLine
 10
181.9167472416559
 20
355.0795439407881
 30
0.0
 11
181.9167472416559
 21
236.7528113538109
 31
0.0
  0
LINE
  5
137E
330
1E
100
AcDbEntity
  8
STEMPEL
100
AcDbLine
 10
181.9167472416559
 20
236.7528113538109
 30
0.0
 11
182.3541905592856
 21
231.7528113538109
 31
0.0
  0
LINE
  5
137F
102
{ACAD_REACTORS
330
1407
102
}
330
1E
100
AcDbEntity
  8
STEMPEL
100
AcDbLine
 10
270.816747241656
 20
318.25595824582
 30
0.0
 11
270.816747241656
 21
236.752811353814
 31
0.0
  0
LINE
  5
1381
330
1E
100
AcDbEntity
  8
STEMPEL
100
AcDbLine
 10
270.816747241656
 20
236.752811353814
 30
0.0
 11
270.3793039240263
 21
231.7528113538111
 31
0.0
  0
LINE
  5
13C9
102
{ACAD_REACTORS
330
1407
102
}
330
1E
100
AcDbEntity
  8
STEMPEL
100
AcDbLine
 10
275.6063932194773
 20
323.0456042236414
 30
0.0
 11
270.816747241656
 21
318.2559582458201
 31
0.0
  0
ARC
  5
13CB
330
1E
100
AcDbEntity
  8
STEMPEL
100
AcDbCircle
 10
281.2632474689697
 20
317.388749974149
 30
0.0
 40
8.0
100
AcDbArc
 50
104.6881448082663
 51
134.9999999999998
  0
LINE
  5
13CC
102
{ACAD_REACTORS
330
1407
102
}
330
1E
100
AcDbEntity
  8
STEMPEL
100
AcDbLine
 10
212.7446003719931
 20
385.9073970711254
 30
0.0
 11
181.9167472416559
 21
355.0795439407881
 31
0.0
  0
ARC
  5
13CD
330
1E
100
AcDbEntity
  8
STEMPEL
100
AcDbCircle
 10
207.0877461225008
 20
391.5642513206177
 30
0.0
 40
8.0
100
AcDbArc
 50
314.9999999999999
 51
345.311855191734
  0
DIMENSION
  5
13CE
330
1E
100
AcDbEntity
  8
BEM
100
AcDbDimension
  2
*D5
 10
149.787752240516
 20
336.667751093304
 30
0.0
 11
143.287752240516
 21
284.2102812235575
 31
0.0
 70
    32
  1
105
 71
     5
 42
104.9149397394931
  3
Standard
100
AcDbAlignedDimension
 13
182.3541905592856
 23
231.7528113538109
 33
0.0
 14
226.3667472416559
 24
336.667751093304
 34
0.0
 50
90.0
100
AcDbRotatedDimension
1001
ACAD
1000
DSTYLE
1002
{
1070
    40
1040
2.0
1070
    41
1040
3.5
1070
    42
1040
1.0
1070
    43
1040
7.0
1070
    44
1040
1.0
1070
    73
1070
     0
1070
    74
1070
     0
1070
    77
1070
     1
1070
    78
1070
     8
1070
    79
1070
     2
1070
   140
1040
3.5
1070
   141
1040
1.5
1070
   146
1040
0.5142857142857144
1070
   147
1040
1.5
1070
   172
1070
     1
1070
   178
1070
     1
1070
   179
1070
     2
1070
   271
1070
     2
1070
   272
1070
     2
1070
   284
1070
     8
1070
   285
1070
     8
1070
   286
1070
     8
1002
}
  0
ARC
  5
13E6
330
1E
100
AcDbEntity
  8
SCHRAFF
100
AcDbCircle
 10
181.9167472416559
 20
355.0795439407881
 30
0.0
 40
5.0
100
AcDbArc
 50
300.6301023541555
 51
14.36989764584433
  0
ARC
  5
13E7
330
1E
100
AcDbEntity
  8
SCHRAFF
100
AcDbCircle
 10
186.5361449042122
 20
353.1661267789626
 30
0.0
 40
5.0
100
AcDbArc
 50
300.6301023541555
 51
14.36989764584433
  0
ARC
  5
13E9
330
1E
100
AcDbEntity
  8
SCHRAFF
100
AcDbCircle
 10
195.7749402293251
 20
349.3392924553116
 30
0.0
 40
5.0
100
AcDbArc
 50
300.6301023541555
 51
14.36989764584433
  0
ARC
  5
13EA
330
1E
100
AcDbEntity
  8
SCHRAFF
100
AcDbCircle
 10
191.1555425667687
 20
351.2527096171372
 30
0.0
 40
5.0
100
AcDbArc
 50
300.6301023541555
 51
14.36989764584433
  0
ARC
  5
13EB
330
1E
100
AcDbEntity
  8
SCHRAFF
100
AcDbCircle
 10
205.013735554438
 20
345.5124581316608
 30
0.0
 40
5.0
100
AcDbArc
 50
300.6301023541555
 51
14.36989764584433
  0
ARC
  5
13EC
330
1E
100
AcDbEntity
  8
SCHRAFF
100
AcDbCircle
 10
200.3943378918816
 20
347.4258752934864
 30
0.0
 40
5.0
100
AcDbArc
 50
300.6301023541555
 51
14.36989764584433
  0
ARC
  5
13ED
330
1E
100
AcDbEntity
  8
SCHRAFF
100
AcDbCircle
 10
214.2525308795509
 20
341.6856238080099
 30
0.0
 40
5.0
100
AcDbArc
 50
300.6301023541555
 51
14.36989764584433
  0
ARC
  5
13EE
330
1E
100
AcDbEntity
  8
SCHRAFF
100
AcDbCircle
 10
209.6331332169945
 20
343.5990409698354
 30
0.0
 40
5.0
100
AcDbArc
 50
300.6301023541555
 51
14.36989764584433
  0
ARC
  5
13EF
330
1E
100
AcDbEntity
  8
SCHRAFF
100
AcDbCircle
 10
223.4913262046637
 20
337.858789484359
 30
0.0
 40
5.0
100
AcDbArc
 50
300.6301023541555
 51
14.36989764584433
  0
ARC
  5
13F0
330
1E
100
AcDbEntity
  8
SCHRAFF
100
AcDbCircle
 10
218.8719285421073
 20
339.7722066461845
 30
0.0
 40
5.0
100
AcDbArc
 50
300.6301023541555
 51
14.36989764584433
  0
ARC
  5
13F1
330
1E
100
AcDbEntity
  8
SCHRAFF
100
AcDbCircle
 10
232.7301215297766
 20
334.0319551607081
 30
0.0
 40
5.0
100
AcDbArc
 50
300.6301023541555
 51
14.36989764584433
  0
ARC
  5
13F2
330
1E
100
AcDbEntity
  8
SCHRAFF
100
AcDbCircle
 10
228.1107238672202
 20
335.9453723225337
 30
0.0
 40
5.0
100
AcDbArc
 50
300.6301023541555
 51
14.36989764584433
  0
ARC
  5
13F3
330
1E
100
AcDbEntity
  8
SCHRAFF
100
AcDbCircle
 10
241.9689168548894
 20
330.2051208370572
 30
0.0
 40
5.0
100
AcDbArc
 50
300.6301023541555
 51
14.36989764584433
  0
ARC
  5
13F4
330
1E
100
AcDbEntity
  8
SCHRAFF
100
AcDbCircle
 10
237.349519192333
 20
332.1185379988827
 30
0.0
 40
5.0
100
AcDbArc
 50
300.6301023541555
 51
14.36989764584433
  0
ARC
  5
13F5
330
1E
100
AcDbEntity
  8
SCHRAFF
100
AcDbCircle
 10
251.2077121800023
 20
326.3782865134063
 30
0.0
 40
5.0
100
AcDbArc
 50
300.6301023541555
 51
14.36989764584433
  0
ARC
  5
13F6
330
1E
100
AcDbEntity
  8
SCHRAFF
100
AcDbCircle
 10
246.5883145174458
 20
328.2917036752318
 30
0.0
 40
5.0
100
AcDbArc
 50
300.6301023541555
 51
14.36989764584433
  0
ARC
  5
13F7
330
1E
100
AcDbEntity
  8
SCHRAFF
100
AcDbCircle
 10
260.4465075051152
 20
322.5514521897555
 30
0.0
 40
5.0
100
AcDbArc
 50
300.6301023541555
 51
14.36989764584433
  0
ARC
  5
13F8
330
1E
100
AcDbEntity
  8
SCHRAFF
100
AcDbCircle
 10
255.8271098425588
 20
324.464869351581
 30
0.0
 40
5.0
100
AcDbArc
 50
300.6301023541555
 51
14.36989764584433
  0
ARC
  5
13FA
330
1E
100
AcDbEntity
  8
SCHRAFF
100
AcDbCircle
 10
265.0659051676716
 20
320.6380350279301
 30
0.0
 40
5.0
100
AcDbArc
 50
300.6301023541555
 51
14.36989764584433
  0
ARC
  5
13FB
102
{ACAD_REACTORS
330
1407
102
}
330
1E
100
AcDbEntity
  8
SCHRAFF
100
AcDbCircle
 10
183.5636628201236
 20
354.3973691721032
 30
0.0
 40
3.048206902713406
100
AcDbArc
 50
77.70337970247227
 51
237.2966202975284
  0
ARC
  5
13FC
102
{ACAD_REACTORS
330
1407
102
}
330
1E
100
AcDbEntity
  8
SCHRAFF
100
AcDbCircle
 10
270.4283091733714
 20
318.4168545618453
 30
0.0
 40
3.430137772716664
100
AcDbArc
 50
276.5022771296629
 51
38.4977228703408
  0
HATCH
  5
1407
330
1E
100
AcDbEntity
  8
SCHRAFF
100
AcDbHatch
 10
0.0
 20
0.0
 30
0.0
210
0.0
220
0.0
230
1.0
  2
_USER
 70
     0
 71
     1
 91
        2
 92
        7
 72
     1
 73
     1
 93
        3
 10
181.9167472416559
 20
355.0795439407882
 42
0.0
 10
184.2128478358463
 20
357.3756445349786
 42
0.8360796710530767
 10
181.9167472416559
 20
351.8323673399109
 42
0.0
 97
        3
330
13CC
330
13FB
330
137D
 92
        7
 72
     1
 73
     1
 93
        3
 10
270.816747241656
 20
318.2559582458201
 42
0.0
 10
270.816747241656
 20
315.0087816449427
 42
0.5890182500632025
 10
273.1128478358463
 20
320.5520588400105
 42
0.0
 97
        3
330
13C9
330
137F
330
13FC
 75
     0
 76
     0
 52
0.0
 41
0.1
 77
     0
 78
     1
 53
0.0
 43
28.70960408867631
 44
0.0
 45
0.0
 46
0.1
 79
     0
 47
0.2130532597332944
 98
        2
 10
181.3535437059481
 20
353.7857483880766
 10
271.314724629894
 20
317.9927994415828
  0
ENDSEC
  0
SECTION
  2
OBJECTS
  0
DICTIONARY
  5
C
330
0
100
AcDbDictionary
281
     1
  3
ACAD_COLOR
350
1283
  3
ACAD_GROUP
350
D
  3
ACAD_LAYOUT
350
19
  3
ACAD_MATERIAL
350
1282
  3
ACAD_MLINESTYLE
350
16
  3
ACAD_PLOTSETTINGS
350
18
  3
ACAD_PLOTSTYLENAME
350
E
  3
AcDbVariableDictionary
350
246
  0
DICTIONARY
  5
1283
102
{ACAD_REACTORS
330
C
102
}
330
C
100
AcDbDictionary
281
     1
  0
DICTIONARY
  5
D
102
{ACAD_REACTORS
330
C
102
}
330
C
100
AcDbDictionary
281
     1
  0
DICTIONARY
  5
19
102
{ACAD_REACTORS
330
C
102
}
330
C
100
AcDbDictionary
281
     1
  3
Layout1
350
1D
  3
Model
350
21
  0
DICTIONARY
  5
1282
102
{ACAD_REACTORS
330
C
102
}
330
C
100
AcDbDictionary
281
     1
  0
DICTIONARY
  5
16
102
{ACAD_REACTORS
330
C
102
}
330
C
100
AcDbDictionary
281
     1
  3
Standard
350
17
  0
DICTIONARY
  5
18
102
{ACAD_REACTORS
330
C
102
}
330
C
100
AcDbDictionary
281
     1
  0
ACDBDICTIONARYWDFLT
  5
E
102
{ACAD_REACTORS
330
C
102
}
330
C
100
AcDbDictionary
281
     1
  3
Normal
350
F
100
AcDbDictionaryWithDefault
340
F
  0
DICTIONARY
  5
246
102
{ACAD_REACTORS
330
C
102
}
330
C
100
AcDbDictionary
281
     1
  3
DIMASSOC
350
12F5
  3
PROJECTNAME
350
12F6
  3
SORTENTS
350
247
  0
LAYOUT
  5
1D
102
{ACAD_REACTORS
330
19
102
}
330
19
100
AcDbPlotSettings
  1

  2
Tektronix Phaser 740
  4

  6

 40
0.0
 41
0.0
 42
0.0
 43
0.0
 44
0.0
 45
0.0
 46
0.0
 47
0.0
 48
0.0
 49
0.0
140
0.0
141
0.0
142
1.0
143
1.0
 70
   688
 72
     0
 73
     0
 74
     5
  7
monochrome.ctb
 75
    16
147
1.0
 76
     0
 77
     2
 78
   300
148
0.0
149
0.0
100
AcDbLayout
  1
Layout1
 70
     0
 71
     1
 10
0.0
 20
0.0
 11
12.0
 21
9.0
 12
0.0
 22
0.0
 32
0.0
 14
1.000000000000000E+20
 24
1.000000000000000E+20
 34
1.000000000000000E+20
 15
-1.000000000000000E+20
 25
-1.000000000000000E+20
 35
-1.000000000000000E+20
146
0.0
 13
0.0
 23
0.0
 33
0.0
 16
1.0
 26
0.0
 36
0.0
 17
0.0
 27
1.0
 37
0.0
 76
     0
330
1A
  0
LAYOUT
  5
21
102
{ACAD_REACTORS
330
19
102
}
330
19
100
AcDbPlotSettings
  1

  2
Tektronix Phaser 740
  4
A4
  6

 40
5.873749732971191
 41
6.085414409637451
 42
5.577407836914062
 43
5.662078857421875
 44
209.9733276367187
 45
296.9683227539062
 46
0.0
 47
0.0
 48
0.0
 49
0.0
140
0.0
141
0.0
142
1.0
143
1.0
 70
 11952
 72
     0
 73
     1
 74
     0
  7
monochrome.ctb
 75
     0
147
1.0
 76
     0
 77
     2
 78
   300
148
1150.120678237584
149
45.30495740799864
100
AcDbLayout
  1
Model
 70
     1
 71
     0
 10
0.0
 20
0.0
 11
12.0
 21
9.0
 12
0.0
 22
0.0
 32
0.0
 14
0.0
 24
0.0
 34
0.0
 15
0.0
 25
0.0
 35
0.0
146
0.0
 13
0.0
 23
0.0
 33
0.0
 16
1.0
 26
0.0
 36
0.0
 17
0.0
 27
1.0
 37
0.0
 76
     0
330
1E
  0
MLINESTYLE
  5
17
102
{ACAD_REACTORS
330
16
102
}
330
16
100
AcDbMlineStyle
  2
STANDARD
 70
     0
  3

 62
   256
 51
90.0
 52
90.0
 71
     2
 49
0.5
 62
   256
  6
BYLAYER
 49
-0.5
 62
   256
  6
BYLAYER
  0
ACDBPLACEHOLDER
  5
F
102
{ACAD_REACTORS
330
E
102
}
330
E
  0
DICTIONARYVAR
  5
12F5
102
{ACAD_REACTORS
330
246
102
}
330
246
100
DictionaryVariables
280
     0
  1
1
  0
DICTIONARYVAR
  5
12F6
102
{ACAD_REACTORS
330
246
102
}
330
246
100
DictionaryVariables
280
     0
  1

  0
DICTIONARYVAR
  5
247
102
{ACAD_REACTORS
330
246
102
}
330
246
100
DictionaryVariables
280
     0
  1
96
  0
ENDSEC
  0
EOF
