  0
SECTION
  2
HEADER
  9
$ACADVER
  1
AC1018
  9
$ACADMAINTVER
 70
     2
  9
$DWGCODEPAGE
  3
ANSI_1252
  9
$INSBASE
 10
0.0
 20
0.0
 30
0.0
  9
$EXTMIN
 10
-0.0096009592126052
 20
-0.0135784994583901
 30
-0.0000000000000092
  9
$EXTMAX
 10
210.0096188069425
 20
297.0136037412465
 30
0.0000000000000061
  9
$LIMMIN
 10
0.0
 20
0.0
  9
$LIMMAX
 10
210.0
 20
297.0
  9
$ORTHOMODE
 70
     1
  9
$REGENMODE
 70
     1
  9
$FILLMODE
 70
     1
  9
$QTEXTMODE
 70
     0
  9
$MIRRTEXT
 70
     1
  9
$LTSCALE
 40
10.0
  9
$ATTMODE
 70
     1
  9
$TEXTSIZE
 40
3.5
  9
$TRACEWID
 40
0.5
  9
$TEXTSTYLE
  7
STANDARD
  9
$CLAYER
  8
BEM
  9
$CELTYPE
  6
ByLayer
  9
$CECOLOR
 62
   256
  9
$CELTSCALE
 40
1.0
  9
$DISPSILH
 70
     0
  9
$DIMSCALE
 40
1.0
  9
$DIMASZ
 40
3.5
  9
$DIMEXO
 40
1.0
  9
$DIMDLI
 40
7.0
  9
$DIMRND
 40
0.0
  9
$DIMDLE
 40
0.0
  9
$DIMEXE
 40
1.0
  9
$DIMTP
 40
0.0
  9
$DIMTM
 40
0.0
  9
$DIMTXT
 40
3.5
  9
$DIMCEN
 40
1.5
  9
$DIMTSZ
 40
0.0
  9
$DIMTOL
 70
     0
  9
$DIMLIM
 70
     0
  9
$DIMTIH
 70
     0
  9
$DIMTOH
 70
     0
  9
$DIMSE1
 70
     0
  9
$DIMSE2
 70
     0
  9
$DIMTAD
 70
     1
  9
$DIMZIN
 70
     8
  9
$DIMBLK
  1

  9
$DIMASO
 70
     1
  9
$DIMSHO
 70
     0
  9
$DIMPOST
  1

  9
$DIMAPOST
  1

  9
$DIMALT
 70
     0
  9
$DIMALTD
 70
     2
  9
$DIMALTF
 40
25.4
  9
$DIMLFAC
 40
1.0
  9
$DIMTOFL
 70
     1
  9
$DIMTVP
 40
0.0
  9
$DIMTIX
 70
     0
  9
$DIMSOXD
 70
     0
  9
$DIMSAH
 70
     0
  9
$DIMBLK1
  1

  9
$DIMBLK2
  1

  9
$DIMSTYLE
  2
Standard
  9
$DIMCLRD
 70
     0
  9
$DIMCLRE
 70
     0
  9
$DIMCLRT
 70
     1
  9
$DIMTFAC
 40
0.5142857142857144
  9
$DIMGAP
 40
1.5
  9
$DIMJUST
 70
     0
  9
$DIMSD1
 70
     0
  9
$DIMSD2
 70
     0
  9
$DIMTOLJ
 70
     1
  9
$DIMTZIN
 70
     8
  9
$DIMALTZ
 70
     8
  9
$DIMALTTZ
 70
     8
  9
$DIMUPT
 70
     0
  9
$DIMDEC
 70
     2
  9
$DIMTDEC
 70
     2
  9
$DIMALTU
 70
     2
  9
$DIMALTTD
 70
     2
  9
$DIMTXSTY
  7
STANDARD
  9
$DIMAUNIT
 70
     0
  9
$DIMADEC
 70
     2
  9
$DIMALTRND
 40
0.0
  9
$DIMAZIN
 70
     2
  9
$DIMDSEP
 70
    46
  9
$DIMATFIT
 70
     3
  9
$DIMFRAC
 70
     0
  9
$DIMLDRBLK
  1

  9
$DIMLUNIT
 70
     2
  9
$DIMLWD
 70
    -2
  9
$DIMLWE
 70
    -2
  9
$DIMTMOVE
 70
     0
  9
$LUNITS
 70
     2
  9
$LUPREC
 70
     2
  9
$SKETCHINC
 40
1.0
  9
$FILLETRAD
 40
36.5
  9
$AUNITS
 70
     1
  9
$AUPREC
 70
     3
  9
$MENU
  1
ACAD
  9
$ELEVATION
 40
0.0
  9
$PELEVATION
 40
0.0
  9
$THICKNESS
 40
0.0
  9
$LIMCHECK
 70
     0
  9
$CHAMFERA
 40
0.0
  9
$CHAMFERB
 40
0.0
  9
$CHAMFERC
 40
0.0
  9
$CHAMFERD
 40
0.0
  9
$SKPOLY
 70
     0
  9
$TDCREATE
 40
2452040.637099653
  9
$TDUCREATE
 40
2452040.553766320
  9
$TDUPDATE
 40
2455663.470313565
  9
$TDUUPDATE
 40
2455663.386980231
  9
$TDINDWG
 40
0.2073099537
  9
$TDUSRTIMER
 40
0.2073099537
  9
$USRTIMER
 70
     1
  9
$ANGBASE
 50
0.0
  9
$ANGDIR
 70
     0
  9
$PDMODE
 70
     0
  9
$PDSIZE
 40
0.0
  9
$PLINEWID
 40
0.0
  9
$SPLFRAME
 70
     0
  9
$SPLINETYPE
 70
     6
  9
$SPLINESEGS
 70
     8
  9
$HANDSEED
  5
93A
  9
$SURFTAB1
 70
     6
  9
$SURFTAB2
 70
     6
  9
$SURFTYPE
 70
     6
  9
$SURFU
 70
     6
  9
$SURFV
 70
     6
  9
$UCSBASE
  2

  9
$UCSNAME
  2

  9
$UCSORG
 10
0.0
 20
0.0
 30
0.0
  9
$UCSXDIR
 10
1.0
 20
0.0
 30
0.0
  9
$UCSYDIR
 10
0.0
 20
1.0
 30
0.0
  9
$UCSORTHOREF
  2

  9
$UCSORTHOVIEW
 70
     0
  9
$UCSORGTOP
 10
0.0
 20
0.0
 30
0.0
  9
$UCSORGBOTTOM
 10
0.0
 20
0.0
 30
0.0
  9
$UCSORGLEFT
 10
0.0
 20
0.0
 30
0.0
  9
$UCSORGRIGHT
 10
0.0
 20
0.0
 30
0.0
  9
$UCSORGFRONT
 10
0.0
 20
0.0
 30
0.0
  9
$UCSORGBACK
 10
0.0
 20
0.0
 30
0.0
  9
$PUCSBASE
  2

  9
$PUCSNAME
  2

  9
$PUCSORG
 10
0.0
 20
0.0
 30
0.0
  9
$PUCSXDIR
 10
1.0
 20
0.0
 30
0.0
  9
$PUCSYDIR
 10
0.0
 20
1.0
 30
0.0
  9
$PUCSORTHOREF
  2

  9
$PUCSORTHOVIEW
 70
     0
  9
$PUCSORGTOP
 10
0.0
 20
0.0
 30
0.0
  9
$PUCSORGBOTTOM
 10
0.0
 20
0.0
 30
0.0
  9
$PUCSORGLEFT
 10
0.0
 20
0.0
 30
0.0
  9
$PUCSORGRIGHT
 10
0.0
 20
0.0
 30
0.0
  9
$PUCSORGFRONT
 10
0.0
 20
0.0
 30
0.0
  9
$PUCSORGBACK
 10
0.0
 20
0.0
 30
0.0
  9
$USERI1
 70
     0
  9
$USERI2
 70
     0
  9
$USERI3
 70
     0
  9
$USERI4
 70
     0
  9
$USERI5
 70
     0
  9
$USERR1
 40
0.0
  9
$USERR2
 40
0.0
  9
$USERR3
 40
0.0
  9
$USERR4
 40
0.0
  9
$USERR5
 40
0.0
  9
$WORLDVIEW
 70
     1
  9
$SHADEDGE
 70
     3
  9
$SHADEDIF
 70
    70
  9
$TILEMODE
 70
     1
  9
$MAXACTVP
 70
    16
  9
$PINSBASE
 10
0.0
 20
0.0
 30
0.0
  9
$PLIMCHECK
 70
     0
  9
$PEXTMIN
 10
1.000000000000000E+20
 20
1.000000000000000E+20
 30
1.000000000000000E+20
  9
$PEXTMAX
 10
-1.000000000000000E+20
 20
-1.000000000000000E+20
 30
-1.000000000000000E+20
  9
$PLIMMIN
 10
0.0
 20
0.0
  9
$PLIMMAX
 10
12.0
 20
9.0
  9
$UNITMODE
 70
     0
  9
$VISRETAIN
 70
     0
  9
$PLINEGEN
 70
     0
  9
$PSLTSCALE
 70
     0
  9
$TREEDEPTH
 70
  3020
  9
$CMLSTYLE
  2
Standard
  9
$CMLJUST
 70
     0
  9
$CMLSCALE
 40
1.0
  9
$PROXYGRAPHICS
 70
     1
  9
$MEASUREMENT
 70
     0
  9
$CELWEIGHT
370
    -1
  9
$ENDCAPS
280
     0
  9
$JOINSTYLE
280
     0
  9
$LWDISPLAY
290
     0
  9
$INSUNITS
 70
     0
  9
$HYPERLINKBASE
  1

  9
$STYLESHEET
  1
monochrome 1.ctb
  9
$XEDIT
290
     1
  9
$CEPSNTYPE
380
     0
  9
$PSTYLEMODE
290
     1
  9
$FINGERPRINTGUID
  2
{7AADB5C8-6110-11D8-B72B-000102183313}
  9
$VERSIONGUID
  2
{B7B6E9A4-C890-4D7D-8C49-21FC2CDE4E2F}
  9
$EXTNAMES
290
     1
  9
$PSVPSCALE
 40
0.0
  9
$OLESTARTUP
290
     0
  9
$SORTENTS
280
    96
  9
$INDEXCTL
280
     0
  9
$HIDETEXT
280
     0
  9
$XCLIPFRAME
290
     0
  9
$HALOGAP
280
     0
  9
$OBSCOLOR
 70
   257
  9
$OBSLTYPE
280
     0
  9
$INTERSECTIONDISPLAY
280
     0
  9
$INTERSECTIONCOLOR
 70
   257
  9
$DIMASSOC
280
     1
  9
$PROJECTNAME
  1

  0
ENDSEC
  0
SECTION
  2
CLASSES
  0
CLASS
  1
ACDBDICTIONARYWDFLT
  2
AcDbDictionaryWithDefault
  3
ObjectDBX Classes
 90
        0
 91
        1
280
     0
281
     0
  0
CLASS
  1
DICTIONARYVAR
  2
AcDbDictionaryVar
  3
ObjectDBX Classes
 90
        0
 91
        3
280
     0
281
     0
  0
ENDSEC
  0
SECTION
  2
TABLES
  0
TABLE
  2
VPORT
  5
8
330
0
100
AcDbSymbolTable
 70
     3
  0
VPORT
  5
939
330
8
100
AcDbSymbolTableRecord
100
AcDbViewportTableRecord
  2
*Active
 70
     0
 10
0.0
 20
0.0
 11
1.0
 21
1.0
 12
105.0
 22
148.5
 13
0.0
 23
0.0
 14
1.0
 24
1.0
 15
10.0
 25
10.0
 16
0.0
 26
0.0
 36
1.0
 17
0.0
 27
0.0
 37
0.0
 40
297.0
 41
1.334231805929919
 42
50.0
 43
0.0
 44
0.0
 50
0.0
 51
0.0
 71
     0
 72
  1500
 73
     1
 74
     0
 75
     0
 76
     0
 77
     0
 78
     0
281
     0
 65
     1
110
0.0
120
0.0
130
0.0
111
1.0
121
0.0
131
0.0
112
0.0
122
1.0
132
0.0
 79
     0
146
0.0
  0
ENDTAB
  0
TABLE
  2
LTYPE
  5
5
330
0
100
AcDbSymbolTable
 70
     2
  0
LTYPE
  5
13
330
5
100
AcDbSymbolTableRecord
100
AcDbLinetypeTableRecord
  2
ByBlock
 70
     0
  3

 72
    65
 73
     0
 40
0.0
  0
LTYPE
  5
14
330
5
100
AcDbSymbolTableRecord
100
AcDbLinetypeTableRecord
  2
ByLayer
 70
     0
  3

 72
    65
 73
     0
 40
0.0
  0
LTYPE
  5
15
330
5
100
AcDbSymbolTableRecord
100
AcDbLinetypeTableRecord
  2
Continuous
 70
     0
  3
Solid line
 72
    65
 73
     0
 40
0.0
  0
LTYPE
  5
35
330
5
100
AcDbSymbolTableRecord
100
AcDbLinetypeTableRecord
  2
STRICHPUNKT
 70
     0
  3
__ . __ . __ . __ . __ . __ . __ . __ . __ . __
 72
    65
 73
     4
 40
1.0
 49
0.5
 74
     0
 49
-0.25
 74
     0
 49
0.0
 74
     0
 49
-0.25
 74
     0
  0
ENDTAB
  0
TABLE
  2
LAYER
  5
2
330
0
100
AcDbSymbolTable
 70
     9
  0
LAYER
  5
10
330
2
100
AcDbSymbolTableRecord
100
AcDbLayerTableRecord
  2
0
 70
     0
 62
     7
  6
Continuous
370
    -3
390
F
  0
LAYER
  5
38
330
2
100
AcDbSymbolTableRecord
100
AcDbLayerTableRecord
  2
VOLL
 70
     0
 62
     1
  6
Continuous
370
    -3
390
F
  0
LAYER
  5
39
330
2
100
AcDbSymbolTableRecord
100
AcDbLayerTableRecord
  2
HILF
 70
     0
 62
     2
  6
Continuous
370
    -3
390
F
  0
LAYER
  5
3A
330
2
100
AcDbSymbolTableRecord
100
AcDbLayerTableRecord
  2
MITTEL
 70
     0
 62
     2
  6
STRICHPUNKT
370
    -3
390
F
  0
LAYER
  5
3B
330
2
100
AcDbSymbolTableRecord
100
AcDbLayerTableRecord
  2
BEM
 70
     0
 62
     7
  6
Continuous
370
    -3
390
F
  0
LAYER
  5
3C
330
2
100
AcDbSymbolTableRecord
100
AcDbLayerTableRecord
  2
STEMPEL
 70
     0
 62
     3
  6
Continuous
370
    -3
390
F
  0
LAYER
  5
3D
330
2
100
AcDbSymbolTableRecord
100
AcDbLayerTableRecord
  2
TEXT
 70
     0
 62
     7
  6
Continuous
370
    -3
390
F
  0
LAYER
  5
3E
330
2
100
AcDbSymbolTableRecord
100
AcDbLayerTableRecord
  2
DEFPOINTS
 70
     0
 62
     7
  6
Continuous
290
     0
370
    -3
390
F
  0
LAYER
  5
3F
330
2
100
AcDbSymbolTableRecord
100
AcDbLayerTableRecord
  2
SCHRAFF
 70
     0
 62
     7
  6
Continuous
370
    -3
390
F
  0
ENDTAB
  0
TABLE
  2
STYLE
  5
3
330
0
100
AcDbSymbolTable
 70
     2
  0
STYLE
  5
11
330
3
100
AcDbSymbolTableRecord
100
AcDbTextStyleTableRecord
  2
STANDARD
 70
     0
 40
0.0
 41
0.8
 50
0.0
 71
     0
 42
3.5
  3
simplex.shx
  4

  0
STYLE
  5
34
330
3
100
AcDbSymbolTableRecord
100
AcDbTextStyleTableRecord
  2
GREEKS
 70
     0
 40
0.0
 41
0.8
 50
0.0
 71
     0
 42
2.5
  3
SIMPLEX.shx
  4

  0
ENDTAB
  0
TABLE
  2
VIEW
  5
6
330
0
100
AcDbSymbolTable
 70
     0
  0
ENDTAB
  0
TABLE
  2
UCS
  5
7
330
0
100
AcDbSymbolTable
 70
     0
  0
ENDTAB
  0
TABLE
  2
APPID
  5
9
330
0
100
AcDbSymbolTable
 70
     1
  0
APPID
  5
12
330
9
100
AcDbSymbolTableRecord
100
AcDbRegAppTableRecord
  2
ACAD
 70
     0
  0
ENDTAB
  0
TABLE
  2
DIMSTYLE
  5
A
330
0
100
AcDbSymbolTable
 70
     1
100
AcDbDimStyleTable
 71
     1
340
1CB
  0
DIMSTYLE
105
1CB
102
{ACAD_REACTORS
330
1DB
330
1E8
330
5EC
330
820
330
86A
102
}
330
A
100
AcDbSymbolTableRecord
100
AcDbDimStyleTableRecord
  2
Standard
 70
     0
340
11
  0
ENDTAB
  0
TABLE
  2
BLOCK_RECORD
  5
1
330
0
100
AcDbSymbolTable
 70
     8
  0
BLOCK_RECORD
  5
1E
330
1
100
AcDbSymbolTableRecord
100
AcDbBlockTableRecord
  2
*Model_Space
340
21
  0
BLOCK_RECORD
  5
1A
330
1
100
AcDbSymbolTableRecord
100
AcDbBlockTableRecord
  2
*Paper_Space
340
1D
  0
BLOCK_RECORD
  5
22
330
1
100
AcDbSymbolTableRecord
100
AcDbBlockTableRecord
  2
LOGO
340
0
102
{BLKREFS
331
135
102
}
  0
BLOCK_RECORD
  5
1DC
330
1
100
AcDbSymbolTableRecord
100
AcDbBlockTableRecord
  2
*D1
340
0
  0
BLOCK_RECORD
  5
1E9
330
1
100
AcDbSymbolTableRecord
100
AcDbBlockTableRecord
  2
*D2
340
0
  0
BLOCK_RECORD
  5
600
330
1
100
AcDbSymbolTableRecord
100
AcDbBlockTableRecord
  2
*D4
340
0
  0
BLOCK_RECORD
  5
821
330
1
100
AcDbSymbolTableRecord
100
AcDbBlockTableRecord
  2
*D5
340
0
  0
BLOCK_RECORD
  5
86B
330
1
100
AcDbSymbolTableRecord
100
AcDbBlockTableRecord
  2
*D7
340
0
  0
ENDTAB
  0
ENDSEC
  0
SECTION
  2
BLOCKS
  0
BLOCK
  5
43
330
1E
100
AcDbEntity
  8
0
100
AcDbBlockBegin
  2
*Model_Space
 70
     0
 10
0.0
 20
0.0
 30
0.0
  3
*Model_Space
  1

  0
ENDBLK
  5
44
330
1E
100
AcDbEntity
  8
0
100
AcDbBlockEnd
  0
BLOCK
  5
41
330
1A
100
AcDbEntity
 67
     1
  8
0
100
AcDbBlockBegin
  2
*Paper_Space
 70
     0
 10
0.0
 20
0.0
 30
0.0
  3
*Paper_Space
  1

  0
ENDBLK
  5
42
330
1A
100
AcDbEntity
 67
     1
  8
0
100
AcDbBlockEnd
  0
BLOCK
  5
45
330
22
100
AcDbEntity
  8
0
100
AcDbBlockBegin
  2
LOGO
 70
     0
 10
0.0
 20
0.0
 30
0.0
  3
LOGO
  1

  0
ARC
  5
46
330
22
100
AcDbEntity
  8
0
100
AcDbCircle
 10
11.59973089678112
 20
-9.271599258481501
 30
0.0
 40
4.5
100
AcDbArc
 50
270.0
 51
231.0575587310159
  0
LINE
  5
47
330
22
100
AcDbEntity
  8
0
100
AcDbLine
 10
3.599730896781125
 20
-4.771599258481529
 30
0.0
 11
3.599730896781153
 21
-11.77159925848133
 31
0.0
  0
LINE
  5
48
330
22
100
AcDbEntity
  8
0
100
AcDbLine
 10
2.599730896781125
 20
-4.771599258481529
 30
0.0
 11
2.599730896781153
 21
-11.77159925848133
 31
0.0
  0
CIRCLE
  5
49
330
22
100
AcDbEntity
  8
0
100
AcDbCircle
 10
11.59973089678112
 20
-9.271599258481501
 30
0.0
 40
3.5
  0
ARC
  5
4A
330
22
100
AcDbEntity
  8
0
100
AcDbCircle
 10
31.59973089678115
 20
-9.271599258481472
 30
0.0
 40
4.5
100
AcDbArc
 50
270.0
 51
231.0575587310182
  0
LINE
  5
4B
330
22
100
AcDbEntity
  8
0
100
AcDbLine
 10
17.59973089678112
 20
-4.771599258481472
 30
0.0
 11
17.59973089678115
 21
-13.77159925848147
 31
0.0
  0
ARC
  5
4C
330
22
100
AcDbEntity
  8
0
100
AcDbCircle
 10
22.59973089678116
 20
-7.271599258481472
 30
0.0
 40
2.5
100
AcDbArc
 50
293.1161887722295
 51
90.0
  0
CIRCLE
  5
4D
330
22
100
AcDbEntity
  8
0
100
AcDbCircle
 10
31.59973089678115
 20
-9.271599258481472
 30
0.0
 40
3.5
  0
ARC
  5
4E
330
22
100
AcDbEntity
  8
0
100
AcDbCircle
 10
4.599730896781153
 20
-11.77159925848133
 30
0.0
 40
1.0
100
AcDbArc
 50
180.0
 51
270.0
  0
ARC
  5
4F
330
22
100
AcDbEntity
  8
0
100
AcDbCircle
 10
4.599730896781153
 20
-11.77159925848133
 30
0.0
 40
2.0
100
AcDbArc
 50
179.9999999999992
 51
270.0
  0
LINE
  5
50
330
22
100
AcDbEntity
  8
0
100
AcDbLine
 10
11.59973089678115
 20
-13.77159925848144
 30
0.0
 11
4.599730896781153
 21
-13.77159925848147
 31
0.0
  0
LINE
  5
51
330
22
100
AcDbEntity
  8
0
100
AcDbLine
 10
8.771303772034769
 20
-12.77159925848136
 30
0.0
 11
4.599730896781153
 21
-12.77159925848133
 31
0.0
  0
LINE
  5
52
330
22
100
AcDbEntity
  8
0
100
AcDbLine
 10
31.59973089678115
 20
-13.77159925848147
 30
0.0
 11
23.6715276665056
 21
-13.77159925848144
 31
0.0
  0
LINE
  5
53
330
22
100
AcDbEntity
  8
0
100
AcDbLine
 10
23.56565672307022
 20
-9.51278021337896
 30
0.0
 11
24.4388546544846
 21
-12.77159925848144
 31
0.0
  0
LINE
  5
54
330
22
100
AcDbEntity
  8
0
100
AcDbLine
 10
22.59973089678116
 20
-9.771599258481472
 30
0.0
 11
18.59973089678112
 21
-9.771599258481472
 31
0.0
  0
LINE
  5
55
330
22
100
AcDbEntity
  8
0
100
AcDbLine
 10
18.59973089678115
 20
-13.77159925848144
 30
0.0
 11
17.59973089678115
 21
-13.77159925848144
 31
0.0
  0
LINE
  5
56
330
22
100
AcDbEntity
  8
0
100
AcDbLine
 10
18.59973089678115
 20
-9.771599258481472
 30
0.0
 11
18.59973089678115
 21
-13.77159925848144
 31
0.0
  0
LINE
  5
57
330
22
100
AcDbEntity
  8
0
100
AcDbLine
 10
22.59973089678116
 20
-9.771599258481472
 30
0.0
 11
23.67152766650562
 21
-13.77159925848147
 31
0.0
  0
ARC
  5
58
330
22
100
AcDbEntity
  8
0
100
AcDbCircle
 10
22.59973089678116
 20
-7.271599258481472
 30
0.0
 40
2.5
100
AcDbArc
 50
270.0
 51
270.0000000000007
  0
LINE
  5
59
330
22
100
AcDbEntity
  8
0
100
AcDbLine
 10
28.77130377203494
 20
-12.77159925848147
 30
0.0
 11
24.43885465448463
 21
-12.77159925848144
 31
0.0
  0
LINE
  5
5A
330
22
100
AcDbEntity
  8
0
100
AcDbLine
 10
3.599730896781125
 20
-4.771599258481472
 30
0.0
 11
2.599730896781125
 21
-4.771599258481472
 31
0.0
  0
LINE
  5
5B
330
22
100
AcDbEntity
  8
0
100
AcDbLine
 10
22.59973089678116
 20
-8.771599258481472
 30
0.0
 11
18.59973089678115
 21
-8.771599258481472
 31
0.0
  0
LINE
  5
5C
330
22
100
AcDbEntity
  8
0
100
AcDbLine
 10
22.59973089678116
 20
-5.771599258481472
 30
0.0
 11
18.59973089678115
 21
-5.771599258481472
 31
0.0
  0
LINE
  5
5D
330
22
100
AcDbEntity
  8
0
100
AcDbLine
 10
22.59973089678116
 20
-4.771599258481472
 30
0.0
 11
17.59973089678115
 21
-4.771599258481472
 31
0.0
  0
LINE
  5
5E
330
22
100
AcDbEntity
  8
0
100
AcDbLine
 10
18.59973089678115
 20
-5.771599258481472
 30
0.0
 11
18.59973089678115
 21
-8.771599258481472
 31
0.0
  0
ARC
  5
5F
330
22
100
AcDbEntity
  8
0
100
AcDbCircle
 10
22.59973089678116
 20
-7.271599258481472
 30
0.0
 40
1.5
100
AcDbArc
 50
270.0
 51
90.0
  0
ENDBLK
  5
60
330
22
100
AcDbEntity
  8
0
100
AcDbBlockEnd
  0
BLOCK
  5
1E6
330
1DC
100
AcDbEntity
  8
0
100
AcDbBlockBegin
  2
*D1
 70
     1
 10
0.0
 20
0.0
 30
0.0
  3
*D1
  1

  0
LINE
  5
90A
330
1DC
100
AcDbEntity
  8
BEM
 62
     0
370
    -2
100
AcDbLine
 10
78.16206402573484
 20
104.7162826474824
 30
0.0
 11
68.72380365646536
 21
104.7162826474824
 31
0.0
  0
LINE
  5
90B
330
1DC
100
AcDbEntity
  8
BEM
 62
     0
370
    -2
100
AcDbLine
 10
104.2246207081052
 20
183.7178709890071
 30
0.0
 11
68.72380365646538
 21
183.7178709890071
 31
0.0
  0
LINE
  5
90C
330
1DC
100
AcDbEntity
  8
BEM
 62
     0
370
    -2
100
AcDbLine
 10
69.72380365646536
 20
108.2162826474824
 30
0.0
 11
69.72380365646538
 21
180.2178709890071
 31
0.0
  0
SOLID
  5
90D
330
1DC
100
AcDbEntity
  8
BEM
 62
     0
100
AcDbTrace
 10
69.14047032313203
 20
108.2162826474824
 30
0.0
 11
70.30713698979869
 21
108.2162826474824
 31
0.0
 12
69.72380365646536
 22
104.7162826474824
 32
0.0
 13
69.72380365646536
 23
104.7162826474824
 33
0.0
  0
SOLID
  5
90E
330
1DC
100
AcDbEntity
  8
BEM
 62
     0
100
AcDbTrace
 10
69.14047032313205
 20
180.2178709890071
 30
0.0
 11
70.3071369897987
 21
180.2178709890071
 31
0.0
 12
69.72380365646538
 22
183.7178709890071
 32
0.0
 13
69.72380365646538
 23
183.7178709890071
 33
0.0
  0
MTEXT
  5
90F
330
1DC
100
AcDbEntity
  8
BEM
 62
     1
100
AcDbMText
 10
66.47380365646535
 20
144.2170768182448
 30
0.0
 40
3.5
 41
0.0
 71
     5
 72
     1
  1
\A1;79
 11
0.0000000000000001
 21
1.0
 31
0.0
 73
     1
 44
1.0
  0
POINT
  5
910
330
1DC
100
AcDbEntity
  8
DEFPOINTS
 62
     0
100
AcDbPoint
 10
79.16206402573483
 20
104.7162826474824
 30
0.0
  0
POINT
  5
911
330
1DC
100
AcDbEntity
  8
DEFPOINTS
 62
     0
100
AcDbPoint
 10
105.2246207081052
 20
183.7178709890071
 30
0.0
  0
POINT
  5
912
330
1DC
100
AcDbEntity
  8
DEFPOINTS
 62
     0
100
AcDbPoint
 10
69.72380365646538
 20
183.7178709890071
 30
0.0
  0
ENDBLK
  5
1E7
330
1DC
100
AcDbEntity
  8
0
100
AcDbBlockEnd
  0
BLOCK
  5
1F3
330
1E9
100
AcDbEntity
  8
0
100
AcDbBlockBegin
  2
*D2
 70
     1
 10
0.0
 20
0.0
 30
0.0
  3
*D2
  1

  0
LINE
  5
913
330
1E9
100
AcDbEntity
  8
BEM
 62
     0
370
    -2
100
AcDbLine
 10
78.72462070810522
 20
108.7162826474824
 30
0.0
 11
78.72462070810522
 21
90.65431115614819
 31
0.0
  0
LINE
  5
914
330
1E9
100
AcDbEntity
  8
BEM
 62
     0
370
    -2
100
AcDbLine
 10
131.7246207081061
 20
108.7162826474824
 30
0.0
 11
131.7246207081061
 21
90.65431115614819
 31
0.0
  0
LINE
  5
915
330
1E9
100
AcDbEntity
  8
BEM
 62
     0
370
    -2
100
AcDbLine
 10
82.22462070810522
 20
91.65431115614818
 30
0.0
 11
128.2246207081061
 21
91.65431115614818
 31
0.0
  0
SOLID
  5
916
330
1E9
100
AcDbEntity
  8
BEM
 62
     0
100
AcDbTrace
 10
82.22462070810522
 20
92.2376444894815
 30
0.0
 11
82.22462070810522
 21
91.07097782281485
 31
0.0
 12
78.72462070810522
 22
91.65431115614818
 32
0.0
 13
78.72462070810522
 23
91.65431115614818
 33
0.0
  0
SOLID
  5
917
330
1E9
100
AcDbEntity
  8
BEM
 62
     0
100
AcDbTrace
 10
128.2246207081061
 20
92.2376444894815
 30
0.0
 11
128.2246207081061
 21
91.07097782281485
 31
0.0
 12
131.7246207081061
 22
91.65431115614818
 32
0.0
 13
131.7246207081061
 23
91.65431115614818
 33
0.0
  0
MTEXT
  5
918
330
1E9
100
AcDbEntity
  8
BEM
 62
     1
100
AcDbMText
 10
105.2246207081056
 20
94.90431115614818
 30
0.0
 40
3.5
 41
0.0
 71
     5
 72
     1
  1
\A1;%%c53
 73
     1
 44
1.0
  0
POINT
  5
919
330
1E9
100
AcDbEntity
  8
DEFPOINTS
 62
     0
100
AcDbPoint
 10
78.72462070810522
 20
109.7162826474824
 30
0.0
  0
POINT
  5
91A
330
1E9
100
AcDbEntity
  8
DEFPOINTS
 62
     0
100
AcDbPoint
 10
131.7246207081061
 20
109.7162826474824
 30
0.0
  0
POINT
  5
91B
330
1E9
100
AcDbEntity
  8
DEFPOINTS
 62
     0
100
AcDbPoint
 10
131.7246207081061
 20
91.65431115614818
 30
0.0
  0
ENDBLK
  5
1F4
330
1E9
100
AcDbEntity
  8
0
100
AcDbBlockEnd
  0
BLOCK
  5
60A
330
600
100
AcDbEntity
  8
0
100
AcDbBlockBegin
  2
*D4
 70
     1
 10
0.0
 20
0.0
 30
0.0
  3
*D4
  1

  0
LINE
  5
8C3
330
600
100
AcDbEntity
  8
BEM
 62
     0
370
    -2
100
AcDbLine
 10
104.5175139269187
 20
184.4249777701936
 30
0.0
 11
74.45562792061457
 21
214.4868637764984
 31
0.0
  0
LINE
  5
8C4
330
600
100
AcDbEntity
  8
BEM
 62
     0
370
    -2
100
AcDbLine
 10
128.1803796094872
 20
249.1244217188224
 30
0.0
 11
118.6367827362134
 21
258.6680185920964
 31
0.0
  0
LINE
  5
8C5
330
600
100
AcDbEntity
  8
BEM
 62
     0
370
    -2
100
AcDbLine
 10
77.63760843595405
 20
216.2546307294647
 30
0.0
 11
116.869015783247
 21
255.4860380767569
 31
0.0
  0
SOLID
  5
8C6
330
600
100
AcDbEntity
  8
BEM
 62
     0
100
AcDbTrace
 10
77.2251294802619
 20
216.6671096851569
 30
0.0
 11
78.05008739164619
 21
215.8421517737726
 31
0.0
 12
75.16273470180111
 22
213.7797569953118
 32
0.0
 13
75.16273470180111
 23
213.7797569953118
 33
0.0
  0
SOLID
  5
8C7
330
600
100
AcDbEntity
  8
BEM
 62
     0
100
AcDbTrace
 10
116.4565368275548
 20
255.8985170324491
 30
0.0
 11
117.2814947389391
 21
255.0735591210647
 31
0.0
 12
119.3438895174
 22
257.9609118109098
 32
0.0
 13
119.3438895174
 23
257.9609118109098
 33
0.0
  0
MTEXT
  5
8C8
330
600
100
AcDbEntity
  8
BEM
 62
     1
100
AcDbMText
 10
94.95521507074432
 20
238.1684314419671
 30
0.0
 40
3.5
 41
0.0
 71
     5
 72
     1
  1
\A1;62.5
 11
0.707106781186555
 21
0.7071067811865403
 31
0.0
 73
     1
 44
1.0
  0
POINT
  5
8C9
330
600
100
AcDbEntity
  8
DEFPOINTS
 62
     0
100
AcDbPoint
 10
105.2246207081052
 20
183.7178709890071
 30
0.0
  0
POINT
  5
8CA
330
600
100
AcDbEntity
  8
DEFPOINTS
 62
     0
100
AcDbPoint
 10
128.8874863906737
 20
248.4173149376359
 30
0.0
  0
POINT
  5
8CB
330
600
100
AcDbEntity
  8
DEFPOINTS
 62
     0
100
AcDbPoint
 10
119.3438895174
 20
257.9609118109098
 30
0.0
  0
ENDBLK
  5
60B
330
600
100
AcDbEntity
  8
0
100
AcDbBlockEnd
  0
BLOCK
  5
82D
330
821
100
AcDbEntity
  8
0
100
AcDbBlockBegin
  2
*D5
 70
     1
 10
0.0
 20
0.0
 30
0.0
  3
*D5
  1

  0
LINE
  5
91C
330
821
100
AcDbEntity
  8
BEM
 62
     0
370
    -2
100
AcDbLine
 10
105.2246207081052
 20
184.7178709890071
 30
0.0
 11
105.2246207081052
 21
239.3212270757612
 31
0.0
  0
ARC
  5
91D
330
821
100
AcDbEntity
  8
BEM
 62
     0
370
    -2
100
AcDbCircle
 10
105.2246207081052
 20
183.7178709890071
 30
0.0
 40
54.60335608675396
100
AcDbArc
 50
48.6732096484303
 51
86.32679035156975
  0
SOLID
  5
91E
330
821
100
AcDbEntity
  8
BEM
 62
     0
100
AcDbTrace
 10
141.6811511018792
 20
225.1480454441699
 30
0.0
 11
140.8830563141312
 21
224.2970719893074
 31
0.0
 12
143.8350240725926
 22
222.3282743534946
 32
0.0
 13
143.8350240725926
 23
222.3282743534946
 33
0.0
  0
SOLID
  5
91F
330
821
100
AcDbEntity
  8
BEM
 62
     0
100
AcDbTrace
 10
108.7041272870246
 20
237.6260208149762
 30
0.0
 11
108.7415181511213
 21
238.7920881519654
 31
0.0
 12
105.2246207081052
 22
238.3212270757611
 32
0.0
 13
105.2246207081052
 23
238.3212270757611
 33
0.0
  0
MTEXT
  5
920
330
821
100
AcDbEntity
  8
BEM
 62
     1
100
AcDbMText
 10
127.3641415892239
 20
237.1674025646464
 30
0.0
 40
3.5
 41
0.0
 71
     5
 72
     1
  1
\A1;45°
 11
0.9238795325112871
 21
-0.3826834323650891
 31
0.0
 73
     1
 44
1.0
  0
POINT
  5
921
330
821
100
AcDbEntity
  8
DEFPOINTS
 62
     0
100
AcDbPoint
 10
132.5262987514822
 20
231.0057644920237
 30
0.0
  0
POINT
  5
922
330
821
100
AcDbEntity
  8
DEFPOINTS
 62
     0
100
AcDbPoint
 10
105.2246207081052
 20
183.7178709890071
 30
0.0
  0
POINT
  5
923
330
821
100
AcDbEntity
  8
DEFPOINTS
 62
     0
100
AcDbPoint
 10
152.9413094296366
 20
231.4345597105385
 30
0.0
  0
POINT
  5
924
330
821
100
AcDbEntity
  8
DEFPOINTS
 62
     0
100
AcDbPoint
 10
105.2246207081052
 20
183.7178709890071
 30
0.0
  0
POINT
  5
925
330
821
100
AcDbEntity
  8
DEFPOINTS
 62
     0
100
AcDbPoint
 10
105.2246207081052
 20
99.71628264748233
 30
0.0
  0
ENDBLK
  5
82E
330
821
100
AcDbEntity
  8
0
100
AcDbBlockEnd
  0
BLOCK
  5
871
330
86B
100
AcDbEntity
  8
0
100
AcDbBlockBegin
  2
*D7
 70
     1
 10
0.0
 20
0.0
 30
0.0
  3
*D7
  1

  0
LINE
  5
86C
330
86B
100
AcDbEntity
  8
BEM
 62
     0
370
    -2
100
AcDbLine
 10
126.7655563737792
 20
171.0999102270447
 30
0.0
 11
109.1763268817696
 21
174.0404516151562
 31
0.0
  0
MTEXT
  5
86D
330
86B
100
AcDbEntity
  8
BEM
 62
     1
100
AcDbMText
 10
120.2328805692162
 20
175.4871369072595
 30
0.0
 40
3.5
 41
0.0
 71
     5
 72
     1
  1
\A1;R36.5
 11
0.9863119341313812
 21
-0.1648901712959688
 31
0.0
 73
     1
 44
1.0
  0
SOLID
  5
86E
330
86B
100
AcDbEntity
  8
BEM
 62
     0
100
AcDbTrace
 10
109.2725128150256
 20
174.6158002433995
 30
0.0
 11
109.0801409485136
 21
173.4651029869128
 31
0.0
 12
105.7242351123097
 22
174.617567214692
 32
0.0
 13
105.7242351123097
 23
174.617567214692
 33
0.0
  0
POINT
  5
86F
330
86B
100
AcDbEntity
  8
DEFPOINTS
 62
     0
100
AcDbPoint
 10
105.7242351123098
 20
174.617567214692
 30
0.0
  0
POINT
  5
870
330
86B
100
AcDbEntity
  8
DEFPOINTS
 62
     0
100
AcDbPoint
 10
141.7246207081053
 20
168.5990759623892
 30
0.0
  0
ENDBLK
  5
872
330
86B
100
AcDbEntity
  8
0
100
AcDbBlockEnd
  0
ENDSEC
  0
SECTION
  2
ENTITIES
  0
TEXT
  5
134
330
1E
100
AcDbEntity
  8
TEXT
100
AcDbText
 10
102.2108024290628
 20
31.54481959861755
 30
0.0
 40
2.0
  1
Koeh
 41
0.8
  7
GREEKS
 72
     1
 11
104.8393738576343
 21
31.54481959861755
 31
0.0
100
AcDbText
  0
INSERT
  5
135
330
1E
100
AcDbEntity
  8
STEMPEL
100
AcDbBlockReference
  2
LOGO
 10
75.4977742728897
 20
22.51052638224161
 30
0.0
  0
LINE
  5
136
330
1E
100
AcDbEntity
  8
HILF
100
AcDbLine
 10
210.0
 20
0.0
 30
0.0
 11
0.0
 21
0.0
 31
0.0
  0
LINE
  5
137
330
1E
100
AcDbEntity
  8
HILF
100
AcDbLine
 10
210.0
 20
297.0000000000001
 30
0.0
 11
0.0
 21
297.0
 31
0.0
  0
LINE
  5
138
330
1E
100
AcDbEntity
  8
STEMPEL
100
AcDbLine
 10
205.0
 20
292.0
 30
0.0
 11
19.99999999999994
 21
292.0
 31
0.0
  0
LINE
  5
139
330
1E
100
AcDbEntity
  8
STEMPEL
100
AcDbLine
 10
205.0
 20
5.0
 30
0.0
 11
19.99999999999994
 21
5.0
 31
0.0
  0
LINE
  5
13A
330
1E
100
AcDbEntity
  8
STEMPEL
100
AcDbLine
 10
24.99999999999995
 20
5.0
 30
0.0
 11
205.0
 21
5.0
 31
0.0
  0
TEXT
  5
13B
330
1E
100
AcDbEntity
  8
TEXT
100
AcDbText
 10
101.2313292113147
 20
36.65480545957612
 30
0.0
 40
2.0
  1
Name
 41
0.8
  7
GREEKS
100
AcDbText
  0
TEXT
  5
13C
330
1E
100
AcDbEntity
  8
TEXT
100
AcDbText
 10
98.27491395507747
 20
51.32531138882947
 30
0.0
 40
2.5
  1
Zul. Abw.
 41
0.8
  7
GREEKS
 72
     4
 11
104.9891996693631
 21
52.57531138882947
 31
0.0
100
AcDbText
  0
LINE
  5
13D
330
1E
100
AcDbEntity
  8
HILF
100
AcDbLine
 10
73.00000000000006
 20
24.99999999999999
 30
0.0
 11
115.0
 21
24.99999999999999
 31
0.0
  0
LINE
  5
13E
330
1E
100
AcDbEntity
  8
HILF
100
AcDbLine
 10
73.00000000000006
 20
29.99999999999999
 30
0.0
 11
115.0
 21
29.99999999999999
 31
0.0
  0
LINE
  5
13F
330
1E
100
AcDbEntity
  8
HILF
100
AcDbLine
 10
73.00000000000006
 20
34.99999999999997
 30
0.0
 11
115.0
 21
34.99999999999997
 31
0.0
  0
LINE
  5
140
330
1E
100
AcDbEntity
  8
STEMPEL
100
AcDbLine
 10
205.0
 20
40.0
 30
0.0
 11
73.00000000000006
 21
39.99999999999997
 31
0.0
  0
LINE
  5
141
330
1E
100
AcDbEntity
  8
STEMPEL
100
AcDbLine
 10
205.0
 20
20.0
 30
0.0
 11
73.00000000000006
 21
19.99999999999998
 31
0.0
  0
LINE
  5
142
330
1E
100
AcDbEntity
  8
STEMPEL
100
AcDbLine
 10
205.0
 20
55.00000000000003
 30
0.0
 11
19.99999999999998
 21
55.0
 31
0.0
  0
LINE
  5
143
330
1E
100
AcDbEntity
  8
MITTEL
100
AcDbLine
 10
105.2246207081052
 20
183.7178709890071
 30
0.0
 11
105.2246207081052
 21
99.71628264748233
 31
0.0
  0
LINE
  5
144
330
1E
100
AcDbEntity
  8
HILF
100
AcDbLine
 10
0.0
 20
0.0
 30
0.0
 11
-0.0000000000000568
 21
297.0
 31
0.0
  0
LINE
  5
145
330
1E
100
AcDbEntity
  8
STEMPEL
100
AcDbLine
 10
20.0
 20
5.0
 30
0.0
 11
19.99999999999994
 21
292.0
 31
0.0
  0
TEXT
  5
146
330
1E
100
AcDbEntity
  8
TEXT
100
AcDbText
 10
20.92754975488837
 20
55.83599999999997
 30
0.0
 40
2.5
  1
Erstellt mit AUTOCAD 2004
 41
0.8
  7
GREEKS
100
AcDbText
  0
LINE
  5
148
330
1E
100
AcDbEntity
  8
HILF
100
AcDbLine
 10
20.00000000000004
 20
19.99999999999998
 30
0.0
 11
73.00000000000006
 21
19.99999999999998
 31
0.0
  0
LINE
  5
149
330
1E
100
AcDbEntity
  8
HILF
100
AcDbLine
 10
20.00000000000004
 20
24.99999999999999
 30
0.0
 11
73.00000000000006
 21
24.99999999999999
 31
0.0
  0
LINE
  5
14A
330
1E
100
AcDbEntity
  8
HILF
100
AcDbLine
 10
20.00000000000004
 20
29.99999999999999
 30
0.0
 11
73.00000000000006
 21
29.99999999999999
 31
0.0
  0
LINE
  5
14B
330
1E
100
AcDbEntity
  8
HILF
100
AcDbLine
 10
20.00000000000004
 20
34.99999999999997
 30
0.0
 11
73.00000000000006
 21
34.99999999999997
 31
0.0
  0
LINE
  5
14C
330
1E
100
AcDbEntity
  8
HILF
100
AcDbLine
 10
20.00000000000004
 20
39.99999999999997
 30
0.0
 11
73.00000000000006
 21
39.99999999999997
 31
0.0
  0
LINE
  5
14D
330
1E
100
AcDbEntity
  8
HILF
100
AcDbLine
 10
20.00000000000004
 20
45.00000000000002
 30
0.0
 11
73.00000000000006
 21
45.00000000000002
 31
0.0
  0
LINE
  5
14E
330
1E
100
AcDbEntity
  8
HILF
100
AcDbLine
 10
20.00000000000004
 20
50.00000000000003
 30
0.0
 11
73.00000000000006
 21
50.00000000000003
 31
0.0
  0
LINE
  5
14F
330
1E
100
AcDbEntity
  8
STEMPEL
100
AcDbLine
 10
72.99999999999994
 20
14.99999999999998
 30
0.0
 11
19.99999999999998
 21
14.99999999999998
 31
0.0
  0
TEXT
  5
150
330
1E
100
AcDbEntity
  8
TEXT
100
AcDbText
 10
24.13320553522878
 20
6.827329230135958
 30
0.0
 40
2.0
  1
Index
 50
90.0
 41
0.8
  7
GREEKS
100
AcDbText
  0
LINE
  5
151
330
1E
100
AcDbEntity
  8
VOLL
100
AcDbLine
 10
27.00000000000005
 20
55.00000000000003
 30
0.0
 11
26.99999999999999
 21
4.999999999999985
 31
0.0
  0
LINE
  5
152
330
1E
100
AcDbEntity
  8
HILF
100
AcDbLine
 10
15.54383567856928
 20
148.5
 30
0.0
 11
0.0000000000000568
 21
148.5
 31
0.0
  0
LINE
  5
154
330
1E
100
AcDbEntity
  8
VOLL
100
AcDbLine
 10
62.00000000000006
 20
54.99999999999997
 30
0.0
 11
62.0
 21
4.999999999999985
 31
0.0
  0
LINE
  5
155
330
1E
100
AcDbEntity
  8
VOLL
100
AcDbLine
 10
52.00000000000006
 20
54.99999999999997
 30
0.0
 11
52.0
 21
4.999999999999985
 31
0.0
  0
LINE
  5
157
330
1E
100
AcDbEntity
  8
STEMPEL
100
AcDbLine
 10
73.00000000000006
 20
54.99999999999997
 30
0.0
 11
73.0
 21
4.999999999999985
 31
0.0
  0
TEXT
  5
159
330
1E
100
AcDbEntity
  8
TEXT
100
AcDbText
 10
86.16558365768254
 20
36.65940250614963
 30
0.0
 40
2.0
  1
Tag
 41
0.8
  7
GREEKS
100
AcDbText
  0
TEXT
  5
15A
330
1E
100
AcDbEntity
  8
TEXT
100
AcDbText
 10
73.79180635838077
 20
31.81495184808982
 30
0.0
 40
2.0
  1
Gez.
 41
0.8
  7
GREEKS
100
AcDbText
  0
LINE
  5
15B
330
1E
100
AcDbEntity
  8
VOLL
100
AcDbLine
 10
82.00000000000006
 20
39.99999999999997
 30
0.0
 11
82.00000000000006
 21
19.99999999999998
 31
0.0
  0
TEXT
  5
15C
330
1E
100
AcDbEntity
  8
TEXT
100
AcDbText
 10
73.80033886936519
 20
21.76473194824904
 30
0.0
 40
2.0
  1
Norm.
 41
0.8
  7
GREEKS
100
AcDbText
  0
TEXT
  5
15D
330
1E
100
AcDbEntity
  8
TEXT
100
AcDbText
 10
73.77575432858361
 20
26.84463145714189
 30
0.0
 40
2.0
  1
Gepr.
 41
0.8
  7
GREEKS
100
AcDbText
  0
TEXT
  5
15E
330
1E
100
AcDbEntity
  8
TEXT
 62
     1
100
AcDbText
 10
80.25031532409434
 20
44.07450714456979
 30
0.0
 40
3.5
  1
1:1
 41
0.8
  7
GREEKS
100
AcDbText
  0
TEXT
  5
15F
330
1E
100
AcDbEntity
  8
TEXT
100
AcDbText
 10
76.75817860751886
 20
51.23104475435443
 30
0.0
 40
2.5
  1
Maßstab
 41
0.8
  7
GREEKS
100
AcDbText
  0
TEXT
  5
160
330
1E
100
AcDbEntity
  8
TEXT
100
AcDbText
 10
74.31105491105199
 20
36.57012735575833
 30
0.0
 40
2.0
  1
2011
 41
0.8
  7
GREEKS
100
AcDbText
  0
LINE
  5
161
330
1E
100
AcDbEntity
  8
VOLL
100
AcDbLine
 10
95.00000000000005
 20
54.99999999999992
 30
0.0
 11
95.0
 21
19.99999999999998
 31
0.0
  0
LINE
  5
186
330
1E
100
AcDbEntity
  8
HILF
100
AcDbLine
 10
210.0
 20
-0.0000000000000568
 30
0.0
 11
210.0
 21
297.0
 31
0.0
  0
LINE
  5
187
330
1E
100
AcDbEntity
  8
STEMPEL
100
AcDbLine
 10
205.0
 20
5.0
 30
0.0
 11
205.0
 21
292.0
 31
0.0
  0
TEXT
  5
188
330
1E
100
AcDbEntity
  8
TEXT
100
AcDbText
 10
168.6200430748503
 20
26.03708088939301
 30
0.0
 40
2.5
  1
ersetzt durch:
 41
0.8
  7
GREEKS
100
AcDbText
  0
TEXT
  5
189
330
1E
100
AcDbEntity
  8
TEXT
100
AcDbText
 10
168.3619308148496
 20
36.59059118549985
 30
0.0
 40
2.5
  1
Ersatz für:
 41
0.8
  7
GREEKS
100
AcDbText
  0
TEXT
  5
18A
330
1E
100
AcDbEntity
  8
TEXT
100
AcDbText
 10
168.089377478817
 20
51.15660172685682
 30
0.0
 40
2.5
  1
Zeichnungs Nr.
 41
0.8
  7
GREEKS
100
AcDbText
  0
LINE
  5
18B
330
1E
100
AcDbEntity
  8
HILF
100
AcDbLine
 10
116.7454849644942
 20
7.446991290141568
 30
0.0
 11
202.4294419663364
 21
7.446991290141568
 31
0.0
  0
LINE
  5
18C
330
1E
100
AcDbEntity
  8
HILF
100
AcDbLine
 10
168.3619308148496
 20
41.88991818477913
 30
0.0
 11
202.4294419663364
 21
41.88991818477913
 31
0.0
  0
LINE
  5
18D
330
1E
100
AcDbEntity
  8
VOLL
100
AcDbLine
 10
166.0
 20
30.0
 30
0.0
 11
205.0
 21
30.0
 31
0.0
  0
TEXT
  5
18E
330
1E
100
AcDbEntity
  8
TEXT
 62
     1
100
AcDbText
 10
117.4641932160007
 20
43.70874394626889
 30
0.0
 40
3.5
  1
Bogen DN50 45°
 41
0.8
  7
GREEKS
100
AcDbText
  0
LINE
  5
18F
330
1E
100
AcDbEntity
  8
HILF
100
AcDbLine
 10
117.3868400548473
 20
24.99999999999999
 30
0.0
 11
162.4176958278155
 21
24.99999999999999
 31
0.0
  0
LINE
  5
190
330
1E
100
AcDbEntity
  8
HILF
100
AcDbLine
 10
117.3868400548473
 20
29.99999999999999
 30
0.0
 11
162.4176958278155
 21
29.99999999999999
 31
0.0
  0
LINE
  5
191
330
1E
100
AcDbEntity
  8
HILF
100
AcDbLine
 10
117.3868400548473
 20
34.99999999999997
 30
0.0
 11
162.4176958278155
 21
34.99999999999997
 31
0.0
  0
LINE
  5
192
330
1E
100
AcDbEntity
  8
HILF
100
AcDbLine
 10
117.3868400548473
 20
42.01879123782069
 30
0.0
 11
162.4176958278155
 21
42.01879123782069
 31
0.0
  0
LINE
  5
193
330
1E
100
AcDbEntity
  8
STEMPEL
100
AcDbLine
 10
115.0
 20
55.00000000000003
 30
0.0
 11
115.0
 21
4.999999999999985
 31
0.0
  0
TEXT
  5
194
330
1E
100
AcDbEntity
  8
TEXT
100
AcDbText
 10
117.5648195562657
 20
35.75167208792644
 30
0.0
 40
2.5
  1
mit engem Radius
 41
0.8
  7
GREEKS
100
AcDbText
  0
TEXT
  5
195
330
1E
100
AcDbEntity
  8
TEXT
100
AcDbText
 10
117.4918750788913
 20
21.31487076511316
 30
0.0
 40
2.0
  1
5352050W.DWG
 41
0.8
  7
GREEKS
100
AcDbText
  0
TEXT
  5
196
330
1E
100
AcDbEntity
  8
TEXT
100
AcDbText
 10
117.371119195568
 20
15.42280285096528
 30
0.0
 40
2.5
  1
Bauvorhaben
 41
0.8
  7
GREEKS
100
AcDbText
  0
TEXT
  5
197
330
1E
100
AcDbEntity
  8
TEXT
100
AcDbText
 10
117.4389701904505
 20
51.27446640058898
 30
0.0
 40
2.5
  1
Benennung
 41
0.8
  7
GREEKS
100
AcDbText
  0
LINE
  5
198
330
1E
100
AcDbEntity
  8
STEMPEL
100
AcDbLine
 10
166.0
 20
54.99999999999989
 30
0.0
 11
166.0
 21
20.0
 31
0.0
  0
TEXT
  5
19A
330
1E
100
AcDbEntity
  8
TEXT
 62
     1
100
AcDbText
 10
173.7126752338526
 20
44.07450714456979
 30
0.0
 40
3.5
  1
5352050W
 41
0.8
  7
GREEKS
 72
     1
 11
184.3793419005192
 21
44.07450714456979
 31
0.0
100
AcDbText
  0
LINE
  5
1D4
330
1E
100
AcDbEntity
  8
STEMPEL
100
AcDbLine
 10
131.2871773904763
 20
104.7162826474824
 30
0.0
 11
79.16206402573483
 21
104.7162826474824
 31
0.0
  0
LINE
  5
1D6
330
1E
100
AcDbEntity
  8
HILF
100
AcDbLine
 10
130.7246207081058
 20
109.7162826474824
 30
0.0
 11
79.72462070810521
 21
109.7162826474824
 31
0.0
  0
LINE
  5
1D7
330
1E
100
AcDbEntity
  8
STEMPEL
100
AcDbLine
 10
78.72462070810522
 20
109.7162826474824
 30
0.0
 11
79.16206402573482
 21
104.7162826474824
 31
0.0
  0
LINE
  5
1D8
330
1E
100
AcDbEntity
  8
STEMPEL
100
AcDbLine
 10
131.7246207081059
 20
109.7162826474826
 30
0.0
 11
131.2871773904763
 21
104.7162826474824
 31
0.0
  0
DIMENSION
  5
1DB
330
1E
100
AcDbEntity
  8
BEM
100
AcDbDimension
  2
*D1
 10
69.72380365646538
 20
183.7178709890071
 30
0.0
 11
66.47380365646535
 21
144.2170768182448
 31
0.0
 70
    32
 71
     5
 42
79.00158834152475
  3
Standard
100
AcDbAlignedDimension
 13
79.16206402573483
 23
104.7162826474824
 33
0.0
 14
105.2246207081052
 24
183.7178709890071
 34
0.0
 50
90.0
100
AcDbRotatedDimension
1001
ACAD
1000
DSTYLE
1002
{
1070
    41
1040
3.5
1070
    42
1040
1.0
1070
    43
1040
7.0
1070
    44
1040
1.0
1070
    73
1070
     0
1070
    74
1070
     0
1070
    77
1070
     1
1070
    78
1070
     8
1070
    79
1070
     2
1070
   140
1040
3.5
1070
   141
1040
1.5
1070
   146
1040
0.5142857142857144
1070
   147
1040
1.5
1070
   172
1070
     1
1070
   178
1070
     1
1070
   179
1070
     3
1070
   271
1070
     2
1070
   272
1070
     2
1070
   275
1070
     1
1070
   284
1070
     8
1070
   285
1070
     8
1070
   286
1070
     8
1002
}
  0
DIMENSION
  5
1E8
330
1E
100
AcDbEntity
  8
BEM
100
AcDbDimension
  2
*D2
 10
131.7246207081061
 20
91.65431115614818
 30
0.0
 11
105.2246207081056
 21
94.90431115614818
 31
0.0
 70
    32
  1
%%c<>
 71
     5
 42
53.00000000000091
  3
Standard
100
AcDbAlignedDimension
 13
78.72462070810522
 23
109.7162826474824
 33
0.0
 14
131.7246207081061
 24
109.7162826474824
 34
0.0
100
AcDbRotatedDimension
1001
ACAD
1000
DSTYLE
1002
{
1070
    41
1040
3.5
1070
    42
1040
1.0
1070
    43
1040
7.0
1070
    44
1040
1.0
1070
    73
1070
     0
1070
    74
1070
     0
1070
    77
1070
     1
1070
    78
1070
     8
1070
    79
1070
     2
1070
   140
1040
3.5
1070
   141
1040
1.5
1070
   146
1040
0.5142857142857144
1070
   147
1040
1.5
1070
   172
1070
     1
1070
   178
1070
     1
1070
   179
1070
     3
1070
   271
1070
     2
1070
   272
1070
     2
1070
   275
1070
     1
1070
   284
1070
     8
1070
   285
1070
     8
1070
   286
1070
     8
1002
}
  0
TEXT
  5
212
330
1E
100
AcDbEntity
  8
TEXT
100
AcDbText
 10
117.5648195562657
 20
25.75167208792646
 30
0.0
 40
2.5
  1
EDV-Art.Nr. 5.352.050C
 41
0.8
  7
GREEKS
100
AcDbText
  0
TEXT
  5
255
330
1E
100
AcDbEntity
  8
TEXT
 62
     1
100
AcDbText
 10
148.9987436921494
 20
65.61381838269608
 30
0.0
 40
3.5
  1
Werkstoff: 1.4404
 41
0.8
  7
GREEKS
100
AcDbText
  0
TEXT
  5
25D
330
1E
100
AcDbEntity
  8
TEXT
 62
     1
100
AcDbText
 10
98.87637943304767
 20
139.0986228091353
 30
0.0
 40
3.5
  1
DN50
 50
90.0
 41
0.8
  7
GREEKS
100
AcDbText
  0
LINE
  5
5BB
330
1E
100
AcDbEntity
  8
STEMPEL
100
AcDbLine
 10
78.72462070810522
 20
168.5990759623892
 30
0.0
 11
78.7246207081052
 21
109.7162826474824
 31
0.0
  0
LINE
  5
5BC
330
1E
100
AcDbEntity
  8
STEMPEL
100
AcDbLine
 10
131.7246207081056
 20
168.5990759623892
 30
0.0
 11
131.7246207081058
 21
109.7162826474824
 31
0.0
  0
LINE
  5
5E7
330
1E
100
AcDbEntity
  8
HILF
100
AcDbLine
 10
102.9688002749487
 20
217.9223426578432
 30
0.0
 11
139.4290923769413
 21
181.4620505558506
 31
0.0
  0
LINE
  5
5E8
330
1E
100
AcDbEntity
  8
HILF
100
AcDbLine
 10
104.9094344517177
 20
222.3950891511042
 30
0.0
 11
143.9018388702021
 21
183.4026847326197
 31
0.0
  0
LINE
  5
5E9
330
1E
100
AcDbEntity
  8
HILF
100
AcDbLine
 10
113.6108923146321
 20
231.7947233094353
 30
0.0
 11
153.3014730285333
 21
192.1041425955341
 31
0.0
  0
LINE
  5
5EB
330
1E
100
AcDbEntity
  8
STEMPEL
100
AcDbLine
 10
169.9240646567339
 20
207.3807366715757
 30
0.0
 11
128.8874863906737
 21
248.4173149376359
 31
0.0
  0
DIMENSION
  5
5EC
330
1E
100
AcDbEntity
  8
BEM
100
AcDbDimension
  2
*D4
 10
119.3438895174
 20
257.9609118109098
 30
0.0
 11
94.95521507074432
 21
238.1684314419671
 31
0.0
 70
    32
  1
62.5
 71
     5
 42
62.48158834152462
  3
Standard
100
AcDbAlignedDimension
 13
105.2246207081052
 23
183.7178709890071
 33
0.0
 14
128.8874863906737
 24
248.4173149376359
 34
0.0
 50
44.99999999999942
100
AcDbRotatedDimension
1001
ACAD
1000
DSTYLE
1002
{
1070
    41
1040
3.5
1070
    42
1040
1.0
1070
    43
1040
7.0
1070
    44
1040
1.0
1070
    73
1070
     0
1070
    74
1070
     0
1070
    77
1070
     1
1070
    78
1070
     8
1070
    79
1070
     2
1070
   140
1040
3.5
1070
   141
1040
1.5
1070
   146
1040
0.5142857142857144
1070
   147
1040
1.5
1070
   172
1070
     1
1070
   178
1070
     1
1070
   179
1070
     3
1070
   271
1070
     2
1070
   272
1070
     2
1070
   275
1070
     1
1070
   284
1070
     8
1070
   285
1070
     8
1070
   286
1070
     8
1002
}
  0
ARC
  5
5ED
330
1E
100
AcDbEntity
  8
STEMPEL
100
AcDbCircle
 10
113.9438005088587
 20
217.0443667750526
 30
0.0
 40
11.5
100
AcDbArc
 50
135.0
 51
163.7266053481407
  0
LINE
  5
5EF
330
1E
100
AcDbEntity
  8
STEMPEL
100
AcDbLine
 10
100.8819121897488
 20
216.8518218735378
 30
0.0
 11
97.17689349335277
 21
213.1468031771417
 31
0.0
  0
ARC
  5
5F0
330
1E
100
AcDbEntity
  8
STEMPEL
100
AcDbCircle
 10
95.2250579402564
 20
222.5086761230302
 30
0.0
 40
8.0
100
AcDbArc
 50
314.9999999999996
 51
343.7266053481407
  0
ARC
  5
5F1
330
1E
100
AcDbEntity
  8
STEMPEL
100
AcDbCircle
 10
135.802455267237
 20
223.3466723473268
 30
0.0
 40
24.5000320571282
100
AcDbArc
 50
134.9053619552033
 51
154.4630994446891
  0
LINE
  5
5F2
330
1E
100
AcDbEntity
  8
STEMPEL
100
AcDbLine
 10
111.6462734083421
 20
231.0102956418266
 30
0.0
 11
105.8120725252134
 21
225.1760947586979
 31
0.0
  0
ARC
  5
5F3
330
1E
100
AcDbEntity
  8
STEMPEL
100
AcDbCircle
 10
104.2216522058833
 20
238.4349168442853
 30
0.0
 40
10.5
100
AcDbArc
 50
315.0
 51
334.4630994446891
  0
ARC
  5
5F4
330
1E
100
AcDbEntity
  8
STEMPEL
100
AcDbCircle
 10
135.1602529327384
 20
230.4826446058803
 30
0.0
 40
19.0
100
AcDbArc
 50
109.277613507817
 51
135.0
  0
LINE
  5
5F5
330
1E
100
AcDbEntity
  8
STEMPEL
100
AcDbLine
 10
121.7252240901941
 20
243.9176734484247
 30
0.0
 11
118.4503141365563
 21
240.642763494787
 31
0.0
  0
LINE
  5
5F6
330
1E
100
AcDbEntity
  8
MITTEL
100
AcDbLine
 10
152.9413094296366
 20
231.4345597105386
 30
0.0
 11
105.2246207081052
 21
183.7178709890071
 31
0.0
  0
ARC
  5
5F7
330
1E
100
AcDbEntity
  8
STEMPEL
100
AcDbCircle
 10
138.5511164941506
 20
192.4370507897608
 30
0.0
 40
11.5
100
AcDbArc
 50
286.2733946518593
 51
315.0
  0
LINE
  5
5F9
330
1E
100
AcDbEntity
  8
STEMPEL
100
AcDbLine
 10
138.3585715926359
 20
179.3751624706507
 30
0.0
 11
134.6535528962398
 21
175.6701437742546
 31
0.0
  0
ARC
  5
5FA
330
1E
100
AcDbEntity
  8
STEMPEL
100
AcDbCircle
 10
144.0154258421283
 20
173.7183082211584
 30
0.0
 40
8.0
100
AcDbArc
 50
106.2733946518593
 51
135.0000000000004
  0
ARC
  5
5FB
330
1E
100
AcDbEntity
  8
STEMPEL
100
AcDbCircle
 10
144.8534220664248
 20
214.2957055481391
 30
0.0
 40
24.5000320571282
100
AcDbArc
 50
295.5369005553109
 51
315.0946380447966
  0
LINE
  5
5FC
330
1E
100
AcDbEntity
  8
STEMPEL
100
AcDbLine
 10
152.5170453609246
 20
190.1395236892442
 30
0.0
 11
146.6828444777959
 21
184.3053228061154
 31
0.0
  0
ARC
  5
5FD
330
1E
100
AcDbEntity
  8
STEMPEL
100
AcDbCircle
 10
159.9416665633833
 20
182.7149024867854
 30
0.0
 40
10.5
100
AcDbArc
 50
115.5369005553108
 51
135.0
  0
ARC
  5
5FE
330
1E
100
AcDbEntity
  8
STEMPEL
100
AcDbCircle
 10
151.9893943249783
 20
213.6535032136406
 30
0.0
 40
19.0
100
AcDbArc
 50
315.0
 51
340.7223864921892
  0
LINE
  5
5FF
330
1E
100
AcDbEntity
  8
STEMPEL
100
AcDbLine
 10
165.4244231675227
 20
200.2184743710962
 30
0.0
 11
162.1495132138849
 21
196.9435644174583
 31
0.0
  0
ARC
  5
711
330
1E
100
AcDbEntity
  8
SCHRAFF
100
AcDbCircle
 10
93.35734310232174
 20
214.4979085987401
 30
0.0
 40
5.0
100
AcDbArc
 50
292.9218215217976
 51
340.0781784782004
  0
ARC
  5
714
330
1E
100
AcDbEntity
  8
SCHRAFF
100
AcDbCircle
 10
104.237958667506
 20
204.1725899633337
 30
0.0
 40
5.0
100
AcDbArc
 50
292.921821521798
 51
340.0781784782006
  0
ARC
  5
715
330
1E
100
AcDbEntity
  8
SCHRAFF
100
AcDbCircle
 10
96.98421495738317
 20
211.0561357202713
 30
0.0
 40
5.0
100
AcDbArc
 50
292.9218215217976
 51
340.0781784782004
  0
ARC
  5
716
330
1E
100
AcDbEntity
  8
SCHRAFF
100
AcDbCircle
 10
100.6110868124446
 20
207.6143628418025
 30
0.0
 40
5.0
100
AcDbArc
 50
292.921821521798
 51
340.0781784782006
  0
ARC
  5
717
330
1E
100
AcDbEntity
  8
SCHRAFF
100
AcDbCircle
 10
107.8648305225674
 20
200.730817084865
 30
0.0
 40
5.0
100
AcDbArc
 50
292.921821521798
 51
340.0781784782006
  0
ARC
  5
718
330
1E
100
AcDbEntity
  8
SCHRAFF
100
AcDbCircle
 10
111.4917023776289
 20
197.2890442063961
 30
0.0
 40
5.0
100
AcDbArc
 50
292.921821521798
 51
340.0781784782006
  0
ARC
  5
719
330
1E
100
AcDbEntity
  8
SCHRAFF
100
AcDbCircle
 10
115.1185742326903
 20
193.8472713279274
 30
0.0
 40
5.0
100
AcDbArc
 50
292.921821521798
 51
340.0781784782006
  0
ARC
  5
71C
330
1E
100
AcDbEntity
  8
SCHRAFF
100
AcDbCircle
 10
122.3723179428132
 20
186.9637255709899
 30
0.0
 40
5.0
100
AcDbArc
 50
292.921821521798
 51
340.0781784782006
  0
ARC
  5
71D
330
1E
100
AcDbEntity
  8
SCHRAFF
100
AcDbCircle
 10
129.6260616529361
 20
180.0801798140523
 30
0.0
 40
5.0
100
AcDbArc
 50
292.921821521798
 51
340.0781784782006
  0
ARC
  5
71E
330
1E
100
AcDbEntity
  8
SCHRAFF
100
AcDbCircle
 10
125.9991897978746
 20
183.5219526925211
 30
0.0
 40
5.0
100
AcDbArc
 50
292.921821521798
 51
340.0781784782006
  0
ARC
  5
71F
330
1E
100
AcDbEntity
  8
SCHRAFF
100
AcDbCircle
 10
118.7454460877517
 20
190.4054984494586
 30
0.0
 40
5.0
100
AcDbArc
 50
292.921821521798
 51
340.0781784782006
  0
ARC
  5
75F
330
1E
100
AcDbEntity
  8
MITTEL
100
AcDbCircle
 10
141.7246207081052
 20
168.5990759623892
 30
0.0
 40
36.5
100
AcDbArc
 50
134.9999999999999
 51
180.0
  0
ARC
  5
760
330
1E
100
AcDbEntity
  8
STEMPEL
100
AcDbCircle
 10
141.7246207081052
 20
168.5990759623892
 30
0.0
 40
63.0
100
AcDbArc
 50
135.0000000000002
 51
180.0
  0
ARC
  5
761
102
{ACAD_REACTORS
330
770
102
}
330
1E
100
AcDbEntity
  8
STEMPEL
100
AcDbCircle
 10
141.7246207081052
 20
168.5990759623892
 30
0.0
 40
10.0
100
AcDbArc
 50
124.9630409671845
 51
180.0
  0
LINE
  5
764
330
1E
100
AcDbEntity
  8
STEMPEL
100
AcDbLine
 10
96.02603533433111
 20
211.9654142310958
 30
0.0
 11
134.4708769979823
 21
175.4826217193268
 31
0.0
  0
ARC
  5
767
330
1E
100
AcDbEntity
  8
SCHRAFF
100
AcDbCircle
 10
96.85320224167101
 20
211.1804621452711
 30
0.0
 40
2.286688209350645
100
AcDbArc
 50
75.49909926170933
 51
197.5009007382902
  0
HATCH
  5
76C
330
1E
100
AcDbEntity
  8
SCHRAFF
100
AcDbHatch
 10
0.0
 20
0.0
 30
0.0
210
0.0
220
0.0
230
1.0
  2
_USER
 70
     0
 71
     0
 91
        1
 92
        7
 72
     1
 73
     1
 93
        2
 10
97.42577804835823
 20
213.3943049383302
 42
0.5890556042571715
 10
94.67235974558319
 20
210.492807454281
 42
-0.0158770171376698
 97
        0
 75
     0
 76
     0
 52
0.0
 41
0.1
 77
     0
 78
     1
 53
0.0
 43
11.29309847988475
 44
-1.187905716370096
 45
0.0
 46
0.1
 79
     0
 47
0.0293500081751935
 98
        1
 10
95.41824257422149
 20
212.2489904770592
  0
ARC
  5
76D
102
{ACAD_REACTORS
330
770
102
}
330
1E
100
AcDbEntity
  8
SCHRAFF
100
AcDbCircle
 10
133.674318247718
 20
176.2385277486342
 30
0.0
 40
2.385467850311166
100
AcDbArc
 50
259.527405964495
 51
13.47259403550607
  0
HATCH
  5
770
330
1E
100
AcDbEntity
  8
SCHRAFF
100
AcDbHatch
 10
0.0
 20
0.0
 30
0.0
210
0.0
220
0.0
230
1.0
  2
_USER
 70
     0
 71
     1
 91
        1
 92
        7
 72
     1
 73
     1
 93
        2
 10
135.9941415336031
 20
176.7942945946527
 42
0.1010205144336485
 10
133.240723230828
 20
173.8927971106034
 42
0.5426460724641307
 97
        2
330
761
330
76D
 75
     0
 76
     0
 52
0.0
 41
0.1
 77
     0
 78
     1
 53
0.0
 43
11.29309847988475
 44
-1.187905716370096
 45
0.0
 46
0.1
 79
     0
 47
0.0269982625631785
 98
        1
 10
134.5083243688825
 20
174.6365111553414
  0
TEXT
  5
7BE
330
1E
100
AcDbEntity
  8
TEXT
100
AcDbText
 10
117.5648195562657
 20
30.75167208792646
 30
0.0
 40
2.5
  1
dünnwandig
 41
0.8
  7
GREEKS
100
AcDbText
  0
DIMENSION
  5
820
330
1E
100
AcDbEntity
  8
BEM
100
AcDbDimension
  2
*D5
 10
105.2246207081052
 20
99.71628264748233
 30
0.0
 11
127.364141589224
 21
237.1674025646464
 31
0.0
 70
    34
 71
     5
 42
0.7853981633974479
  3
Standard
100
AcDb2LineAngularDimension
 13
152.9413094296366
 23
231.4345597105386
 33
0.0
 14
105.2246207081052
 24
183.7178709890071
 34
0.0
 15
105.2246207081052
 25
183.7178709890071
 35
0.0
 16
132.5262987514822
 26
231.0057644920237
 36
0.0
1001
ACAD
1000
DSTYLE
1002
{
1070
    41
1040
3.5
1070
    42
1040
1.0
1070
    43
1040
7.0
1070
    44
1040
1.0
1070
    73
1070
     0
1070
    74
1070
     0
1070
    77
1070
     1
1070
    78
1070
     8
1070
    79
1070
     2
1070
   140
1040
3.5
1070
   141
1040
1.5
1070
   146
1040
0.5142857142857144
1070
   147
1040
1.5
1070
   172
1070
     1
1070
   178
1070
     1
1070
   179
1070
     2
1070
   271
1070
     2
1070
   272
1070
     2
1070
   284
1070
     8
1070
   285
1070
     8
1070
   286
1070
     8
1002
}
  0
DIMENSION
  5
86A
330
1E
100
AcDbEntity
  8
BEM
100
AcDbDimension
  2
*D7
 10
141.7246207081053
 20
168.5990759623892
 30
0.0
 11
119.6969875125043
 21
172.2816231213325
 31
0.0
 70
   164
 71
     5
 42
36.5000000000001
 51
314.9999999999999
  3
Standard
100
AcDbRadialDimension
 15
105.7242351123098
 25
174.617567214692
 35
0.0
 40
0.0
1001
ACAD
1000
DSTYLE
1002
{
1070
    41
1040
3.5
1070
    42
1040
1.0
1070
    43
1040
7.0
1070
    44
1040
1.0
1070
    73
1070
     0
1070
    74
1070
     0
1070
    77
1070
     1
1070
    78
1070
     8
1070
    79
1070
     2
1070
   140
1040
3.5
1070
   141
1040
1.5
1070
   146
1040
0.5142857142857144
1070
   147
1040
1.5
1070
   172
1070
     1
1070
   178
1070
     1
1070
   179
1070
     2
1070
   271
1070
     2
1070
   272
1070
     2
1070
   284
1070
     8
1070
   285
1070
     8
1070
   286
1070
     8
1070
   288
1070
     1
1002
}
  0
TEXT
  5
8D5
330
1E
100
AcDbEntity
  8
BEM
100
AcDbText
 10
208.2905770718718
 20
6.074024076691515
 30
0.0
 40
2.0
  1
Diese Zeichnung ist urheberrechtlich geschützt und bleibt unser Eigentum. Sie darf weder ganz noch teilweise vervielfältigt und nicht an Dritte weitergegeben werden.
 50
90.0
 41
0.8
  7
GREEKS
100
AcDbText
  0
TEXT
  5
8D6
330
1E
100
AcDbEntity
  8
TEXT
100
AcDbText
 10
96.34413576239619
 20
44.50323185339641
 30
0.0
 40
2.0
  1
DIN EN1124-3
 41
0.8
  7
GREEKS
 72
     1
 11
104.8393738576343
 21
44.50323185339641
 31
0.0
100
AcDbText
  0
TEXT
  5
8D7
330
1E
100
AcDbEntity
  8
TEXT
100
AcDbText
 10
64.61958341495059
 20
9.29662108483204
 30
0.0
 40
2.0
  1
Name
 41
0.8
  7
GREEKS
 72
     1
 11
67.78148817685536
 21
9.29662108483204
 31
0.0
100
AcDbText
  0
TEXT
  5
8D8
330
1E
100
AcDbEntity
  8
TEXT
100
AcDbText
 10
55.17481598333814
 20
9.33578134669905
 30
0.0
 40
2.0
  1
Tag
 41
0.8
  7
GREEKS
 72
     1
 11
57.04148265000481
 21
9.33578134669905
 31
0.0
100
AcDbText
  0
TEXT
  5
8D9
330
1E
100
AcDbEntity
  8
TEXT
100
AcDbText
 10
33.49933939241158
 20
9.336909474920659
 30
0.0
 40
2.0
  1
Änderung
 41
0.8
  7
GREEKS
 72
     1
 11
38.87076796384015
 21
9.336909474920659
 31
0.0
100
AcDbText
  0
TEXT
  5
8F6
330
1E
100
AcDbEntity
  8
TEXT
100
AcDbText
 10
85.71451608641273
 20
31.64705471637638
 30
0.0
 40
2.12
  1
11.04.
 41
0.8
  7
GREEKS
 72
     1
 11
89.10651608641272
 21
31.64705471637638
 31
0.0
100
AcDbText
  0
ENDSEC
  0
SECTION
  2
OBJECTS
  0
DICTIONARY
  5
C
330
0
100
AcDbDictionary
281
     1
  3
ACAD_COLOR
350
87F
  3
ACAD_GROUP
350
D
  3
ACAD_LAYOUT
350
19
  3
ACAD_MATERIAL
350
87E
  3
ACAD_MLINESTYLE
350
16
  3
ACAD_PLOTSETTINGS
350
18
  3
ACAD_PLOTSTYLENAME
350
E
  3
AcDbVariableDictionary
350
246
  0
DICTIONARY
  5
87F
102
{ACAD_REACTORS
330
C
102
}
330
C
100
AcDbDictionary
281
     1
  0
DICTIONARY
  5
D
102
{ACAD_REACTORS
330
C
102
}
330
C
100
AcDbDictionary
281
     1
  0
DICTIONARY
  5
19
102
{ACAD_REACTORS
330
C
102
}
330
C
100
AcDbDictionary
281
     1
  3
Layout1
350
1D
  3
Model
350
21
  0
DICTIONARY
  5
87E
102
{ACAD_REACTORS
330
C
102
}
330
C
100
AcDbDictionary
281
     1
  0
DICTIONARY
  5
16
102
{ACAD_REACTORS
330
C
102
}
330
C
100
AcDbDictionary
281
     1
  3
Standard
350
17
  0
DICTIONARY
  5
18
102
{ACAD_REACTORS
330
C
102
}
330
C
100
AcDbDictionary
281
     1
  0
ACDBDICTIONARYWDFLT
  5
E
102
{ACAD_REACTORS
330
C
102
}
330
C
100
AcDbDictionary
281
     1
  3
Normal
350
F
100
AcDbDictionaryWithDefault
340
F
  0
DICTIONARY
  5
246
102
{ACAD_REACTORS
330
C
102
}
330
C
100
AcDbDictionary
281
     1
  3
DIMASSOC
350
8E2
  3
PROJECTNAME
350
8E3
  3
SORTENTS
350
247
  0
LAYOUT
  5
1D
102
{ACAD_REACTORS
330
19
102
}
330
19
100
AcDbPlotSettings
  1

  2
Tektronix Phaser 740
  4

  6

 40
0.0
 41
0.0
 42
0.0
 43
0.0
 44
0.0
 45
0.0
 46
0.0
 47
0.0
 48
0.0
 49
0.0
140
0.0
141
0.0
142
1.0
143
1.0
 70
   688
 72
     0
 73
     0
 74
     5
  7
monochrome.ctb
 75
    16
147
1.0
 76
     0
 77
     2
 78
   300
148
0.0
149
0.0
100
AcDbLayout
  1
Layout1
 70
     0
 71
     1
 10
0.0
 20
0.0
 11
12.0
 21
9.0
 12
0.0
 22
0.0
 32
0.0
 14
1.000000000000000E+20
 24
1.000000000000000E+20
 34
1.000000000000000E+20
 15
-1.000000000000000E+20
 25
-1.000000000000000E+20
 35
-1.000000000000000E+20
146
0.0
 13
0.0
 23
0.0
 33
0.0
 16
1.0
 26
0.0
 36
0.0
 17
0.0
 27
1.0
 37
0.0
 76
     0
330
1A
  0
LAYOUT
  5
21
102
{ACAD_REACTORS
330
19
102
}
330
19
100
AcDbPlotSettings
  1

  2
Tektronix Phaser 740
  4
A4
  6

 40
5.873749732971191
 41
6.085414409637451
 42
5.577407836914062
 43
5.662078857421875
 44
209.9733276367187
 45
296.9683227539062
 46
0.0
 47
0.0
 48
0.0
 49
0.0
140
0.0
141
0.0
142
1.0
143
1.0
 70
 11952
 72
     0
 73
     1
 74
     0
  7
monochrome.ctb
 75
     0
147
1.0
 76
     0
 77
     2
 78
   300
148
1150.120678237584
149
45.30495740799864
100
AcDbLayout
  1
Model
 70
     1
 71
     0
 10
0.0
 20
0.0
 11
12.0
 21
9.0
 12
0.0
 22
0.0
 32
0.0
 14
0.0
 24
0.0
 34
0.0
 15
0.0
 25
0.0
 35
0.0
146
0.0
 13
0.0
 23
0.0
 33
0.0
 16
1.0
 26
0.0
 36
0.0
 17
0.0
 27
1.0
 37
0.0
 76
     0
330
1E
  0
MLINESTYLE
  5
17
102
{ACAD_REACTORS
330
16
102
}
330
16
100
AcDbMlineStyle
  2
STANDARD
 70
     0
  3

 62
   256
 51
90.0
 52
90.0
 71
     2
 49
0.5
 62
   256
  6
BYLAYER
 49
-0.5
 62
   256
  6
BYLAYER
  0
ACDBPLACEHOLDER
  5
F
102
{ACAD_REACTORS
330
E
102
}
330
E
  0
DICTIONARYVAR
  5
8E2
102
{ACAD_REACTORS
330
246
102
}
330
246
100
DictionaryVariables
280
     0
  1
1
  0
DICTIONARYVAR
  5
8E3
102
{ACAD_REACTORS
330
246
102
}
330
246
100
DictionaryVariables
280
     0
  1

  0
DICTIONARYVAR
  5
247
102
{ACAD_REACTORS
330
246
102
}
330
246
100
DictionaryVariables
280
     0
  1
96
  0
ENDSEC
  0
EOF
