  0
SECTION
  2
HEADER
  9
$ACADVER
  1
AC1018
  9
$ACADMAINTVER
 70
     2
  9
$DWGCODEPAGE
  3
ANSI_1252
  9
$INSBASE
 10
0.0
 20
0.0
 30
0.0
  9
$EXTMIN
 10
-0.0192082752314491
 20
-0.0271659892566731
 30
-0.0000000000000019
  9
$EXTMAX
 10
420.0192346800471
 20
594.0272033332087
 30
0.0000000000000133
  9
$LIMMIN
 10
0.0
 20
0.0
  9
$LIMMAX
 10
419.9999999999999
 20
594.0
  9
$ORTHOMODE
 70
     0
  9
$REGENMODE
 70
     1
  9
$FILLMODE
 70
     1
  9
$QTEXTMODE
 70
     0
  9
$MIRRTEXT
 70
     1
  9
$LTSCALE
 40
20.0
  9
$ATTMODE
 70
     1
  9
$TEXTSIZE
 40
3.5
  9
$TRACEWID
 40
0.5
  9
$TEXTSTYLE
  7
STANDARD
  9
$CLAYER
  8
BEM
  9
$CELTYPE
  6
ByLayer
  9
$CECOLOR
 62
   256
  9
$CELTSCALE
 40
1.0
  9
$DISPSILH
 70
     0
  9
$DIMSCALE
 40
2.0
  9
$DIMASZ
 40
3.5
  9
$DIMEXO
 40
1.0
  9
$DIMDLI
 40
7.0
  9
$DIMRND
 40
0.0
  9
$DIMDLE
 40
0.0
  9
$DIMEXE
 40
1.0
  9
$DIMTP
 40
0.0
  9
$DIMTM
 40
0.0
  9
$DIMTXT
 40
3.5
  9
$DIMCEN
 40
1.5
  9
$DIMTSZ
 40
0.0
  9
$DIMTOL
 70
     0
  9
$DIMLIM
 70
     0
  9
$DIMTIH
 70
     0
  9
$DIMTOH
 70
     0
  9
$DIMSE1
 70
     0
  9
$DIMSE2
 70
     0
  9
$DIMTAD
 70
     1
  9
$DIMZIN
 70
     8
  9
$DIMBLK
  1

  9
$DIMASO
 70
     1
  9
$DIMSHO
 70
     0
  9
$DIMPOST
  1

  9
$DIMAPOST
  1

  9
$DIMALT
 70
     0
  9
$DIMALTD
 70
     2
  9
$DIMALTF
 40
25.4
  9
$DIMLFAC
 40
1.0
  9
$DIMTOFL
 70
     1
  9
$DIMTVP
 40
0.0
  9
$DIMTIX
 70
     0
  9
$DIMSOXD
 70
     0
  9
$DIMSAH
 70
     0
  9
$DIMBLK1
  1

  9
$DIMBLK2
  1

  9
$DIMSTYLE
  2
Standard
  9
$DIMCLRD
 70
     0
  9
$DIMCLRE
 70
     0
  9
$DIMCLRT
 70
     1
  9
$DIMTFAC
 40
0.5142857142857144
  9
$DIMGAP
 40
1.5
  9
$DIMJUST
 70
     0
  9
$DIMSD1
 70
     0
  9
$DIMSD2
 70
     0
  9
$DIMTOLJ
 70
     1
  9
$DIMTZIN
 70
     8
  9
$DIMALTZ
 70
     8
  9
$DIMALTTZ
 70
     8
  9
$DIMUPT
 70
     0
  9
$DIMDEC
 70
     2
  9
$DIMTDEC
 70
     2
  9
$DIMALTU
 70
     2
  9
$DIMALTTD
 70
     2
  9
$DIMTXSTY
  7
STANDARD
  9
$DIMAUNIT
 70
     0
  9
$DIMADEC
 70
     2
  9
$DIMALTRND
 40
0.0
  9
$DIMAZIN
 70
     2
  9
$DIMDSEP
 70
    46
  9
$DIMATFIT
 70
     3
  9
$DIMFRAC
 70
     0
  9
$DIMLDRBLK
  1

  9
$DIMLUNIT
 70
     2
  9
$DIMLWD
 70
    -2
  9
$DIMLWE
 70
    -2
  9
$DIMTMOVE
 70
     0
  9
$LUNITS
 70
     2
  9
$LUPREC
 70
     2
  9
$SKETCHINC
 40
1.0
  9
$FILLETRAD
 40
70.0
  9
$AUNITS
 70
     1
  9
$AUPREC
 70
     3
  9
$MENU
  1
ACAD
  9
$ELEVATION
 40
0.0
  9
$PELEVATION
 40
0.0
  9
$THICKNESS
 40
0.0
  9
$LIMCHECK
 70
     0
  9
$CHAMFERA
 40
0.0
  9
$CHAMFERB
 40
0.0
  9
$CHAMFERC
 40
0.0
  9
$CHAMFERD
 40
0.0
  9
$SKPOLY
 70
     0
  9
$TDCREATE
 40
2452040.637099653
  9
$TDUCREATE
 40
2452040.553766320
  9
$TDUPDATE
 40
2455446.496487998
  9
$TDUUPDATE
 40
2455446.413154664
  9
$TDINDWG
 40
0.2985634722
  9
$TDUSRTIMER
 40
0.2985634722
  9
$USRTIMER
 70
     1
  9
$ANGBASE
 50
0.0
  9
$ANGDIR
 70
     0
  9
$PDMODE
 70
     0
  9
$PDSIZE
 40
0.0
  9
$PLINEWID
 40
0.0
  9
$SPLFRAME
 70
     0
  9
$SPLINETYPE
 70
     6
  9
$SPLINESEGS
 70
     8
  9
$HANDSEED
  5
1534
  9
$SURFTAB1
 70
     6
  9
$SURFTAB2
 70
     6
  9
$SURFTYPE
 70
     6
  9
$SURFU
 70
     6
  9
$SURFV
 70
     6
  9
$UCSBASE
  2

  9
$UCSNAME
  2

  9
$UCSORG
 10
0.0
 20
0.0
 30
0.0
  9
$UCSXDIR
 10
1.0
 20
0.0
 30
0.0
  9
$UCSYDIR
 10
0.0
 20
1.0
 30
0.0
  9
$UCSORTHOREF
  2

  9
$UCSORTHOVIEW
 70
     0
  9
$UCSORGTOP
 10
0.0
 20
0.0
 30
0.0
  9
$UCSORGBOTTOM
 10
0.0
 20
0.0
 30
0.0
  9
$UCSORGLEFT
 10
0.0
 20
0.0
 30
0.0
  9
$UCSORGRIGHT
 10
0.0
 20
0.0
 30
0.0
  9
$UCSORGFRONT
 10
0.0
 20
0.0
 30
0.0
  9
$UCSORGBACK
 10
0.0
 20
0.0
 30
0.0
  9
$PUCSBASE
  2

  9
$PUCSNAME
  2

  9
$PUCSORG
 10
0.0
 20
0.0
 30
0.0
  9
$PUCSXDIR
 10
1.0
 20
0.0
 30
0.0
  9
$PUCSYDIR
 10
0.0
 20
1.0
 30
0.0
  9
$PUCSORTHOREF
  2

  9
$PUCSORTHOVIEW
 70
     0
  9
$PUCSORGTOP
 10
0.0
 20
0.0
 30
0.0
  9
$PUCSORGBOTTOM
 10
0.0
 20
0.0
 30
0.0
  9
$PUCSORGLEFT
 10
0.0
 20
0.0
 30
0.0
  9
$PUCSORGRIGHT
 10
0.0
 20
0.0
 30
0.0
  9
$PUCSORGFRONT
 10
0.0
 20
0.0
 30
0.0
  9
$PUCSORGBACK
 10
0.0
 20
0.0
 30
0.0
  9
$USERI1
 70
     0
  9
$USERI2
 70
     0
  9
$USERI3
 70
     0
  9
$USERI4
 70
     0
  9
$USERI5
 70
     0
  9
$USERR1
 40
0.0
  9
$USERR2
 40
0.0
  9
$USERR3
 40
0.0
  9
$USERR4
 40
0.0
  9
$USERR5
 40
0.0
  9
$WORLDVIEW
 70
     1
  9
$SHADEDGE
 70
     3
  9
$SHADEDIF
 70
    70
  9
$TILEMODE
 70
     1
  9
$MAXACTVP
 70
    16
  9
$PINSBASE
 10
0.0
 20
0.0
 30
0.0
  9
$PLIMCHECK
 70
     0
  9
$PEXTMIN
 10
1.000000000000000E+20
 20
1.000000000000000E+20
 30
1.000000000000000E+20
  9
$PEXTMAX
 10
-1.000000000000000E+20
 20
-1.000000000000000E+20
 30
-1.000000000000000E+20
  9
$PLIMMIN
 10
0.0
 20
0.0
  9
$PLIMMAX
 10
12.0
 20
9.0
  9
$UNITMODE
 70
     0
  9
$VISRETAIN
 70
     0
  9
$PLINEGEN
 70
     0
  9
$PSLTSCALE
 70
     0
  9
$TREEDEPTH
 70
  3020
  9
$CMLSTYLE
  2
Standard
  9
$CMLJUST
 70
     0
  9
$CMLSCALE
 40
1.0
  9
$PROXYGRAPHICS
 70
     1
  9
$MEASUREMENT
 70
     0
  9
$CELWEIGHT
370
    -1
  9
$ENDCAPS
280
     0
  9
$JOINSTYLE
280
     0
  9
$LWDISPLAY
290
     0
  9
$INSUNITS
 70
     0
  9
$HYPERLINKBASE
  1

  9
$STYLESHEET
  1
monochrome1.ctb
  9
$XEDIT
290
     1
  9
$CEPSNTYPE
380
     0
  9
$PSTYLEMODE
290
     1
  9
$FINGERPRINTGUID
  2
{7AADB5C8-6110-11D8-B72B-000102183313}
  9
$VERSIONGUID
  2
{091D76FC-9877-468B-A9EB-B7878BA09E06}
  9
$EXTNAMES
290
     1
  9
$PSVPSCALE
 40
0.0
  9
$OLESTARTUP
290
     0
  9
$SORTENTS
280
    96
  9
$INDEXCTL
280
     0
  9
$HIDETEXT
280
     0
  9
$XCLIPFRAME
290
     0
  9
$HALOGAP
280
     0
  9
$OBSCOLOR
 70
   257
  9
$OBSLTYPE
280
     0
  9
$INTERSECTIONDISPLAY
280
     0
  9
$INTERSECTIONCOLOR
 70
   257
  9
$DIMASSOC
280
     1
  9
$PROJECTNAME
  1

  0
ENDSEC
  0
SECTION
  2
CLASSES
  0
CLASS
  1
ACDBDICTIONARYWDFLT
  2
AcDbDictionaryWithDefault
  3
ObjectDBX Classes
 90
        0
 91
        1
280
     0
281
     0
  0
CLASS
  1
DICTIONARYVAR
  2
AcDbDictionaryVar
  3
ObjectDBX Classes
 90
        0
 91
        3
280
     0
281
     0
  0
ENDSEC
  0
SECTION
  2
TABLES
  0
TABLE
  2
VPORT
  5
8
330
0
100
AcDbSymbolTable
 70
     2
  0
VPORT
  5
1533
330
8
100
AcDbSymbolTableRecord
100
AcDbViewportTableRecord
  2
*Active
 70
     0
 10
0.0
 20
0.0
 11
1.0
 21
1.0
 12
210.0000132024078
 22
297.000018671976
 13
0.0
 23
0.0
 14
1.0
 24
1.0
 15
10.0
 25
10.0
 16
0.0
 26
0.0
 36
1.0
 17
0.0
 27
0.0
 37
0.0
 40
598.8515782268191
 41
1.336927223719676
 42
50.0
 43
0.0
 44
0.0
 50
0.0
 51
0.0
 71
     0
 72
  1500
 73
     1
 74
     0
 75
     0
 76
     0
 77
     0
 78
     0
281
     0
 65
     1
110
0.0
120
0.0
130
0.0
111
1.0
121
0.0
131
0.0
112
0.0
122
1.0
132
0.0
 79
     0
146
0.0
  0
ENDTAB
  0
TABLE
  2
LTYPE
  5
5
330
0
100
AcDbSymbolTable
 70
     2
  0
LTYPE
  5
13
330
5
100
AcDbSymbolTableRecord
100
AcDbLinetypeTableRecord
  2
ByBlock
 70
     0
  3

 72
    65
 73
     0
 40
0.0
  0
LTYPE
  5
14
330
5
100
AcDbSymbolTableRecord
100
AcDbLinetypeTableRecord
  2
ByLayer
 70
     0
  3

 72
    65
 73
     0
 40
0.0
  0
LTYPE
  5
15
330
5
100
AcDbSymbolTableRecord
100
AcDbLinetypeTableRecord
  2
Continuous
 70
     0
  3
Solid line
 72
    65
 73
     0
 40
0.0
  0
LTYPE
  5
35
330
5
100
AcDbSymbolTableRecord
100
AcDbLinetypeTableRecord
  2
STRICHPUNKT
 70
     0
  3
__ . __ . __ . __ . __ . __ . __ . __ . __ . __
 72
    65
 73
     4
 40
1.0
 49
0.5
 74
     0
 49
-0.25
 74
     0
 49
0.0
 74
     0
 49
-0.25
 74
     0
  0
ENDTAB
  0
TABLE
  2
LAYER
  5
2
330
0
100
AcDbSymbolTable
 70
     9
  0
LAYER
  5
10
330
2
100
AcDbSymbolTableRecord
100
AcDbLayerTableRecord
  2
0
 70
     0
 62
     7
  6
Continuous
370
    -3
390
F
  0
LAYER
  5
38
330
2
100
AcDbSymbolTableRecord
100
AcDbLayerTableRecord
  2
VOLL
 70
     0
 62
     1
  6
Continuous
370
    -3
390
F
  0
LAYER
  5
39
330
2
100
AcDbSymbolTableRecord
100
AcDbLayerTableRecord
  2
HILF
 70
     0
 62
     2
  6
Continuous
370
    -3
390
F
  0
LAYER
  5
3A
330
2
100
AcDbSymbolTableRecord
100
AcDbLayerTableRecord
  2
MITTEL
 70
     0
 62
     2
  6
STRICHPUNKT
370
    -3
390
F
  0
LAYER
  5
3B
330
2
100
AcDbSymbolTableRecord
100
AcDbLayerTableRecord
  2
BEM
 70
     0
 62
     7
  6
Continuous
370
    -3
390
F
  0
LAYER
  5
3C
330
2
100
AcDbSymbolTableRecord
100
AcDbLayerTableRecord
  2
STEMPEL
 70
     0
 62
     3
  6
Continuous
370
    -3
390
F
  0
LAYER
  5
3D
330
2
100
AcDbSymbolTableRecord
100
AcDbLayerTableRecord
  2
TEXT
 70
     0
 62
     7
  6
Continuous
370
    -3
390
F
  0
LAYER
  5
3E
330
2
100
AcDbSymbolTableRecord
100
AcDbLayerTableRecord
  2
DEFPOINTS
 70
     0
 62
     7
  6
Continuous
290
     0
370
    -3
390
F
  0
LAYER
  5
3F
330
2
100
AcDbSymbolTableRecord
100
AcDbLayerTableRecord
  2
SCHRAFF
 70
     0
 62
     7
  6
Continuous
370
    -3
390
F
  0
ENDTAB
  0
TABLE
  2
STYLE
  5
3
330
0
100
AcDbSymbolTable
 70
     2
  0
STYLE
  5
11
330
3
100
AcDbSymbolTableRecord
100
AcDbTextStyleTableRecord
  2
STANDARD
 70
     0
 40
0.0
 41
0.8
 50
0.0
 71
     0
 42
3.5
  3
simplex.shx
  4

  0
STYLE
  5
34
330
3
100
AcDbSymbolTableRecord
100
AcDbTextStyleTableRecord
  2
GREEKS
 70
     0
 40
0.0
 41
0.8
 50
0.0
 71
     0
 42
2.5
  3
SIMPLEX.shx
  4

  0
ENDTAB
  0
TABLE
  2
VIEW
  5
6
330
0
100
AcDbSymbolTable
 70
     0
  0
ENDTAB
  0
TABLE
  2
UCS
  5
7
330
0
100
AcDbSymbolTable
 70
     0
  0
ENDTAB
  0
TABLE
  2
APPID
  5
9
330
0
100
AcDbSymbolTable
 70
     2
  0
APPID
  5
12
330
9
100
AcDbSymbolTableRecord
100
AcDbRegAppTableRecord
  2
ACAD
 70
     0
  0
APPID
  5
DDB
330
9
100
AcDbSymbolTableRecord
100
AcDbRegAppTableRecord
  2
AVE_RENDER
 70
     0
  0
ENDTAB
  0
TABLE
  2
DIMSTYLE
  5
A
330
0
100
AcDbSymbolTable
 70
     1
100
AcDbDimStyleTable
 71
     1
340
1CB
  0
DIMSTYLE
105
1CB
102
{ACAD_REACTORS
330
11FC
330
11FE
330
126D
330
127A
330
12FD
330
14FA
102
}
330
A
100
AcDbSymbolTableRecord
100
AcDbDimStyleTableRecord
  2
Standard
 70
     0
340
11
  0
ENDTAB
  0
TABLE
  2
BLOCK_RECORD
  5
1
330
0
100
AcDbSymbolTable
 70
     7
  0
BLOCK_RECORD
  5
1E
330
1
100
AcDbSymbolTableRecord
100
AcDbBlockTableRecord
  2
*Model_Space
340
21
  0
BLOCK_RECORD
  5
1A
330
1
100
AcDbSymbolTableRecord
100
AcDbBlockTableRecord
  2
*Paper_Space
340
1D
  0
BLOCK_RECORD
  5
22
330
1
100
AcDbSymbolTableRecord
100
AcDbBlockTableRecord
  2
LOGO
340
0
102
{BLKREFS
331
135
102
}
  0
BLOCK_RECORD
  5
121F
330
1
100
AcDbSymbolTableRecord
100
AcDbBlockTableRecord
  2
*D1
340
0
  0
BLOCK_RECORD
  5
122B
330
1
100
AcDbSymbolTableRecord
100
AcDbBlockTableRecord
  2
*D2
340
0
  0
BLOCK_RECORD
  5
126E
330
1
100
AcDbSymbolTableRecord
100
AcDbBlockTableRecord
  2
*D3
340
0
  0
BLOCK_RECORD
  5
127B
330
1
100
AcDbSymbolTableRecord
100
AcDbBlockTableRecord
  2
*D4
340
0
  0
BLOCK_RECORD
  5
12FE
330
1
100
AcDbSymbolTableRecord
100
AcDbBlockTableRecord
  2
*D5
340
0
  0
BLOCK_RECORD
  5
14FB
330
1
100
AcDbSymbolTableRecord
100
AcDbBlockTableRecord
  2
*D6
340
0
  0
ENDTAB
  0
ENDSEC
  0
SECTION
  2
BLOCKS
  0
BLOCK
  5
43
330
1E
100
AcDbEntity
  8
0
100
AcDbBlockBegin
  2
*Model_Space
 70
     0
 10
0.0
 20
0.0
 30
0.0
  3
*Model_Space
  1

  0
ENDBLK
  5
44
330
1E
100
AcDbEntity
  8
0
100
AcDbBlockEnd
  0
BLOCK
  5
41
330
1A
100
AcDbEntity
 67
     1
  8
0
100
AcDbBlockBegin
  2
*Paper_Space
 70
     0
 10
0.0
 20
0.0
 30
0.0
  3
*Paper_Space
  1

  0
ENDBLK
  5
42
330
1A
100
AcDbEntity
 67
     1
  8
0
100
AcDbBlockEnd
  0
BLOCK
  5
45
330
22
100
AcDbEntity
  8
0
100
AcDbBlockBegin
  2
LOGO
 70
     0
 10
0.0
 20
0.0
 30
0.0
  3
LOGO
  1

  0
ARC
  5
46
330
22
100
AcDbEntity
  8
0
100
AcDbCircle
 10
11.59973089678112
 20
-9.271599258481501
 30
0.0
 40
4.5
100
AcDbArc
 50
270.0
 51
231.0575587310159
  0
LINE
  5
47
330
22
100
AcDbEntity
  8
0
100
AcDbLine
 10
3.599730896781125
 20
-4.771599258481529
 30
0.0
 11
3.599730896781153
 21
-11.77159925848133
 31
0.0
  0
LINE
  5
48
330
22
100
AcDbEntity
  8
0
100
AcDbLine
 10
2.599730896781125
 20
-4.771599258481529
 30
0.0
 11
2.599730896781153
 21
-11.77159925848133
 31
0.0
  0
CIRCLE
  5
49
330
22
100
AcDbEntity
  8
0
100
AcDbCircle
 10
11.59973089678112
 20
-9.271599258481501
 30
0.0
 40
3.5
  0
ARC
  5
4A
330
22
100
AcDbEntity
  8
0
100
AcDbCircle
 10
31.59973089678115
 20
-9.271599258481472
 30
0.0
 40
4.5
100
AcDbArc
 50
270.0
 51
231.0575587310182
  0
LINE
  5
4B
330
22
100
AcDbEntity
  8
0
100
AcDbLine
 10
17.59973089678112
 20
-4.771599258481472
 30
0.0
 11
17.59973089678115
 21
-13.77159925848147
 31
0.0
  0
ARC
  5
4C
330
22
100
AcDbEntity
  8
0
100
AcDbCircle
 10
22.59973089678116
 20
-7.271599258481472
 30
0.0
 40
2.5
100
AcDbArc
 50
293.1161887722295
 51
90.0
  0
CIRCLE
  5
4D
330
22
100
AcDbEntity
  8
0
100
AcDbCircle
 10
31.59973089678115
 20
-9.271599258481472
 30
0.0
 40
3.5
  0
ARC
  5
4E
330
22
100
AcDbEntity
  8
0
100
AcDbCircle
 10
4.599730896781153
 20
-11.77159925848133
 30
0.0
 40
1.0
100
AcDbArc
 50
180.0
 51
270.0
  0
ARC
  5
4F
330
22
100
AcDbEntity
  8
0
100
AcDbCircle
 10
4.599730896781153
 20
-11.77159925848133
 30
0.0
 40
2.0
100
AcDbArc
 50
179.9999999999992
 51
270.0
  0
LINE
  5
50
330
22
100
AcDbEntity
  8
0
100
AcDbLine
 10
11.59973089678115
 20
-13.77159925848144
 30
0.0
 11
4.599730896781153
 21
-13.77159925848147
 31
0.0
  0
LINE
  5
51
330
22
100
AcDbEntity
  8
0
100
AcDbLine
 10
8.771303772034769
 20
-12.77159925848136
 30
0.0
 11
4.599730896781153
 21
-12.77159925848133
 31
0.0
  0
LINE
  5
52
330
22
100
AcDbEntity
  8
0
100
AcDbLine
 10
31.59973089678115
 20
-13.77159925848147
 30
0.0
 11
23.6715276665056
 21
-13.77159925848144
 31
0.0
  0
LINE
  5
53
330
22
100
AcDbEntity
  8
0
100
AcDbLine
 10
23.56565672307022
 20
-9.51278021337896
 30
0.0
 11
24.4388546544846
 21
-12.77159925848144
 31
0.0
  0
LINE
  5
54
330
22
100
AcDbEntity
  8
0
100
AcDbLine
 10
22.59973089678116
 20
-9.771599258481472
 30
0.0
 11
18.59973089678112
 21
-9.771599258481472
 31
0.0
  0
LINE
  5
55
330
22
100
AcDbEntity
  8
0
100
AcDbLine
 10
18.59973089678115
 20
-13.77159925848144
 30
0.0
 11
17.59973089678115
 21
-13.77159925848144
 31
0.0
  0
LINE
  5
56
330
22
100
AcDbEntity
  8
0
100
AcDbLine
 10
18.59973089678115
 20
-9.771599258481472
 30
0.0
 11
18.59973089678115
 21
-13.77159925848144
 31
0.0
  0
LINE
  5
57
330
22
100
AcDbEntity
  8
0
100
AcDbLine
 10
22.59973089678116
 20
-9.771599258481472
 30
0.0
 11
23.67152766650562
 21
-13.77159925848147
 31
0.0
  0
ARC
  5
58
330
22
100
AcDbEntity
  8
0
100
AcDbCircle
 10
22.59973089678116
 20
-7.271599258481472
 30
0.0
 40
2.5
100
AcDbArc
 50
270.0
 51
270.0000000000007
  0
LINE
  5
59
330
22
100
AcDbEntity
  8
0
100
AcDbLine
 10
28.77130377203494
 20
-12.77159925848147
 30
0.0
 11
24.43885465448463
 21
-12.77159925848144
 31
0.0
  0
LINE
  5
5A
330
22
100
AcDbEntity
  8
0
100
AcDbLine
 10
3.599730896781125
 20
-4.771599258481472
 30
0.0
 11
2.599730896781125
 21
-4.771599258481472
 31
0.0
  0
LINE
  5
5B
330
22
100
AcDbEntity
  8
0
100
AcDbLine
 10
22.59973089678116
 20
-8.771599258481472
 30
0.0
 11
18.59973089678115
 21
-8.771599258481472
 31
0.0
  0
LINE
  5
5C
330
22
100
AcDbEntity
  8
0
100
AcDbLine
 10
22.59973089678116
 20
-5.771599258481472
 30
0.0
 11
18.59973089678115
 21
-5.771599258481472
 31
0.0
  0
LINE
  5
5D
330
22
100
AcDbEntity
  8
0
100
AcDbLine
 10
22.59973089678116
 20
-4.771599258481472
 30
0.0
 11
17.59973089678115
 21
-4.771599258481472
 31
0.0
  0
LINE
  5
5E
330
22
100
AcDbEntity
  8
0
100
AcDbLine
 10
18.59973089678115
 20
-5.771599258481472
 30
0.0
 11
18.59973089678115
 21
-8.771599258481472
 31
0.0
  0
ARC
  5
5F
330
22
100
AcDbEntity
  8
0
100
AcDbCircle
 10
22.59973089678116
 20
-7.271599258481472
 30
0.0
 40
1.5
100
AcDbArc
 50
270.0
 51
90.0
  0
ENDBLK
  5
60
330
22
100
AcDbEntity
  8
0
100
AcDbBlockEnd
  0
BLOCK
  5
1229
330
121F
100
AcDbEntity
  8
0
100
AcDbBlockBegin
  2
*D1
 70
     1
 10
0.0
 20
0.0
 30
0.0
  3
*D1
  1

  0
LINE
  5
13BF
330
121F
100
AcDbEntity
  8
BEM
 62
     0
370
    -2
100
AcDbLine
 10
131.5783892134969
 20
236.498365126304
 30
0.0
 11
131.5783892134969
 21
202.555762106515
 31
0.0
  0
LINE
  5
13C0
330
121F
100
AcDbEntity
  8
BEM
 62
     0
370
    -2
100
AcDbLine
 10
233.1783892134968
 20
236.4983651263035
 30
0.0
 11
233.1783892134968
 21
202.555762106515
 31
0.0
  0
LINE
  5
13C1
330
121F
100
AcDbEntity
  8
BEM
 62
     0
370
    -2
100
AcDbLine
 10
138.5783892134969
 20
204.555762106515
 30
0.0
 11
226.1783892134968
 21
204.555762106515
 31
0.0
  0
SOLID
  5
13C2
330
121F
100
AcDbEntity
  8
BEM
 62
     0
100
AcDbTrace
 10
138.5783892134969
 20
205.7224287731816
 30
0.0
 11
138.5783892134969
 21
203.3890954398483
 31
0.0
 12
131.5783892134969
 22
204.555762106515
 32
0.0
 13
131.5783892134969
 23
204.555762106515
 33
0.0
  0
SOLID
  5
13C3
330
121F
100
AcDbEntity
  8
BEM
 62
     0
100
AcDbTrace
 10
226.1783892134968
 20
205.7224287731816
 30
0.0
 11
226.1783892134968
 21
203.3890954398483
 31
0.0
 12
233.1783892134968
 22
204.555762106515
 32
0.0
 13
233.1783892134968
 23
204.555762106515
 33
0.0
  0
MTEXT
  5
13C4
330
121F
100
AcDbEntity
  8
BEM
 62
     1
100
AcDbMText
 10
182.3783892134968
 20
211.055762106515
 30
0.0
 40
7.0
 41
0.0
 71
     5
 72
     1
  1
\A1;%%c101.6
 73
     1
 44
1.0
  0
POINT
  5
13C5
330
121F
100
AcDbEntity
  8
DEFPOINTS
 62
     0
100
AcDbPoint
 10
131.5783892134969
 20
238.498365126304
 30
0.0
  0
POINT
  5
13C6
330
121F
100
AcDbEntity
  8
DEFPOINTS
 62
     0
100
AcDbPoint
 10
233.1783892134968
 20
238.4983651263034
 30
0.0
  0
POINT
  5
13C7
330
121F
100
AcDbEntity
  8
DEFPOINTS
 62
     0
100
AcDbPoint
 10
233.1783892134968
 20
204.555762106515
 30
0.0
  0
ENDBLK
  5
122A
330
121F
100
AcDbEntity
  8
0
100
AcDbBlockEnd
  0
BLOCK
  5
1235
330
122B
100
AcDbEntity
  8
0
100
AcDbBlockBegin
  2
*D2
 70
     1
 10
0.0
 20
0.0
 30
0.0
  3
*D2
  1

  0
LINE
  5
14D5
330
122B
100
AcDbEntity
  8
BEM
 62
     0
370
    -2
100
AcDbLine
 10
224.9283892134966
 20
263.5259446220899
 30
0.0
 11
217.9283892134966
 21
263.5259446220899
 31
0.0
  0
LINE
  5
14D6
330
122B
100
AcDbEntity
  8
BEM
 62
     0
370
    -2
100
AcDbLine
 10
240.1783892134966
 20
263.5259446220899
 30
0.0
 11
263.8450558801633
 21
263.5259446220899
 31
0.0
  0
LINE
  5
14D7
330
122B
100
AcDbEntity
  8
BEM
 62
     0
370
    -2
100
AcDbLine
 10
231.9283892134966
 20
263.5259446220899
 30
0.0
 11
233.1783892134966
 21
263.5259446220899
 31
0.0
  0
SOLID
  5
14D8
330
122B
100
AcDbEntity
  8
BEM
 62
     0
100
AcDbTrace
 10
224.9283892134966
 20
264.6926112887566
 30
0.0
 11
224.9283892134966
 21
262.3592779554233
 31
0.0
 12
231.9283892134966
 22
263.5259446220899
 32
0.0
 13
231.9283892134966
 23
263.5259446220899
 33
0.0
  0
SOLID
  5
14D9
330
122B
100
AcDbEntity
  8
BEM
 62
     0
100
AcDbTrace
 10
240.1783892134966
 20
264.6926112887566
 30
0.0
 11
240.1783892134966
 21
262.3592779554233
 31
0.0
 12
233.1783892134966
 22
263.5259446220899
 32
0.0
 13
233.1783892134966
 23
263.5259446220899
 33
0.0
  0
MTEXT
  5
14DA
330
122B
100
AcDbEntity
  8
BEM
 62
     1
100
AcDbMText
 10
255.51172254683
 20
270.0259446220899
 30
0.0
 40
7.0
 41
0.0
 71
     5
 72
     1
  1
\A1;1.2
 73
     1
 44
1.0
  0
POINT
  5
14DB
330
122B
100
AcDbEntity
  8
DEFPOINTS
 62
     0
100
AcDbPoint
 10
231.9283892134966
 20
263.5259446220898
 30
0.0
  0
POINT
  5
14DC
330
122B
100
AcDbEntity
  8
DEFPOINTS
 62
     0
100
AcDbPoint
 10
233.1783892134966
 20
263.5259446220899
 30
0.0
  0
POINT
  5
14DD
330
122B
100
AcDbEntity
  8
DEFPOINTS
 62
     0
100
AcDbPoint
 10
233.1783892134966
 20
263.5259446220899
 30
0.0
  0
ENDBLK
  5
1236
330
122B
100
AcDbEntity
  8
0
100
AcDbBlockEnd
  0
BLOCK
  5
1278
330
126E
100
AcDbEntity
  8
0
100
AcDbBlockBegin
  2
*D3
 70
     1
 10
0.0
 20
0.0
 30
0.0
  3
*D3
  1

  0
LINE
  5
1520
330
126E
100
AcDbEntity
  8
BEM
 62
     0
370
    -2
100
AcDbLine
 10
130.2782985217042
 20
230.498365126304
 30
0.0
 11
109.817842463754
 21
230.498365126304
 31
0.0
  0
LINE
  5
1521
330
126E
100
AcDbEntity
  8
BEM
 62
     0
370
    -2
100
AcDbLine
 10
180.3783892134969
 20
391.925884796345
 30
0.0
 11
109.817842463754
 21
391.9258847963451
 31
0.0
  0
LINE
  5
1522
330
126E
100
AcDbEntity
  8
BEM
 62
     0
370
    -2
100
AcDbLine
 10
111.817842463754
 20
237.498365126304
 30
0.0
 11
111.817842463754
 21
384.9258847963451
 31
0.0
  0
SOLID
  5
1523
330
126E
100
AcDbEntity
  8
BEM
 62
     0
100
AcDbTrace
 10
110.6511757970873
 20
237.498365126304
 30
0.0
 11
112.9845091304207
 21
237.498365126304
 31
0.0
 12
111.817842463754
 22
230.498365126304
 32
0.0
 13
111.817842463754
 23
230.498365126304
 33
0.0
  0
SOLID
  5
1524
330
126E
100
AcDbEntity
  8
BEM
 62
     0
100
AcDbTrace
 10
110.6511757970873
 20
384.9258847963451
 30
0.0
 11
112.9845091304207
 21
384.9258847963451
 31
0.0
 12
111.817842463754
 22
391.9258847963451
 32
0.0
 13
111.817842463754
 23
391.9258847963451
 33
0.0
  0
MTEXT
  5
1525
330
126E
100
AcDbEntity
  8
BEM
 62
     1
100
AcDbMText
 10
105.3178424637539
 20
311.2121249613246
 30
0.0
 40
7.0
 41
0.0
 71
     5
 72
     1
  1
\A1;161
 11
0.0000000000000001
 21
1.0
 31
0.0
 73
     1
 44
1.0
  0
POINT
  5
1526
330
126E
100
AcDbEntity
  8
DEFPOINTS
 62
     0
100
AcDbPoint
 10
132.2782985217042
 20
230.498365126304
 30
0.0
  0
POINT
  5
1527
330
126E
100
AcDbEntity
  8
DEFPOINTS
 62
     0
100
AcDbPoint
 10
182.378389213497
 20
391.925884796345
 30
0.0
  0
POINT
  5
1528
330
126E
100
AcDbEntity
  8
DEFPOINTS
 62
     0
100
AcDbPoint
 10
111.817842463754
 20
391.9258847963451
 30
0.0
  0
ENDBLK
  5
1279
330
126E
100
AcDbEntity
  8
0
100
AcDbBlockEnd
  0
BLOCK
  5
1285
330
127B
100
AcDbEntity
  8
0
100
AcDbBlockBegin
  2
*D4
 70
     1
 10
0.0
 20
0.0
 30
0.0
  3
*D4
  1

  0
LINE
  5
1517
330
127B
100
AcDbEntity
  8
BEM
 62
     0
370
    -2
100
AcDbLine
 10
340.1899234586621
 20
456.9339765964389
 30
0.0
 11
339.2459126114939
 21
474.9467766059532
 31
0.0
  0
LINE
  5
1518
330
127B
100
AcDbEntity
  8
BEM
 62
     0
370
    -2
100
AcDbLine
 10
182.2737173010111
 20
393.9231438658541
 30
0.0
 11
178.4690344467597
 21
466.5208174612795
 31
0.0
  0
LINE
  5
1519
330
127B
100
AcDbEntity
  8
BEM
 62
     0
370
    -2
100
AcDbLine
 10
332.3601777806978
 20
472.5831658427434
 30
0.0
 11
185.5641131025276
 21
464.8899100854709
 31
0.0
  0
SOLID
  5
151A
330
127B
100
AcDbEntity
  8
BEM
 62
     0
100
AcDbTrace
 10
332.299119165081
 20
473.7482336332904
 30
0.0
 11
332.4212363963145
 21
471.4180980521964
 31
0.0
 12
339.3505845239797
 22
472.9495175364441
 32
0.0
 13
339.3505845239797
 23
472.9495175364441
 33
0.0
  0
SOLID
  5
151B
330
127B
100
AcDbEntity
  8
BEM
 62
     0
100
AcDbTrace
 10
185.5030544869109
 20
466.0549778760179
 30
0.0
 11
185.6251717181444
 21
463.7248422949239
 31
0.0
 12
178.5737063592456
 22
464.5235583917703
 32
0.0
 13
178.5737063592456
 23
464.5235583917703
 33
0.0
  0
MTEXT
  5
151C
330
127B
100
AcDbEntity
  8
BEM
 62
     1
100
AcDbMText
 10
258.6219617260336
 20
475.2276299400119
 30
0.0
 40
7.0
 41
0.0
 71
     5
 72
     1
  1
\A1;161
 11
0.9986295347545739
 21
0.0523359562429437
 31
0.0
 73
     1
 44
1.0
  0
POINT
  5
151D
330
127B
100
AcDbEntity
  8
DEFPOINTS
 62
     0
100
AcDbPoint
 10
340.2945953711479
 20
454.9367175269297
 30
0.0
  0
POINT
  5
151E
330
127B
100
AcDbEntity
  8
DEFPOINTS
 62
     0
100
AcDbPoint
 10
182.378389213497
 20
391.925884796345
 30
0.0
  0
POINT
  5
151F
330
127B
100
AcDbEntity
  8
DEFPOINTS
 62
     0
100
AcDbPoint
 10
178.5737063592456
 20
464.5235583917703
 30
0.0
  0
ENDBLK
  5
1286
330
127B
100
AcDbEntity
  8
0
100
AcDbBlockEnd
  0
BLOCK
  5
1309
330
12FE
100
AcDbEntity
  8
0
100
AcDbBlockBegin
  2
*D5
 70
     1
 10
0.0
 20
0.0
 30
0.0
  3
*D5
  1

  0
LINE
  5
150D
330
12FE
100
AcDbEntity
  8
BEM
 62
     0
370
    -2
100
AcDbLine
 10
182.3783892134969
 20
393.925884796345
 30
0.0
 11
182.3783892134969
 21
454.000730337283
 31
0.0
  0
ARC
  5
150E
330
12FE
100
AcDbEntity
  8
BEM
 62
     0
370
    -2
100
AcDbCircle
 10
182.3783892134969
 20
391.925884796345
 30
0.0
 40
60.07484554093809
100
AcDbArc
 50
9.679962183294765
 51
83.32003781670534
  0
SOLID
  5
150F
330
12FE
100
AcDbEntity
  8
BEM
 62
     0
100
AcDbTrace
 10
242.7574406603022
 20
402.1559807859174
 30
0.0
 11
240.4383776653808
 21
401.8983157513655
 31
0.0
 12
242.3709042664969
 22
395.0699592838773
 32
0.0
 13
242.3709042664969
 23
395.0699592838773
 33
0.0
  0
SOLID
  5
1510
330
12FE
100
AcDbEntity
  8
BEM
 62
     0
100
AcDbTrace
 10
189.2985282833975
 20
450.4282207620034
 30
0.0
 11
189.4344698175477
 21
452.757590707662
 31
0.0
 12
182.378389213497
 22
452.000730337283
 32
0.0
 13
182.378389213497
 23
452.000730337283
 33
0.0
  0
MTEXT
  5
1511
330
12FE
100
AcDbEntity
  8
BEM
 62
     1
100
AcDbMText
 10
232.8946686157881
 20
435.2884905085184
 30
0.0
 40
7.0
 41
0.0
 71
     5
 72
     1
  1
\A1;87°
 11
0.6513361820044926
 21
-0.7587892843285351
 31
0.0
 73
     1
 44
1.0
  0
POINT
  5
1512
330
12FE
100
AcDbEntity
  8
DEFPOINTS
 62
     0
100
AcDbPoint
 10
211.5032522665565
 20
444.4685286098047
 30
0.0
  0
POINT
  5
1513
330
12FE
100
AcDbEntity
  8
DEFPOINTS
 62
     0
100
AcDbPoint
 10
182.3783892134969
 20
391.925884796345
 30
0.0
  0
POINT
  5
1514
330
12FE
100
AcDbEntity
  8
DEFPOINTS
 62
     0
100
AcDbPoint
 10
343.5846780781754
 20
400.3743484022035
 30
0.0
  0
POINT
  5
1515
330
12FE
100
AcDbEntity
  8
DEFPOINTS
 62
     0
100
AcDbPoint
 10
182.3783892134969
 20
391.925884796345
 30
0.0
  0
POINT
  5
1516
330
12FE
100
AcDbEntity
  8
DEFPOINTS
 62
     0
100
AcDbPoint
 10
182.3783892134969
 20
225.498365126304
 30
0.0
  0
ENDBLK
  5
130A
330
12FE
100
AcDbEntity
  8
0
100
AcDbBlockEnd
  0
BLOCK
  5
1501
330
14FB
100
AcDbEntity
  8
0
100
AcDbBlockBegin
  2
*D6
 70
     1
 10
0.0
 20
0.0
 30
0.0
  3
*D6
  1

  0
LINE
  5
14FC
330
14FB
100
AcDbEntity
  8
BEM
 62
     0
370
    -2
100
AcDbLine
 10
224.8617489013322
 20
347.6631784658152
 30
0.0
 11
203.3157003550144
 21
365.0186455146779
 31
0.0
  0
MTEXT
  5
14FD
330
14FB
100
AcDbEntity
  8
BEM
 62
     1
100
AcDbMText
 10
220.8919188111752
 20
359.2073643112121
 30
0.0
 40
7.0
 41
0.0
 71
     5
 72
     1
  1
\A1;R70
 11
0.7787728390235348
 21
-0.6273060379107024
 31
0.0
 73
     1
 44
1.0
  0
SOLID
  5
14FE
330
14FB
100
AcDbEntity
  8
BEM
 62
     0
100
AcDbTrace
 10
204.0475573992435
 20
365.9272138268722
 30
0.0
 11
202.5838433107852
 21
364.1100772024838
 31
0.0
 12
197.8642904818496
 22
369.4097877800528
 32
0.0
 13
197.8642904818496
 23
369.4097877800528
 33
0.0
  0
POINT
  5
14FF
330
14FB
100
AcDbEntity
  8
DEFPOINTS
 62
     0
100
AcDbPoint
 10
197.8642904818496
 20
369.4097877800528
 30
0.0
  0
POINT
  5
1500
330
14FB
100
AcDbEntity
  8
DEFPOINTS
 62
     0
100
AcDbPoint
 10
252.3783892134972
 20
325.4983651263037
 30
0.0
  0
ENDBLK
  5
1502
330
14FB
100
AcDbEntity
  8
0
100
AcDbBlockEnd
  0
ENDSEC
  0
SECTION
  2
ENTITIES
  0
TEXT
  5
134
330
1E
100
AcDbEntity
  8
TEXT
100
AcDbText
 10
204.4216048581257
 20
63.0896391972351
 30
0.0
 40
4.0
  1
Koeh
 41
0.8
  7
GREEKS
 72
     1
 11
209.6787477152686
 21
63.0896391972351
 31
0.0
100
AcDbText
  0
INSERT
  5
135
330
1E
100
AcDbEntity
  8
STEMPEL
100
AcDbBlockReference
  2
LOGO
 10
150.9955485457794
 20
45.02105276448322
 30
0.0
 41
2.0
 42
2.0
 43
2.0
  0
LINE
  5
136
330
1E
100
AcDbEntity
  8
HILF
100
AcDbLine
 10
420.0
 20
0.0
 30
0.0
 11
0.0
 21
0.0
 31
0.0
  0
LINE
  5
137
330
1E
100
AcDbEntity
  8
HILF
100
AcDbLine
 10
419.9999999999999
 20
594.0000000000002
 30
0.0
 11
0.0
 21
594.0
 31
0.0
  0
LINE
  5
138
330
1E
100
AcDbEntity
  8
STEMPEL
100
AcDbLine
 10
410.0
 20
584.0
 30
0.0
 11
39.99999999999989
 21
584.0
 31
0.0
  0
LINE
  5
139
330
1E
100
AcDbEntity
  8
STEMPEL
100
AcDbLine
 10
410.0
 20
10.0
 30
0.0
 11
39.99999999999989
 21
10.0
 31
0.0
  0
LINE
  5
13A
330
1E
100
AcDbEntity
  8
STEMPEL
100
AcDbLine
 10
49.99999999999989
 20
10.0
 30
0.0
 11
410.0
 21
10.0
 31
0.0
  0
TEXT
  5
13B
330
1E
100
AcDbEntity
  8
TEXT
100
AcDbText
 10
202.4626584226295
 20
73.30961091915225
 30
0.0
 40
4.0
  1
Name
 41
0.8
  7
GREEKS
100
AcDbText
  0
TEXT
  5
13C
330
1E
100
AcDbEntity
  8
TEXT
100
AcDbText
 10
196.5498279101549
 20
102.6506227776589
 30
0.0
 40
5.0
  1
Zul. Abw.
 41
0.8
  7
GREEKS
 72
     4
 11
209.9783993387263
 21
105.1506227776589
 31
0.0
100
AcDbText
  0
LINE
  5
13D
330
1E
100
AcDbEntity
  8
HILF
100
AcDbLine
 10
146.0000000000001
 20
49.99999999999997
 30
0.0
 11
230.0
 21
49.99999999999997
 31
0.0
  0
LINE
  5
13E
330
1E
100
AcDbEntity
  8
HILF
100
AcDbLine
 10
146.0000000000001
 20
59.99999999999997
 30
0.0
 11
230.0
 21
59.99999999999997
 31
0.0
  0
LINE
  5
13F
330
1E
100
AcDbEntity
  8
HILF
100
AcDbLine
 10
146.0000000000001
 20
69.99999999999994
 30
0.0
 11
230.0
 21
69.99999999999994
 31
0.0
  0
LINE
  5
140
330
1E
100
AcDbEntity
  8
STEMPEL
100
AcDbLine
 10
410.0
 20
80.0
 30
0.0
 11
146.0000000000001
 21
79.99999999999994
 31
0.0
  0
LINE
  5
141
330
1E
100
AcDbEntity
  8
STEMPEL
100
AcDbLine
 10
410.0
 20
40.0
 30
0.0
 11
146.0000000000001
 21
39.99999999999997
 31
0.0
  0
LINE
  5
142
330
1E
100
AcDbEntity
  8
STEMPEL
100
AcDbLine
 10
410.0
 20
110.0
 30
0.0
 11
39.99999999999997
 21
110.0
 31
0.0
  0
LINE
  5
143
330
1E
100
AcDbEntity
  8
MITTEL
100
AcDbLine
 10
182.378389213497
 20
391.9258847963451
 30
0.0
 11
182.3783892134969
 21
225.498365126304
 31
0.0
  0
LINE
  5
144
330
1E
100
AcDbEntity
  8
HILF
100
AcDbLine
 10
0.0
 20
0.0
 30
0.0
 11
-0.0000000000001137
 21
594.0
 31
0.0
  0
LINE
  5
145
330
1E
100
AcDbEntity
  8
STEMPEL
100
AcDbLine
 10
40.0
 20
10.0
 30
0.0
 11
39.99999999999989
 21
584.0
 31
0.0
  0
LINE
  5
148
330
1E
100
AcDbEntity
  8
HILF
100
AcDbLine
 10
40.00000000000008
 20
39.99999999999997
 30
0.0
 11
146.0000000000001
 21
39.99999999999997
 31
0.0
  0
LINE
  5
149
330
1E
100
AcDbEntity
  8
HILF
100
AcDbLine
 10
40.00000000000008
 20
49.99999999999997
 30
0.0
 11
146.0000000000001
 21
49.99999999999997
 31
0.0
  0
LINE
  5
14A
330
1E
100
AcDbEntity
  8
HILF
100
AcDbLine
 10
40.00000000000008
 20
59.99999999999997
 30
0.0
 11
146.0000000000001
 21
59.99999999999997
 31
0.0
  0
LINE
  5
14B
330
1E
100
AcDbEntity
  8
HILF
100
AcDbLine
 10
40.00000000000008
 20
69.99999999999994
 30
0.0
 11
146.0000000000001
 21
69.99999999999994
 31
0.0
  0
LINE
  5
14C
330
1E
100
AcDbEntity
  8
HILF
100
AcDbLine
 10
40.00000000000008
 20
79.99999999999994
 30
0.0
 11
146.0000000000001
 21
79.99999999999994
 31
0.0
  0
LINE
  5
14D
330
1E
100
AcDbEntity
  8
HILF
100
AcDbLine
 10
40.00000000000008
 20
90.00000000000005
 30
0.0
 11
146.0000000000001
 21
90.00000000000005
 31
0.0
  0
LINE
  5
14E
330
1E
100
AcDbEntity
  8
HILF
100
AcDbLine
 10
40.00000000000008
 20
100.0
 30
0.0
 11
146.0000000000001
 21
100.0
 31
0.0
  0
LINE
  5
14F
330
1E
100
AcDbEntity
  8
STEMPEL
100
AcDbLine
 10
145.9999999999999
 20
29.99999999999997
 30
0.0
 11
39.99999999999997
 21
29.99999999999997
 31
0.0
  0
TEXT
  5
150
330
1E
100
AcDbEntity
  8
TEXT
100
AcDbText
 10
48.26641107045756
 20
13.65465846027192
 30
0.0
 40
4.0
  1
Index
 50
90.0
 41
0.8
  7
GREEKS
100
AcDbText
  0
LINE
  5
151
330
1E
100
AcDbEntity
  8
VOLL
100
AcDbLine
 10
54.00000000000009
 20
110.0
 30
0.0
 11
53.99999999999997
 21
9.999999999999971
 31
0.0
  0
LINE
  5
152
330
1E
100
AcDbEntity
  8
HILF
100
AcDbLine
 10
31.08767135713856
 20
297.0
 30
0.0
 11
0.0000000000001137
 21
297.0
 31
0.0
  0
LINE
  5
154
330
1E
100
AcDbEntity
  8
VOLL
100
AcDbLine
 10
124.0000000000001
 20
109.9999999999999
 30
0.0
 11
124.0
 21
9.999999999999971
 31
0.0
  0
LINE
  5
155
330
1E
100
AcDbEntity
  8
VOLL
100
AcDbLine
 10
104.0000000000001
 20
109.9999999999999
 30
0.0
 11
104.0
 21
9.999999999999971
 31
0.0
  0
LINE
  5
157
330
1E
100
AcDbEntity
  8
STEMPEL
100
AcDbLine
 10
146.0000000000001
 20
109.9999999999999
 30
0.0
 11
146.0
 21
9.999999999999971
 31
0.0
  0
TEXT
  5
158
330
1E
100
AcDbEntity
  8
TEXT
100
AcDbText
 10
170.398997108236
 20
63.10765040825732
 30
0.0
 40
4.0
  1
02.07.
 41
0.8
  7
GREEKS
 72
     1
 11
177.4085209177598
 21
63.10765040825732
 31
0.0
100
AcDbText
  0
TEXT
  5
159
330
1E
100
AcDbEntity
  8
TEXT
100
AcDbText
 10
172.331167315365
 20
73.31880501229926
 30
0.0
 40
4.0
  1
Tag
 41
0.8
  7
GREEKS
100
AcDbText
  0
TEXT
  5
15A
330
1E
100
AcDbEntity
  8
TEXT
100
AcDbText
 10
147.5836127167615
 20
63.62990369617964
 30
0.0
 40
4.0
  1
Gez.
 41
0.8
  7
GREEKS
100
AcDbText
  0
LINE
  5
15B
330
1E
100
AcDbEntity
  8
VOLL
100
AcDbLine
 10
164.0000000000001
 20
79.99999999999994
 30
0.0
 11
164.0000000000001
 21
39.99999999999997
 31
0.0
  0
TEXT
  5
15C
330
1E
100
AcDbEntity
  8
TEXT
100
AcDbText
 10
147.6006777387303
 20
43.52946389649807
 30
0.0
 40
4.0
  1
Norm.
 41
0.8
  7
GREEKS
100
AcDbText
  0
TEXT
  5
15D
330
1E
100
AcDbEntity
  8
TEXT
100
AcDbText
 10
147.5515086571672
 20
53.68926291428377
 30
0.0
 40
4.0
  1
Gepr.
 41
0.8
  7
GREEKS
100
AcDbText
  0
TEXT
  5
15E
330
1E
100
AcDbEntity
  8
TEXT
 62
     1
100
AcDbText
 10
160.5006306481887
 20
88.14901428913959
 30
0.0
 40
7.0
  1
1:2
 41
0.8
  7
GREEKS
100
AcDbText
  0
TEXT
  5
160
330
1E
100
AcDbEntity
  8
TEXT
100
AcDbText
 10
148.622109822104
 20
73.14025471151666
 30
0.0
 40
4.0
  1
2008
 41
0.8
  7
GREEKS
100
AcDbText
  0
LINE
  5
161
330
1E
100
AcDbEntity
  8
VOLL
100
AcDbLine
 10
190.0000000000001
 20
109.9999999999998
 30
0.0
 11
190.0
 21
39.99999999999997
 31
0.0
  0
LINE
  5
186
330
1E
100
AcDbEntity
  8
HILF
100
AcDbLine
 10
420.0
 20
-0.0000000000001137
 30
0.0
 11
419.9999999999999
 21
594.0
 31
0.0
  0
LINE
  5
187
330
1E
100
AcDbEntity
  8
STEMPEL
100
AcDbLine
 10
410.0
 20
10.0
 30
0.0
 11
410.0
 21
584.0
 31
0.0
  0
TEXT
  5
188
330
1E
100
AcDbEntity
  8
TEXT
100
AcDbText
 10
337.2400861497006
 20
52.07416177878602
 30
0.0
 40
5.0
  1
ersetzt durch:
 41
0.8
  7
GREEKS
100
AcDbText
  0
TEXT
  5
18A
330
1E
100
AcDbEntity
  8
TEXT
100
AcDbText
 10
336.178754957634
 20
102.3132034537136
 30
0.0
 40
5.0
  1
Zeichnungs Nr.
 41
0.8
  7
GREEKS
100
AcDbText
  0
LINE
  5
18B
330
1E
100
AcDbEntity
  8
HILF
100
AcDbLine
 10
233.4909699289885
 20
14.89398258028314
 30
0.0
 11
404.8588839326728
 21
14.89398258028314
 31
0.0
  0
LINE
  5
18C
330
1E
100
AcDbEntity
  8
HILF
100
AcDbLine
 10
336.7238616296993
 20
83.77983636955827
 30
0.0
 11
404.8588839326728
 21
83.77983636955827
 31
0.0
  0
LINE
  5
18D
330
1E
100
AcDbEntity
  8
VOLL
100
AcDbLine
 10
332.0
 20
60.0
 30
0.0
 11
410.0
 21
60.0
 31
0.0
  0
TEXT
  5
18E
330
1E
100
AcDbEntity
  8
TEXT
 62
     1
100
AcDbText
 10
234.9283864320014
 20
87.41748789253779
 30
0.0
 40
7.0
  1
Bogen DN100 87°
 41
0.8
  7
GREEKS
100
AcDbText
  0
LINE
  5
18F
330
1E
100
AcDbEntity
  8
HILF
100
AcDbLine
 10
234.7736801096947
 20
49.99999999999997
 30
0.0
 11
324.835391655631
 21
49.99999999999997
 31
0.0
  0
LINE
  5
190
330
1E
100
AcDbEntity
  8
HILF
100
AcDbLine
 10
234.7736801096947
 20
59.99999999999997
 30
0.0
 11
324.835391655631
 21
59.99999999999997
 31
0.0
  0
LINE
  5
191
330
1E
100
AcDbEntity
  8
HILF
100
AcDbLine
 10
234.7736801096947
 20
69.99999999999994
 30
0.0
 11
324.835391655631
 21
69.99999999999994
 31
0.0
  0
LINE
  5
192
330
1E
100
AcDbEntity
  8
HILF
100
AcDbLine
 10
234.7736801096947
 20
84.03758247564139
 30
0.0
 11
324.8353916556311
 21
84.03758247564139
 31
0.0
  0
LINE
  5
193
330
1E
100
AcDbEntity
  8
STEMPEL
100
AcDbLine
 10
230.0
 20
110.0
 30
0.0
 11
230.0
 21
9.999999999999971
 31
0.0
  0
TEXT
  5
194
330
1E
100
AcDbEntity
  8
TEXT
100
AcDbText
 10
235.1296391125315
 20
71.50334417585288
 30
0.0
 40
5.0
  1
mit engem Radius
 41
0.8
  7
GREEKS
100
AcDbText
  0
TEXT
  5
195
330
1E
100
AcDbEntity
  8
TEXT
100
AcDbText
 10
234.9837501577827
 20
42.62974153022632
 30
0.0
 40
4.0
  1
5350100W.DWG
 41
0.8
  7
GREEKS
100
AcDbText
  0
TEXT
  5
196
330
1E
100
AcDbEntity
  8
TEXT
100
AcDbText
 10
234.742238391136
 20
30.84560570193057
 30
0.0
 40
5.0
  1
Bauvorhaben
 41
0.8
  7
GREEKS
100
AcDbText
  0
TEXT
  5
197
330
1E
100
AcDbEntity
  8
TEXT
100
AcDbText
 10
234.877940380901
 20
102.5489328011779
 30
0.0
 40
5.0
  1
Benennung
 41
0.8
  7
GREEKS
100
AcDbText
  0
LINE
  5
198
330
1E
100
AcDbEntity
  8
STEMPEL
100
AcDbLine
 10
332.0
 20
109.9999999999997
 30
0.0
 11
332.0
 21
40.0
 31
0.0
  0
TEXT
  5
19A
330
1E
100
AcDbEntity
  8
TEXT
 62
     1
100
AcDbText
 10
349.2040881349824
 20
88.14901428913959
 30
0.0
 40
7.0
  1
5350100W
 41
0.8
  7
GREEKS
 72
     1
 11
370.0040881349825
 21
88.14901428913959
 31
0.0
100
AcDbText
  0
TEXT
  5
212
330
1E
100
AcDbEntity
  8
TEXT
100
AcDbText
 10
235.1296391125315
 20
51.50334417585291
 30
0.0
 40
5.0
  1
EDV-Art.Nr. 5.350.100C
 41
0.8
  7
GREEKS
100
AcDbText
  0
TEXT
  5
25D
330
1E
100
AcDbEntity
  8
TEXT
 62
     1
100
AcDbText
 10
306.9740579020669
 20
416.1529297732857
 30
0.0
 40
7.0
  1
DN100
 50
2.999999999999989
 41
0.8
  7
GREEKS
100
AcDbText
  0
TEXT
  5
E61
330
1E
100
AcDbEntity
  8
TEXT
 62
     1
100
AcDbText
 10
297.0573649355706
 20
132.2248663682012
 30
0.0
 40
7.0
  1
Werkstoff: 1.4404
 41
0.8
  7
GREEKS
100
AcDbText
  0
LINE
  5
E77
330
1E
100
AcDbEntity
  8
MITTEL
100
AcDbLine
 10
348.1484150520038
 20
400.6135237222339
 30
0.0
 11
182.378389213497
 21
391.9258847963451
 31
0.0
  0
TEXT
  5
10F9
330
1E
100
AcDbEntity
  8
TEXT
100
AcDbText
 10
235.1296391125316
 20
61.50334417585293
 30
0.0
 40
5.0
  1
dünnwandig
 41
0.8
  7
GREEKS
100
AcDbText
  0
TEXT
  5
10FA
330
1E
100
AcDbEntity
  8
TEXT
100
AcDbText
 10
67.93969678957704
 20
18.67381894984134
 30
0.0
 40
4.0
  1
Änderung
 41
0.8
  7
GREEKS
 72
     1
 11
78.68255393243419
 21
18.67381894984134
 31
0.0
100
AcDbText
  0
TEXT
  5
10FB
330
1E
100
AcDbEntity
  8
TEXT
100
AcDbText
 10
110.2820548933125
 20
18.67156269339807
 30
0.0
 40
4.0
  1
Tag
 41
0.8
  7
GREEKS
 72
     1
 11
114.0153882266458
 21
18.67156269339807
 31
0.0
100
AcDbText
  0
TEXT
  5
10FC
330
1E
100
AcDbEntity
  8
TEXT
100
AcDbText
 10
128.9001864118674
 20
18.59324216966411
 30
0.0
 40
4.0
  1
Name
 41
0.8
  7
GREEKS
 72
     1
 11
135.2239959356769
 21
18.59324216966411
 31
0.0
100
AcDbText
  0
TEXT
  5
10FD
330
1E
100
AcDbEntity
  8
TEXT
100
AcDbText
 10
153.5163572150377
 20
102.4620895087088
 30
0.0
 40
5.0
  1
Maßstab
 41
0.8
  7
GREEKS
100
AcDbText
  0
TEXT
  5
10FE
330
1E
100
AcDbEntity
  8
TEXT
100
AcDbText
 10
336.7238616296993
 20
73.1811823709997
 30
0.0
 40
5.0
  1
Ersatz für:
 41
0.8
  7
GREEKS
100
AcDbText
  0
TEXT
  5
10FF
330
1E
100
AcDbEntity
  8
VOLL
100
AcDbText
 10
1439.874693904429
 20
235.2201559463227
 30
0.0
 40
1.8
  1

  7
GREEKS
100
AcDbText
  0
TEXT
  5
1105
330
1E
100
AcDbEntity
  8
TEXT
100
AcDbText
 10
192.6882715247924
 20
88.73450771838452
 30
0.0
 40
4.0
  1
DIN EN1124-3
 41
0.8
  7
GREEKS
 72
     1
 11
209.6787477152686
 21
88.73450771838452
 31
0.0
100
AcDbText
  0
LINE
  5
11FA
330
1E
100
AcDbEntity
  8
STEMPEL
100
AcDbLine
 10
232.4784799052894
 20
230.4983651263035
 30
0.0
 11
132.2782985217042
 21
230.498365126304
 31
0.0
  0
LINE
  5
11FB
330
1E
100
AcDbEntity
  8
HILF
100
AcDbLine
 10
231.9236144165675
 20
238.4983651263034
 30
0.0
 11
132.8331640104259
 21
238.498365126304
 31
0.0
  0
DIMENSION
  5
11FC
330
1E
100
AcDbEntity
  8
BEM
100
AcDbDimension
  2
*D1
 10
233.1783892134968
 20
204.555762106515
 30
0.0
 11
182.3783892134968
 21
211.055762106515
 31
0.0
 70
    32
  1
%%c<>
 71
     5
 42
101.5999999999999
  3
Standard
100
AcDbAlignedDimension
 13
131.5783892134969
 23
238.498365126304
 33
0.0
 14
233.1783892134968
 24
238.4983651263034
 34
0.0
100
AcDbRotatedDimension
1001
ACAD
1000
DSTYLE
1002
{
1070
    40
1040
2.0
1070
    41
1040
3.5
1070
    42
1040
1.0
1070
    43
1040
7.0
1070
    44
1040
1.0
1070
    73
1070
     0
1070
    74
1070
     0
1070
    77
1070
     1
1070
    78
1070
     8
1070
    79
1070
     2
1070
   140
1040
3.5
1070
   141
1040
1.5
1070
   146
1040
0.5142857142857144
1070
   147
1040
1.5
1070
   172
1070
     1
1070
   178
1070
     1
1070
   179
1070
     2
1070
   271
1070
     2
1070
   272
1070
     2
1070
   284
1070
     8
1070
   285
1070
     8
1070
   286
1070
     8
1002
}
  0
LINE
  5
11FD
330
1E
100
AcDbEntity
  8
STEMPEL
100
AcDbLine
 10
131.5783892134969
 20
238.498365126304
 30
0.0
 11
132.2782985217042
 21
230.498365126304
 31
0.0
  0
DIMENSION
  5
11FE
330
1E
100
AcDbEntity
  8
BEM
100
AcDbDimension
  2
*D2
 10
233.1783892134966
 20
263.5259446220899
 30
0.0
 11
255.51172254683
 21
270.0259446220899
 31
0.0
 70
    32
  1
1.2
 71
     5
 42
1.250000000000028
  3
Standard
100
AcDbAlignedDimension
 13
231.9283892134966
 23
263.5259446220898
 33
0.0
 14
233.1783892134966
 24
263.5259446220899
 34
0.0
 50
180.0
100
AcDbRotatedDimension
1001
ACAD
1000
DSTYLE
1002
{
1070
    40
1040
2.0
1070
    41
1040
3.5
1070
    42
1040
1.0
1070
    43
1040
7.0
1070
    44
1040
1.0
1070
    73
1070
     0
1070
    74
1070
     0
1070
    77
1070
     1
1070
    78
1070
     8
1070
    79
1070
     2
1070
   140
1040
3.5
1070
   141
1040
1.5
1070
   146
1040
0.5142857142857144
1070
   147
1040
1.5
1070
   172
1070
     1
1070
   178
1070
     1
1070
   179
1070
     2
1070
   271
1070
     2
1070
   272
1070
     2
1070
   284
1070
     8
1070
   285
1070
     8
1070
   286
1070
     8
1002
}
  0
LINE
  5
11FF
330
1E
100
AcDbEntity
  8
STEMPEL
100
AcDbLine
 10
233.1783892134968
 20
238.4983651263047
 30
0.0
 11
232.4784799052894
 21
230.4983651263035
 31
0.0
  0
HATCH
  5
1200
330
1E
100
AcDbEntity
  8
SCHRAFF
100
AcDbHatch
 10
0.0
 20
0.0
 30
0.0
210
0.0
220
0.0
230
1.0
  2
_USER
 70
     0
 71
     0
 91
        1
 92
        7
 72
     0
 73
     1
 93
        5
 10
231.9283892134966
 20
276.1949918402255
 10
233.1783892134966
 20
276.4894512787419
 10
233.1783892134968
 20
251.7805910791366
 10
232.3689639909789
 20
252.0187244252224
 10
231.9283892134967
 20
252.1629795326204
 97
        0
 75
     0
 76
     0
 52
44.99999999999996
 41
1.999999999999999
 77
     0
 78
     1
 53
135.0
 43
356.8939867732562
 44
-118.9000982018048
 45
1.414213562373094
 46
1.414213562373095
 79
     0
 47
0.1383630136145273
 98
        1
 10
232.8158947348912
 20
273.7946267191264
  0
POLYLINE
  5
1201
330
1E
100
AcDbEntity
  8
HILF
100
AcDb2dPolyline
 66
     1
 10
0.0
 20
0.0
 30
0.0
  0
VERTEX
  5
1202
330
1201
100
AcDbEntity
  8
HILF
100
AcDbVertex
100
AcDb2dVertex
 10
233.1783892134966
 20
276.4894512787419
 30
0.0
  0
VERTEX
  5
1203
330
1201
100
AcDbEntity
  8
HILF
100
AcDbVertex
100
AcDb2dVertex
 10
230.9304232258447
 20
275.9599034367195
 30
0.0
  0
VERTEX
  5
1204
330
1201
100
AcDbEntity
  8
HILF
100
AcDbVertex
100
AcDb2dVertex
 10
226.415207083276
 20
274.714806600068
 30
0.0
  0
VERTEX
  5
1205
330
1201
100
AcDbEntity
  8
HILF
100
AcDbVertex
100
AcDb2dVertex
 10
222.9800049709698
 20
273.5628056799017
 30
0.0
  0
VERTEX
  5
1206
330
1201
100
AcDbEntity
  8
HILF
100
AcDbVertex
100
AcDb2dVertex
 10
220.4609169928867
 20
272.4854292642199
 30
0.0
  0
VERTEX
  5
1207
330
1201
100
AcDbEntity
  8
HILF
100
AcDbVertex
100
AcDb2dVertex
 10
218.6940432529874
 20
271.4642059410213
 30
0.0
  0
VERTEX
  5
1208
330
1201
100
AcDbEntity
  8
HILF
100
AcDbVertex
100
AcDb2dVertex
 10
217.5154838552328
 20
270.4806642983049
 30
0.0
  0
VERTEX
  5
1209
330
1201
100
AcDbEntity
  8
HILF
100
AcDbVertex
100
AcDb2dVertex
 10
216.7613389035834
 20
269.5163329240696
 30
0.0
  0
VERTEX
  5
120A
330
1201
100
AcDbEntity
  8
HILF
100
AcDbVertex
100
AcDb2dVertex
 10
216.2677085020004
 20
268.5527404063143
 30
0.0
  0
VERTEX
  5
120B
330
1201
100
AcDbEntity
  8
HILF
100
AcDbVertex
100
AcDb2dVertex
 10
215.8981737166217
 20
267.5752327581849
 30
0.0
  0
VERTEX
  5
120C
330
1201
100
AcDbEntity
  8
HILF
100
AcDbVertex
100
AcDb2dVertex
 10
215.6262394622958
 20
266.5844256934148
 30
0.0
  0
VERTEX
  5
120D
330
1201
100
AcDbEntity
  8
HILF
100
AcDbVertex
100
AcDb2dVertex
 10
215.4528916160486
 20
265.5847523508841
 30
0.0
  0
VERTEX
  5
120E
330
1201
100
AcDbEntity
  8
HILF
100
AcDbVertex
100
AcDb2dVertex
 10
215.3791160549058
 20
264.5806458694731
 30
0.0
  0
VERTEX
  5
120F
330
1201
100
AcDbEntity
  8
HILF
100
AcDbVertex
100
AcDb2dVertex
 10
215.4058986558932
 20
263.5765393880622
 30
0.0
  0
VERTEX
  5
1210
330
1201
100
AcDbEntity
  8
HILF
100
AcDbVertex
100
AcDb2dVertex
 10
215.5342252960367
 20
262.5768660455315
 30
0.0
  0
VERTEX
  5
1211
330
1201
100
AcDbEntity
  8
HILF
100
AcDbVertex
100
AcDb2dVertex
 10
215.7650818523622
 20
261.5860589807613
 30
0.0
  0
VERTEX
  5
1212
330
1201
100
AcDbEntity
  8
HILF
100
AcDbVertex
100
AcDb2dVertex
 10
216.0994542018953
 20
260.6085513326318
 30
0.0
  0
VERTEX
  5
1213
330
1201
100
AcDbEntity
  8
HILF
100
AcDbVertex
100
AcDb2dVertex
 10
216.5702455612025
 20
259.6415108152351
 30
0.0
  0
VERTEX
  5
1214
330
1201
100
AcDbEntity
  8
HILF
100
AcDbVertex
100
AcDb2dVertex
 10
217.3380285050118
 20
258.65304344351
 30
0.0
  0
VERTEX
  5
1215
330
1201
100
AcDbEntity
  8
HILF
100
AcDbVertex
100
AcDb2dVertex
 10
218.5952929475912
 20
257.6039898076067
 30
0.0
  0
VERTEX
  5
1216
330
1201
100
AcDbEntity
  8
HILF
100
AcDbVertex
100
AcDb2dVertex
 10
220.5345288032094
 20
256.4551904976759
 30
0.0
  0
VERTEX
  5
1217
330
1201
100
AcDbEntity
  8
HILF
100
AcDbVertex
100
AcDb2dVertex
 10
223.3482259861347
 20
255.1674861038677
 30
0.0
  0
VERTEX
  5
1218
330
1201
100
AcDbEntity
  8
HILF
100
AcDbVertex
100
AcDb2dVertex
 10
227.2288744106354
 20
253.7017172163331
 30
0.0
  0
VERTEX
  5
1219
330
1201
100
AcDbEntity
  8
HILF
100
AcDbVertex
100
AcDb2dVertex
 10
232.3689639909796
 20
252.0187244252222
 30
0.0
  0
VERTEX
  5
121A
330
1201
100
AcDbEntity
  8
HILF
100
AcDbVertex
100
AcDb2dVertex
 10
233.1783892134967
 20
251.7805910791365
 30
0.0
  0
SEQEND
  5
121B
330
1201
100
AcDbEntity
  8
HILF
  0
LINE
  5
121C
330
1E
100
AcDbEntity
  8
STEMPEL
100
AcDbLine
 10
231.9283892134966
 20
276.1949918402255
 30
0.0
 11
231.9283892134968
 21
252.1629795326204
 31
0.0
  0
LINE
  5
121D
102
{ACAD_REACTORS
330
1458
102
}
330
1E
100
AcDbEntity
  8
STEMPEL
100
AcDbLine
 10
233.1783892134968
 20
333.1583884089988
 30
0.0
 11
233.1783892134968
 21
238.4983651263034
 31
0.0
  0
LINE
  5
121E
102
{ACAD_REACTORS
330
1458
102
}
330
1E
100
AcDbEntity
  8
STEMPEL
100
AcDbLine
 10
131.578389213497
 20
373.6926782799289
 30
0.0
 11
131.5783892134969
 21
238.498365126304
 31
0.0
  0
LINE
  5
1249
330
1E
100
AcDbEntity
  8
HILF
100
AcDbLine
 10
301.4521383051771
 20
345.0760915452576
 30
0.0
 11
295.9027029558176
 21
450.9656259861005
 31
0.0
  0
LINE
  5
124A
330
1E
100
AcDbEntity
  8
HILF
100
AcDbLine
 10
278.9536073669634
 20
344.7807636140789
 30
0.0
 11
273.4965511493372
 21
448.9075992152203
 31
0.0
  0
LINE
  5
124B
330
1E
100
AcDbEntity
  8
HILF
100
AcDbLine
 10
273.3457988421825
 20
346.8267309949469
 30
0.0
 11
268.1333246126277
 21
446.2866642503432
 31
0.0
  0
LINE
  5
124C
330
1E
100
AcDbEntity
  8
STEMPEL
100
AcDbLine
 10
346.0159393853138
 20
345.7669703551085
 30
0.0
 11
340.2945953711479
 21
454.9367175269298
 31
0.0
  0
LINE
  5
124D
102
{ACAD_REACTORS
330
1458
102
}
330
1E
100
AcDbEntity
  8
STEMPEL
100
AcDbLine
 10
271.2726864328383
 20
345.7149223278434
 30
0.0
 11
243.7240133666254
 21
344.2711575502487
 31
0.0
  0
ARC
  5
124E
330
1E
100
AcDbEntity
  8
STEMPEL
100
AcDbCircle
 10
332.739392806203
 20
366.0597230252787
 30
0.0
 40
24.25
100
AcDbArc
 50
273.0
 51
303.1947437153285
  0
LINE
  5
124F
330
1E
100
AcDbEntity
  8
STEMPEL
100
AcDbLine
 10
298.5406931722301
 20
343.9896551166365
 30
0.0
 11
282.8347255564373
 21
343.1665402324015
 31
0.0
  0
ARC
  5
1250
330
1E
100
AcDbEntity
  8
STEMPEL
100
AcDbCircle
 10
271.691374082782
 20
337.7258860498069
 30
0.0
 40
8.0
100
AcDbArc
 50
62.14041890937789
 51
92.99999999999997
  0
ARC
  5
1251
330
1E
100
AcDbEntity
  8
STEMPEL
100
AcDbCircle
 10
282.0889381799755
 20
357.3970111026542
 30
0.0
 40
14.25
100
AcDbArc
 50
242.1404189093779
 51
273.0
  0
ARC
  5
1252
330
1E
100
AcDbEntity
  8
STEMPEL
100
AcDbCircle
 10
314.19115831922
 20
365.0876512461948
 30
0.0
 40
24.25
100
AcDbArc
 50
246.1119523822748
 51
273.0
  0
ARC
  5
1253
330
1E
100
AcDbEntity
  8
STEMPEL
100
AcDbCircle
 10
299.2079766143276
 20
331.2571285485157
 30
0.0
 40
12.75
100
AcDbArc
 50
66.11195238227471
 51
92.99999999999997
  0
LINE
  5
1254
330
1E
100
AcDbEntity
  8
STEMPEL
100
AcDbLine
 10
334.0085397450942
 20
341.8429568074802
 30
0.0
 11
315.4603052581113
 21
340.8708850283963
 31
0.0
  0
LINE
  5
1255
102
{ACAD_REACTORS
330
1458
102
}
330
1E
100
AcDbEntity
  8
STEMPEL
100
AcDbLine
 10
265.9553532785553
 20
447.1756830589079
 30
0.0
 11
197.9279411769281
 21
443.6105174602892
 31
0.0
  0
LINE
  5
1256
330
1E
100
AcDbEntity
  8
STEMPEL
100
AcDbLine
 10
292.8936434936165
 20
451.7417819166549
 30
0.0
 11
277.1876758778237
 21
450.9186670324198
 31
0.0
  0
ARC
  5
1257
330
1E
100
AcDbEntity
  8
STEMPEL
100
AcDbCircle
 10
277.9334632542856
 20
436.6881961621673
 30
0.0
 40
14.25
100
AcDbArc
 50
92.99999999999997
 51
123.859581090622
  0
ARC
  5
1258
330
1E
100
AcDbEntity
  8
STEMPEL
100
AcDbCircle
 10
265.5366656286119
 20
455.1647193369446
 30
0.0
 40
8.0
100
AcDbArc
 50
273.0
 51
303.859581090622
  0
ARC
  5
1259
330
1E
100
AcDbEntity
  8
STEMPEL
100
AcDbCircle
 10
310.6637148684455
 20
432.3952818886531
 30
0.0
 40
24.25
100
AcDbArc
 50
92.99999999999997
 51
119.8880476177252
  0
LINE
  5
125A
330
1E
100
AcDbEntity
  8
STEMPEL
100
AcDbLine
 10
327.942802416537
 20
457.5841198855352
 30
0.0
 11
309.3945679295541
 21
456.6120481064514
 31
0.0
  0
ARC
  5
125B
330
1E
100
AcDbEntity
  8
STEMPEL
100
AcDbCircle
 10
292.2263600515189
 20
464.4743084847759
 30
0.0
 40
12.75
100
AcDbArc
 50
273.0
 51
299.8880476177252
  0
ARC
  5
125C
330
1E
100
AcDbEntity
  8
STEMPEL
100
AcDbCircle
 10
329.2119493554285
 20
433.3673536677369
 30
0.0
 40
24.25
100
AcDbArc
 50
62.80525628467148
 51
92.99999999999997
  0
DIMENSION
  5
126D
330
1E
100
AcDbEntity
  8
BEM
100
AcDbDimension
  2
*D3
 10
111.817842463754
 20
391.9258847963451
 30
0.0
 11
105.3178424637539
 21
311.2121249613246
 31
0.0
 70
    32
  1
161
 71
     5
 42
161.427519670041
  3
Standard
100
AcDbAlignedDimension
 13
132.2782985217042
 23
230.498365126304
 33
0.0
 14
182.378389213497
 24
391.925884796345
 34
0.0
 50
90.0
100
AcDbRotatedDimension
1001
ACAD
1000
DSTYLE
1002
{
1070
    40
1040
2.0
1070
    41
1040
3.5
1070
    42
1040
1.0
1070
    43
1040
7.0
1070
    44
1040
1.0
1070
    73
1070
     0
1070
    74
1070
     0
1070
    77
1070
     1
1070
    78
1070
     8
1070
    79
1070
     2
1070
   140
1040
3.5
1070
   141
1040
1.5
1070
   146
1040
0.5142857142857144
1070
   147
1040
1.5
1070
   172
1070
     1
1070
   178
1070
     1
1070
   179
1070
     2
1070
   271
1070
     2
1070
   272
1070
     2
1070
   284
1070
     8
1070
   285
1070
     8
1070
   286
1070
     8
1002
}
  0
DIMENSION
  5
127A
330
1E
100
AcDbEntity
  8
BEM
100
AcDbDimension
  2
*D4
 10
178.5737063592456
 20
464.5235583917703
 30
0.0
 11
258.6219617260336
 21
475.2276299400119
 31
0.0
 70
    32
 71
     5
 42
160.9975196700417
  3
Standard
100
AcDbAlignedDimension
 13
340.2945953711479
 23
454.9367175269298
 33
0.0
 14
182.378389213497
 24
391.925884796345
 34
0.0
 50
2.999999999999993
100
AcDbRotatedDimension
1001
ACAD
1000
DSTYLE
1002
{
1070
    40
1040
2.0
1070
    41
1040
3.5
1070
    42
1040
1.0
1070
    43
1040
7.0
1070
    44
1040
1.0
1070
    73
1070
     0
1070
    74
1070
     0
1070
    77
1070
     1
1070
    78
1070
     8
1070
    79
1070
     2
1070
   140
1040
3.5
1070
   141
1040
1.5
1070
   146
1040
0.5142857142857144
1070
   147
1040
1.5
1070
   172
1070
     1
1070
   178
1070
     1
1070
   179
1070
     2
1070
   271
1070
     2
1070
   272
1070
     2
1070
   284
1070
     8
1070
   285
1070
     8
1070
   286
1070
     8
1002
}
  0
TEXT
  5
12AA
330
1E
100
AcDbEntity
  8
BEM
100
AcDbText
 10
417.3022923857165
 20
10.16790107998861
 30
0.0
 40
4.0
  1
Diese Zeichnung ist urheberrechtlich geschützt und bleibt unser Eigentum. Sie darf weder ganz noch teilweise verfielfältigt und nicht an Dritte weitergegeben werden.
 50
90.0
 41
0.8
  7
GREEKS
100
AcDbText
  0
DIMENSION
  5
12FD
330
1E
100
AcDbEntity
  8
BEM
100
AcDbDimension
  2
*D5
 10
182.3783892134969
 20
225.498365126304
 30
0.0
 11
227.9625382676526
 21
431.0548053254892
 31
0.0
 70
   162
 71
     5
 42
1.518436449235064
  3
Standard
100
AcDb2LineAngularDimension
 13
343.5846780781754
 23
400.3743484022036
 33
0.0
 14
182.378389213497
 24
391.925884796345
 34
0.0
 15
182.378389213497
 25
391.925884796345
 35
0.0
 16
211.5032522665565
 26
444.4685286098047
 36
0.0
1001
ACAD
1000
DSTYLE
1002
{
1070
    40
1040
2.0
1070
    41
1040
3.5
1070
    42
1040
1.0
1070
    43
1040
7.0
1070
    44
1040
1.0
1070
    73
1070
     0
1070
    74
1070
     0
1070
    77
1070
     1
1070
    78
1070
     8
1070
    79
1070
     2
1070
   140
1040
3.5
1070
   141
1040
1.5
1070
   146
1040
0.5142857142857144
1070
   147
1040
1.5
1070
   172
1070
     1
1070
   178
1070
     1
1070
   179
1070
     2
1070
   271
1070
     2
1070
   272
1070
     2
1070
   284
1070
     8
1070
   285
1070
     8
1070
   286
1070
     8
1002
}
  0
TEXT
  5
130B
330
1E
100
AcDbEntity
  8
TEXT
100
AcDbText
 10
43.44427648932685
 20
113.5753531527347
 30
0.0
 40
5.0
  1
Erstellt mit AUTOCAD 2004
 41
0.8
  7
GREEKS
100
AcDbText
  0
ARC
  5
13DF
330
1E
100
AcDbEntity
  8
MITTEL
100
AcDbCircle
 10
252.378389213497
 20
325.4983651263036
 30
0.0
 40
70.0
100
AcDbArc
 50
93.00000000000009
 51
180.0
  0
LINE
  5
1404
330
1E
100
AcDbEntity
  8
MITTEL
100
AcDbLine
 10
220.8259772717767
 20
393.9408375052688
 30
0.0
 11
182.378389213497
 21
353.4255333444641
 31
0.0
  0
LINE
  5
1405
102
{ACAD_REACTORS
330
1458
102
}
330
1E
100
AcDbEntity
  8
STEMPEL
100
AcDbLine
 10
197.9279411769281
 20
443.6105174602892
 30
0.0
 11
131.578389213497
 21
373.6926782799289
 31
0.0
  0
LINE
  5
1406
102
{ACAD_REACTORS
330
1458
102
}
330
1E
100
AcDbEntity
  8
STEMPEL
100
AcDbLine
 10
243.7240133666254
 20
344.2711575502487
 30
0.0
 11
233.1783892134968
 21
333.1583884089988
 31
0.0
  0
LINE
  5
1407
330
1E
100
AcDbEntity
  8
STEMPEL
100
AcDbLine
 10
197.9279411769281
 20
443.6105174602892
 30
0.0
 11
243.7240133666254
 21
344.2711575502487
 31
0.0
  0
LINE
  5
1409
330
1E
100
AcDbEntity
  8
STEMPEL
100
AcDbLine
 10
131.578389213497
 20
373.6926782799289
 30
0.0
 11
233.1783892134968
 21
333.1583884089988
 31
0.0
  0
ARC
  5
1416
102
{ACAD_REACTORS
330
1458
102
}
330
1E
100
AcDbEntity
  8
SCHRAFF
100
AcDbCircle
 10
133.2787427350681
 20
373.0143060109681
 30
0.0
 40
3.066219949675331
100
AcDbArc
 50
80.17930442369314
 51
236.3206955763076
  0
ARC
  5
1417
102
{ACAD_REACTORS
330
1458
102
}
330
1E
100
AcDbEntity
  8
SCHRAFF
100
AcDbCircle
 10
231.9728758612704
 20
333.6393394686683
 30
0.0
 40
3.90179213610058
100
AcDbArc
 50
287.9968081382054
 51
28.50319186179477
  0
ARC
  5
1418
330
1E
100
AcDbEntity
  8
SCHRAFF
100
AcDbCircle
 10
131.578389213497
 20
373.6926782799289
 30
0.0
 40
5.0
100
AcDbArc
 50
301.3801023541567
 51
15.1198976458448
  0
ARC
  5
1419
330
1E
100
AcDbEntity
  8
SCHRAFF
100
AcDbCircle
 10
136.2224369778566
 20
371.8398910923797
 30
0.0
 40
5.0
100
AcDbArc
 50
301.3801023541567
 51
15.1198976458448
  0
ARC
  5
141A
330
1E
100
AcDbEntity
  8
SCHRAFF
100
AcDbCircle
 10
145.5105325065758
 20
368.1343167172813
 30
0.0
 40
5.0
100
AcDbArc
 50
301.3801023541567
 51
15.1198976458448
  0
ARC
  5
141B
330
1E
100
AcDbEntity
  8
SCHRAFF
100
AcDbCircle
 10
140.8664847422162
 20
369.9871039048305
 30
0.0
 40
5.0
100
AcDbArc
 50
301.3801023541567
 51
15.1198976458448
  0
ARC
  5
141C
330
1E
100
AcDbEntity
  8
SCHRAFF
100
AcDbCircle
 10
159.4426757996547
 20
362.5759551546337
 30
0.0
 40
5.0
100
AcDbArc
 50
301.3801023541567
 51
15.1198976458448
  0
ARC
  5
141D
330
1E
100
AcDbEntity
  8
SCHRAFF
100
AcDbCircle
 10
164.0867235640143
 20
360.7231679670845
 30
0.0
 40
5.0
100
AcDbArc
 50
301.3801023541567
 51
15.1198976458448
  0
ARC
  5
141E
330
1E
100
AcDbEntity
  8
SCHRAFF
100
AcDbCircle
 10
154.7986280352951
 20
364.4287423421829
 30
0.0
 40
5.0
100
AcDbArc
 50
301.3801023541567
 51
15.1198976458448
  0
ARC
  5
141F
330
1E
100
AcDbEntity
  8
SCHRAFF
100
AcDbCircle
 10
150.1545802709354
 20
366.2815295297321
 30
0.0
 40
5.0
100
AcDbArc
 50
301.3801023541567
 51
15.1198976458448
  0
ARC
  5
1420
330
1E
100
AcDbEntity
  8
SCHRAFF
100
AcDbCircle
 10
178.0188668570932
 20
355.1648064044369
 30
0.0
 40
5.0
100
AcDbArc
 50
301.3801023541567
 51
15.1198976458448
  0
ARC
  5
1421
330
1E
100
AcDbEntity
  8
SCHRAFF
100
AcDbCircle
 10
182.6629146214528
 20
353.3120192168877
 30
0.0
 40
5.0
100
AcDbArc
 50
301.3801023541567
 51
15.1198976458448
  0
ARC
  5
1422
330
1E
100
AcDbEntity
  8
SCHRAFF
100
AcDbCircle
 10
173.3748190927335
 20
357.0175935919861
 30
0.0
 40
5.0
100
AcDbArc
 50
301.3801023541567
 51
15.1198976458448
  0
ARC
  5
1423
330
1E
100
AcDbEntity
  8
SCHRAFF
100
AcDbCircle
 10
168.7307713283739
 20
358.8703807795354
 30
0.0
 40
5.0
100
AcDbArc
 50
301.3801023541567
 51
15.1198976458448
  0
ARC
  5
1424
330
1E
100
AcDbEntity
  8
SCHRAFF
100
AcDbCircle
 10
196.5950579145316
 20
347.7536576542401
 30
0.0
 40
5.0
100
AcDbArc
 50
301.3801023541567
 51
15.1198976458448
  0
ARC
  5
1425
330
1E
100
AcDbEntity
  8
SCHRAFF
100
AcDbCircle
 10
201.2391056788912
 20
345.9008704666909
 30
0.0
 40
5.0
100
AcDbArc
 50
301.3801023541567
 51
15.1198976458448
  0
ARC
  5
1426
330
1E
100
AcDbEntity
  8
SCHRAFF
100
AcDbCircle
 10
191.951010150172
 20
349.6064448417893
 30
0.0
 40
5.0
100
AcDbArc
 50
301.3801023541567
 51
15.1198976458448
  0
ARC
  5
1427
330
1E
100
AcDbEntity
  8
SCHRAFF
100
AcDbCircle
 10
187.3069623858124
 20
351.4592320293385
 30
0.0
 40
5.0
100
AcDbArc
 50
301.3801023541567
 51
15.1198976458448
  0
ARC
  5
1428
330
1E
100
AcDbEntity
  8
SCHRAFF
100
AcDbCircle
 10
215.1712489719701
 20
340.3425089040434
 30
0.0
 40
5.0
100
AcDbArc
 50
301.3801023541567
 51
15.1198976458448
  0
ARC
  5
1429
330
1E
100
AcDbEntity
  8
SCHRAFF
100
AcDbCircle
 10
219.8152967363297
 20
338.4897217164942
 30
0.0
 40
5.0
100
AcDbArc
 50
301.3801023541567
 51
15.1198976458448
  0
ARC
  5
142A
330
1E
100
AcDbEntity
  8
SCHRAFF
100
AcDbCircle
 10
210.5272012076105
 20
342.1952960915926
 30
0.0
 40
5.0
100
AcDbArc
 50
301.3801023541567
 51
15.1198976458448
  0
ARC
  5
142B
330
1E
100
AcDbEntity
  8
SCHRAFF
100
AcDbCircle
 10
205.8831534432509
 20
344.0480832791418
 30
0.0
 40
5.0
100
AcDbArc
 50
301.3801023541567
 51
15.1198976458448
  0
ARC
  5
142F
330
1E
100
AcDbEntity
  8
SCHRAFF
100
AcDbCircle
 10
224.4593445006894
 20
336.636934528945
 30
0.0
 40
5.0
100
AcDbArc
 50
301.3801023541567
 51
15.1198976458448
  0
ARC
  5
1430
330
1E
100
AcDbEntity
  8
SCHRAFF
100
AcDbCircle
 10
202.1145385523025
 20
434.5290857220384
 30
0.0
 40
5.0
100
AcDbArc
 50
257.8801023541554
 51
331.6198976458435
  0
ARC
  5
1431
330
1E
100
AcDbEntity
  8
SCHRAFF
100
AcDbCircle
 10
197.9279411769282
 20
443.6105174602892
 30
0.0
 40
5.0
100
AcDbArc
 50
257.8801023541554
 51
331.6198976458435
  0
ARC
  5
1432
102
{ACAD_REACTORS
330
1458
102
}
330
1E
100
AcDbEntity
  8
SCHRAFF
100
AcDbCircle
 10
198.6943733877734
 20
441.947997475509
 30
0.0
 40
3.066219949675331
100
AcDbArc
 50
36.67930442369254
 51
192.820695576307
  0
ARC
  5
1433
330
1E
100
AcDbEntity
  8
SCHRAFF
100
AcDbCircle
 10
200.0212398646153
 20
439.0698015911638
 30
0.0
 40
5.0
100
AcDbArc
 50
257.8801023541554
 51
331.6198976458435
  0
ARC
  5
1434
330
1E
100
AcDbEntity
  8
SCHRAFF
100
AcDbCircle
 10
216.7676293661127
 20
402.7440746381606
 30
0.0
 40
5.0
100
AcDbArc
 50
257.8801023541554
 51
331.6198976458435
  0
ARC
  5
1435
330
1E
100
AcDbEntity
  8
SCHRAFF
100
AcDbCircle
 10
206.3011359276768
 20
425.4476539837876
 30
0.0
 40
5.0
100
AcDbArc
 50
257.8801023541554
 51
331.6198976458435
  0
ARC
  5
1436
330
1E
100
AcDbEntity
  8
SCHRAFF
100
AcDbCircle
 10
204.2078372399897
 20
429.988369852913
 30
0.0
 40
5.0
100
AcDbArc
 50
257.8801023541554
 51
331.6198976458435
  0
ARC
  5
1437
330
1E
100
AcDbEntity
  8
SCHRAFF
100
AcDbCircle
 10
208.3944346153641
 20
420.9069381146623
 30
0.0
 40
5.0
100
AcDbArc
 50
257.8801023541554
 51
331.6198976458435
  0
ARC
  5
1438
330
1E
100
AcDbEntity
  8
SCHRAFF
100
AcDbCircle
 10
212.5810319907384
 20
411.8255063764115
 30
0.0
 40
5.0
100
AcDbArc
 50
257.8801023541554
 51
331.6198976458435
  0
ARC
  5
1439
330
1E
100
AcDbEntity
  8
SCHRAFF
100
AcDbCircle
 10
210.4877333030512
 20
416.3662222455369
 30
0.0
 40
5.0
100
AcDbArc
 50
257.8801023541554
 51
331.6198976458435
  0
ARC
  5
143A
330
1E
100
AcDbEntity
  8
SCHRAFF
100
AcDbCircle
 10
214.6743306784255
 20
407.284790507286
 30
0.0
 40
5.0
100
AcDbArc
 50
257.8801023541554
 51
331.6198976458435
  0
ARC
  5
143B
330
1E
100
AcDbEntity
  8
SCHRAFF
100
AcDbCircle
 10
220.9542267414871
 20
393.6626428999099
 30
0.0
 40
5.0
100
AcDbArc
 50
257.8801023541554
 51
331.6198976458435
  0
ARC
  5
143C
330
1E
100
AcDbEntity
  8
SCHRAFF
100
AcDbCircle
 10
218.8609280537999
 20
398.2033587690353
 30
0.0
 40
5.0
100
AcDbArc
 50
257.8801023541554
 51
331.6198976458435
  0
ARC
  5
143D
330
1E
100
AcDbEntity
  8
SCHRAFF
100
AcDbCircle
 10
223.0475254291742
 20
389.1219270307845
 30
0.0
 40
5.0
100
AcDbArc
 50
257.8801023541554
 51
331.6198976458435
  0
ARC
  5
143E
330
1E
100
AcDbEntity
  8
SCHRAFF
100
AcDbCircle
 10
231.4207201799229
 20
370.9590635542829
 30
0.0
 40
5.0
100
AcDbArc
 50
257.8801023541554
 51
331.6198976458435
  0
ARC
  5
143F
330
1E
100
AcDbEntity
  8
SCHRAFF
100
AcDbCircle
 10
229.3274214922358
 20
375.4997794234084
 30
0.0
 40
5.0
100
AcDbArc
 50
257.8801023541554
 51
331.6198976458435
  0
ARC
  5
1440
330
1E
100
AcDbEntity
  8
SCHRAFF
100
AcDbCircle
 10
227.2341228045486
 20
380.0404952925337
 30
0.0
 40
5.0
100
AcDbArc
 50
257.8801023541554
 51
331.6198976458435
  0
ARC
  5
1441
330
1E
100
AcDbEntity
  8
SCHRAFF
100
AcDbCircle
 10
225.1408241168614
 20
384.5812111616591
 30
0.0
 40
5.0
100
AcDbArc
 50
257.8801023541554
 51
331.6198976458435
  0
ARC
  5
1442
330
1E
100
AcDbEntity
  8
SCHRAFF
100
AcDbCircle
 10
233.51401886761
 20
366.4183476851575
 30
0.0
 40
5.0
100
AcDbArc
 50
257.8801023541554
 51
331.6198976458435
  0
ARC
  5
1443
330
1E
100
AcDbEntity
  8
SCHRAFF
100
AcDbCircle
 10
235.6073175552972
 20
361.8776318160322
 30
0.0
 40
5.0
100
AcDbArc
 50
257.8801023541554
 51
331.6198976458435
  0
ARC
  5
1444
330
1E
100
AcDbEntity
  8
SCHRAFF
100
AcDbCircle
 10
237.7006162429844
 20
357.3369159469067
 30
0.0
 40
5.0
100
AcDbArc
 50
257.8801023541554
 51
331.6198976458435
  0
ARC
  5
1445
102
{ACAD_REACTORS
330
1458
102
}
330
1E
100
AcDbEntity
  8
SCHRAFF
100
AcDbCircle
 10
243.1806297396156
 20
345.4498477547091
 30
0.0
 40
3.90179213610058
100
AcDbArc
 50
244.4968081382054
 51
345.0031918617948
  0
ARC
  5
1446
330
1E
100
AcDbEntity
  8
SCHRAFF
100
AcDbCircle
 10
239.7939149306715
 20
352.7962000777813
 30
0.0
 40
5.0
100
AcDbArc
 50
257.8801023541554
 51
331.6198976458435
  0
HATCH
  5
1458
330
1E
100
AcDbEntity
  8
SCHRAFF
100
AcDbHatch
 10
0.0
 20
0.0
 30
0.0
210
0.0
220
0.0
230
1.0
  2
_USER
 70
     0
 71
     1
 91
        4
 92
        7
 72
     1
 73
     1
 93
        3
 10
246.9495277845169
 20
344.4401995979359
 42
0.0
 10
243.7240133666255
 20
344.2711575502487
 42
0.0
 10
241.5006687415665
 20
341.9282411727114
 42
0.4690003960927356
 97
        3
330
124D
330
1406
330
1445
 92
        7
 72
     1
 73
     1
 93
        3
 10
195.7045965518691
 20
441.2676010827517
 42
0.0
 10
197.9279411769281
 20
443.6105174602892
 42
0.0
 10
201.1534555948197
 20
443.7795595079763
 42
0.8108060346126357
 97
        3
330
1405
330
1255
330
1432
 92
        7
 72
     1
 73
     1
 93
        3
 10
131.578389213497
 20
373.6926782799289
 42
0.0
 10
133.801733838556
 20
376.0355946574664
 42
0.8108060346126407
 10
131.578389213497
 20
370.4627373402348
 42
0.0
 97
        3
330
1405
330
1416
330
121E
 92
        7
 72
     1
 73
     1
 93
        3
 10
235.4017338385558
 20
335.5013047865363
 42
0.0
 10
233.1783892134968
 20
333.1583884089988
 42
0.0
 10
233.1783892134968
 20
329.9284474693048
 42
0.4690003960927354
 97
        3
330
1406
330
121D
330
1417
 75
     0
 76
     0
 52
0.0
 41
0.1
 77
     0
 78
     1
 53
0.0
 43
0.0
 44
0.0
 45
0.0
 46
0.1
 79
     0
 47
0.2714491880527963
 98
        4
 10
243.6004016733509
 20
342.7165399419471
 10
198.7842431586327
 20
443.9670878019501
 10
131.1525871897011
 20
372.8474000214808
 10
234.6371699704073
 20
332.401470561899
  0
DIMENSION
  5
14FA
330
1E
100
AcDbEntity
  8
BEM
100
AcDbDimension
  2
*D6
 10
252.3783892134972
 20
325.4983651263037
 30
0.0
 11
216.8144295647557
 21
354.1453408575591
 31
0.0
 70
   164
 71
     5
 42
70.00000000000006
  3
Standard
100
AcDbRadialDimension
 15
197.8642904818496
 25
369.4097877800528
 35
0.0
 40
0.0
1001
ACAD
1000
DSTYLE
1002
{
1070
    40
1040
2.0
1070
    41
1040
3.5
1070
    42
1040
1.0
1070
    43
1040
7.0
1070
    44
1040
1.0
1070
    73
1070
     0
1070
    74
1070
     0
1070
    77
1070
     1
1070
    78
1070
     8
1070
    79
1070
     2
1070
   140
1040
3.5
1070
   141
1040
1.5
1070
   146
1040
0.5142857142857144
1070
   147
1040
1.5
1070
   172
1070
     1
1070
   178
1070
     1
1070
   179
1070
     2
1070
   271
1070
     2
1070
   272
1070
     2
1070
   284
1070
     8
1070
   285
1070
     8
1070
   286
1070
     8
1070
   288
1070
     1
1002
}
  0
ENDSEC
  0
SECTION
  2
OBJECTS
  0
DICTIONARY
  5
C
330
0
100
AcDbDictionary
281
     1
  3
ACAD_COLOR
350
F4E
  3
ACAD_GROUP
350
D
  3
ACAD_LAYOUT
350
19
  3
ACAD_MATERIAL
350
F4D
  3
ACAD_MLINESTYLE
350
16
  3
ACAD_PLOTSETTINGS
350
18
  3
ACAD_PLOTSTYLENAME
350
E
  3
AcDbVariableDictionary
350
246
  0
DICTIONARY
  5
F4E
102
{ACAD_REACTORS
330
C
102
}
330
C
100
AcDbDictionary
281
     1
  0
DICTIONARY
  5
D
102
{ACAD_REACTORS
330
C
102
}
330
C
100
AcDbDictionary
281
     1
  0
DICTIONARY
  5
19
102
{ACAD_REACTORS
330
C
102
}
330
C
100
AcDbDictionary
281
     1
  3
Layout1
350
1D
  3
Model
350
21
  0
DICTIONARY
  5
F4D
102
{ACAD_REACTORS
330
C
102
}
330
C
100
AcDbDictionary
281
     1
  0
DICTIONARY
  5
16
102
{ACAD_REACTORS
330
C
102
}
330
C
100
AcDbDictionary
281
     1
  3
Standard
350
17
  0
DICTIONARY
  5
18
102
{ACAD_REACTORS
330
C
102
}
330
C
100
AcDbDictionary
281
     1
  0
ACDBDICTIONARYWDFLT
  5
E
102
{ACAD_REACTORS
330
C
102
}
330
C
100
AcDbDictionary
281
     1
  3
Normal
350
F
100
AcDbDictionaryWithDefault
340
F
  0
DICTIONARY
  5
246
102
{ACAD_REACTORS
330
C
102
}
330
C
100
AcDbDictionary
281
     1
  3
DIMASSOC
350
12BE
  3
PROJECTNAME
350
12BF
  3
SORTENTS
350
247
  0
LAYOUT
  5
1D
102
{ACAD_REACTORS
330
19
102
}
330
19
100
AcDbPlotSettings
  1

  2
Tektronix Phaser 740
  4

  6

 40
0.0
 41
0.0
 42
0.0
 43
0.0
 44
0.0
 45
0.0
 46
0.0
 47
0.0
 48
0.0
 49
0.0
140
0.0
141
0.0
142
1.0
143
1.0
 70
   688
 72
     0
 73
     0
 74
     5
  7
monochrome.ctb
 75
    16
147
1.0
 76
     0
 77
     2
 78
   300
148
0.0
149
0.0
100
AcDbLayout
  1
Layout1
 70
     0
 71
     1
 10
0.0
 20
0.0
 11
12.0
 21
9.0
 12
0.0
 22
0.0
 32
0.0
 14
1.000000000000000E+20
 24
1.000000000000000E+20
 34
1.000000000000000E+20
 15
-1.000000000000000E+20
 25
-1.000000000000000E+20
 35
-1.000000000000000E+20
146
0.0
 13
0.0
 23
0.0
 33
0.0
 16
1.0
 26
0.0
 36
0.0
 17
0.0
 27
1.0
 37
0.0
 76
     0
330
1A
  0
LAYOUT
  5
21
102
{ACAD_REACTORS
330
19
102
}
330
19
100
AcDbPlotSettings
  1

  2
Tektronix Phaser 740
  4
A4
  6

 40
5.873749732971191
 41
6.085414409637451
 42
5.577407836914062
 43
5.662078857421875
 44
209.9733276367187
 45
296.9683227539062
 46
0.0
 47
0.0
 48
0.0
 49
0.0
140
0.0
141
0.0
142
1.0
143
1.0
 70
 11952
 72
     0
 73
     1
 74
     0
  7
monochrome.ctb
 75
     0
147
1.0
 76
     0
 77
     2
 78
   300
148
1150.120678237584
149
45.30495740799864
100
AcDbLayout
  1
Model
 70
     1
 71
     0
 10
0.0
 20
0.0
 11
12.0
 21
9.0
 12
0.0
 22
0.0
 32
0.0
 14
0.0
 24
0.0
 34
0.0
 15
0.0
 25
0.0
 35
0.0
146
0.0
 13
0.0
 23
0.0
 33
0.0
 16
1.0
 26
0.0
 36
0.0
 17
0.0
 27
1.0
 37
0.0
 76
     0
330
1E
  0
MLINESTYLE
  5
17
102
{ACAD_REACTORS
330
16
102
}
330
16
100
AcDbMlineStyle
  2
STANDARD
 70
     0
  3

 62
   256
 51
90.0
 52
90.0
 71
     2
 49
0.5
 62
   256
  6
BYLAYER
 49
-0.5
 62
   256
  6
BYLAYER
  0
ACDBPLACEHOLDER
  5
F
102
{ACAD_REACTORS
330
E
102
}
330
E
  0
DICTIONARYVAR
  5
12BE
102
{ACAD_REACTORS
330
246
102
}
330
246
100
DictionaryVariables
280
     0
  1
1
  0
DICTIONARYVAR
  5
12BF
102
{ACAD_REACTORS
330
246
102
}
330
246
100
DictionaryVariables
280
     0
  1

  0
DICTIONARYVAR
  5
247
102
{ACAD_REACTORS
330
246
102
}
330
246
100
DictionaryVariables
280
     0
  1
96
  0
ENDSEC
  0
EOF
