  0
SECTION
  2
HEADER
  9
$ACADVER
  1
AC1018
  9
$ACADMAINTVER
 70
     2
  9
$DWGCODEPAGE
  3
ANSI_1252
  9
$INSBASE
 10
0.0
 20
0.0
 30
0.0
  9
$EXTMIN
 10
-0.0185004237172279
 20
-0.0271662660218226
 30
-0.0000000000000021
  9
$EXTMAX
 10
420.0101204451609
 20
594.0181250220444
 30
0.0000000000000132
  9
$LIMMIN
 10
0.0
 20
0.0
  9
$LIMMAX
 10
419.9999999999999
 20
594.0000000000002
  9
$ORTHOMODE
 70
     0
  9
$REGENMODE
 70
     1
  9
$FILLMODE
 70
     1
  9
$QTEXTMODE
 70
     0
  9
$MIRRTEXT
 70
     1
  9
$LTSCALE
 40
20.0
  9
$ATTMODE
 70
     1
  9
$TEXTSIZE
 40
3.5
  9
$TRACEWID
 40
0.5
  9
$TEXTSTYLE
  7
STANDARD
  9
$CLAYER
  8
VOLL
  9
$CELTYPE
  6
ByLayer
  9
$CECOLOR
 62
   256
  9
$CELTSCALE
 40
1.0
  9
$DISPSILH
 70
     0
  9
$DIMSCALE
 40
2.0
  9
$DIMASZ
 40
3.5
  9
$DIMEXO
 40
1.0
  9
$DIMDLI
 40
7.0
  9
$DIMRND
 40
0.0
  9
$DIMDLE
 40
0.0
  9
$DIMEXE
 40
1.0
  9
$DIMTP
 40
0.0
  9
$DIMTM
 40
0.0
  9
$DIMTXT
 40
3.5
  9
$DIMCEN
 40
1.5
  9
$DIMTSZ
 40
0.0
  9
$DIMTOL
 70
     0
  9
$DIMLIM
 70
     0
  9
$DIMTIH
 70
     0
  9
$DIMTOH
 70
     0
  9
$DIMSE1
 70
     0
  9
$DIMSE2
 70
     0
  9
$DIMTAD
 70
     1
  9
$DIMZIN
 70
     8
  9
$DIMBLK
  1

  9
$DIMASO
 70
     1
  9
$DIMSHO
 70
     0
  9
$DIMPOST
  1

  9
$DIMAPOST
  1

  9
$DIMALT
 70
     0
  9
$DIMALTD
 70
     2
  9
$DIMALTF
 40
25.4
  9
$DIMLFAC
 40
1.0
  9
$DIMTOFL
 70
     1
  9
$DIMTVP
 40
0.0
  9
$DIMTIX
 70
     0
  9
$DIMSOXD
 70
     0
  9
$DIMSAH
 70
     0
  9
$DIMBLK1
  1

  9
$DIMBLK2
  1

  9
$DIMSTYLE
  2
Standard
  9
$DIMCLRD
 70
     0
  9
$DIMCLRE
 70
     0
  9
$DIMCLRT
 70
     1
  9
$DIMTFAC
 40
0.5142857142857144
  9
$DIMGAP
 40
1.5
  9
$DIMJUST
 70
     0
  9
$DIMSD1
 70
     0
  9
$DIMSD2
 70
     0
  9
$DIMTOLJ
 70
     1
  9
$DIMTZIN
 70
     8
  9
$DIMALTZ
 70
     8
  9
$DIMALTTZ
 70
     8
  9
$DIMUPT
 70
     0
  9
$DIMDEC
 70
     2
  9
$DIMTDEC
 70
     2
  9
$DIMALTU
 70
     2
  9
$DIMALTTD
 70
     2
  9
$DIMTXSTY
  7
STANDARD
  9
$DIMAUNIT
 70
     0
  9
$DIMADEC
 70
     2
  9
$DIMALTRND
 40
0.0
  9
$DIMAZIN
 70
     2
  9
$DIMDSEP
 70
    46
  9
$DIMATFIT
 70
     3
  9
$DIMFRAC
 70
     0
  9
$DIMLDRBLK
  1

  9
$DIMLUNIT
 70
     2
  9
$DIMLWD
 70
    -2
  9
$DIMLWE
 70
    -2
  9
$DIMTMOVE
 70
     0
  9
$LUNITS
 70
     2
  9
$LUPREC
 70
     2
  9
$SKETCHINC
 40
1.0
  9
$FILLETRAD
 40
0.0
  9
$AUNITS
 70
     1
  9
$AUPREC
 70
     3
  9
$MENU
  1
ACAD
  9
$ELEVATION
 40
0.0
  9
$PELEVATION
 40
0.0
  9
$THICKNESS
 40
0.0
  9
$LIMCHECK
 70
     0
  9
$CHAMFERA
 40
0.0
  9
$CHAMFERB
 40
0.0
  9
$CHAMFERC
 40
0.0
  9
$CHAMFERD
 40
0.0
  9
$SKPOLY
 70
     0
  9
$TDCREATE
 40
2452040.637099653
  9
$TDUCREATE
 40
2452040.553766320
  9
$TDUPDATE
 40
2455663.360450498
  9
$TDUUPDATE
 40
2455663.277117164
  9
$TDINDWG
 40
0.3993985069
  9
$TDUSRTIMER
 40
0.3993985069
  9
$USRTIMER
 70
     1
  9
$ANGBASE
 50
0.0
  9
$ANGDIR
 70
     0
  9
$PDMODE
 70
     0
  9
$PDSIZE
 40
0.0
  9
$PLINEWID
 40
0.0
  9
$SPLFRAME
 70
     0
  9
$SPLINETYPE
 70
     6
  9
$SPLINESEGS
 70
     8
  9
$HANDSEED
  5
19BF
  9
$SURFTAB1
 70
     6
  9
$SURFTAB2
 70
     6
  9
$SURFTYPE
 70
     6
  9
$SURFU
 70
     6
  9
$SURFV
 70
     6
  9
$UCSBASE
  2

  9
$UCSNAME
  2

  9
$UCSORG
 10
0.0
 20
0.0
 30
0.0
  9
$UCSXDIR
 10
1.0
 20
0.0
 30
0.0
  9
$UCSYDIR
 10
0.0
 20
1.0
 30
0.0
  9
$UCSORTHOREF
  2

  9
$UCSORTHOVIEW
 70
     0
  9
$UCSORGTOP
 10
0.0
 20
0.0
 30
0.0
  9
$UCSORGBOTTOM
 10
0.0
 20
0.0
 30
0.0
  9
$UCSORGLEFT
 10
0.0
 20
0.0
 30
0.0
  9
$UCSORGRIGHT
 10
0.0
 20
0.0
 30
0.0
  9
$UCSORGFRONT
 10
0.0
 20
0.0
 30
0.0
  9
$UCSORGBACK
 10
0.0
 20
0.0
 30
0.0
  9
$PUCSBASE
  2

  9
$PUCSNAME
  2

  9
$PUCSORG
 10
0.0
 20
0.0
 30
0.0
  9
$PUCSXDIR
 10
1.0
 20
0.0
 30
0.0
  9
$PUCSYDIR
 10
0.0
 20
1.0
 30
0.0
  9
$PUCSORTHOREF
  2

  9
$PUCSORTHOVIEW
 70
     0
  9
$PUCSORGTOP
 10
0.0
 20
0.0
 30
0.0
  9
$PUCSORGBOTTOM
 10
0.0
 20
0.0
 30
0.0
  9
$PUCSORGLEFT
 10
0.0
 20
0.0
 30
0.0
  9
$PUCSORGRIGHT
 10
0.0
 20
0.0
 30
0.0
  9
$PUCSORGFRONT
 10
0.0
 20
0.0
 30
0.0
  9
$PUCSORGBACK
 10
0.0
 20
0.0
 30
0.0
  9
$USERI1
 70
     0
  9
$USERI2
 70
     0
  9
$USERI3
 70
     0
  9
$USERI4
 70
     0
  9
$USERI5
 70
     0
  9
$USERR1
 40
0.0
  9
$USERR2
 40
0.0
  9
$USERR3
 40
0.0
  9
$USERR4
 40
0.0
  9
$USERR5
 40
0.0
  9
$WORLDVIEW
 70
     1
  9
$SHADEDGE
 70
     3
  9
$SHADEDIF
 70
    70
  9
$TILEMODE
 70
     1
  9
$MAXACTVP
 70
    16
  9
$PINSBASE
 10
0.0
 20
0.0
 30
0.0
  9
$PLIMCHECK
 70
     0
  9
$PEXTMIN
 10
1.000000000000000E+20
 20
1.000000000000000E+20
 30
1.000000000000000E+20
  9
$PEXTMAX
 10
-1.000000000000000E+20
 20
-1.000000000000000E+20
 30
-1.000000000000000E+20
  9
$PLIMMIN
 10
0.0
 20
0.0
  9
$PLIMMAX
 10
12.0
 20
9.0
  9
$UNITMODE
 70
     0
  9
$VISRETAIN
 70
     0
  9
$PLINEGEN
 70
     0
  9
$PSLTSCALE
 70
     0
  9
$TREEDEPTH
 70
  3020
  9
$CMLSTYLE
  2
Standard
  9
$CMLJUST
 70
     0
  9
$CMLSCALE
 40
1.0
  9
$PROXYGRAPHICS
 70
     1
  9
$MEASUREMENT
 70
     0
  9
$CELWEIGHT
370
    -1
  9
$ENDCAPS
280
     0
  9
$JOINSTYLE
280
     0
  9
$LWDISPLAY
290
     0
  9
$INSUNITS
 70
     0
  9
$HYPERLINKBASE
  1

  9
$STYLESHEET
  1
monochrome 1.ctb
  9
$XEDIT
290
     1
  9
$CEPSNTYPE
380
     0
  9
$PSTYLEMODE
290
     1
  9
$FINGERPRINTGUID
  2
{7AADB5C8-6110-11D8-B72B-000102183313}
  9
$VERSIONGUID
  2
{542763AD-40E9-498E-B177-4A8179BA96E7}
  9
$EXTNAMES
290
     1
  9
$PSVPSCALE
 40
0.0
  9
$OLESTARTUP
290
     0
  9
$SORTENTS
280
    96
  9
$INDEXCTL
280
     0
  9
$HIDETEXT
280
     0
  9
$XCLIPFRAME
290
     0
  9
$HALOGAP
280
     0
  9
$OBSCOLOR
 70
   257
  9
$OBSLTYPE
280
     0
  9
$INTERSECTIONDISPLAY
280
     0
  9
$INTERSECTIONCOLOR
 70
   257
  9
$DIMASSOC
280
     1
  9
$PROJECTNAME
  1

  0
ENDSEC
  0
SECTION
  2
CLASSES
  0
CLASS
  1
ACDBDICTIONARYWDFLT
  2
AcDbDictionaryWithDefault
  3
ObjectDBX Classes
 90
        0
 91
        1
280
     0
281
     0
  0
CLASS
  1
DICTIONARYVAR
  2
AcDbDictionaryVar
  3
ObjectDBX Classes
 90
        0
 91
        3
280
     0
281
     0
  0
ENDSEC
  0
SECTION
  2
TABLES
  0
TABLE
  2
VPORT
  5
8
330
0
100
AcDbSymbolTable
 70
     3
  0
VPORT
  5
19BE
330
8
100
AcDbSymbolTableRecord
100
AcDbViewportTableRecord
  2
*Active
 70
     0
 10
0.0
 20
0.0
 11
1.0
 21
1.0
 12
210.0
 22
297.0
 13
0.0
 23
0.0
 14
1.0
 24
1.0
 15
10.0
 25
10.0
 16
0.0
 26
0.0
 36
1.0
 17
0.0
 27
0.0
 37
0.0
 40
594.0
 41
1.334231805929919
 42
50.0
 43
0.0
 44
0.0
 50
0.0
 51
0.0
 71
     0
 72
  1500
 73
     1
 74
     0
 75
     0
 76
     0
 77
     0
 78
     0
281
     0
 65
     1
110
0.0
120
0.0
130
0.0
111
1.0
121
0.0
131
0.0
112
0.0
122
1.0
132
0.0
 79
     0
146
0.0
  0
ENDTAB
  0
TABLE
  2
LTYPE
  5
5
330
0
100
AcDbSymbolTable
 70
     2
  0
LTYPE
  5
13
330
5
100
AcDbSymbolTableRecord
100
AcDbLinetypeTableRecord
  2
ByBlock
 70
     0
  3

 72
    65
 73
     0
 40
0.0
  0
LTYPE
  5
14
330
5
100
AcDbSymbolTableRecord
100
AcDbLinetypeTableRecord
  2
ByLayer
 70
     0
  3

 72
    65
 73
     0
 40
0.0
  0
LTYPE
  5
15
330
5
100
AcDbSymbolTableRecord
100
AcDbLinetypeTableRecord
  2
Continuous
 70
     0
  3
Solid line
 72
    65
 73
     0
 40
0.0
  0
LTYPE
  5
35
330
5
100
AcDbSymbolTableRecord
100
AcDbLinetypeTableRecord
  2
STRICHPUNKT
 70
     0
  3
__ . __ . __ . __ . __ . __ . __ . __ . __ . __
 72
    65
 73
     4
 40
1.0
 49
0.5
 74
     0
 49
-0.25
 74
     0
 49
0.0
 74
     0
 49
-0.25
 74
     0
  0
ENDTAB
  0
TABLE
  2
LAYER
  5
2
330
0
100
AcDbSymbolTable
 70
     9
  0
LAYER
  5
10
330
2
100
AcDbSymbolTableRecord
100
AcDbLayerTableRecord
  2
0
 70
     0
 62
     7
  6
Continuous
370
    -3
390
F
  0
LAYER
  5
38
330
2
100
AcDbSymbolTableRecord
100
AcDbLayerTableRecord
  2
VOLL
 70
     0
 62
     1
  6
Continuous
370
    -3
390
F
  0
LAYER
  5
39
330
2
100
AcDbSymbolTableRecord
100
AcDbLayerTableRecord
  2
HILF
 70
     0
 62
     2
  6
Continuous
370
    -3
390
F
  0
LAYER
  5
3A
330
2
100
AcDbSymbolTableRecord
100
AcDbLayerTableRecord
  2
MITTEL
 70
     0
 62
     2
  6
STRICHPUNKT
370
    -3
390
F
  0
LAYER
  5
3B
330
2
100
AcDbSymbolTableRecord
100
AcDbLayerTableRecord
  2
BEM
 70
     0
 62
     7
  6
Continuous
370
    -3
390
F
  0
LAYER
  5
3C
330
2
100
AcDbSymbolTableRecord
100
AcDbLayerTableRecord
  2
STEMPEL
 70
     0
 62
     3
  6
Continuous
370
    -3
390
F
  0
LAYER
  5
3D
330
2
100
AcDbSymbolTableRecord
100
AcDbLayerTableRecord
  2
TEXT
 70
     0
 62
     7
  6
Continuous
370
    -3
390
F
  0
LAYER
  5
3E
330
2
100
AcDbSymbolTableRecord
100
AcDbLayerTableRecord
  2
DEFPOINTS
 70
     0
 62
     7
  6
Continuous
290
     0
370
    -3
390
F
  0
LAYER
  5
3F
330
2
100
AcDbSymbolTableRecord
100
AcDbLayerTableRecord
  2
SCHRAFF
 70
     0
 62
     7
  6
Continuous
370
    -3
390
F
  0
ENDTAB
  0
TABLE
  2
STYLE
  5
3
330
0
100
AcDbSymbolTable
 70
     2
  0
STYLE
  5
11
330
3
100
AcDbSymbolTableRecord
100
AcDbTextStyleTableRecord
  2
STANDARD
 70
     0
 40
0.0
 41
0.8
 50
0.0
 71
     0
 42
3.5
  3
simplex.shx
  4

  0
STYLE
  5
34
330
3
100
AcDbSymbolTableRecord
100
AcDbTextStyleTableRecord
  2
GREEKS
 70
     0
 40
0.0
 41
0.8
 50
0.0
 71
     0
 42
2.5
  3
SIMPLEX.shx
  4

  0
ENDTAB
  0
TABLE
  2
VIEW
  5
6
330
0
100
AcDbSymbolTable
 70
     0
  0
ENDTAB
  0
TABLE
  2
UCS
  5
7
330
0
100
AcDbSymbolTable
 70
     0
  0
ENDTAB
  0
TABLE
  2
APPID
  5
9
330
0
100
AcDbSymbolTable
 70
     1
  0
APPID
  5
12
330
9
100
AcDbSymbolTableRecord
100
AcDbRegAppTableRecord
  2
ACAD
 70
     0
  0
ENDTAB
  0
TABLE
  2
DIMSTYLE
  5
A
330
0
100
AcDbSymbolTable
 70
     1
100
AcDbDimStyleTable
 71
     1
340
1CB
  0
DIMSTYLE
105
1CB
102
{ACAD_REACTORS
330
1208
330
1256
330
107C
330
1894
102
}
330
A
100
AcDbSymbolTableRecord
100
AcDbDimStyleTableRecord
  2
Standard
 70
     0
340
11
  0
ENDTAB
  0
TABLE
  2
BLOCK_RECORD
  5
1
330
0
100
AcDbSymbolTable
 70
     8
  0
BLOCK_RECORD
  5
1E
330
1
100
AcDbSymbolTableRecord
100
AcDbBlockTableRecord
  2
*Model_Space
340
21
  0
BLOCK_RECORD
  5
1A
330
1
100
AcDbSymbolTableRecord
100
AcDbBlockTableRecord
  2
*Paper_Space
340
1D
  0
BLOCK_RECORD
  5
22
330
1
100
AcDbSymbolTableRecord
100
AcDbBlockTableRecord
  2
LOGO
340
0
102
{BLKREFS
331
135
102
}
  0
BLOCK_RECORD
  5
1093
330
1
100
AcDbSymbolTableRecord
100
AcDbBlockTableRecord
  2
*D1
340
0
  0
BLOCK_RECORD
  5
1220
330
1
100
AcDbSymbolTableRecord
100
AcDbBlockTableRecord
  2
*D3
340
0
  0
BLOCK_RECORD
  5
1257
330
1
100
AcDbSymbolTableRecord
100
AcDbBlockTableRecord
  2
*D4
340
0
  0
BLOCK_RECORD
  5
1895
330
1
100
AcDbSymbolTableRecord
100
AcDbBlockTableRecord
  2
*D5
340
0
  0
ENDTAB
  0
ENDSEC
  0
SECTION
  2
BLOCKS
  0
BLOCK
  5
43
330
1E
100
AcDbEntity
  8
0
100
AcDbBlockBegin
  2
*Model_Space
 70
     0
 10
0.0
 20
0.0
 30
0.0
  3
*Model_Space
  1

  0
ENDBLK
  5
44
330
1E
100
AcDbEntity
  8
0
100
AcDbBlockEnd
  0
BLOCK
  5
41
330
1A
100
AcDbEntity
 67
     1
  8
0
100
AcDbBlockBegin
  2
*Paper_Space
 70
     0
 10
0.0
 20
0.0
 30
0.0
  3
*Paper_Space
  1

  0
ENDBLK
  5
42
330
1A
100
AcDbEntity
 67
     1
  8
0
100
AcDbBlockEnd
  0
BLOCK
  5
45
330
22
100
AcDbEntity
  8
0
100
AcDbBlockBegin
  2
LOGO
 70
     0
 10
0.0
 20
0.0
 30
0.0
  3
LOGO
  1

  0
ARC
  5
46
330
22
100
AcDbEntity
  8
0
100
AcDbCircle
 10
11.59973089678112
 20
-9.271599258481501
 30
0.0
 40
4.5
100
AcDbArc
 50
270.0
 51
231.0575587310159
  0
LINE
  5
47
330
22
100
AcDbEntity
  8
0
100
AcDbLine
 10
3.599730896781125
 20
-4.771599258481529
 30
0.0
 11
3.599730896781153
 21
-11.77159925848133
 31
0.0
  0
LINE
  5
48
330
22
100
AcDbEntity
  8
0
100
AcDbLine
 10
2.599730896781125
 20
-4.771599258481529
 30
0.0
 11
2.599730896781153
 21
-11.77159925848133
 31
0.0
  0
CIRCLE
  5
49
330
22
100
AcDbEntity
  8
0
100
AcDbCircle
 10
11.59973089678112
 20
-9.271599258481501
 30
0.0
 40
3.5
  0
ARC
  5
4A
330
22
100
AcDbEntity
  8
0
100
AcDbCircle
 10
31.59973089678115
 20
-9.271599258481472
 30
0.0
 40
4.5
100
AcDbArc
 50
270.0
 51
231.0575587310182
  0
LINE
  5
4B
330
22
100
AcDbEntity
  8
0
100
AcDbLine
 10
17.59973089678112
 20
-4.771599258481472
 30
0.0
 11
17.59973089678115
 21
-13.77159925848147
 31
0.0
  0
ARC
  5
4C
330
22
100
AcDbEntity
  8
0
100
AcDbCircle
 10
22.59973089678116
 20
-7.271599258481472
 30
0.0
 40
2.5
100
AcDbArc
 50
293.1161887722295
 51
90.0
  0
CIRCLE
  5
4D
330
22
100
AcDbEntity
  8
0
100
AcDbCircle
 10
31.59973089678115
 20
-9.271599258481472
 30
0.0
 40
3.5
  0
ARC
  5
4E
330
22
100
AcDbEntity
  8
0
100
AcDbCircle
 10
4.599730896781153
 20
-11.77159925848133
 30
0.0
 40
1.0
100
AcDbArc
 50
180.0
 51
270.0
  0
ARC
  5
4F
330
22
100
AcDbEntity
  8
0
100
AcDbCircle
 10
4.599730896781153
 20
-11.77159925848133
 30
0.0
 40
2.0
100
AcDbArc
 50
179.9999999999992
 51
270.0
  0
LINE
  5
50
330
22
100
AcDbEntity
  8
0
100
AcDbLine
 10
11.59973089678115
 20
-13.77159925848144
 30
0.0
 11
4.599730896781153
 21
-13.77159925848147
 31
0.0
  0
LINE
  5
51
330
22
100
AcDbEntity
  8
0
100
AcDbLine
 10
8.771303772034769
 20
-12.77159925848136
 30
0.0
 11
4.599730896781153
 21
-12.77159925848133
 31
0.0
  0
LINE
  5
52
330
22
100
AcDbEntity
  8
0
100
AcDbLine
 10
31.59973089678115
 20
-13.77159925848147
 30
0.0
 11
23.6715276665056
 21
-13.77159925848144
 31
0.0
  0
LINE
  5
53
330
22
100
AcDbEntity
  8
0
100
AcDbLine
 10
23.56565672307022
 20
-9.51278021337896
 30
0.0
 11
24.4388546544846
 21
-12.77159925848144
 31
0.0
  0
LINE
  5
54
330
22
100
AcDbEntity
  8
0
100
AcDbLine
 10
22.59973089678116
 20
-9.771599258481472
 30
0.0
 11
18.59973089678112
 21
-9.771599258481472
 31
0.0
  0
LINE
  5
55
330
22
100
AcDbEntity
  8
0
100
AcDbLine
 10
18.59973089678115
 20
-13.77159925848144
 30
0.0
 11
17.59973089678115
 21
-13.77159925848144
 31
0.0
  0
LINE
  5
56
330
22
100
AcDbEntity
  8
0
100
AcDbLine
 10
18.59973089678115
 20
-9.771599258481472
 30
0.0
 11
18.59973089678115
 21
-13.77159925848144
 31
0.0
  0
LINE
  5
57
330
22
100
AcDbEntity
  8
0
100
AcDbLine
 10
22.59973089678116
 20
-9.771599258481472
 30
0.0
 11
23.67152766650562
 21
-13.77159925848147
 31
0.0
  0
ARC
  5
58
330
22
100
AcDbEntity
  8
0
100
AcDbCircle
 10
22.59973089678116
 20
-7.271599258481472
 30
0.0
 40
2.5
100
AcDbArc
 50
270.0
 51
270.0000000000007
  0
LINE
  5
59
330
22
100
AcDbEntity
  8
0
100
AcDbLine
 10
28.77130377203494
 20
-12.77159925848147
 30
0.0
 11
24.43885465448463
 21
-12.77159925848144
 31
0.0
  0
LINE
  5
5A
330
22
100
AcDbEntity
  8
0
100
AcDbLine
 10
3.599730896781125
 20
-4.771599258481472
 30
0.0
 11
2.599730896781125
 21
-4.771599258481472
 31
0.0
  0
LINE
  5
5B
330
22
100
AcDbEntity
  8
0
100
AcDbLine
 10
22.59973089678116
 20
-8.771599258481472
 30
0.0
 11
18.59973089678115
 21
-8.771599258481472
 31
0.0
  0
LINE
  5
5C
330
22
100
AcDbEntity
  8
0
100
AcDbLine
 10
22.59973089678116
 20
-5.771599258481472
 30
0.0
 11
18.59973089678115
 21
-5.771599258481472
 31
0.0
  0
LINE
  5
5D
330
22
100
AcDbEntity
  8
0
100
AcDbLine
 10
22.59973089678116
 20
-4.771599258481472
 30
0.0
 11
17.59973089678115
 21
-4.771599258481472
 31
0.0
  0
LINE
  5
5E
330
22
100
AcDbEntity
  8
0
100
AcDbLine
 10
18.59973089678115
 20
-5.771599258481472
 30
0.0
 11
18.59973089678115
 21
-8.771599258481472
 31
0.0
  0
ARC
  5
5F
330
22
100
AcDbEntity
  8
0
100
AcDbCircle
 10
22.59973089678116
 20
-7.271599258481472
 30
0.0
 40
1.5
100
AcDbArc
 50
270.0
 51
90.0
  0
ENDBLK
  5
60
330
22
100
AcDbEntity
  8
0
100
AcDbBlockEnd
  0
BLOCK
  5
109D
330
1093
100
AcDbEntity
  8
0
100
AcDbBlockBegin
  2
*D1
 70
     1
 10
0.0
 20
0.0
 30
0.0
  3
*D1
  1

  0
LINE
  5
18B9
330
1093
100
AcDbEntity
  8
BEM
 62
     0
370
    -2
100
AcDbLine
 10
138.9765027379711
 20
224.4497149751981
 30
0.0
 11
138.9765027379711
 21
194.02594249377
 31
0.0
  0
LINE
  5
18BA
330
1093
100
AcDbEntity
  8
BEM
 62
     0
370
    -2
100
AcDbLine
 10
297.9765027379714
 20
224.4497149751969
 30
0.0
 11
297.9765027379714
 21
194.02594249377
 31
0.0
  0
LINE
  5
18BB
330
1093
100
AcDbEntity
  8
BEM
 62
     0
370
    -2
100
AcDbLine
 10
145.9765027379711
 20
196.02594249377
 30
0.0
 11
290.9765027379714
 21
196.02594249377
 31
0.0
  0
SOLID
  5
18BC
330
1093
100
AcDbEntity
  8
BEM
 62
     0
100
AcDbTrace
 10
145.9765027379711
 20
197.1926091604366
 30
0.0
 11
145.9765027379711
 21
194.8592758271034
 31
0.0
 12
138.9765027379711
 22
196.02594249377
 32
0.0
 13
138.9765027379711
 23
196.02594249377
 33
0.0
  0
SOLID
  5
18BD
330
1093
100
AcDbEntity
  8
BEM
 62
     0
100
AcDbTrace
 10
290.9765027379714
 20
197.1926091604366
 30
0.0
 11
290.9765027379714
 21
194.8592758271034
 31
0.0
 12
297.9765027379714
 22
196.02594249377
 32
0.0
 13
297.9765027379714
 23
196.02594249377
 33
0.0
  0
MTEXT
  5
18BE
330
1093
100
AcDbEntity
  8
BEM
 62
     1
100
AcDbMText
 10
218.4765027379713
 20
202.52594249377
 30
0.0
 40
7.0
 41
0.0
 71
     5
 72
     1
  1
\A1;%%c159
 73
     1
 44
1.0
  0
POINT
  5
18BF
330
1093
100
AcDbEntity
  8
DEFPOINTS
 62
     0
100
AcDbPoint
 10
138.9765027379711
 20
226.4497149751981
 30
0.0
  0
POINT
  5
18C0
330
1093
100
AcDbEntity
  8
DEFPOINTS
 62
     0
100
AcDbPoint
 10
297.9765027379714
 20
226.4497149751969
 30
0.0
  0
POINT
  5
18C1
330
1093
100
AcDbEntity
  8
DEFPOINTS
 62
     0
100
AcDbPoint
 10
297.9765027379714
 20
196.02594249377
 30
0.0
  0
ENDBLK
  5
109E
330
1093
100
AcDbEntity
  8
0
100
AcDbBlockEnd
  0
BLOCK
  5
122A
330
1220
100
AcDbEntity
  8
0
100
AcDbBlockBegin
  2
*D3
 70
     1
 10
0.0
 20
0.0
 30
0.0
  3
*D3
  1

  0
LINE
  5
18CB
330
1220
100
AcDbEntity
  8
BEM
 62
     0
370
    -2
100
AcDbLine
 10
216.544651085393
 20
341.9673530654024
 30
0.0
 11
116.4612038129296
 21
368.7846319377698
 31
0.0
  0
LINE
  5
18CC
330
1220
100
AcDbEntity
  8
BEM
 62
     0
370
    -2
100
AcDbLine
 10
166.160590472802
 20
484.8772439692074
 30
0.0
 11
148.8135844507338
 21
489.5253602239162
 31
0.0
  0
LINE
  5
18CD
330
1220
100
AcDbEntity
  8
BEM
 62
     0
370
    -2
100
AcDbLine
 10
120.2047887812247
 20
375.0284746315888
 30
0.0
 11
148.9337027875951
 21
482.2462413496878
 31
0.0
  0
SOLID
  5
18CE
330
1220
100
AcDbEntity
  8
BEM
 62
     0
100
AcDbTrace
 10
119.0778753172208
 20
375.3304301842082
 30
0.0
 11
121.3317022452286
 21
374.7265190789693
 31
0.0
 12
118.3930554655078
 22
368.2669938475651
 32
0.0
 13
118.3930554655078
 23
368.2669938475651
 33
0.0
  0
SOLID
  5
18CF
330
1220
100
AcDbEntity
  8
BEM
 62
     0
100
AcDbTrace
 10
147.8067893235911
 20
482.5481969023072
 30
0.0
 11
150.060616251599
 21
481.9442857970683
 31
0.0
 12
150.745436103312
 22
489.0077221337114
 32
0.0
 13
150.745436103312
 23
489.0077221337114
 33
0.0
  0
MTEXT
  5
18D0
330
1220
100
AcDbEntity
  8
BEM
 62
     1
100
AcDbMText
 10
128.2907279135307
 20
430.3196817838038
 30
0.0
 40
7.0
 41
0.0
 71
     5
 72
     1
  1
\A1;125
 11
0.2588190451024133
 21
0.965925826289097
 31
0.0
 73
     1
 44
1.0
  0
POINT
  5
18D1
330
1220
100
AcDbEntity
  8
DEFPOINTS
 62
     0
100
AcDbPoint
 10
218.4765027379712
 20
341.4497149751976
 30
0.0
  0
POINT
  5
18D2
330
1220
100
AcDbEntity
  8
DEFPOINTS
 62
     0
100
AcDbPoint
 10
168.0924421253801
 20
484.3596058790025
 30
0.0
  0
POINT
  5
18D3
330
1220
100
AcDbEntity
  8
DEFPOINTS
 62
     0
100
AcDbPoint
 10
150.745436103312
 20
489.0077221337114
 30
0.0
  0
ENDBLK
  5
122B
330
1220
100
AcDbEntity
  8
0
100
AcDbBlockEnd
  0
BLOCK
  5
1261
330
1257
100
AcDbEntity
  8
0
100
AcDbBlockBegin
  2
*D4
 70
     1
 10
0.0
 20
0.0
 30
0.0
  3
*D4
  1

  0
LINE
  5
18C2
330
1257
100
AcDbEntity
  8
BEM
 62
     0
370
    -2
100
AcDbLine
 10
137.8513893732303
 20
216.4497149751976
 30
0.0
 11
113.5930532037104
 21
216.4497149751976
 31
0.0
  0
LINE
  5
18C3
330
1257
100
AcDbEntity
  8
BEM
 62
     0
370
    -2
100
AcDbLine
 10
216.4765027379712
 20
341.4497149751976
 30
0.0
 11
113.5930532037104
 21
341.4497149751976
 31
0.0
  0
LINE
  5
18C4
330
1257
100
AcDbEntity
  8
BEM
 62
     0
370
    -2
100
AcDbLine
 10
115.5930532037104
 20
223.4497149751975
 30
0.0
 11
115.5930532037104
 21
334.4497149751977
 31
0.0
  0
SOLID
  5
18C5
330
1257
100
AcDbEntity
  8
BEM
 62
     0
100
AcDbTrace
 10
114.4263865370437
 20
223.4497149751975
 30
0.0
 11
116.759719870377
 21
223.4497149751975
 31
0.0
 12
115.5930532037104
 22
216.4497149751976
 32
0.0
 13
115.5930532037104
 23
216.4497149751976
 33
0.0
  0
SOLID
  5
18C6
330
1257
100
AcDbEntity
  8
BEM
 62
     0
100
AcDbTrace
 10
114.4263865370437
 20
334.4497149751977
 30
0.0
 11
116.759719870377
 21
334.4497149751977
 31
0.0
 12
115.5930532037104
 22
341.4497149751976
 32
0.0
 13
115.5930532037104
 23
341.4497149751976
 33
0.0
  0
MTEXT
  5
18C7
330
1257
100
AcDbEntity
  8
BEM
 62
     1
100
AcDbMText
 10
109.0930532037103
 20
278.9497149751976
 30
0.0
 40
7.0
 41
0.0
 71
     5
 72
     1
  1
\A1;125
 11
0.0000000000000001
 21
1.0
 31
0.0
 73
     1
 44
1.0
  0
POINT
  5
18C8
330
1257
100
AcDbEntity
  8
DEFPOINTS
 62
     0
100
AcDbPoint
 10
139.8513893732303
 20
216.4497149751976
 30
0.0
  0
POINT
  5
18C9
330
1257
100
AcDbEntity
  8
DEFPOINTS
 62
     0
100
AcDbPoint
 10
218.4765027379712
 20
341.4497149751976
 30
0.0
  0
POINT
  5
18CA
330
1257
100
AcDbEntity
  8
DEFPOINTS
 62
     0
100
AcDbPoint
 10
115.5930532037104
 20
341.4497149751976
 30
0.0
  0
ENDBLK
  5
1262
330
1257
100
AcDbEntity
  8
0
100
AcDbBlockEnd
  0
BLOCK
  5
18A1
330
1895
100
AcDbEntity
  8
0
100
AcDbBlockBegin
  2
*D5
 70
     1
 10
0.0
 20
0.0
 30
0.0
  3
*D5
  1

  0
LINE
  5
18AE
330
1895
100
AcDbEntity
  8
BEM
 62
     0
370
    -2
100
AcDbLine
 10
252.640616691504
 20
468.9519240453546
 30
0.0
 11
256.828374706356
 21
484.5808497265858
 31
0.0
  0
LINE
  5
18AF
330
1895
100
AcDbEntity
  8
BEM
 62
     0
370
    -2
100
AcDbLine
 10
218.4765027379712
 20
343.4497149751976
 30
0.0
 11
218.4765027379715
 21
489.6299694583757
 31
0.0
  0
ARC
  5
18B0
330
1895
100
AcDbEntity
  8
BEM
 62
     0
370
    -2
100
AcDbCircle
 10
218.4765027379712
 20
341.4497149751976
 30
0.0
 40
146.1802544831781
100
AcDbArc
 50
77.74393274335515
 51
87.25606725664473
  0
SOLID
  5
18B1
330
1895
100
AcDbEntity
  8
BEM
 62
     0
100
AcDbTrace
 10
249.7827030300133
 20
485.4321417299064
 30
0.0
 11
249.2329285246481
 21
483.1645014502996
 31
0.0
 12
256.310736616151
 22
482.6489980740077
 32
0.0
 13
256.310736616151
 23
482.6489980740077
 33
0.0
  0
SOLID
  5
18B2
330
1895
100
AcDbEntity
  8
BEM
 62
     0
100
AcDbTrace
 10
225.4465624586707
 20
486.2960359514136
 30
0.0
 11
225.5024295571071
 21
488.6287003747195
 31
0.0
 12
218.4765027379715
 22
487.6299694583757
 32
0.0
 13
218.4765027379715
 23
487.6299694583757
 33
0.0
  0
MTEXT
  5
18B3
330
1895
100
AcDbEntity
  8
BEM
 62
     1
100
AcDbMText
 10
238.405274982849
 20
492.8237687157902
 30
0.0
 40
7.0
 41
0.0
 71
     5
 72
     1
  1
\A1;15°
 11
0.9914448613738102
 21
-0.1305261922200528
 31
0.0
 73
     1
 44
1.0
  0
POINT
  5
18B4
330
1895
100
AcDbEntity
  8
DEFPOINTS
 62
     0
100
AcDbPoint
 10
243.8604375398634
 20
485.409162927529
 30
0.0
  0
POINT
  5
18B5
330
1895
100
AcDbEntity
  8
DEFPOINTS
 62
     0
100
AcDbPoint
 10
218.4765027379712
 20
341.4497149751976
 30
0.0
  0
POINT
  5
18B6
330
1895
100
AcDbEntity
  8
DEFPOINTS
 62
     0
100
AcDbPoint
 10
252.122978601299
 20
467.0200723927764
 30
0.0
  0
POINT
  5
18B7
330
1895
100
AcDbEntity
  8
DEFPOINTS
 62
     0
100
AcDbPoint
 10
218.4765027379712
 20
341.4497149751976
 30
0.0
  0
POINT
  5
18B8
330
1895
100
AcDbEntity
  8
DEFPOINTS
 62
     0
100
AcDbPoint
 10
218.476502737971
 20
211.4497149751978
 30
0.0
  0
ENDBLK
  5
18A2
330
1895
100
AcDbEntity
  8
0
100
AcDbBlockEnd
  0
ENDSEC
  0
SECTION
  2
ENTITIES
  0
TEXT
  5
134
330
1E
100
AcDbEntity
  8
TEXT
100
AcDbText
 10
204.4216048581257
 20
63.0896391972351
 30
0.0
 40
4.0
  1
Koeh
 41
0.8
  7
GREEKS
 72
     1
 11
209.6787477152686
 21
63.0896391972351
 31
0.0
100
AcDbText
  0
INSERT
  5
135
330
1E
100
AcDbEntity
  8
STEMPEL
100
AcDbBlockReference
  2
LOGO
 10
150.9955485457794
 20
45.02105276448322
 30
0.0
 41
2.0
 42
2.0
 43
2.0
  0
LINE
  5
136
330
1E
100
AcDbEntity
  8
HILF
100
AcDbLine
 10
420.0
 20
0.0
 30
0.0
 11
0.0
 21
0.0
 31
0.0
  0
LINE
  5
137
330
1E
100
AcDbEntity
  8
HILF
100
AcDbLine
 10
419.9999999999999
 20
594.0000000000002
 30
0.0
 11
0.0
 21
594.0
 31
0.0
  0
LINE
  5
138
330
1E
100
AcDbEntity
  8
STEMPEL
100
AcDbLine
 10
410.0
 20
584.0
 30
0.0
 11
39.99999999999989
 21
584.0
 31
0.0
  0
LINE
  5
139
330
1E
100
AcDbEntity
  8
STEMPEL
100
AcDbLine
 10
410.0
 20
10.0
 30
0.0
 11
39.99999999999989
 21
10.0
 31
0.0
  0
LINE
  5
13A
330
1E
100
AcDbEntity
  8
STEMPEL
100
AcDbLine
 10
49.99999999999989
 20
10.0
 30
0.0
 11
410.0
 21
10.0
 31
0.0
  0
TEXT
  5
13B
330
1E
100
AcDbEntity
  8
TEXT
100
AcDbText
 10
202.4626584226295
 20
73.30961091915225
 30
0.0
 40
4.0
  1
Name
 41
0.8
  7
GREEKS
100
AcDbText
  0
TEXT
  5
13C
330
1E
100
AcDbEntity
  8
TEXT
100
AcDbText
 10
196.5498279101549
 20
102.6506227776589
 30
0.0
 40
5.0
  1
Zul. Abw.
 41
0.8
  7
GREEKS
 72
     4
 11
209.9783993387263
 21
105.1506227776589
 31
0.0
100
AcDbText
  0
LINE
  5
13D
330
1E
100
AcDbEntity
  8
HILF
100
AcDbLine
 10
146.0000000000001
 20
49.99999999999997
 30
0.0
 11
230.0
 21
49.99999999999997
 31
0.0
  0
LINE
  5
13E
330
1E
100
AcDbEntity
  8
HILF
100
AcDbLine
 10
146.0000000000001
 20
59.99999999999998
 30
0.0
 11
230.0
 21
59.99999999999998
 31
0.0
  0
LINE
  5
13F
330
1E
100
AcDbEntity
  8
HILF
100
AcDbLine
 10
146.0000000000001
 20
69.99999999999994
 30
0.0
 11
230.0
 21
69.99999999999994
 31
0.0
  0
LINE
  5
140
330
1E
100
AcDbEntity
  8
STEMPEL
100
AcDbLine
 10
410.0
 20
80.0
 30
0.0
 11
146.0000000000001
 21
79.99999999999994
 31
0.0
  0
LINE
  5
141
330
1E
100
AcDbEntity
  8
STEMPEL
100
AcDbLine
 10
410.0
 20
40.0
 30
0.0
 11
146.0000000000001
 21
39.99999999999997
 31
0.0
  0
LINE
  5
142
330
1E
100
AcDbEntity
  8
STEMPEL
100
AcDbLine
 10
410.0
 20
110.0
 30
0.0
 11
39.99999999999997
 21
110.0
 31
0.0
  0
LINE
  5
144
330
1E
100
AcDbEntity
  8
HILF
100
AcDbLine
 10
0.0
 20
0.0
 30
0.0
 11
-0.0000000000001137
 21
594.0
 31
0.0
  0
LINE
  5
145
330
1E
100
AcDbEntity
  8
STEMPEL
100
AcDbLine
 10
40.0
 20
10.0
 30
0.0
 11
39.99999999999989
 21
584.0
 31
0.0
  0
TEXT
  5
146
330
1E
100
AcDbEntity
  8
TEXT
100
AcDbText
 10
41.85509950977674
 20
111.6719999999999
 30
0.0
 40
5.0
  1
Erstellt mit AUTOCAD 2004
 41
0.8
  7
GREEKS
100
AcDbText
  0
TEXT
  5
147
330
1E
100
AcDbEntity
  8
TEXT
100
AcDbText
 10
67.18675857092764
 20
18.67381894984132
 30
0.0
 40
4.0
  1
Änderung
 41
0.8
  7
GREEKS
 72
     1
 11
77.92961571378478
 21
18.67381894984132
 31
0.0
100
AcDbText
  0
LINE
  5
148
330
1E
100
AcDbEntity
  8
HILF
100
AcDbLine
 10
40.00000000000008
 20
39.99999999999997
 30
0.0
 11
146.0000000000001
 21
39.99999999999997
 31
0.0
  0
LINE
  5
149
330
1E
100
AcDbEntity
  8
HILF
100
AcDbLine
 10
40.00000000000008
 20
49.99999999999997
 30
0.0
 11
146.0000000000001
 21
49.99999999999997
 31
0.0
  0
LINE
  5
14A
330
1E
100
AcDbEntity
  8
HILF
100
AcDbLine
 10
40.00000000000008
 20
59.99999999999998
 30
0.0
 11
146.0000000000001
 21
59.99999999999998
 31
0.0
  0
LINE
  5
14B
330
1E
100
AcDbEntity
  8
HILF
100
AcDbLine
 10
40.00000000000008
 20
69.99999999999994
 30
0.0
 11
146.0000000000001
 21
69.99999999999994
 31
0.0
  0
LINE
  5
14C
330
1E
100
AcDbEntity
  8
HILF
100
AcDbLine
 10
40.00000000000008
 20
79.99999999999994
 30
0.0
 11
146.0000000000001
 21
79.99999999999994
 31
0.0
  0
LINE
  5
14D
330
1E
100
AcDbEntity
  8
HILF
100
AcDbLine
 10
40.00000000000008
 20
90.00000000000005
 30
0.0
 11
146.0000000000001
 21
90.00000000000005
 31
0.0
  0
LINE
  5
14E
330
1E
100
AcDbEntity
  8
HILF
100
AcDbLine
 10
40.00000000000008
 20
100.0
 30
0.0
 11
146.0000000000001
 21
100.0
 31
0.0
  0
LINE
  5
14F
330
1E
100
AcDbEntity
  8
STEMPEL
100
AcDbLine
 10
145.9999999999999
 20
29.99999999999997
 30
0.0
 11
39.99999999999997
 21
29.99999999999997
 31
0.0
  0
TEXT
  5
150
330
1E
100
AcDbEntity
  8
TEXT
100
AcDbText
 10
48.26641107045756
 20
13.65465846027192
 30
0.0
 40
4.0
  1
Index
 50
90.0
 41
0.8
  7
GREEKS
100
AcDbText
  0
LINE
  5
151
330
1E
100
AcDbEntity
  8
VOLL
100
AcDbLine
 10
54.00000000000009
 20
110.0
 30
0.0
 11
53.99999999999998
 21
9.999999999999971
 31
0.0
  0
LINE
  5
152
330
1E
100
AcDbEntity
  8
HILF
100
AcDbLine
 10
31.08767135713856
 20
297.0
 30
0.0
 11
0.0000000000001137
 21
297.0
 31
0.0
  0
TEXT
  5
153
330
1E
100
AcDbEntity
  8
TEXT
100
AcDbText
 10
110.5329027008845
 20
18.6715626933981
 30
0.0
 40
4.0
  1
Tag
 41
0.8
  7
GREEKS
 72
     1
 11
114.2662360342178
 21
18.6715626933981
 31
0.0
100
AcDbText
  0
LINE
  5
154
330
1E
100
AcDbEntity
  8
VOLL
100
AcDbLine
 10
124.0000000000001
 20
109.9999999999999
 30
0.0
 11
124.0
 21
9.999999999999971
 31
0.0
  0
LINE
  5
155
330
1E
100
AcDbEntity
  8
VOLL
100
AcDbLine
 10
104.0000000000001
 20
109.9999999999999
 30
0.0
 11
104.0
 21
9.999999999999971
 31
0.0
  0
TEXT
  5
156
330
1E
100
AcDbEntity
  8
TEXT
100
AcDbText
 10
129.3050679443042
 20
18.59324216966408
 30
0.0
 40
4.0
  1
Name
 41
0.8
  7
GREEKS
 72
     1
 11
135.6288774681137
 21
18.59324216966408
 31
0.0
100
AcDbText
  0
LINE
  5
157
330
1E
100
AcDbEntity
  8
STEMPEL
100
AcDbLine
 10
146.0000000000001
 20
109.9999999999999
 30
0.0
 11
146.0
 21
9.999999999999971
 31
0.0
  0
TEXT
  5
159
330
1E
100
AcDbEntity
  8
TEXT
100
AcDbText
 10
172.331167315365
 20
73.31880501229926
 30
0.0
 40
4.0
  1
Tag
 41
0.8
  7
GREEKS
100
AcDbText
  0
TEXT
  5
15A
330
1E
100
AcDbEntity
  8
TEXT
100
AcDbText
 10
147.5836127167615
 20
63.62990369617964
 30
0.0
 40
4.0
  1
Gez.
 41
0.8
  7
GREEKS
100
AcDbText
  0
LINE
  5
15B
330
1E
100
AcDbEntity
  8
VOLL
100
AcDbLine
 10
164.0000000000001
 20
79.99999999999994
 30
0.0
 11
164.0000000000001
 21
39.99999999999997
 31
0.0
  0
TEXT
  5
15C
330
1E
100
AcDbEntity
  8
TEXT
100
AcDbText
 10
147.6006777387303
 20
43.52946389649807
 30
0.0
 40
4.0
  1
Norm.
 41
0.8
  7
GREEKS
100
AcDbText
  0
TEXT
  5
15D
330
1E
100
AcDbEntity
  8
TEXT
100
AcDbText
 10
147.5515086571672
 20
53.68926291428377
 30
0.0
 40
4.0
  1
Gepr.
 41
0.8
  7
GREEKS
100
AcDbText
  0
TEXT
  5
15E
330
1E
100
AcDbEntity
  8
TEXT
 62
     1
100
AcDbText
 10
160.5006306481887
 20
88.14901428913959
 30
0.0
 40
7.0
  1
1:2
 41
0.8
  7
GREEKS
100
AcDbText
  0
TEXT
  5
15F
330
1E
100
AcDbEntity
  8
TEXT
100
AcDbText
 10
153.5163572150377
 20
102.4620895087088
 30
0.0
 40
5.0
  1
Maßstab
 41
0.8
  7
GREEKS
100
AcDbText
  0
TEXT
  5
160
330
1E
100
AcDbEntity
  8
TEXT
100
AcDbText
 10
148.622109822104
 20
73.14025471151666
 30
0.0
 40
4.0
  1
2011
 41
0.8
  7
GREEKS
100
AcDbText
  0
LINE
  5
161
330
1E
100
AcDbEntity
  8
VOLL
100
AcDbLine
 10
190.0000000000001
 20
109.9999999999998
 30
0.0
 11
190.0
 21
39.99999999999997
 31
0.0
  0
LINE
  5
186
330
1E
100
AcDbEntity
  8
HILF
100
AcDbLine
 10
420.0
 20
-0.0000000000001137
 30
0.0
 11
419.9999999999999
 21
594.0
 31
0.0
  0
LINE
  5
187
330
1E
100
AcDbEntity
  8
STEMPEL
100
AcDbLine
 10
410.0
 20
10.0
 30
0.0
 11
410.0
 21
584.0
 31
0.0
  0
TEXT
  5
188
330
1E
100
AcDbEntity
  8
TEXT
100
AcDbText
 10
337.2400861497006
 20
52.07416177878602
 30
0.0
 40
5.0
  1
ersetzt durch:
 41
0.8
  7
GREEKS
100
AcDbText
  0
TEXT
  5
189
330
1E
100
AcDbEntity
  8
TEXT
100
AcDbText
 10
336.7238616296993
 20
73.1811823709997
 30
0.0
 40
5.0
  1
Ersatz für:
 41
0.8
  7
GREEKS
100
AcDbText
  0
TEXT
  5
18A
330
1E
100
AcDbEntity
  8
TEXT
100
AcDbText
 10
336.178754957634
 20
102.3132034537136
 30
0.0
 40
5.0
  1
Zeichnungs Nr.
 41
0.8
  7
GREEKS
100
AcDbText
  0
LINE
  5
18B
330
1E
100
AcDbEntity
  8
HILF
100
AcDbLine
 10
233.4909699289885
 20
14.89398258028314
 30
0.0
 11
404.8588839326728
 21
14.89398258028314
 31
0.0
  0
LINE
  5
18C
330
1E
100
AcDbEntity
  8
HILF
100
AcDbLine
 10
336.7238616296993
 20
83.77983636955827
 30
0.0
 11
404.8588839326728
 21
83.77983636955827
 31
0.0
  0
LINE
  5
18D
330
1E
100
AcDbEntity
  8
VOLL
100
AcDbLine
 10
332.0
 20
60.0
 30
0.0
 11
410.0
 21
60.0
 31
0.0
  0
TEXT
  5
18E
330
1E
100
AcDbEntity
  8
TEXT
 62
     1
100
AcDbText
 10
234.9283864320014
 20
87.41748789253779
 30
0.0
 40
7.0
  1
Bogen DN150 15°
 41
0.8
  7
GREEKS
100
AcDbText
  0
LINE
  5
18F
330
1E
100
AcDbEntity
  8
HILF
100
AcDbLine
 10
234.7736801096948
 20
49.99999999999997
 30
0.0
 11
324.835391655631
 21
49.99999999999997
 31
0.0
  0
LINE
  5
190
330
1E
100
AcDbEntity
  8
HILF
100
AcDbLine
 10
234.7736801096948
 20
59.99999999999998
 30
0.0
 11
324.835391655631
 21
59.99999999999998
 31
0.0
  0
LINE
  5
191
330
1E
100
AcDbEntity
  8
HILF
100
AcDbLine
 10
234.7736801096948
 20
69.99999999999994
 30
0.0
 11
324.835391655631
 21
69.99999999999994
 31
0.0
  0
LINE
  5
192
330
1E
100
AcDbEntity
  8
HILF
100
AcDbLine
 10
234.7736801096948
 20
84.03758247564139
 30
0.0
 11
324.8353916556311
 21
84.03758247564139
 31
0.0
  0
LINE
  5
193
330
1E
100
AcDbEntity
  8
STEMPEL
100
AcDbLine
 10
230.0
 20
110.0
 30
0.0
 11
230.0
 21
9.999999999999971
 31
0.0
  0
TEXT
  5
194
330
1E
100
AcDbEntity
  8
TEXT
100
AcDbText
 10
235.1296391125315
 20
71.50334417585288
 30
0.0
 40
5.0
  1
dünnwandig
 41
0.8
  7
GREEKS
100
AcDbText
  0
TEXT
  5
195
330
1E
100
AcDbEntity
  8
TEXT
100
AcDbText
 10
234.9837501577827
 20
42.62974153022633
 30
0.0
 40
4.0
  1
5340150W.DWG
 41
0.8
  7
GREEKS
100
AcDbText
  0
TEXT
  5
196
330
1E
100
AcDbEntity
  8
TEXT
100
AcDbText
 10
234.742238391136
 20
30.84560570193057
 30
0.0
 40
5.0
  1
Bauvorhaben
 41
0.8
  7
GREEKS
100
AcDbText
  0
TEXT
  5
197
330
1E
100
AcDbEntity
  8
TEXT
100
AcDbText
 10
234.877940380901
 20
102.5489328011779
 30
0.0
 40
5.0
  1
Benennung
 41
0.8
  7
GREEKS
100
AcDbText
  0
LINE
  5
198
330
1E
100
AcDbEntity
  8
STEMPEL
100
AcDbLine
 10
332.0
 20
109.9999999999997
 30
0.0
 11
332.0
 21
40.0
 31
0.0
  0
TEXT
  5
19A
330
1E
100
AcDbEntity
  8
TEXT
 62
     1
100
AcDbText
 10
348.4788864573155
 20
88.14901428913959
 30
0.0
 40
7.0
  1
5340150W
 41
0.8
  7
GREEKS
 72
     1
 11
369.2788864573155
 21
88.14901428913959
 31
0.0
100
AcDbText
  0
TEXT
  5
212
330
1E
100
AcDbEntity
  8
TEXT
100
AcDbText
 10
235.1296391125315
 20
51.50334417585292
 30
0.0
 40
5.0
  1
EDV-Art.Nr. 5.340.150C
 41
0.8
  7
GREEKS
100
AcDbText
  0
LINE
  5
EFF
102
{ACAD_REACTORS
330
1892
102
}
330
1E
100
AcDbEntity
  8
STEMPEL
100
AcDbLine
 10
297.9765027379711
 20
330.9833414170006
 30
0.0
 11
297.9765027379708
 21
226.4497149751966
 31
0.0
  0
LINE
  5
F3D
102
{ACAD_REACTORS
330
1892
102
}
330
1E
100
AcDbEntity
  8
STEMPEL
100
AcDbLine
 10
138.9765027379711
 20
351.9160885333953
 30
0.0
 11
138.9765027379711
 21
226.4497149751981
 31
0.0
  0
LINE
  5
107B
330
1E
100
AcDbEntity
  8
STEMPEL
100
AcDbLine
 10
297.1016161027118
 20
216.4497149751975
 30
0.0
 11
139.8513893732303
 21
216.4497149751975
 31
0.0
  0
DIMENSION
  5
107C
330
1E
100
AcDbEntity
  8
BEM
100
AcDbDimension
  2
*D1
 10
297.9765027379714
 20
196.02594249377
 30
0.0
 11
218.4765027379713
 21
202.52594249377
 31
0.0
 70
    32
  1
%%c<>
 71
     5
 42
159.0000000000002
  3
Standard
100
AcDbAlignedDimension
 13
138.9765027379711
 23
226.4497149751981
 33
0.0
 14
297.9765027379714
 24
226.4497149751969
 34
0.0
100
AcDbRotatedDimension
1001
ACAD
1000
DSTYLE
1002
{
1070
    40
1040
2.0
1070
    41
1040
3.5
1070
    42
1040
1.0
1070
    43
1040
7.0
1070
    44
1040
1.0
1070
    73
1070
     0
1070
    74
1070
     0
1070
    77
1070
     1
1070
    78
1070
     8
1070
    79
1070
     2
1070
   140
1040
3.5
1070
   141
1040
1.5
1070
   146
1040
0.5142857142857144
1070
   147
1040
1.5
1070
   172
1070
     1
1070
   178
1070
     1
1070
   179
1070
     2
1070
   271
1070
     2
1070
   272
1070
     2
1070
   284
1070
     8
1070
   285
1070
     8
1070
   286
1070
     8
1002
}
  0
LINE
  5
107D
330
1E
100
AcDbEntity
  8
HILF
100
AcDbLine
 10
296.4765027379708
 20
226.449714975197
 30
0.0
 11
140.4765027379712
 21
226.4497149751984
 31
0.0
  0
LINE
  5
107F
330
1E
100
AcDbEntity
  8
STEMPEL
100
AcDbLine
 10
138.9765027379711
 20
226.4497149751981
 30
0.0
 11
139.8513893732303
 21
216.449714975198
 31
0.0
  0
LINE
  5
1084
330
1E
100
AcDbEntity
  8
STEMPEL
100
AcDbLine
 10
297.9765027379709
 20
226.4497149751975
 30
0.0
 11
297.1016161027117
 21
216.4497149751969
 31
0.0
  0
LINE
  5
1086
330
1E
100
AcDbEntity
  8
MITTEL
100
AcDbLine
 10
218.4765027379712
 20
341.4497149751976
 30
0.0
 11
218.476502737971
 21
211.4497149751978
 31
0.0
  0
TEXT
  5
1179
330
1E
100
AcDbEntity
  8
TEXT
 62
     1
100
AcDbText
 10
297.0573649355706
 20
132.2248663682012
 30
0.0
 40
7.0
  1
Werkstoff: 1.4404
 41
0.8
  7
GREEKS
100
AcDbText
  0
LINE
  5
1207
102
{ACAD_REACTORS
330
1892
102
}
330
1E
100
AcDbEntity
  8
STEMPEL
100
AcDbLine
 10
305.4446533222807
 20
358.8548588362182
 30
0.0
 11
297.9765027379711
 21
330.9833414170006
 31
0.0
  0
DIMENSION
  5
1208
330
1E
100
AcDbEntity
  8
BEM
100
AcDbDimension
  2
*D3
 10
150.745436103312
 20
489.0077221337114
 30
0.0
 11
128.2907279135307
 21
430.3196817838038
 31
0.0
 70
    32
 71
     5
 42
125.0000000000096
  3
Standard
100
AcDbAlignedDimension
 13
218.4765027379712
 23
341.4497149751976
 33
0.0
 14
168.0924421253801
 24
484.3596058790025
 34
0.0
 50
75.00000000000638
100
AcDbRotatedDimension
1001
ACAD
1000
DSTYLE
1002
{
1070
    40
1040
2.0
1070
    41
1040
3.5
1070
    42
1040
1.0
1070
    43
1040
7.0
1070
    44
1040
1.0
1070
    73
1070
     0
1070
    74
1070
     0
1070
    77
1070
     1
1070
    78
1070
     8
1070
    79
1070
     2
1070
   140
1040
3.5
1070
   141
1040
1.5
1070
   146
1040
0.5142857142857144
1070
   147
1040
1.5
1070
   172
1070
     1
1070
   178
1070
     1
1070
   179
1070
     2
1070
   271
1070
     2
1070
   272
1070
     2
1070
   284
1070
     8
1070
   285
1070
     8
1070
   286
1070
     8
1002
}
  0
LINE
  5
1209
102
{ACAD_REACTORS
330
1892
102
}
330
1E
100
AcDbEntity
  8
STEMPEL
100
AcDbLine
 10
151.862446942319
 20
400.007087007519
 30
0.0
 11
138.9765027379711
 21
351.9160885333953
 31
0.0
  0
LINE
  5
120A
330
1E
100
AcDbEntity
  8
MITTEL
100
AcDbLine
 10
252.122978601299
 20
467.0200723927764
 30
0.0
 11
218.4765027379712
 21
341.4497149751976
 31
0.0
  0
LINE
  5
120B
330
1E
100
AcDbEntity
  8
HILF
100
AcDbLine
 10
317.2732761185551
 20
391.0071731104992
 30
0.0
 11
157.6947162461024
 21
433.7661193576448
 31
0.0
  0
LINE
  5
120C
330
1E
100
AcDbEntity
  8
HILF
100
AcDbLine
 10
309.8626961559245
 20
367.9446834264876
 30
0.0
 11
152.58122190851
 21
410.0881274354588
 31
0.0
  0
LINE
  5
120D
330
1E
100
AcDbEntity
  8
HILF
100
AcDbLine
 10
305.2251707992411
 20
362.1539836038989
 30
0.0
 11
153.7020867667976
 21
402.7544716050655
 31
0.0
  0
LINE
  5
120E
330
1E
100
AcDbEntity
  8
STEMPEL
100
AcDbLine
 10
333.5653246261925
 20
440.0212806436598
 30
0.0
 11
168.0924421253801
 21
484.3596058790025
 31
0.0
  0
TEXT
  5
120F
330
1E
100
AcDbEntity
  8
TEXT
 62
     1
100
AcDbText
 10
231.8638689552929
 20
431.6258431163964
 30
0.0
 40
7.0
  1
DN150
 50
74.99999999999992
 41
0.8
  7
GREEKS
100
AcDbText
  0
ARC
  5
1210
330
1E
100
AcDbEntity
  8
STEMPEL
100
AcDbCircle
 10
137.1982101328646
 20
434.1445861990073
 30
0.0
 40
19.0
100
AcDbArc
 50
344.9999999999999
 51
12.90640811485469
  0
ARC
  5
1211
330
1E
100
AcDbEntity
  8
STEMPEL
100
AcDbCircle
 10
142.2031886794286
 20
402.5952774585441
 30
0.0
 40
10.0
100
AcDbArc
 50
344.9999999999999
 51
16.58633809652777
  0
ARC
  5
1212
330
1E
100
AcDbEntity
  8
STEMPEL
100
AcDbCircle
 10
168.0797367219215
 20
410.3026934590308
 30
0.0
 40
17.0
100
AcDbArc
 50
164.9999999999999
 51
196.5863380965277
  0
LINE
  5
1213
330
1E
100
AcDbEntity
  8
STEMPEL
100
AcDbLine
 10
155.5508008323567
 20
429.2270243420591
 30
0.0
 11
151.6589976750071
 21
414.7026172257736
 31
0.0
  0
LINE
  5
1214
330
1E
100
AcDbEntity
  8
STEMPEL
100
AcDbLine
 10
160.2935539604755
 20
470.1094398148925
 30
0.0
 11
156.0801089763602
 21
454.3846490592785
 31
0.0
  0
ARC
  5
1215
330
1E
100
AcDbEntity
  8
STEMPEL
100
AcDbCircle
 10
188.9351870402006
 20
445.6431777650954
 30
0.0
 40
34.0
100
AcDbArc
 50
164.9999999999999
 51
192.3202406357856
  0
LINE
  5
1216
330
1E
100
AcDbEntity
  8
STEMPEL
100
AcDbLine
 10
168.0924421253801
 20
484.3596058790025
 30
0.0
 11
167.0895209882585
 21
483.1643710107494
 31
0.0
  0
ARC
  5
1217
330
1E
100
AcDbEntity
  8
STEMPEL
100
AcDbCircle
 10
193.1350320543039
 20
461.309592281407
 30
0.0
 40
34.0
100
AcDbArc
 50
140.0000000000073
 51
164.9999999999999
  0
ARC
  5
1218
330
1E
100
AcDbEntity
  8
STEMPEL
100
AcDbCircle
 10
335.2130045221234
 20
381.0866819529904
 30
0.0
 40
19.0
100
AcDbArc
 50
137.8456571516186
 51
164.9999999999999
  0
ARC
  5
1219
330
1E
100
AcDbEntity
  8
STEMPEL
100
AcDbCircle
 10
315.1039115851716
 20
356.2666683851927
 30
0.0
 40
10.0
100
AcDbArc
 50
133.4136619034719
 51
164.9999999999999
  0
ARC
  5
121A
330
1E
100
AcDbEntity
  8
STEMPEL
100
AcDbCircle
 10
296.5478716183671
 20
375.8797604603953
 30
0.0
 40
17.0
100
AcDbArc
 50
313.4136619034722
 51
344.9999999999999
  0
LINE
  5
121B
330
1E
100
AcDbEntity
  8
STEMPEL
100
AcDbLine
 10
316.860413822631
 20
386.004243809938
 30
0.0
 11
312.9686106652812
 21
371.4798366936525
 31
0.0
  0
ARC
  5
121C
330
1E
100
AcDbEntity
  8
STEMPEL
100
AcDbCircle
 10
300.3527987723904
 20
432.5806782750269
 30
0.0
 40
34.0
100
AcDbArc
 50
344.9999999999999
 51
9.99999999999253
  0
ARC
  5
121D
330
1E
100
AcDbEntity
  8
STEMPEL
100
AcDbCircle
 10
296.1567639884058
 20
416.9132428106322
 30
0.0
 40
34.0
100
AcDbArc
 50
317.2594896725497
 51
344.9999999999999
  0
LINE
  5
121E
330
1E
100
AcDbEntity
  8
STEMPEL
100
AcDbLine
 10
333.1942768662185
 20
423.7808307415412
 30
0.0
 11
328.980831882103
 21
408.056039985927
 31
0.0
  0
LINE
  5
121F
330
1E
100
AcDbEntity
  8
STEMPEL
100
AcDbLine
 10
333.5653246261925
 20
440.0212806436598
 30
0.0
 11
333.8362623748052
 21
438.4847163157025
 31
0.0
  0
DIMENSION
  5
1256
330
1E
100
AcDbEntity
  8
BEM
100
AcDbDimension
  2
*D4
 10
115.5930532037104
 20
341.4497149751976
 30
0.0
 11
109.0930532037103
 21
278.9497149751976
 31
0.0
 70
    32
 71
     5
 42
125.0000000000001
  3
Standard
100
AcDbAlignedDimension
 13
139.8513893732303
 23
216.4497149751976
 33
0.0
 14
218.4765027379712
 24
341.4497149751976
 34
0.0
 50
90.0
100
AcDbRotatedDimension
1001
ACAD
1000
DSTYLE
1002
{
1070
    40
1040
2.0
1070
    41
1040
3.5
1070
    42
1040
1.0
1070
    43
1040
7.0
1070
    44
1040
1.0
1070
    73
1070
     0
1070
    74
1070
     0
1070
    77
1070
     1
1070
    78
1070
     8
1070
    79
1070
     2
1070
   140
1040
3.5
1070
   141
1040
1.5
1070
   146
1040
0.5142857142857144
1070
   147
1040
1.5
1070
   172
1070
     1
1070
   178
1070
     1
1070
   179
1070
     2
1070
   271
1070
     2
1070
   272
1070
     2
1070
   284
1070
     8
1070
   285
1070
     8
1070
   286
1070
     8
1002
}
  0
LINE
  5
1624
330
1E
100
AcDbEntity
  8
STEMPEL
100
AcDbLine
 10
138.9765027379712
 20
351.9160885333956
 30
0.0
 11
297.9765027379709
 21
330.9833414169997
 31
0.0
  0
ARC
  5
1628
330
1E
100
AcDbEntity
  8
SCHRAFF
100
AcDbCircle
 10
138.1197183396469
 20
352.0288863393288
 30
0.0
 40
5.0
100
AcDbArc
 50
315.6301023541565
 51
29.36989764584495
  0
ARC
  5
1629
330
1E
100
AcDbEntity
  8
SCHRAFF
100
AcDbCircle
 10
143.0769426465159
 20
351.3762553782286
 30
0.0
 40
5.0
100
AcDbArc
 50
315.6301023541565
 51
29.36989764584495
  0
ARC
  5
162A
330
1E
100
AcDbEntity
  8
SCHRAFF
100
AcDbCircle
 10
148.034166953385
 20
350.7236244171283
 30
0.0
 40
5.0
100
AcDbArc
 50
315.6301023541565
 51
29.36989764584495
  0
ARC
  5
162B
330
1E
100
AcDbEntity
  8
SCHRAFF
100
AcDbCircle
 10
152.9913912602541
 20
350.0709934560281
 30
0.0
 40
5.0
100
AcDbArc
 50
315.6301023541565
 51
29.36989764584495
  0
ARC
  5
162C
330
1E
100
AcDbEntity
  8
SCHRAFF
100
AcDbCircle
 10
157.948615567123
 20
349.4183624949277
 30
0.0
 40
5.0
100
AcDbArc
 50
315.6301023541565
 51
29.36989764584495
  0
ARC
  5
162D
330
1E
100
AcDbEntity
  8
SCHRAFF
100
AcDbCircle
 10
162.9058398739921
 20
348.7657315338275
 30
0.0
 40
5.0
100
AcDbArc
 50
315.6301023541565
 51
29.36989764584495
  0
ARC
  5
162E
330
1E
100
AcDbEntity
  8
SCHRAFF
100
AcDbCircle
 10
167.8630641808612
 20
348.1131005727274
 30
0.0
 40
5.0
100
AcDbArc
 50
315.6301023541565
 51
29.36989764584495
  0
ARC
  5
162F
330
1E
100
AcDbEntity
  8
SCHRAFF
100
AcDbCircle
 10
172.8202884877303
 20
347.4604696116269
 30
0.0
 40
5.0
100
AcDbArc
 50
315.6301023541565
 51
29.36989764584495
  0
ARC
  5
1630
330
1E
100
AcDbEntity
  8
SCHRAFF
100
AcDbCircle
 10
177.7775127945993
 20
346.8078386505267
 30
0.0
 40
5.0
100
AcDbArc
 50
315.6301023541565
 51
29.36989764584495
  0
ARC
  5
1632
330
1E
100
AcDbEntity
  8
SCHRAFF
100
AcDbCircle
 10
182.7347371014683
 20
346.1552076894265
 30
0.0
 40
5.0
100
AcDbArc
 50
315.6301023541565
 51
29.36989764584495
  0
ARC
  5
1633
330
1E
100
AcDbEntity
  8
SCHRAFF
100
AcDbCircle
 10
187.6919614083374
 20
345.5025767283262
 30
0.0
 40
5.0
100
AcDbArc
 50
315.6301023541565
 51
29.36989764584495
  0
ARC
  5
1634
330
1E
100
AcDbEntity
  8
SCHRAFF
100
AcDbCircle
 10
192.6491857152064
 20
344.8499457672259
 30
0.0
 40
5.0
100
AcDbArc
 50
315.6301023541565
 51
29.36989764584495
  0
ARC
  5
1635
330
1E
100
AcDbEntity
  8
SCHRAFF
100
AcDbCircle
 10
197.6064100220754
 20
344.1973148061257
 30
0.0
 40
5.0
100
AcDbArc
 50
315.6301023541565
 51
29.36989764584495
  0
ARC
  5
1636
330
1E
100
AcDbEntity
  8
SCHRAFF
100
AcDbCircle
 10
202.5636343289445
 20
343.5446838450255
 30
0.0
 40
5.0
100
AcDbArc
 50
315.6301023541565
 51
29.36989764584495
  0
ARC
  5
1637
330
1E
100
AcDbEntity
  8
SCHRAFF
100
AcDbCircle
 10
207.5208586358136
 20
342.8920528839252
 30
0.0
 40
5.0
100
AcDbArc
 50
315.6301023541565
 51
29.36989764584495
  0
ARC
  5
1638
330
1E
100
AcDbEntity
  8
SCHRAFF
100
AcDbCircle
 10
212.4780829426826
 20
342.2394219228249
 30
0.0
 40
5.0
100
AcDbArc
 50
315.6301023541565
 51
29.36989764584495
  0
ARC
  5
1639
330
1E
100
AcDbEntity
  8
SCHRAFF
100
AcDbCircle
 10
217.4353072495516
 20
341.5867909617247
 30
0.0
 40
5.0
100
AcDbArc
 50
315.6301023541565
 51
29.36989764584495
  0
ARC
  5
163A
330
1E
100
AcDbEntity
  8
SCHRAFF
100
AcDbCircle
 10
222.3925315564207
 20
340.9341600006245
 30
0.0
 40
5.0
100
AcDbArc
 50
315.6301023541565
 51
29.36989764584495
  0
ARC
  5
163B
330
1E
100
AcDbEntity
  8
SCHRAFF
100
AcDbCircle
 10
227.3497558632898
 20
340.2815290395242
 30
0.0
 40
5.0
100
AcDbArc
 50
315.6301023541565
 51
29.36989764584495
  0
ARC
  5
163C
330
1E
100
AcDbEntity
  8
SCHRAFF
100
AcDbCircle
 10
232.3069801701588
 20
339.628898078424
 30
0.0
 40
5.0
100
AcDbArc
 50
315.6301023541565
 51
29.36989764584495
  0
ARC
  5
163D
330
1E
100
AcDbEntity
  8
SCHRAFF
100
AcDbCircle
 10
237.2642044770279
 20
338.9762671173237
 30
0.0
 40
5.0
100
AcDbArc
 50
315.6301023541565
 51
29.36989764584495
  0
ARC
  5
163E
330
1E
100
AcDbEntity
  8
SCHRAFF
100
AcDbCircle
 10
242.2214287838968
 20
338.3236361562234
 30
0.0
 40
5.0
100
AcDbArc
 50
315.6301023541565
 51
29.36989764584495
  0
ARC
  5
163F
330
1E
100
AcDbEntity
  8
SCHRAFF
100
AcDbCircle
 10
247.1786530907659
 20
337.6710051951233
 30
0.0
 40
5.0
100
AcDbArc
 50
315.6301023541565
 51
29.36989764584495
  0
ARC
  5
1640
330
1E
100
AcDbEntity
  8
SCHRAFF
100
AcDbCircle
 10
252.135877397635
 20
337.0183742340227
 30
0.0
 40
5.0
100
AcDbArc
 50
315.6301023541565
 51
29.36989764584495
  0
ARC
  5
1641
330
1E
100
AcDbEntity
  8
SCHRAFF
100
AcDbCircle
 10
257.093101704504
 20
336.3657432729227
 30
0.0
 40
5.0
100
AcDbArc
 50
315.6301023541565
 51
29.36989764584495
  0
ARC
  5
1642
330
1E
100
AcDbEntity
  8
SCHRAFF
100
AcDbCircle
 10
262.0503260113732
 20
335.7131123118225
 30
0.0
 40
5.0
100
AcDbArc
 50
315.6301023541565
 51
29.36989764584495
  0
ARC
  5
1643
330
1E
100
AcDbEntity
  8
SCHRAFF
100
AcDbCircle
 10
267.0075503182421
 20
335.0604813507221
 30
0.0
 40
5.0
100
AcDbArc
 50
315.6301023541565
 51
29.36989764584495
  0
ARC
  5
1644
330
1E
100
AcDbEntity
  8
SCHRAFF
100
AcDbCircle
 10
271.9647746251113
 20
334.4078503896219
 30
0.0
 40
5.0
100
AcDbArc
 50
315.6301023541565
 51
29.36989764584495
  0
ARC
  5
1646
330
1E
100
AcDbEntity
  8
SCHRAFF
100
AcDbCircle
 10
276.9219989319803
 20
333.7552194285215
 30
0.0
 40
5.0
100
AcDbArc
 50
315.6301023541565
 51
29.36989764584495
  0
ARC
  5
1647
330
1E
100
AcDbEntity
  8
SCHRAFF
100
AcDbCircle
 10
281.8792232388494
 20
333.1025884674214
 30
0.0
 40
5.0
100
AcDbArc
 50
315.6301023541565
 51
29.36989764584495
  0
ARC
  5
1648
330
1E
100
AcDbEntity
  8
SCHRAFF
100
AcDbCircle
 10
286.8364475457184
 20
332.4499575063211
 30
0.0
 40
5.0
100
AcDbArc
 50
315.6301023541565
 51
29.36989764584495
  0
ARC
  5
1649
330
1E
100
AcDbEntity
  8
SCHRAFF
100
AcDbCircle
 10
291.7936718525874
 20
331.7973265452208
 30
0.0
 40
5.0
100
AcDbArc
 50
315.6301023541565
 51
29.36989764584495
  0
ARC
  5
164B
102
{ACAD_REACTORS
330
1892
102
}
330
1E
100
AcDbEntity
  8
SCHRAFF
100
AcDbCircle
 10
296.068166940854
 20
331.2345785909266
 30
0.0
 40
4.362648041815128
100
AcDbArc
 50
295.9397664619967
 51
49.06023353800287
  0
ARC
  5
164C
102
{ACAD_REACTORS
330
1892
102
}
330
1E
100
AcDbEntity
  8
SCHRAFF
100
AcDbCircle
 10
140.2055291559411
 20
351.7542841358689
 30
0.0
 40
3.116644736322843
100
AcDbArc
 50
98.22499260628866
 51
246.7750073937121
  0
TEXT
  5
1655
330
1E
100
AcDbEntity
  8
BEM
100
AcDbText
 10
416.5811541437437
 20
12.14804815338303
 30
0.0
 40
4.0
  1
Diese Zeichnung ist urheberrechtlich geschützt und bleibt unser Eigentum. Sie darf weder ganz noch teilweise vervielfältigt und nicht an Dritte weitergegeben werden.
 50
90.0
 41
0.8
  7
GREEKS
100
AcDbText
  0
TEXT
  5
165A
330
1E
100
AcDbEntity
  8
TEXT
 62
     1
100
AcDbText
 10
367.247717454267
 20
62.91084877520188
 30
0.0
 40
7.0
  1

 41
0.8
  7
GREEKS
 72
     1
 11
367.247717454267
 21
62.91084877520188
 31
0.0
100
AcDbText
  0
TEXT
  5
17EF
330
1E
100
AcDbEntity
  8
TEXT
100
AcDbText
 10
193.7250163275297
 20
89.50724631152979
 30
0.0
 40
4.0
  1
DIN EN1124-3
 41
0.8
  7
GREEKS
 72
     1
 11
210.7154925180059
 21
89.50724631152979
 31
0.0
100
AcDbText
  0
HATCH
  5
1892
330
1E
100
AcDbEntity
  8
SCHRAFF
100
AcDbHatch
 10
0.0
 20
0.0
 30
0.0
210
0.0
220
0.0
230
1.0
  2
_USER
 70
     0
 71
     1
 91
        2
 92
        7
 72
     1
 73
     1
 93
        3
 10
298.9268586459223
 20
334.5301179507473
 42
0.0
 10
297.9765027379711
 20
330.9833414170006
 42
0.0
 10
297.9765027379711
 20
327.3114481543753
 42
0.5379969680628495
 97
        3
330
1207
330
EFF
330
164B
 92
        7
 72
     1
 73
     1
 93
        3
 10
138.9765027379711
 20
348.8902016516551
 42
0.0
 10
138.9765027379711
 20
351.9160885333954
 42
0.0
 10
139.7596598912915
 20
354.838870819898
 42
0.7573235302008018
 97
        3
330
164C
330
F3D
330
1209
 75
     0
 76
     0
 52
0.0
 41
0.1
 77
     0
 78
     1
 53
0.0
 43
21.57211876527163
 44
0.0
 45
0.0
 46
0.1
 79
     0
 47
0.2461595917705009
 98
        2
 10
299.7836748423269
 20
331.4555504513801
 10
138.1847024279782
 20
352.6252758125313
  0
DIMENSION
  5
1894
330
1E
100
AcDbEntity
  8
BEM
100
AcDbDimension
  2
*D5
 10
218.476502737971
 20
211.4497149751978
 30
0.0
 11
238.405274982849
 21
492.8237687157902
 31
0.0
 70
    34
 71
     5
 42
0.2617993877991487
  3
Standard
100
AcDb2LineAngularDimension
 13
252.122978601299
 23
467.0200723927764
 33
0.0
 14
218.4765027379712
 24
341.4497149751976
 34
0.0
 15
218.4765027379712
 25
341.4497149751976
 35
0.0
 16
243.8604375398634
 26
485.409162927529
 36
0.0
1001
ACAD
1000
DSTYLE
1002
{
1070
    40
1040
2.0
1070
    41
1040
3.5
1070
    42
1040
1.0
1070
    43
1040
7.0
1070
    44
1040
1.0
1070
    73
1070
     0
1070
    74
1070
     0
1070
    77
1070
     1
1070
    78
1070
     8
1070
    79
1070
     2
1070
   140
1040
3.5
1070
   141
1040
1.5
1070
   146
1040
0.5142857142857144
1070
   147
1040
1.5
1070
   172
1070
     1
1070
   178
1070
     1
1070
   179
1070
     2
1070
   271
1070
     2
1070
   272
1070
     2
1070
   284
1070
     8
1070
   285
1070
     8
1070
   286
1070
     8
1002
}
  0
TEXT
  5
190A
330
1E
100
AcDbEntity
  8
TEXT
100
AcDbText
 10
171.4290321728254
 20
63.29410943275277
 30
0.0
 40
4.24
  1
11.04.
 41
0.8
  7
GREEKS
 72
     1
 11
178.2130321728255
 21
63.29410943275277
 31
0.0
100
AcDbText
  0
ENDSEC
  0
SECTION
  2
OBJECTS
  0
DICTIONARY
  5
C
330
0
100
AcDbDictionary
281
     1
  3
ACAD_COLOR
350
1607
  3
ACAD_GROUP
350
D
  3
ACAD_LAYOUT
350
19
  3
ACAD_MATERIAL
350
1606
  3
ACAD_MLINESTYLE
350
16
  3
ACAD_PLOTSETTINGS
350
18
  3
ACAD_PLOTSTYLENAME
350
E
  3
AcDbVariableDictionary
350
246
  0
DICTIONARY
  5
1607
102
{ACAD_REACTORS
330
C
102
}
330
C
100
AcDbDictionary
281
     1
  0
DICTIONARY
  5
D
102
{ACAD_REACTORS
330
C
102
}
330
C
100
AcDbDictionary
281
     1
  0
DICTIONARY
  5
19
102
{ACAD_REACTORS
330
C
102
}
330
C
100
AcDbDictionary
281
     1
  3
Layout1
350
1D
  3
Model
350
21
  0
DICTIONARY
  5
1606
102
{ACAD_REACTORS
330
C
102
}
330
C
100
AcDbDictionary
281
     1
  0
DICTIONARY
  5
16
102
{ACAD_REACTORS
330
C
102
}
330
C
100
AcDbDictionary
281
     1
  3
Standard
350
17
  0
DICTIONARY
  5
18
102
{ACAD_REACTORS
330
C
102
}
330
C
100
AcDbDictionary
281
     1
  0
ACDBDICTIONARYWDFLT
  5
E
102
{ACAD_REACTORS
330
C
102
}
330
C
100
AcDbDictionary
281
     1
  3
Normal
350
F
100
AcDbDictionaryWithDefault
340
F
  0
DICTIONARY
  5
246
102
{ACAD_REACTORS
330
C
102
}
330
C
100
AcDbDictionary
281
     1
  3
DIMASSOC
350
16CB
  3
PROJECTNAME
350
16CC
  3
SORTENTS
350
247
  0
LAYOUT
  5
1D
102
{ACAD_REACTORS
330
19
102
}
330
19
100
AcDbPlotSettings
  1

  2
Tektronix Phaser 740
  4

  6

 40
0.0
 41
0.0
 42
0.0
 43
0.0
 44
0.0
 45
0.0
 46
0.0
 47
0.0
 48
0.0
 49
0.0
140
0.0
141
0.0
142
1.0
143
1.0
 70
   688
 72
     0
 73
     0
 74
     5
  7
monochrome.ctb
 75
    16
147
1.0
 76
     0
 77
     2
 78
   300
148
0.0
149
0.0
100
AcDbLayout
  1
Layout1
 70
     0
 71
     1
 10
0.0
 20
0.0
 11
12.0
 21
9.0
 12
0.0
 22
0.0
 32
0.0
 14
1.000000000000000E+20
 24
1.000000000000000E+20
 34
1.000000000000000E+20
 15
-1.000000000000000E+20
 25
-1.000000000000000E+20
 35
-1.000000000000000E+20
146
0.0
 13
0.0
 23
0.0
 33
0.0
 16
1.0
 26
0.0
 36
0.0
 17
0.0
 27
1.0
 37
0.0
 76
     0
330
1A
  0
LAYOUT
  5
21
102
{ACAD_REACTORS
330
19
102
}
330
19
100
AcDbPlotSettings
  1

  2
Tektronix Phaser 740
  4
A4
  6

 40
5.873749732971191
 41
6.085414409637451
 42
5.577407836914062
 43
5.662078857421875
 44
209.9733276367187
 45
296.9683227539062
 46
0.0
 47
0.0
 48
0.0
 49
0.0
140
0.0
141
0.0
142
1.0
143
1.0
 70
 11952
 72
     0
 73
     1
 74
     0
  7
monochrome.ctb
 75
     0
147
1.0
 76
     0
 77
     2
 78
   300
148
1150.120678237584
149
45.30495740799864
100
AcDbLayout
  1
Model
 70
     1
 71
     0
 10
0.0
 20
0.0
 11
12.0
 21
9.0
 12
0.0
 22
0.0
 32
0.0
 14
0.0
 24
0.0
 34
0.0
 15
0.0
 25
0.0
 35
0.0
146
0.0
 13
0.0
 23
0.0
 33
0.0
 16
1.0
 26
0.0
 36
0.0
 17
0.0
 27
1.0
 37
0.0
 76
     0
330
1E
  0
MLINESTYLE
  5
17
102
{ACAD_REACTORS
330
16
102
}
330
16
100
AcDbMlineStyle
  2
STANDARD
 70
     0
  3

 62
   256
 51
90.0
 52
90.0
 71
     2
 49
0.5
 62
   256
  6
BYLAYER
 49
-0.5
 62
   256
  6
BYLAYER
  0
ACDBPLACEHOLDER
  5
F
102
{ACAD_REACTORS
330
E
102
}
330
E
  0
DICTIONARYVAR
  5
16CB
102
{ACAD_REACTORS
330
246
102
}
330
246
100
DictionaryVariables
280
     0
  1
1
  0
DICTIONARYVAR
  5
16CC
102
{ACAD_REACTORS
330
246
102
}
330
246
100
DictionaryVariables
280
     0
  1

  0
DICTIONARYVAR
  5
247
102
{ACAD_REACTORS
330
246
102
}
330
246
100
DictionaryVariables
280
     0
  1
96
  0
ENDSEC
  0
EOF
