  0
SECTION
  2
HEADER
  9
$ACADVER
  1
AC1018
  9
$ACADMAINTVER
 70
     2
  9
$DWGCODEPAGE
  3
ANSI_1252
  9
$INSBASE
 10
0.0
 20
0.0
 30
0.0
  9
$EXTMIN
 10
-0.0240048754105828
 20
-0.0090254092260693
 30
-0.0000000000000096
  9
$EXTMAX
 10
420.0089170291725
 20
594.0181385765704
 30
0.0000000000000056
  9
$LIMMIN
 10
0.0
 20
0.0
  9
$LIMMAX
 10
419.9999999999999
 20
594.0000000000002
  9
$ORTHOMODE
 70
     1
  9
$REGENMODE
 70
     1
  9
$FILLMODE
 70
     1
  9
$QTEXTMODE
 70
     0
  9
$MIRRTEXT
 70
     1
  9
$LTSCALE
 40
20.0
  9
$ATTMODE
 70
     1
  9
$TEXTSIZE
 40
3.5
  9
$TRACEWID
 40
0.5
  9
$TEXTSTYLE
  7
STANDARD
  9
$CLAYER
  8
VOLL
  9
$CELTYPE
  6
ByLayer
  9
$CECOLOR
 62
   256
  9
$CELTSCALE
 40
1.0
  9
$DISPSILH
 70
     0
  9
$DIMSCALE
 40
2.0
  9
$DIMASZ
 40
3.5
  9
$DIMEXO
 40
1.0
  9
$DIMDLI
 40
7.0
  9
$DIMRND
 40
0.0
  9
$DIMDLE
 40
0.0
  9
$DIMEXE
 40
1.0
  9
$DIMTP
 40
0.0
  9
$DIMTM
 40
0.0
  9
$DIMTXT
 40
3.5
  9
$DIMCEN
 40
1.5
  9
$DIMTSZ
 40
0.0
  9
$DIMTOL
 70
     0
  9
$DIMLIM
 70
     0
  9
$DIMTIH
 70
     0
  9
$DIMTOH
 70
     0
  9
$DIMSE1
 70
     0
  9
$DIMSE2
 70
     0
  9
$DIMTAD
 70
     1
  9
$DIMZIN
 70
     8
  9
$DIMBLK
  1

  9
$DIMASO
 70
     1
  9
$DIMSHO
 70
     0
  9
$DIMPOST
  1

  9
$DIMAPOST
  1

  9
$DIMALT
 70
     0
  9
$DIMALTD
 70
     2
  9
$DIMALTF
 40
25.4
  9
$DIMLFAC
 40
1.0
  9
$DIMTOFL
 70
     1
  9
$DIMTVP
 40
0.0
  9
$DIMTIX
 70
     0
  9
$DIMSOXD
 70
     0
  9
$DIMSAH
 70
     0
  9
$DIMBLK1
  1

  9
$DIMBLK2
  1

  9
$DIMSTYLE
  2
Standard
  9
$DIMCLRD
 70
     0
  9
$DIMCLRE
 70
     0
  9
$DIMCLRT
 70
     1
  9
$DIMTFAC
 40
0.5142857142857144
  9
$DIMGAP
 40
1.5
  9
$DIMJUST
 70
     0
  9
$DIMSD1
 70
     0
  9
$DIMSD2
 70
     0
  9
$DIMTOLJ
 70
     1
  9
$DIMTZIN
 70
     8
  9
$DIMALTZ
 70
     8
  9
$DIMALTTZ
 70
     8
  9
$DIMUPT
 70
     0
  9
$DIMDEC
 70
     2
  9
$DIMTDEC
 70
     2
  9
$DIMALTU
 70
     2
  9
$DIMALTTD
 70
     2
  9
$DIMTXSTY
  7
STANDARD
  9
$DIMAUNIT
 70
     0
  9
$DIMADEC
 70
     2
  9
$DIMALTRND
 40
0.0
  9
$DIMAZIN
 70
     2
  9
$DIMDSEP
 70
    46
  9
$DIMATFIT
 70
     3
  9
$DIMFRAC
 70
     0
  9
$DIMLDRBLK
  1

  9
$DIMLUNIT
 70
     2
  9
$DIMLWD
 70
    -2
  9
$DIMLWE
 70
    -2
  9
$DIMTMOVE
 70
     0
  9
$LUNITS
 70
     2
  9
$LUPREC
 70
     2
  9
$SKETCHINC
 40
1.0
  9
$FILLETRAD
 40
0.0
  9
$AUNITS
 70
     1
  9
$AUPREC
 70
     3
  9
$MENU
  1
ACAD
  9
$ELEVATION
 40
0.0
  9
$PELEVATION
 40
0.0
  9
$THICKNESS
 40
0.0
  9
$LIMCHECK
 70
     0
  9
$CHAMFERA
 40
0.0
  9
$CHAMFERB
 40
0.0
  9
$CHAMFERC
 40
0.0
  9
$CHAMFERD
 40
0.0
  9
$SKPOLY
 70
     0
  9
$TDCREATE
 40
2452040.637099653
  9
$TDUCREATE
 40
2452040.553766320
  9
$TDUPDATE
 40
2455663.359658426
  9
$TDUUPDATE
 40
2455663.276325093
  9
$TDINDWG
 40
0.3540557060
  9
$TDUSRTIMER
 40
0.3540557060
  9
$USRTIMER
 70
     1
  9
$ANGBASE
 50
0.0
  9
$ANGDIR
 70
     0
  9
$PDMODE
 70
     0
  9
$PDSIZE
 40
0.0
  9
$PLINEWID
 40
0.0
  9
$SPLFRAME
 70
     0
  9
$SPLINETYPE
 70
     6
  9
$SPLINESEGS
 70
     8
  9
$HANDSEED
  5
11C3
  9
$SURFTAB1
 70
     6
  9
$SURFTAB2
 70
     6
  9
$SURFTYPE
 70
     6
  9
$SURFU
 70
     6
  9
$SURFV
 70
     6
  9
$UCSBASE
  2

  9
$UCSNAME
  2

  9
$UCSORG
 10
0.0
 20
0.0
 30
0.0
  9
$UCSXDIR
 10
1.0
 20
0.0
 30
0.0
  9
$UCSYDIR
 10
0.0
 20
1.0
 30
0.0
  9
$UCSORTHOREF
  2

  9
$UCSORTHOVIEW
 70
     0
  9
$UCSORGTOP
 10
0.0
 20
0.0
 30
0.0
  9
$UCSORGBOTTOM
 10
0.0
 20
0.0
 30
0.0
  9
$UCSORGLEFT
 10
0.0
 20
0.0
 30
0.0
  9
$UCSORGRIGHT
 10
0.0
 20
0.0
 30
0.0
  9
$UCSORGFRONT
 10
0.0
 20
0.0
 30
0.0
  9
$UCSORGBACK
 10
0.0
 20
0.0
 30
0.0
  9
$PUCSBASE
  2

  9
$PUCSNAME
  2

  9
$PUCSORG
 10
0.0
 20
0.0
 30
0.0
  9
$PUCSXDIR
 10
1.0
 20
0.0
 30
0.0
  9
$PUCSYDIR
 10
0.0
 20
1.0
 30
0.0
  9
$PUCSORTHOREF
  2

  9
$PUCSORTHOVIEW
 70
     0
  9
$PUCSORGTOP
 10
0.0
 20
0.0
 30
0.0
  9
$PUCSORGBOTTOM
 10
0.0
 20
0.0
 30
0.0
  9
$PUCSORGLEFT
 10
0.0
 20
0.0
 30
0.0
  9
$PUCSORGRIGHT
 10
0.0
 20
0.0
 30
0.0
  9
$PUCSORGFRONT
 10
0.0
 20
0.0
 30
0.0
  9
$PUCSORGBACK
 10
0.0
 20
0.0
 30
0.0
  9
$USERI1
 70
     0
  9
$USERI2
 70
     0
  9
$USERI3
 70
     0
  9
$USERI4
 70
     0
  9
$USERI5
 70
     0
  9
$USERR1
 40
0.0
  9
$USERR2
 40
0.0
  9
$USERR3
 40
0.0
  9
$USERR4
 40
0.0
  9
$USERR5
 40
0.0
  9
$WORLDVIEW
 70
     1
  9
$SHADEDGE
 70
     3
  9
$SHADEDIF
 70
    70
  9
$TILEMODE
 70
     1
  9
$MAXACTVP
 70
    16
  9
$PINSBASE
 10
0.0
 20
0.0
 30
0.0
  9
$PLIMCHECK
 70
     0
  9
$PEXTMIN
 10
1.000000000000000E+20
 20
1.000000000000000E+20
 30
1.000000000000000E+20
  9
$PEXTMAX
 10
-1.000000000000000E+20
 20
-1.000000000000000E+20
 30
-1.000000000000000E+20
  9
$PLIMMIN
 10
0.0
 20
0.0
  9
$PLIMMAX
 10
12.0
 20
9.0
  9
$UNITMODE
 70
     0
  9
$VISRETAIN
 70
     0
  9
$PLINEGEN
 70
     0
  9
$PSLTSCALE
 70
     0
  9
$TREEDEPTH
 70
  3020
  9
$CMLSTYLE
  2
Standard
  9
$CMLJUST
 70
     0
  9
$CMLSCALE
 40
1.0
  9
$PROXYGRAPHICS
 70
     1
  9
$MEASUREMENT
 70
     0
  9
$CELWEIGHT
370
    -1
  9
$ENDCAPS
280
     0
  9
$JOINSTYLE
280
     0
  9
$LWDISPLAY
290
     0
  9
$INSUNITS
 70
     0
  9
$HYPERLINKBASE
  1

  9
$STYLESHEET
  1
monochrome 1.ctb
  9
$XEDIT
290
     1
  9
$CEPSNTYPE
380
     0
  9
$PSTYLEMODE
290
     1
  9
$FINGERPRINTGUID
  2
{7AADB5C8-6110-11D8-B72B-000102183313}
  9
$VERSIONGUID
  2
{6E73964B-D637-4F99-B6FF-B44CBE5F03C9}
  9
$EXTNAMES
290
     1
  9
$PSVPSCALE
 40
0.0
  9
$OLESTARTUP
290
     0
  9
$SORTENTS
280
    96
  9
$INDEXCTL
280
     0
  9
$HIDETEXT
280
     0
  9
$XCLIPFRAME
290
     0
  9
$HALOGAP
280
     0
  9
$OBSCOLOR
 70
   257
  9
$OBSLTYPE
280
     0
  9
$INTERSECTIONDISPLAY
280
     0
  9
$INTERSECTIONCOLOR
 70
   257
  9
$DIMASSOC
280
     1
  9
$PROJECTNAME
  1

  0
ENDSEC
  0
SECTION
  2
CLASSES
  0
CLASS
  1
ACDBDICTIONARYWDFLT
  2
AcDbDictionaryWithDefault
  3
ObjectDBX Classes
 90
        0
 91
        1
280
     0
281
     0
  0
CLASS
  1
DICTIONARYVAR
  2
AcDbDictionaryVar
  3
ObjectDBX Classes
 90
        0
 91
        3
280
     0
281
     0
  0
ENDSEC
  0
SECTION
  2
TABLES
  0
TABLE
  2
VPORT
  5
8
330
0
100
AcDbSymbolTable
 70
     3
  0
VPORT
  5
11C2
330
8
100
AcDbSymbolTableRecord
100
AcDbViewportTableRecord
  2
*Active
 70
     0
 10
0.0
 20
0.0
 11
1.0
 21
1.0
 12
210.0
 22
297.0
 13
0.0
 23
0.0
 14
1.0
 24
1.0
 15
10.0
 25
10.0
 16
0.0
 26
0.0
 36
1.0
 17
0.0
 27
0.0
 37
0.0
 40
594.0
 41
1.334231805929919
 42
50.0
 43
0.0
 44
0.0
 50
0.0
 51
0.0
 71
     0
 72
  1500
 73
     1
 74
     0
 75
     0
 76
     0
 77
     0
 78
     0
281
     0
 65
     1
110
0.0
120
0.0
130
0.0
111
1.0
121
0.0
131
0.0
112
0.0
122
1.0
132
0.0
 79
     0
146
0.0
  0
ENDTAB
  0
TABLE
  2
LTYPE
  5
5
330
0
100
AcDbSymbolTable
 70
     2
  0
LTYPE
  5
13
330
5
100
AcDbSymbolTableRecord
100
AcDbLinetypeTableRecord
  2
ByBlock
 70
     0
  3

 72
    65
 73
     0
 40
0.0
  0
LTYPE
  5
14
330
5
100
AcDbSymbolTableRecord
100
AcDbLinetypeTableRecord
  2
ByLayer
 70
     0
  3

 72
    65
 73
     0
 40
0.0
  0
LTYPE
  5
15
330
5
100
AcDbSymbolTableRecord
100
AcDbLinetypeTableRecord
  2
Continuous
 70
     0
  3
Solid line
 72
    65
 73
     0
 40
0.0
  0
LTYPE
  5
35
330
5
100
AcDbSymbolTableRecord
100
AcDbLinetypeTableRecord
  2
STRICHPUNKT
 70
     0
  3
__ . __ . __ . __ . __ . __ . __ . __ . __ . __
 72
    65
 73
     4
 40
1.0
 49
0.5
 74
     0
 49
-0.25
 74
     0
 49
0.0
 74
     0
 49
-0.25
 74
     0
  0
ENDTAB
  0
TABLE
  2
LAYER
  5
2
330
0
100
AcDbSymbolTable
 70
     9
  0
LAYER
  5
10
330
2
100
AcDbSymbolTableRecord
100
AcDbLayerTableRecord
  2
0
 70
     0
 62
     7
  6
Continuous
370
    -3
390
F
  0
LAYER
  5
38
330
2
100
AcDbSymbolTableRecord
100
AcDbLayerTableRecord
  2
VOLL
 70
     0
 62
     1
  6
Continuous
370
    -3
390
F
  0
LAYER
  5
39
330
2
100
AcDbSymbolTableRecord
100
AcDbLayerTableRecord
  2
HILF
 70
     0
 62
     2
  6
Continuous
370
    -3
390
F
  0
LAYER
  5
3A
330
2
100
AcDbSymbolTableRecord
100
AcDbLayerTableRecord
  2
MITTEL
 70
     0
 62
     2
  6
STRICHPUNKT
370
    -3
390
F
  0
LAYER
  5
3B
330
2
100
AcDbSymbolTableRecord
100
AcDbLayerTableRecord
  2
BEM
 70
     0
 62
     7
  6
Continuous
370
    -3
390
F
  0
LAYER
  5
3C
330
2
100
AcDbSymbolTableRecord
100
AcDbLayerTableRecord
  2
STEMPEL
 70
     0
 62
     3
  6
Continuous
370
    -3
390
F
  0
LAYER
  5
3D
330
2
100
AcDbSymbolTableRecord
100
AcDbLayerTableRecord
  2
TEXT
 70
     0
 62
     7
  6
Continuous
370
    -3
390
F
  0
LAYER
  5
3E
330
2
100
AcDbSymbolTableRecord
100
AcDbLayerTableRecord
  2
DEFPOINTS
 70
     0
 62
     7
  6
Continuous
290
     0
370
    -3
390
F
  0
LAYER
  5
3F
330
2
100
AcDbSymbolTableRecord
100
AcDbLayerTableRecord
  2
SCHRAFF
 70
     0
 62
     7
  6
Continuous
370
    -3
390
F
  0
ENDTAB
  0
TABLE
  2
STYLE
  5
3
330
0
100
AcDbSymbolTable
 70
     2
  0
STYLE
  5
11
330
3
100
AcDbSymbolTableRecord
100
AcDbTextStyleTableRecord
  2
STANDARD
 70
     0
 40
0.0
 41
0.8
 50
0.0
 71
     0
 42
3.5
  3
simplex.shx
  4

  0
STYLE
  5
34
330
3
100
AcDbSymbolTableRecord
100
AcDbTextStyleTableRecord
  2
GREEKS
 70
     0
 40
0.0
 41
0.8
 50
0.0
 71
     0
 42
2.5
  3
SIMPLEX.shx
  4

  0
ENDTAB
  0
TABLE
  2
VIEW
  5
6
330
0
100
AcDbSymbolTable
 70
     0
  0
ENDTAB
  0
TABLE
  2
UCS
  5
7
330
0
100
AcDbSymbolTable
 70
     0
  0
ENDTAB
  0
TABLE
  2
APPID
  5
9
330
0
100
AcDbSymbolTable
 70
     1
  0
APPID
  5
12
330
9
100
AcDbSymbolTableRecord
100
AcDbRegAppTableRecord
  2
ACAD
 70
     0
  0
ENDTAB
  0
TABLE
  2
DIMSTYLE
  5
A
330
0
100
AcDbSymbolTable
 70
     1
100
AcDbDimStyleTable
 71
     1
340
1CB
  0
DIMSTYLE
105
1CB
102
{ACAD_REACTORS
330
CC5
330
1E8
330
1065
330
10A6
102
}
330
A
100
AcDbSymbolTableRecord
100
AcDbDimStyleTableRecord
  2
Standard
 70
     0
340
11
  0
ENDTAB
  0
TABLE
  2
BLOCK_RECORD
  5
1
330
0
100
AcDbSymbolTable
 70
     8
  0
BLOCK_RECORD
  5
1E
330
1
100
AcDbSymbolTableRecord
100
AcDbBlockTableRecord
  2
*Model_Space
340
21
  0
BLOCK_RECORD
  5
1A
330
1
100
AcDbSymbolTableRecord
100
AcDbBlockTableRecord
  2
*Paper_Space
340
1D
  0
BLOCK_RECORD
  5
22
330
1
100
AcDbSymbolTableRecord
100
AcDbBlockTableRecord
  2
LOGO
340
0
102
{BLKREFS
331
135
102
}
  0
BLOCK_RECORD
  5
1E9
330
1
100
AcDbSymbolTableRecord
100
AcDbBlockTableRecord
  2
*D1
340
0
  0
BLOCK_RECORD
  5
CC6
330
1
100
AcDbSymbolTableRecord
100
AcDbBlockTableRecord
  2
*D3
340
0
  0
BLOCK_RECORD
  5
1066
330
1
100
AcDbSymbolTableRecord
100
AcDbBlockTableRecord
  2
*D4
340
0
  0
BLOCK_RECORD
  5
10A7
330
1
100
AcDbSymbolTableRecord
100
AcDbBlockTableRecord
  2
*D5
340
0
  0
ENDTAB
  0
ENDSEC
  0
SECTION
  2
BLOCKS
  0
BLOCK
  5
43
330
1E
100
AcDbEntity
  8
0
100
AcDbBlockBegin
  2
*Model_Space
 70
     0
 10
0.0
 20
0.0
 30
0.0
  3
*Model_Space
  1

  0
ENDBLK
  5
44
330
1E
100
AcDbEntity
  8
0
100
AcDbBlockEnd
  0
BLOCK
  5
41
330
1A
100
AcDbEntity
 67
     1
  8
0
100
AcDbBlockBegin
  2
*Paper_Space
 70
     0
 10
0.0
 20
0.0
 30
0.0
  3
*Paper_Space
  1

  0
ENDBLK
  5
42
330
1A
100
AcDbEntity
 67
     1
  8
0
100
AcDbBlockEnd
  0
BLOCK
  5
45
330
22
100
AcDbEntity
  8
0
100
AcDbBlockBegin
  2
LOGO
 70
     0
 10
0.0
 20
0.0
 30
0.0
  3
LOGO
  1

  0
ARC
  5
46
330
22
100
AcDbEntity
  8
0
100
AcDbCircle
 10
11.59973089678112
 20
-9.271599258481501
 30
0.0
 40
4.5
100
AcDbArc
 50
270.0
 51
231.0575587310159
  0
LINE
  5
47
330
22
100
AcDbEntity
  8
0
100
AcDbLine
 10
3.599730896781125
 20
-4.771599258481529
 30
0.0
 11
3.599730896781153
 21
-11.77159925848133
 31
0.0
  0
LINE
  5
48
330
22
100
AcDbEntity
  8
0
100
AcDbLine
 10
2.599730896781125
 20
-4.771599258481529
 30
0.0
 11
2.599730896781153
 21
-11.77159925848133
 31
0.0
  0
CIRCLE
  5
49
330
22
100
AcDbEntity
  8
0
100
AcDbCircle
 10
11.59973089678112
 20
-9.271599258481501
 30
0.0
 40
3.5
  0
ARC
  5
4A
330
22
100
AcDbEntity
  8
0
100
AcDbCircle
 10
31.59973089678115
 20
-9.271599258481472
 30
0.0
 40
4.5
100
AcDbArc
 50
270.0
 51
231.0575587310182
  0
LINE
  5
4B
330
22
100
AcDbEntity
  8
0
100
AcDbLine
 10
17.59973089678112
 20
-4.771599258481472
 30
0.0
 11
17.59973089678115
 21
-13.77159925848147
 31
0.0
  0
ARC
  5
4C
330
22
100
AcDbEntity
  8
0
100
AcDbCircle
 10
22.59973089678116
 20
-7.271599258481472
 30
0.0
 40
2.5
100
AcDbArc
 50
293.1161887722295
 51
90.0
  0
CIRCLE
  5
4D
330
22
100
AcDbEntity
  8
0
100
AcDbCircle
 10
31.59973089678115
 20
-9.271599258481472
 30
0.0
 40
3.5
  0
ARC
  5
4E
330
22
100
AcDbEntity
  8
0
100
AcDbCircle
 10
4.599730896781153
 20
-11.77159925848133
 30
0.0
 40
1.0
100
AcDbArc
 50
180.0
 51
270.0
  0
ARC
  5
4F
330
22
100
AcDbEntity
  8
0
100
AcDbCircle
 10
4.599730896781153
 20
-11.77159925848133
 30
0.0
 40
2.0
100
AcDbArc
 50
179.9999999999992
 51
270.0
  0
LINE
  5
50
330
22
100
AcDbEntity
  8
0
100
AcDbLine
 10
11.59973089678115
 20
-13.77159925848144
 30
0.0
 11
4.599730896781153
 21
-13.77159925848147
 31
0.0
  0
LINE
  5
51
330
22
100
AcDbEntity
  8
0
100
AcDbLine
 10
8.771303772034769
 20
-12.77159925848136
 30
0.0
 11
4.599730896781153
 21
-12.77159925848133
 31
0.0
  0
LINE
  5
52
330
22
100
AcDbEntity
  8
0
100
AcDbLine
 10
31.59973089678115
 20
-13.77159925848147
 30
0.0
 11
23.6715276665056
 21
-13.77159925848144
 31
0.0
  0
LINE
  5
53
330
22
100
AcDbEntity
  8
0
100
AcDbLine
 10
23.56565672307022
 20
-9.51278021337896
 30
0.0
 11
24.4388546544846
 21
-12.77159925848144
 31
0.0
  0
LINE
  5
54
330
22
100
AcDbEntity
  8
0
100
AcDbLine
 10
22.59973089678116
 20
-9.771599258481472
 30
0.0
 11
18.59973089678112
 21
-9.771599258481472
 31
0.0
  0
LINE
  5
55
330
22
100
AcDbEntity
  8
0
100
AcDbLine
 10
18.59973089678115
 20
-13.77159925848144
 30
0.0
 11
17.59973089678115
 21
-13.77159925848144
 31
0.0
  0
LINE
  5
56
330
22
100
AcDbEntity
  8
0
100
AcDbLine
 10
18.59973089678115
 20
-9.771599258481472
 30
0.0
 11
18.59973089678115
 21
-13.77159925848144
 31
0.0
  0
LINE
  5
57
330
22
100
AcDbEntity
  8
0
100
AcDbLine
 10
22.59973089678116
 20
-9.771599258481472
 30
0.0
 11
23.67152766650562
 21
-13.77159925848147
 31
0.0
  0
ARC
  5
58
330
22
100
AcDbEntity
  8
0
100
AcDbCircle
 10
22.59973089678116
 20
-7.271599258481472
 30
0.0
 40
2.5
100
AcDbArc
 50
270.0
 51
270.0000000000007
  0
LINE
  5
59
330
22
100
AcDbEntity
  8
0
100
AcDbLine
 10
28.77130377203494
 20
-12.77159925848147
 30
0.0
 11
24.43885465448463
 21
-12.77159925848144
 31
0.0
  0
LINE
  5
5A
330
22
100
AcDbEntity
  8
0
100
AcDbLine
 10
3.599730896781125
 20
-4.771599258481472
 30
0.0
 11
2.599730896781125
 21
-4.771599258481472
 31
0.0
  0
LINE
  5
5B
330
22
100
AcDbEntity
  8
0
100
AcDbLine
 10
22.59973089678116
 20
-8.771599258481472
 30
0.0
 11
18.59973089678115
 21
-8.771599258481472
 31
0.0
  0
LINE
  5
5C
330
22
100
AcDbEntity
  8
0
100
AcDbLine
 10
22.59973089678116
 20
-5.771599258481472
 30
0.0
 11
18.59973089678115
 21
-5.771599258481472
 31
0.0
  0
LINE
  5
5D
330
22
100
AcDbEntity
  8
0
100
AcDbLine
 10
22.59973089678116
 20
-4.771599258481472
 30
0.0
 11
17.59973089678115
 21
-4.771599258481472
 31
0.0
  0
LINE
  5
5E
330
22
100
AcDbEntity
  8
0
100
AcDbLine
 10
18.59973089678115
 20
-5.771599258481472
 30
0.0
 11
18.59973089678115
 21
-8.771599258481472
 31
0.0
  0
ARC
  5
5F
330
22
100
AcDbEntity
  8
0
100
AcDbCircle
 10
22.59973089678116
 20
-7.271599258481472
 30
0.0
 40
1.5
100
AcDbArc
 50
270.0
 51
90.0
  0
ENDBLK
  5
60
330
22
100
AcDbEntity
  8
0
100
AcDbBlockEnd
  0
BLOCK
  5
1F3
330
1E9
100
AcDbEntity
  8
0
100
AcDbBlockBegin
  2
*D1
 70
     1
 10
0.0
 20
0.0
 30
0.0
  3
*D1
  1

  0
LINE
  5
118B
330
1E9
100
AcDbEntity
  8
BEM
 62
     0
370
    -2
100
AcDbLine
 10
155.5755706100867
 20
249.8455749896797
 30
0.0
 11
155.5755706100867
 21
217.7937244778024
 31
0.0
  0
LINE
  5
118C
330
1E9
100
AcDbEntity
  8
BEM
 62
     0
370
    -2
100
AcDbLine
 10
288.5755706100872
 20
249.84557498968
 30
0.0
 11
288.5755706100872
 21
217.7937244778024
 31
0.0
  0
LINE
  5
118D
330
1E9
100
AcDbEntity
  8
BEM
 62
     0
370
    -2
100
AcDbLine
 10
162.5755706100867
 20
219.7937244778024
 30
0.0
 11
281.5755706100872
 21
219.7937244778024
 31
0.0
  0
SOLID
  5
118E
330
1E9
100
AcDbEntity
  8
BEM
 62
     0
100
AcDbTrace
 10
162.5755706100867
 20
220.960391144469
 30
0.0
 11
162.5755706100867
 21
218.6270578111357
 31
0.0
 12
155.5755706100867
 22
219.7937244778024
 32
0.0
 13
155.5755706100867
 23
219.7937244778024
 33
0.0
  0
SOLID
  5
118F
330
1E9
100
AcDbEntity
  8
BEM
 62
     0
100
AcDbTrace
 10
281.5755706100872
 20
220.960391144469
 30
0.0
 11
281.5755706100872
 21
218.6270578111357
 31
0.0
 12
288.5755706100872
 22
219.7937244778024
 32
0.0
 13
288.5755706100872
 23
219.7937244778024
 33
0.0
  0
MTEXT
  5
1190
330
1E9
100
AcDbEntity
  8
BEM
 62
     1
100
AcDbMText
 10
222.075570610087
 20
226.2937244778024
 30
0.0
 40
7.0
 41
0.0
 71
     5
 72
     1
  1
\A1;%%c133
 73
     1
 44
1.0
  0
POINT
  5
1191
330
1E9
100
AcDbEntity
  8
DEFPOINTS
 62
     0
100
AcDbPoint
 10
155.5755706100867
 20
251.8455749896797
 30
0.0
  0
POINT
  5
1192
330
1E9
100
AcDbEntity
  8
DEFPOINTS
 62
     0
100
AcDbPoint
 10
288.5755706100872
 20
251.84557498968
 30
0.0
  0
POINT
  5
1193
330
1E9
100
AcDbEntity
  8
DEFPOINTS
 62
     0
100
AcDbPoint
 10
288.5755706100872
 20
219.7937244778024
 30
0.0
  0
ENDBLK
  5
1F4
330
1E9
100
AcDbEntity
  8
0
100
AcDbBlockEnd
  0
BLOCK
  5
CD0
330
CC6
100
AcDbEntity
  8
0
100
AcDbBlockBegin
  2
*D3
 70
     1
 10
0.0
 20
0.0
 30
0.0
  3
*D3
  1

  0
LINE
  5
1194
330
CC6
100
AcDbEntity
  8
BEM
 62
     0
370
    -2
100
AcDbLine
 10
154.4504572453459
 20
241.8455749896796
 30
0.0
 11
120.2930367568956
 21
241.8455749896796
 31
0.0
  0
LINE
  5
1195
330
CC6
100
AcDbEntity
  8
BEM
 62
     0
370
    -2
100
AcDbLine
 10
220.0755706100866
 20
357.8455749896798
 30
0.0
 11
120.2930367568956
 21
357.8455749896798
 31
0.0
  0
LINE
  5
1196
330
CC6
100
AcDbEntity
  8
BEM
 62
     0
370
    -2
100
AcDbLine
 10
122.2930367568956
 20
248.8455749896796
 30
0.0
 11
122.2930367568956
 21
350.8455749896798
 31
0.0
  0
SOLID
  5
1197
330
CC6
100
AcDbEntity
  8
BEM
 62
     0
100
AcDbTrace
 10
121.1263700902289
 20
248.8455749896796
 30
0.0
 11
123.4597034235622
 21
248.8455749896796
 31
0.0
 12
122.2930367568956
 22
241.8455749896796
 32
0.0
 13
122.2930367568956
 23
241.8455749896796
 33
0.0
  0
SOLID
  5
1198
330
CC6
100
AcDbEntity
  8
BEM
 62
     0
100
AcDbTrace
 10
121.1263700902289
 20
350.8455749896798
 30
0.0
 11
123.4597034235622
 21
350.8455749896798
 31
0.0
 12
122.2930367568956
 22
357.8455749896798
 32
0.0
 13
122.2930367568956
 23
357.8455749896798
 33
0.0
  0
MTEXT
  5
1199
330
CC6
100
AcDbEntity
  8
BEM
 62
     1
100
AcDbMText
 10
115.7930367568955
 20
299.8455749896797
 30
0.0
 40
7.0
 41
0.0
 71
     5
 72
     1
  1
\A1;116
 11
0.0000000000000001
 21
1.0
 31
0.0
 73
     1
 44
1.0
  0
POINT
  5
119A
330
CC6
100
AcDbEntity
  8
DEFPOINTS
 62
     0
100
AcDbPoint
 10
156.4504572453459
 20
241.8455749896796
 30
0.0
  0
POINT
  5
119B
330
CC6
100
AcDbEntity
  8
DEFPOINTS
 62
     0
100
AcDbPoint
 10
222.0755706100866
 20
357.8455749896798
 30
0.0
  0
POINT
  5
119C
330
CC6
100
AcDbEntity
  8
DEFPOINTS
 62
     0
100
AcDbPoint
 10
122.2930367568956
 20
357.8455749896798
 30
0.0
  0
ENDBLK
  5
CD1
330
CC6
100
AcDbEntity
  8
0
100
AcDbBlockEnd
  0
BLOCK
  5
1072
330
1066
100
AcDbEntity
  8
0
100
AcDbBlockBegin
  2
*D4
 70
     1
 10
0.0
 20
0.0
 30
0.0
  3
*D4
  1

  0
LINE
  5
1180
330
1066
100
AcDbEntity
  8
BEM
 62
     0
370
    -2
100
AcDbLine
 10
254.9455893381068
 20
480.5181549283914
 30
0.0
 11
260.5681428878678
 21
501.5018104443758
 31
0.0
  0
LINE
  5
1181
330
1066
100
AcDbEntity
  8
BEM
 62
     0
370
    -2
100
AcDbLine
 10
222.0755706100867
 20
359.8455749896798
 30
0.0
 11
222.0755706100866
 21
506.5694537233091
 31
0.0
  0
ARC
  5
1182
330
1066
100
AcDbEntity
  8
BEM
 62
     0
370
    -2
100
AcDbCircle
 10
222.0755706100867
 20
357.8455749896798
 30
0.0
 40
146.7238787336293
100
AcDbArc
 50
77.73376431015399
 51
87.26623568984601
  0
SOLID
  5
1183
330
1066
100
AcDbEntity
  8
BEM
 62
     0
100
AcDbTrace
 10
253.5227182031508
 20
502.3536817104126
 30
0.0
 11
252.972742477898
 21
500.0860902246999
 31
0.0
 12
260.0505047976627
 22
499.5699587917976
 32
0.0
 13
260.0505047976627
 23
499.5699587917976
 33
0.0
  0
SOLID
  5
1184
330
1066
100
AcDbEntity
  8
BEM
 62
     0
100
AcDbTrace
 10
229.0457486716941
 20
503.2361387190448
 30
0.0
 11
229.1014087778551
 21
505.5688080906074
 31
0.0
 12
222.0755706100866
 22
504.569453723309
 32
0.0
 13
222.0755706100866
 23
504.569453723309
 33
0.0
  0
MTEXT
  5
1185
330
1066
100
AcDbEntity
  8
BEM
 62
     1
100
AcDbMText
 10
242.0753000583742
 20
509.7586021999005
 30
0.0
 40
7.0
 41
0.0
 71
     5
 72
     1
  1
\A1;15°
 11
0.9914448613738105
 21
-0.1305261922200512
 31
0.0
 73
     1
 44
1.0
  0
POINT
  5
1186
330
1066
100
AcDbEntity
  8
DEFPOINTS
 62
     0
100
AcDbPoint
 10
247.5539047724051
 20
502.340388318581
 30
0.0
  0
POINT
  5
1187
330
1066
100
AcDbEntity
  8
DEFPOINTS
 62
     0
100
AcDbPoint
 10
222.0755706100867
 20
357.8455749896798
 30
0.0
  0
POINT
  5
1188
330
1066
100
AcDbEntity
  8
DEFPOINTS
 62
     0
100
AcDbPoint
 10
254.4279512479018
 20
478.5863032758132
 30
0.0
  0
POINT
  5
1189
330
1066
100
AcDbEntity
  8
DEFPOINTS
 62
     0
100
AcDbPoint
 10
222.0755706100867
 20
357.8455749896798
 30
0.0
  0
POINT
  5
118A
330
1066
100
AcDbEntity
  8
DEFPOINTS
 62
     0
100
AcDbPoint
 10
222.0755706100868
 20
236.84557498968
 30
0.0
  0
ENDBLK
  5
1073
330
1066
100
AcDbEntity
  8
0
100
AcDbBlockEnd
  0
BLOCK
  5
10B1
330
10A7
100
AcDbEntity
  8
0
100
AcDbBlockBegin
  2
*D5
 70
     1
 10
0.0
 20
0.0
 30
0.0
  3
*D5
  1

  0
LINE
  5
119D
330
10A7
100
AcDbEntity
  8
BEM
 62
     0
370
    -2
100
AcDbLine
 10
220.1437189575086
 20
358.363213079885
 30
0.0
 11
131.152794419194
 21
382.2082594436329
 31
0.0
  0
LINE
  5
119E
330
10A7
100
AcDbEntity
  8
BEM
 62
     0
370
    -2
100
AcDbLine
 10
181.9885246874519
 20
492.8200082208092
 30
0.0
 11
162.2110798315043
 21
498.1193585983131
 31
0.0
  0
LINE
  5
119F
330
10A7
100
AcDbEntity
  8
BEM
 62
     0
370
    -2
100
AcDbLine
 10
134.8963793874903
 20
388.452102137451
 30
0.0
 11
162.3311981683642
 21
490.8402397240847
 31
0.0
  0
SOLID
  5
11A0
330
10A7
100
AcDbEntity
  8
BEM
 62
     0
100
AcDbTrace
 10
133.7694659234864
 20
388.7540576900708
 30
0.0
 11
136.0232928514942
 21
388.1501465848314
 31
0.0
 12
133.0846460717721
 22
381.6906213534277
 32
0.0
 13
133.0846460717721
 23
381.6906213534277
 33
0.0
  0
SOLID
  5
11A1
330
10A7
100
AcDbEntity
  8
BEM
 62
     0
100
AcDbTrace
 10
161.2042847043603
 20
491.1421952767043
 30
0.0
 11
163.4581116323681
 21
490.5382841714649
 31
0.0
 12
164.1429314840824
 22
497.6017205081079
 32
0.0
 13
164.1429314840824
 23
497.6017205081079
 33
0.0
  0
MTEXT
  5
11A2
330
10A7
100
AcDbEntity
  8
BEM
 62
     1
100
AcDbMText
 10
142.3352709070485
 20
441.3284947239346
 30
0.0
 40
7.0
 41
0.0
 71
     5
 72
     1
  1
\A1;120
 11
0.2588190451025975
 21
0.9659258262890478
 31
0.0
 73
     1
 44
1.0
  0
POINT
  5
11A3
330
10A7
100
AcDbEntity
  8
DEFPOINTS
 62
     0
100
AcDbPoint
 10
222.0755706100866
 20
357.8455749896797
 30
0.0
  0
POINT
  5
11A4
330
10A7
100
AcDbEntity
  8
DEFPOINTS
 62
     0
100
AcDbPoint
 10
183.9203763400299
 20
492.302370130604
 30
0.0
  0
POINT
  5
11A5
330
10A7
100
AcDbEntity
  8
DEFPOINTS
 62
     0
100
AcDbPoint
 10
164.1429314840823
 20
497.6017205081079
 30
0.0
  0
ENDBLK
  5
10B2
330
10A7
100
AcDbEntity
  8
0
100
AcDbBlockEnd
  0
ENDSEC
  0
SECTION
  2
ENTITIES
  0
TEXT
  5
134
330
1E
100
AcDbEntity
  8
TEXT
100
AcDbText
 10
204.4216048581257
 20
63.0896391972351
 30
0.0
 40
4.0
  1
Koeh
 41
0.8
  7
GREEKS
 72
     1
 11
209.6787477152686
 21
63.0896391972351
 31
0.0
100
AcDbText
  0
INSERT
  5
135
330
1E
100
AcDbEntity
  8
STEMPEL
100
AcDbBlockReference
  2
LOGO
 10
150.9955485457794
 20
45.02105276448322
 30
0.0
 41
2.0
 42
2.0
 43
2.0
  0
LINE
  5
136
330
1E
100
AcDbEntity
  8
HILF
100
AcDbLine
 10
420.0
 20
0.0
 30
0.0
 11
0.0
 21
0.0
 31
0.0
  0
LINE
  5
137
330
1E
100
AcDbEntity
  8
HILF
100
AcDbLine
 10
419.9999999999999
 20
594.0000000000002
 30
0.0
 11
0.0
 21
594.0
 31
0.0
  0
LINE
  5
138
330
1E
100
AcDbEntity
  8
STEMPEL
100
AcDbLine
 10
410.0
 20
584.0
 30
0.0
 11
39.99999999999989
 21
584.0
 31
0.0
  0
LINE
  5
139
330
1E
100
AcDbEntity
  8
STEMPEL
100
AcDbLine
 10
410.0
 20
10.0
 30
0.0
 11
39.99999999999989
 21
10.0
 31
0.0
  0
LINE
  5
13A
330
1E
100
AcDbEntity
  8
STEMPEL
100
AcDbLine
 10
49.99999999999989
 20
10.0
 30
0.0
 11
410.0
 21
10.0
 31
0.0
  0
TEXT
  5
13B
330
1E
100
AcDbEntity
  8
TEXT
100
AcDbText
 10
202.4626584226295
 20
73.30961091915225
 30
0.0
 40
4.0
  1
Name
 41
0.8
  7
GREEKS
100
AcDbText
  0
TEXT
  5
13C
330
1E
100
AcDbEntity
  8
TEXT
100
AcDbText
 10
196.5498279101549
 20
102.6506227776589
 30
0.0
 40
5.0
  1
Zul. Abw.
 41
0.8
  7
GREEKS
 72
     4
 11
209.9783993387263
 21
105.1506227776589
 31
0.0
100
AcDbText
  0
LINE
  5
13D
330
1E
100
AcDbEntity
  8
HILF
100
AcDbLine
 10
146.0000000000001
 20
49.99999999999997
 30
0.0
 11
230.0
 21
49.99999999999997
 31
0.0
  0
LINE
  5
13E
330
1E
100
AcDbEntity
  8
HILF
100
AcDbLine
 10
146.0000000000001
 20
59.99999999999998
 30
0.0
 11
230.0
 21
59.99999999999998
 31
0.0
  0
LINE
  5
13F
330
1E
100
AcDbEntity
  8
HILF
100
AcDbLine
 10
146.0000000000001
 20
69.99999999999994
 30
0.0
 11
230.0
 21
69.99999999999994
 31
0.0
  0
LINE
  5
140
330
1E
100
AcDbEntity
  8
STEMPEL
100
AcDbLine
 10
410.0
 20
80.0
 30
0.0
 11
146.0000000000001
 21
79.99999999999994
 31
0.0
  0
LINE
  5
141
330
1E
100
AcDbEntity
  8
STEMPEL
100
AcDbLine
 10
410.0
 20
40.0
 30
0.0
 11
146.0000000000001
 21
39.99999999999997
 31
0.0
  0
LINE
  5
142
330
1E
100
AcDbEntity
  8
STEMPEL
100
AcDbLine
 10
410.0
 20
110.0
 30
0.0
 11
39.99999999999997
 21
110.0
 31
0.0
  0
LINE
  5
143
330
1E
100
AcDbEntity
  8
MITTEL
100
AcDbLine
 10
222.0755706100866
 20
357.8455749896798
 30
0.0
 11
222.0755706100868
 21
236.84557498968
 31
0.0
  0
LINE
  5
144
330
1E
100
AcDbEntity
  8
HILF
100
AcDbLine
 10
0.0
 20
0.0
 30
0.0
 11
-0.0000000000001137
 21
594.0
 31
0.0
  0
LINE
  5
145
330
1E
100
AcDbEntity
  8
STEMPEL
100
AcDbLine
 10
40.0
 20
10.0
 30
0.0
 11
39.99999999999989
 21
584.0
 31
0.0
  0
LINE
  5
148
330
1E
100
AcDbEntity
  8
HILF
100
AcDbLine
 10
40.00000000000008
 20
39.99999999999997
 30
0.0
 11
146.0000000000001
 21
39.99999999999997
 31
0.0
  0
LINE
  5
149
330
1E
100
AcDbEntity
  8
HILF
100
AcDbLine
 10
40.00000000000008
 20
49.99999999999997
 30
0.0
 11
146.0000000000001
 21
49.99999999999997
 31
0.0
  0
LINE
  5
14A
330
1E
100
AcDbEntity
  8
HILF
100
AcDbLine
 10
40.00000000000008
 20
59.99999999999998
 30
0.0
 11
146.0000000000001
 21
59.99999999999998
 31
0.0
  0
LINE
  5
14B
330
1E
100
AcDbEntity
  8
HILF
100
AcDbLine
 10
40.00000000000008
 20
69.99999999999994
 30
0.0
 11
146.0000000000001
 21
69.99999999999994
 31
0.0
  0
LINE
  5
14C
330
1E
100
AcDbEntity
  8
HILF
100
AcDbLine
 10
40.00000000000008
 20
79.99999999999994
 30
0.0
 11
146.0000000000001
 21
79.99999999999994
 31
0.0
  0
LINE
  5
14D
330
1E
100
AcDbEntity
  8
HILF
100
AcDbLine
 10
40.00000000000008
 20
90.00000000000005
 30
0.0
 11
146.0000000000001
 21
90.00000000000005
 31
0.0
  0
LINE
  5
14E
330
1E
100
AcDbEntity
  8
HILF
100
AcDbLine
 10
40.00000000000008
 20
100.0
 30
0.0
 11
146.0000000000001
 21
100.0
 31
0.0
  0
LINE
  5
14F
330
1E
100
AcDbEntity
  8
STEMPEL
100
AcDbLine
 10
145.9999999999999
 20
29.99999999999997
 30
0.0
 11
39.99999999999997
 21
29.99999999999997
 31
0.0
  0
TEXT
  5
150
330
1E
100
AcDbEntity
  8
TEXT
100
AcDbText
 10
48.26641107045756
 20
13.65465846027192
 30
0.0
 40
4.0
  1
Index
 50
90.0
 41
0.8
  7
GREEKS
100
AcDbText
  0
LINE
  5
151
330
1E
100
AcDbEntity
  8
VOLL
100
AcDbLine
 10
54.00000000000009
 20
110.0
 30
0.0
 11
53.99999999999998
 21
9.999999999999971
 31
0.0
  0
LINE
  5
152
330
1E
100
AcDbEntity
  8
HILF
100
AcDbLine
 10
31.08767135713856
 20
297.0
 30
0.0
 11
0.0000000000001137
 21
297.0
 31
0.0
  0
LINE
  5
154
330
1E
100
AcDbEntity
  8
VOLL
100
AcDbLine
 10
124.0000000000001
 20
109.9999999999999
 30
0.0
 11
124.0
 21
9.999999999999971
 31
0.0
  0
LINE
  5
155
330
1E
100
AcDbEntity
  8
VOLL
100
AcDbLine
 10
104.0000000000001
 20
109.9999999999999
 30
0.0
 11
104.0
 21
9.999999999999971
 31
0.0
  0
LINE
  5
157
330
1E
100
AcDbEntity
  8
STEMPEL
100
AcDbLine
 10
146.0000000000001
 20
109.9999999999999
 30
0.0
 11
146.0
 21
9.999999999999971
 31
0.0
  0
TEXT
  5
159
330
1E
100
AcDbEntity
  8
TEXT
100
AcDbText
 10
172.331167315365
 20
73.31880501229926
 30
0.0
 40
4.0
  1
Tag
 41
0.8
  7
GREEKS
100
AcDbText
  0
TEXT
  5
15A
330
1E
100
AcDbEntity
  8
TEXT
100
AcDbText
 10
147.5836127167615
 20
63.62990369617964
 30
0.0
 40
4.0
  1
Gez.
 41
0.8
  7
GREEKS
100
AcDbText
  0
LINE
  5
15B
330
1E
100
AcDbEntity
  8
VOLL
100
AcDbLine
 10
164.0000000000001
 20
79.99999999999994
 30
0.0
 11
164.0000000000001
 21
39.99999999999997
 31
0.0
  0
TEXT
  5
15C
330
1E
100
AcDbEntity
  8
TEXT
100
AcDbText
 10
147.6006777387303
 20
43.52946389649807
 30
0.0
 40
4.0
  1
Norm.
 41
0.8
  7
GREEKS
100
AcDbText
  0
TEXT
  5
15D
330
1E
100
AcDbEntity
  8
TEXT
100
AcDbText
 10
147.5515086571672
 20
53.68926291428377
 30
0.0
 40
4.0
  1
Gepr.
 41
0.8
  7
GREEKS
100
AcDbText
  0
TEXT
  5
15E
330
1E
100
AcDbEntity
  8
TEXT
 62
     1
100
AcDbText
 10
160.5006306481887
 20
88.14901428913959
 30
0.0
 40
7.0
  1
1:2
 41
0.8
  7
GREEKS
100
AcDbText
  0
TEXT
  5
160
330
1E
100
AcDbEntity
  8
TEXT
100
AcDbText
 10
148.622109822104
 20
73.14025471151666
 30
0.0
 40
4.0
  1
2011
 41
0.8
  7
GREEKS
100
AcDbText
  0
LINE
  5
161
330
1E
100
AcDbEntity
  8
VOLL
100
AcDbLine
 10
190.0000000000001
 20
109.9999999999998
 30
0.0
 11
190.0
 21
39.99999999999997
 31
0.0
  0
LINE
  5
186
330
1E
100
AcDbEntity
  8
HILF
100
AcDbLine
 10
420.0
 20
-0.0000000000001137
 30
0.0
 11
419.9999999999999
 21
594.0
 31
0.0
  0
LINE
  5
187
330
1E
100
AcDbEntity
  8
STEMPEL
100
AcDbLine
 10
410.0
 20
10.0
 30
0.0
 11
410.0
 21
584.0
 31
0.0
  0
TEXT
  5
188
330
1E
100
AcDbEntity
  8
TEXT
100
AcDbText
 10
337.2400861497006
 20
52.07416177878602
 30
0.0
 40
5.0
  1
ersetzt durch:
 41
0.8
  7
GREEKS
100
AcDbText
  0
TEXT
  5
18A
330
1E
100
AcDbEntity
  8
TEXT
100
AcDbText
 10
336.178754957634
 20
102.3132034537136
 30
0.0
 40
5.0
  1
Zeichnungs Nr.
 41
0.8
  7
GREEKS
100
AcDbText
  0
LINE
  5
18B
330
1E
100
AcDbEntity
  8
HILF
100
AcDbLine
 10
233.4909699289885
 20
14.89398258028314
 30
0.0
 11
404.8588839326728
 21
14.89398258028314
 31
0.0
  0
LINE
  5
18C
330
1E
100
AcDbEntity
  8
HILF
100
AcDbLine
 10
336.7238616296993
 20
83.77983636955827
 30
0.0
 11
404.8588839326728
 21
83.77983636955827
 31
0.0
  0
LINE
  5
18D
330
1E
100
AcDbEntity
  8
VOLL
100
AcDbLine
 10
332.0
 20
60.0
 30
0.0
 11
410.0
 21
60.0
 31
0.0
  0
TEXT
  5
18E
330
1E
100
AcDbEntity
  8
TEXT
 62
     1
100
AcDbText
 10
234.9283864320014
 20
87.41748789253779
 30
0.0
 40
7.0
  1
Bogen DN125 15°
 41
0.8
  7
GREEKS
100
AcDbText
  0
LINE
  5
18F
330
1E
100
AcDbEntity
  8
HILF
100
AcDbLine
 10
234.7736801096948
 20
49.99999999999997
 30
0.0
 11
324.835391655631
 21
49.99999999999997
 31
0.0
  0
LINE
  5
190
330
1E
100
AcDbEntity
  8
HILF
100
AcDbLine
 10
234.7736801096948
 20
59.99999999999998
 30
0.0
 11
324.835391655631
 21
59.99999999999998
 31
0.0
  0
LINE
  5
191
330
1E
100
AcDbEntity
  8
HILF
100
AcDbLine
 10
234.7736801096948
 20
69.99999999999994
 30
0.0
 11
324.835391655631
 21
69.99999999999994
 31
0.0
  0
LINE
  5
192
330
1E
100
AcDbEntity
  8
HILF
100
AcDbLine
 10
234.7736801096948
 20
84.03758247564139
 30
0.0
 11
324.8353916556311
 21
84.03758247564139
 31
0.0
  0
LINE
  5
193
330
1E
100
AcDbEntity
  8
STEMPEL
100
AcDbLine
 10
230.0
 20
110.0
 30
0.0
 11
230.0
 21
9.999999999999971
 31
0.0
  0
TEXT
  5
194
330
1E
100
AcDbEntity
  8
TEXT
100
AcDbText
 10
235.1296391125315
 20
71.50334417585288
 30
0.0
 40
5.0
  1
dünnwandig
 41
0.8
  7
GREEKS
100
AcDbText
  0
TEXT
  5
195
330
1E
100
AcDbEntity
  8
TEXT
100
AcDbText
 10
234.9837501577827
 20
42.62974153022633
 30
0.0
 40
4.0
  1
5340125W.DWG
 41
0.8
  7
GREEKS
100
AcDbText
  0
TEXT
  5
196
330
1E
100
AcDbEntity
  8
TEXT
100
AcDbText
 10
234.742238391136
 20
30.84560570193057
 30
0.0
 40
5.0
  1
Bauvorhaben
 41
0.8
  7
GREEKS
100
AcDbText
  0
TEXT
  5
197
330
1E
100
AcDbEntity
  8
TEXT
100
AcDbText
 10
234.877940380901
 20
102.5489328011779
 30
0.0
 40
5.0
  1
Benennung
 41
0.8
  7
GREEKS
100
AcDbText
  0
LINE
  5
198
330
1E
100
AcDbEntity
  8
STEMPEL
100
AcDbLine
 10
332.0
 20
109.9999999999997
 30
0.0
 11
332.0
 21
40.0
 31
0.0
  0
TEXT
  5
19A
330
1E
100
AcDbEntity
  8
TEXT
 62
     1
100
AcDbText
 10
349.8761816852209
 20
88.14901428913959
 30
0.0
 40
7.0
  1
5340125W
 41
0.8
  7
GREEKS
 72
     1
 11
370.676181685221
 21
88.14901428913959
 31
0.0
100
AcDbText
  0
LINE
  5
1D4
330
1E
100
AcDbEntity
  8
STEMPEL
100
AcDbLine
 10
287.7006839748276
 20
241.84557498968
 30
0.0
 11
156.4504572453459
 21
241.8455749896796
 31
0.0
  0
LINE
  5
1D6
330
1E
100
AcDbEntity
  8
HILF
100
AcDbLine
 10
287.0755706100867
 20
251.84557498968
 30
0.0
 11
157.0755706100866
 21
251.84557498968
 31
0.0
  0
LINE
  5
1D7
330
1E
100
AcDbEntity
  8
STEMPEL
100
AcDbLine
 10
155.5755706100867
 20
251.8455749896796
 30
0.0
 11
156.4504572453459
 21
241.8455749896796
 31
0.0
  0
LINE
  5
1D8
330
1E
100
AcDbEntity
  8
STEMPEL
100
AcDbLine
 10
288.5755706100868
 20
251.8455749896805
 30
0.0
 11
287.7006839748276
 21
241.84557498968
 31
0.0
  0
DIMENSION
  5
1E8
330
1E
100
AcDbEntity
  8
BEM
100
AcDbDimension
  2
*D1
 10
288.5755706100872
 20
219.7937244778024
 30
0.0
 11
222.075570610087
 21
226.2937244778024
 31
0.0
 70
    32
  1
%%c<>
 71
     5
 42
133.0000000000004
  3
Standard
100
AcDbAlignedDimension
 13
155.5755706100867
 23
251.8455749896797
 33
0.0
 14
288.5755706100872
 24
251.84557498968
 34
0.0
100
AcDbRotatedDimension
1001
ACAD
1000
DSTYLE
1002
{
1070
    40
1040
2.0
1070
    41
1040
3.5
1070
    42
1040
1.0
1070
    43
1040
7.0
1070
    44
1040
1.0
1070
    73
1070
     0
1070
    74
1070
     0
1070
    77
1070
     1
1070
    78
1070
     8
1070
    79
1070
     2
1070
   140
1040
3.5
1070
   141
1040
1.5
1070
   146
1040
0.5142857142857144
1070
   147
1040
1.5
1070
   172
1070
     1
1070
   178
1070
     1
1070
   179
1070
     2
1070
   271
1070
     2
1070
   272
1070
     2
1070
   284
1070
     8
1070
   285
1070
     8
1070
   286
1070
     8
1002
}
  0
TEXT
  5
212
330
1E
100
AcDbEntity
  8
TEXT
100
AcDbText
 10
235.1296391125315
 20
51.50334417585292
 30
0.0
 40
5.0
  1
EDV-Art.Nr. 5.340.125C
 41
0.8
  7
GREEKS
100
AcDbText
  0
TEXT
  5
255
330
1E
100
AcDbEntity
  8
TEXT
 62
     1
100
AcDbText
 10
297.9974873842989
 20
131.2276367653921
 30
0.0
 40
7.0
  1
Werkstoff: 1.4404
 41
0.8
  7
GREEKS
100
AcDbText
  0
LINE
  5
952
102
{ACAD_REACTORS
330
105E
102
}
330
1E
100
AcDbEntity
  8
STEMPEL
100
AcDbLine
 10
155.5755706100867
 20
366.6004660792419
 30
0.0
 11
155.5755706100867
 21
251.8455749896798
 31
0.0
  0
LINE
  5
953
102
{ACAD_REACTORS
330
1064
102
}
330
1E
100
AcDbEntity
  8
STEMPEL
100
AcDbLine
 10
288.5755706100868
 20
349.090683900119
 30
0.0
 11
288.5755706100868
 21
251.8455749896801
 31
0.0
  0
LINE
  5
9FA
330
1E
100
AcDbEntity
  8
STEMPEL
100
AcDbLine
 10
322.3473357047485
 20
455.2109781581318
 30
0.0
 11
183.9203763400297
 21
492.3023701306041
 31
0.0
  0
TEXT
  5
9FB
330
1E
100
AcDbEntity
  8
TEXT
 62
     1
100
AcDbText
 10
237.1616473555879
 20
446.922575477962
 30
0.0
 40
7.0
  1
DN125
 50
74.99999999999999
 41
0.8
  7
GREEKS
100
AcDbText
  0
LINE
  5
9FC
330
1E
100
AcDbEntity
  8
HILF
100
AcDbLine
 10
300.9047282862826
 20
387.7051910273024
 30
0.0
 11
168.7373255223833
 21
423.1193398636081
 31
0.0
  0
LINE
  5
9FD
330
1E
100
AcDbEntity
  8
HILF
100
AcDbLine
 10
296.2672029295989
 20
381.914491204714
 30
0.0
 11
169.858190380671
 21
415.7856840332148
 31
0.0
  0
LINE
  5
9FE
330
1E
100
AcDbEntity
  8
HILF
100
AcDbLine
 10
307.7018849974952
 20
408.9001726947605
 30
0.0
 11
173.448305970698
 21
444.8733107759787
 31
0.0
  0
LINE
  5
A00
102
{ACAD_REACTORS
330
105E
102
}
330
1E
100
AcDbEntity
  8
STEMPEL
100
AcDbLine
 10
168.0185505561924
 20
413.0382994356684
 30
0.0
 11
155.5755706100867
 21
366.6004660792419
 31
0.0
  0
ARC
  5
A01
330
1E
100
AcDbEntity
  8
STEMPEL
100
AcDbCircle
 10
205.1807136717919
 20
472.5234625465441
 30
0.0
 40
29.0
100
AcDbArc
 50
140.0000000000069
 51
165.0
  0
LINE
  5
A02
330
1E
100
AcDbEntity
  8
STEMPEL
100
AcDbLine
 10
171.3186758785762
 20
440.8093480307751
 30
0.0
 11
167.8151012888804
 21
427.7338296539231
 31
0.0
  0
ARC
  5
A03
330
1E
100
AcDbEntity
  8
STEMPEL
100
AcDbCircle
 10
184.2358403357946
 20
423.33390588718
 30
0.0
 40
17.0
100
AcDbArc
 50
165.0
 51
196.5863380965281
  0
ARC
  5
A04
330
1E
100
AcDbEntity
  8
STEMPEL
100
AcDbCircle
 10
158.3592922933015
 20
415.6264898866939
 30
0.0
 40
10.0
100
AcDbArc
 50
344.9999999999999
 51
16.58633809652797
  0
ARC
  5
A05
330
1E
100
AcDbEntity
  8
STEMPEL
100
AcDbCircle
 10
200.2355558668338
 20
454.0678823669948
 30
0.0
 40
29.0
100
AcDbArc
 50
165.0
 51
190.1711477430577
  0
ARC
  5
A06
330
1E
100
AcDbEntity
  8
STEMPEL
100
AcDbCircle
 10
152.9660851790841
 20
445.7269098877231
 30
0.0
 40
19.0
100
AcDbArc
 50
344.9999999999999
 51
10.22714436590788
  0
LINE
  5
A07
330
1E
100
AcDbEntity
  8
STEMPEL
100
AcDbLine
 10
177.1688647094088
 20
480.0292148545172
 30
0.0
 11
172.2237069044508
 21
461.5736346749679
 31
0.0
  0
LINE
  5
A08
330
1E
100
AcDbEntity
  8
STEMPEL
100
AcDbLine
 10
183.9203763400298
 20
492.3023701306041
 30
0.0
 11
182.9654248213415
 21
491.1643032274536
 31
0.0
  0
POINT
  5
A09
330
1E
100
AcDbEntity
  8
STEMPEL
100
AcDbPoint
 10
185.5190481821543
 20
491.8740073015444
 30
0.0
  0
LINE
  5
A0A
330
1E
100
AcDbEntity
  8
MITTEL
100
AcDbLine
 10
254.4279512479018
 20
478.5863032758132
 30
0.0
 11
222.0755706100866
 21
357.8455749896798
 31
0.0
  0
LINE
  5
A0B
102
{ACAD_REACTORS
330
1064
102
}
330
1E
100
AcDbEntity
  8
STEMPEL
100
AcDbLine
 10
296.4866854526384
 20
378.6153664370334
 30
0.0
 11
288.5755706100868
 21
349.090683900119
 31
0.0
  0
ARC
  5
A0C
330
1E
100
AcDbEntity
  8
STEMPEL
100
AcDbCircle
 10
294.045889690386
 20
448.7121103971119
 30
0.0
 40
29.0
100
AcDbArc
 50
344.9999999999999
 51
9.99999999999301
  0
LINE
  5
A0D
330
1E
100
AcDbEntity
  8
STEMPEL
100
AcDbLine
 10
307.5142173853348
 20
404.3158626713196
 30
0.0
 11
304.010642795639
 21
391.2403442944674
 31
0.0
  0
ARC
  5
A0E
330
1E
100
AcDbEntity
  8
STEMPEL
100
AcDbCircle
 10
306.145943715529
 20
376.027175986008
 30
0.0
 40
10.0
100
AcDbArc
 50
133.413661903472
 51
165.0
  0
ARC
  5
A0F
330
1E
100
AcDbEntity
  8
STEMPEL
100
AcDbCircle
 10
287.5899037487248
 20
395.6402680612105
 30
0.0
 40
17.0
100
AcDbArc
 50
313.4136619034718
 51
344.9999999999999
  0
ARC
  5
A10
330
1E
100
AcDbEntity
  8
STEMPEL
100
AcDbCircle
 10
289.1007318854282
 20
430.2565302175628
 30
0.0
 40
29.0
100
AcDbArc
 50
319.8288522569421
 51
344.9999999999999
  0
ARC
  5
A11
330
1E
100
AcDbEntity
  8
STEMPEL
100
AcDbCircle
 10
325.8668080848274
 20
399.3983008143719
 30
0.0
 40
19.0
100
AcDbArc
 50
139.772855634092
 51
165.0
  0
LINE
  5
A12
330
1E
100
AcDbEntity
  8
STEMPEL
100
AcDbLine
 10
322.057738652769
 20
441.2063580891389
 30
0.0
 11
317.112580847811
 21
422.7507779095897
 31
0.0
  0
LINE
  5
A13
330
1E
100
AcDbEntity
  8
STEMPEL
100
AcDbLine
 10
322.3473357047483
 20
455.2109781581318
 30
0.0
 11
322.60531452774
 21
453.7479075494531
 31
0.0
  0
ARC
  5
B9A
330
1E
100
AcDbEntity
  8
SCHRAFF
100
AcDbCircle
 10
273.1791532522688
 20
351.1176606991729
 30
0.0
 40
10.0
100
AcDbArc
 50
332.0126848852786
 51
12.98731511472332
  0
ARC
  5
B9B
330
1E
100
AcDbEntity
  8
SCHRAFF
100
AcDbCircle
 10
263.2647046385307
 20
352.4229226213737
 30
0.0
 40
10.0
100
AcDbArc
 50
332.0126848852773
 51
12.98731511472268
  0
ARC
  5
B9C
330
1E
100
AcDbEntity
  8
SCHRAFF
100
AcDbCircle
 10
253.3502560247925
 20
353.7281845435742
 30
0.0
 40
10.0
100
AcDbArc
 50
332.0126848852773
 51
12.98731511472268
  0
ARC
  5
B9D
330
1E
100
AcDbEntity
  8
SCHRAFF
100
AcDbCircle
 10
243.4358074110544
 20
355.0334464657745
 30
0.0
 40
10.0
100
AcDbArc
 50
332.0126848852784
 51
12.98731511472332
  0
ARC
  5
B9E
330
1E
100
AcDbEntity
  8
SCHRAFF
100
AcDbCircle
 10
233.5213587973163
 20
356.3387083879752
 30
0.0
 40
10.0
100
AcDbArc
 50
332.0126848852774
 51
12.98731511472268
  0
ARC
  5
B9F
330
1E
100
AcDbEntity
  8
SCHRAFF
100
AcDbCircle
 10
193.863564342364
 20
361.5597560767775
 30
0.0
 40
10.0
100
AcDbArc
 50
332.0126848852774
 51
12.98731511472268
  0
ARC
  5
BA0
330
1E
100
AcDbEntity
  8
SCHRAFF
100
AcDbCircle
 10
203.778012956102
 20
360.2544941545767
 30
0.0
 40
10.0
100
AcDbArc
 50
332.0126848852784
 51
12.98731511472332
  0
ARC
  5
BA1
330
1E
100
AcDbEntity
  8
SCHRAFF
100
AcDbCircle
 10
223.6069101835782
 20
357.6439703101758
 30
0.0
 40
10.0
100
AcDbArc
 50
332.0126848852773
 51
12.98731511472268
  0
ARC
  5
BA2
330
1E
100
AcDbEntity
  8
SCHRAFF
100
AcDbCircle
 10
213.6924615698401
 20
358.9492322323764
 30
0.0
 40
10.0
100
AcDbArc
 50
332.0126848852773
 51
12.98731511472268
  0
ARC
  5
BA5
330
1E
100
AcDbEntity
  8
SCHRAFF
100
AcDbCircle
 10
154.2057698874115
 20
366.7808037655796
 30
0.0
 40
10.0
100
AcDbArc
 50
332.0126848852773
 51
12.98731511472268
  0
ARC
  5
BA6
330
1E
100
AcDbEntity
  8
SCHRAFF
100
AcDbCircle
 10
164.1202185011496
 20
365.475541843379
 30
0.0
 40
10.0
100
AcDbArc
 50
332.0126848852773
 51
12.98731511472268
  0
ARC
  5
BA7
330
1E
100
AcDbEntity
  8
SCHRAFF
100
AcDbCircle
 10
174.0346671148876
 20
364.1702799211785
 30
0.0
 40
10.0
100
AcDbArc
 50
332.0126848852774
 51
12.98731511472268
  0
ARC
  5
BA8
330
1E
100
AcDbEntity
  8
SCHRAFF
100
AcDbCircle
 10
183.9491157286258
 20
362.8650179989778
 30
0.0
 40
10.0
100
AcDbArc
 50
332.0126848852784
 51
12.98731511472332
  0
DIMENSION
  5
CC5
330
1E
100
AcDbEntity
  8
BEM
100
AcDbDimension
  2
*D3
 10
122.2930367568956
 20
357.8455749896798
 30
0.0
 11
115.7930367568955
 21
299.8455749896797
 31
0.0
 70
    32
 71
     5
 42
116.0000000000002
  3
Standard
100
AcDbAlignedDimension
 13
156.4504572453459
 23
241.8455749896796
 33
0.0
 14
222.0755706100866
 24
357.8455749896798
 34
0.0
 50
90.0
100
AcDbRotatedDimension
1001
ACAD
1000
DSTYLE
1002
{
1070
    40
1040
2.0
1070
    41
1040
3.5
1070
    42
1040
1.0
1070
    43
1040
7.0
1070
    44
1040
1.0
1070
    73
1070
     0
1070
    74
1070
     0
1070
    77
1070
     1
1070
    78
1070
     8
1070
    79
1070
     2
1070
   140
1040
3.5
1070
   141
1040
1.5
1070
   146
1040
0.5142857142857144
1070
   147
1040
1.5
1070
   172
1070
     1
1070
   178
1070
     1
1070
   179
1070
     2
1070
   271
1070
     2
1070
   272
1070
     2
1070
   284
1070
     8
1070
   285
1070
     8
1070
   286
1070
     8
1002
}
  0
LINE
  5
1055
330
1E
100
AcDbEntity
  8
STEMPEL
100
AcDbLine
 10
155.5755706100867
 20
366.6004660792419
 30
0.0
 11
288.5755706100868
 21
349.090683900119
 31
0.0
  0
ARC
  5
1058
102
{ACAD_REACTORS
330
105E
102
}
330
1E
100
AcDbEntity
  8
SCHRAFF
100
AcDbCircle
 10
157.820840505069
 20
366.3048706898096
 30
0.0
 40
3.937500818956483
100
AcDbArc
 50
109.7660675728785
 51
235.233932427121
  0
HATCH
  5
105E
330
1E
100
AcDbEntity
  8
SCHRAFF
100
AcDbHatch
 10
0.0
 20
0.0
 30
0.0
210
0.0
220
0.0
230
1.0
  2
_USER
 70
     0
 71
     1
 91
        1
 92
        7
 72
     1
 73
     1
 93
        3
 10
155.5755706100867
 20
363.0702647172112
 42
0.0
 10
155.5755706100867
 20
366.6004660792418
 42
0.0
 10
156.4892539556271
 20
370.010378746828
 42
0.6096115200326956
 97
        3
330
1058
330
952
330
A00
 75
     0
 76
     0
 52
0.0
 41
0.1
 77
     0
 78
     1
 53
0.0
 43
14.20812985326802
 44
0.0
 45
0.0
 46
0.1
 79
     0
 47
0.0474569138926589
 98
        1
 10
154.6119085861087
 20
366.9410652160514
  0
ARC
  5
105F
102
{ACAD_REACTORS
330
1064
102
}
330
1E
100
AcDbEntity
  8
SCHRAFF
100
AcDbCircle
 10
286.4136186755349
 20
349.3753102719665
 30
0.0
 40
4.384854251452274
100
AcDbArc
 50
299.5412403113214
 51
45.45875968867936
  0
HATCH
  5
1064
330
1E
100
AcDbEntity
  8
SCHRAFF
100
AcDbHatch
 10
0.0
 20
0.0
 30
0.0
210
0.0
220
0.0
230
1.0
  2
_USER
 70
     0
 71
     1
 91
        1
 92
        7
 72
     1
 73
     1
 93
        3
 10
289.4892539556271
 20
352.5005965677051
 42
0.0
 10
288.5755706100868
 20
349.090683900119
 42
0.0
 10
288.5755706100868
 20
345.5604825380883
 42
0.4981323363785924
 97
        3
330
A0B
330
953
330
105F
 75
     0
 76
     0
 52
0.0
 41
0.1
 77
     0
 78
     1
 53
0.0
 43
14.20812985326802
 44
0.0
 45
0.0
 46
0.1
 79
     0
 47
0.0939127315779789
 98
        1
 10
290.1669872258694
 20
349.0533336235114
  0
DIMENSION
  5
1065
330
1E
100
AcDbEntity
  8
BEM
100
AcDbDimension
  2
*D4
 10
222.0755706100868
 20
236.84557498968
 30
0.0
 11
242.0753000583742
 21
509.7586021999005
 31
0.0
 70
    34
 71
     5
 42
0.2617993877991507
  3
Standard
100
AcDb2LineAngularDimension
 13
254.4279512479018
 23
478.5863032758132
 33
0.0
 14
222.0755706100866
 24
357.8455749896798
 34
0.0
 15
222.0755706100866
 25
357.8455749896798
 35
0.0
 16
247.5539047724051
 26
502.340388318581
 36
0.0
1001
ACAD
1000
DSTYLE
1002
{
1070
    40
1040
2.0
1070
    41
1040
3.5
1070
    42
1040
1.0
1070
    43
1040
7.0
1070
    44
1040
1.0
1070
    73
1070
     0
1070
    74
1070
     0
1070
    77
1070
     1
1070
    78
1070
     8
1070
    79
1070
     2
1070
   140
1040
3.5
1070
   141
1040
1.5
1070
   146
1040
0.5142857142857144
1070
   147
1040
1.5
1070
   172
1070
     1
1070
   178
1070
     1
1070
   179
1070
     2
1070
   271
1070
     2
1070
   272
1070
     2
1070
   284
1070
     8
1070
   285
1070
     8
1070
   286
1070
     8
1002
}
  0
DIMENSION
  5
10A6
330
1E
100
AcDbEntity
  8
BEM
100
AcDbDimension
  2
*D5
 10
164.1429314840823
 20
497.6017205081079
 30
0.0
 11
142.3352709070485
 21
441.3284947239346
 31
0.0
 70
    32
 71
     5
 42
119.9999999999943
 51
357.0
  3
Standard
100
AcDbAlignedDimension
 13
222.0755706100866
 23
357.8455749896798
 33
0.0
 14
183.9203763400299
 24
492.3023701306041
 34
0.0
 50
74.99999999999541
100
AcDbRotatedDimension
1001
ACAD
1000
DSTYLE
1002
{
1070
    40
1040
2.0
1070
    41
1040
3.5
1070
    42
1040
1.0
1070
    43
1040
7.0
1070
    44
1040
1.0
1070
    73
1070
     0
1070
    74
1070
     0
1070
    77
1070
     1
1070
    78
1070
     8
1070
    79
1070
     2
1070
   140
1040
3.5
1070
   141
1040
1.5
1070
   146
1040
0.5142857142857144
1070
   147
1040
1.5
1070
   172
1070
     1
1070
   178
1070
     1
1070
   179
1070
     2
1070
   271
1070
     2
1070
   272
1070
     2
1070
   284
1070
     8
1070
   285
1070
     8
1070
   286
1070
     8
1002
}
  0
TEXT
  5
10C8
330
1E
100
AcDbEntity
  8
TEXT
100
AcDbText
 10
41.85509950977674
 20
111.6719999999999
 30
0.0
 40
5.0
  1
Erstellt mit AUTOCAD 2004
 41
0.8
  7
GREEKS
100
AcDbText
  0
TEXT
  5
10C9
330
1E
100
AcDbEntity
  8
TEXT
100
AcDbText
 10
153.5163572150377
 20
102.4620895087088
 30
0.0
 40
5.0
  1
Maßstab
 41
0.8
  7
GREEKS
100
AcDbText
  0
TEXT
  5
10CA
330
1E
100
AcDbEntity
  8
TEXT
100
AcDbText
 10
192.6882715247924
 20
89.7791437153694
 30
0.0
 40
4.0
  1
DIN EN1124-3
 41
0.8
  7
GREEKS
 72
     1
 11
209.6787477152686
 21
89.7791437153694
 31
0.0
100
AcDbText
  0
TEXT
  5
10CB
330
1E
100
AcDbEntity
  8
TEXT
100
AcDbText
 10
67.65811831396264
 20
18.34829198486668
 30
0.0
 40
4.0
  1
Änderung
 41
0.8
  7
GREEKS
 72
     1
 11
78.40097545681979
 21
18.34829198486668
 31
0.0
100
AcDbText
  0
TEXT
  5
10CC
330
1E
100
AcDbEntity
  8
TEXT
100
AcDbText
 10
110.462610504336
 20
18.6715626933981
 30
0.0
 40
4.0
  1
Tag
 41
0.8
  7
GREEKS
 72
     1
 11
114.1959438376693
 21
18.6715626933981
 31
0.0
100
AcDbText
  0
TEXT
  5
10CD
330
1E
100
AcDbEntity
  8
TEXT
100
AcDbText
 10
128.9002860979178
 20
18.59324216966408
 30
0.0
 40
4.0
  1
Name
 41
0.8
  7
GREEKS
 72
     1
 11
135.2240956217273
 21
18.59324216966408
 31
0.0
100
AcDbText
  0
TEXT
  5
10CE
330
1E
100
AcDbEntity
  8
BEM
100
AcDbText
 10
416.5811541437436
 20
12.14804815338303
 30
0.0
 40
4.0
  1
Diese Zeichnung ist urheberrechtlich geschützt und bleibt unser Eigentum. Sie darf weder ganz noch teilweise vervielfältigt und nicht an Dritte weitergegeben werden.
 50
90.0
 41
0.8
  7
GREEKS
100
AcDbText
  0
TEXT
  5
10CF
330
1E
100
AcDbEntity
  8
TEXT
100
AcDbText
 10
336.7238616296993
 20
73.1811823709997
 30
0.0
 40
5.0
  1
Ersatz für:
 41
0.8
  7
GREEKS
100
AcDbText
  0
TEXT
  5
10F4
330
1E
100
AcDbEntity
  8
TEXT
100
AcDbText
 10
171.4290321728254
 20
63.29410943275277
 30
0.0
 40
4.24
  1
11.04.
 41
0.8
  7
GREEKS
 72
     1
 11
178.2130321728255
 21
63.29410943275277
 31
0.0
100
AcDbText
  0
ENDSEC
  0
SECTION
  2
OBJECTS
  0
DICTIONARY
  5
C
330
0
100
AcDbDictionary
281
     1
  3
ACAD_COLOR
350
10A4
  3
ACAD_GROUP
350
D
  3
ACAD_LAYOUT
350
19
  3
ACAD_MATERIAL
350
10A3
  3
ACAD_MLINESTYLE
350
16
  3
ACAD_PLOTSETTINGS
350
18
  3
ACAD_PLOTSTYLENAME
350
E
  3
AcDbVariableDictionary
350
246
  0
DICTIONARY
  5
10A4
102
{ACAD_REACTORS
330
C
102
}
330
C
100
AcDbDictionary
281
     1
  0
DICTIONARY
  5
D
102
{ACAD_REACTORS
330
C
102
}
330
C
100
AcDbDictionary
281
     1
  0
DICTIONARY
  5
19
102
{ACAD_REACTORS
330
C
102
}
330
C
100
AcDbDictionary
281
     1
  3
Layout1
350
1D
  3
Model
350
21
  0
DICTIONARY
  5
10A3
102
{ACAD_REACTORS
330
C
102
}
330
C
100
AcDbDictionary
281
     1
  0
DICTIONARY
  5
16
102
{ACAD_REACTORS
330
C
102
}
330
C
100
AcDbDictionary
281
     1
  3
Standard
350
17
  0
DICTIONARY
  5
18
102
{ACAD_REACTORS
330
C
102
}
330
C
100
AcDbDictionary
281
     1
  0
ACDBDICTIONARYWDFLT
  5
E
102
{ACAD_REACTORS
330
C
102
}
330
C
100
AcDbDictionary
281
     1
  3
Normal
350
F
100
AcDbDictionaryWithDefault
340
F
  0
DICTIONARY
  5
246
102
{ACAD_REACTORS
330
C
102
}
330
C
100
AcDbDictionary
281
     1
  3
DIMASSOC
350
10D8
  3
PROJECTNAME
350
10D9
  3
SORTENTS
350
247
  0
LAYOUT
  5
1D
102
{ACAD_REACTORS
330
19
102
}
330
19
100
AcDbPlotSettings
  1

  2
Tektronix Phaser 740
  4

  6

 40
0.0
 41
0.0
 42
0.0
 43
0.0
 44
0.0
 45
0.0
 46
0.0
 47
0.0
 48
0.0
 49
0.0
140
0.0
141
0.0
142
1.0
143
1.0
 70
   688
 72
     0
 73
     0
 74
     5
  7
monochrome.ctb
 75
    16
147
1.0
 76
     0
 77
     2
 78
   300
148
0.0
149
0.0
100
AcDbLayout
  1
Layout1
 70
     0
 71
     1
 10
0.0
 20
0.0
 11
12.0
 21
9.0
 12
0.0
 22
0.0
 32
0.0
 14
1.000000000000000E+20
 24
1.000000000000000E+20
 34
1.000000000000000E+20
 15
-1.000000000000000E+20
 25
-1.000000000000000E+20
 35
-1.000000000000000E+20
146
0.0
 13
0.0
 23
0.0
 33
0.0
 16
1.0
 26
0.0
 36
0.0
 17
0.0
 27
1.0
 37
0.0
 76
     0
330
1A
  0
LAYOUT
  5
21
102
{ACAD_REACTORS
330
19
102
}
330
19
100
AcDbPlotSettings
  1

  2
Tektronix Phaser 740
  4
A4
  6

 40
5.873749732971191
 41
6.085414409637451
 42
5.577407836914062
 43
5.662078857421875
 44
209.9733276367187
 45
296.9683227539062
 46
0.0
 47
0.0
 48
0.0
 49
0.0
140
0.0
141
0.0
142
1.0
143
1.0
 70
 11952
 72
     0
 73
     1
 74
     0
  7
monochrome.ctb
 75
     0
147
1.0
 76
     0
 77
     2
 78
   300
148
1150.120678237584
149
45.30495740799864
100
AcDbLayout
  1
Model
 70
     1
 71
     0
 10
0.0
 20
0.0
 11
12.0
 21
9.0
 12
0.0
 22
0.0
 32
0.0
 14
0.0
 24
0.0
 34
0.0
 15
0.0
 25
0.0
 35
0.0
146
0.0
 13
0.0
 23
0.0
 33
0.0
 16
1.0
 26
0.0
 36
0.0
 17
0.0
 27
1.0
 37
0.0
 76
     0
330
1E
  0
MLINESTYLE
  5
17
102
{ACAD_REACTORS
330
16
102
}
330
16
100
AcDbMlineStyle
  2
STANDARD
 70
     0
  3

 62
   256
 51
90.0
 52
90.0
 71
     2
 49
0.5
 62
   256
  6
BYLAYER
 49
-0.5
 62
   256
  6
BYLAYER
  0
ACDBPLACEHOLDER
  5
F
102
{ACAD_REACTORS
330
E
102
}
330
E
  0
DICTIONARYVAR
  5
10D8
102
{ACAD_REACTORS
330
246
102
}
330
246
100
DictionaryVariables
280
     0
  1
1
  0
DICTIONARYVAR
  5
10D9
102
{ACAD_REACTORS
330
246
102
}
330
246
100
DictionaryVariables
280
     0
  1

  0
DICTIONARYVAR
  5
247
102
{ACAD_REACTORS
330
246
102
}
330
246
100
DictionaryVariables
280
     0
  1
96
  0
ENDSEC
  0
EOF
