  0
SECTION
  2
HEADER
  9
$ACADVER
  1
AC1018
  9
$ACADMAINTVER
 70
     2
  9
$DWGCODEPAGE
  3
ANSI_1252
  9
$INSBASE
 10
0.0
 20
0.0
 30
0.0
  9
$EXTMIN
 10
-0.0132012686558483
 20
-0.0186703656704594
 30
-0.0000000349181948
  9
$EXTMAX
 10
210.011793356384
 20
297.0166791754573
 30
0.0000000814935746
  9
$LIMMIN
 10
0.0
 20
0.0
  9
$LIMMAX
 10
209.9986139999999
 20
296.9980398000001
  9
$ORTHOMODE
 70
     1
  9
$REGENMODE
 70
     1
  9
$FILLMODE
 70
     1
  9
$QTEXTMODE
 70
     0
  9
$MIRRTEXT
 70
     1
  9
$LTSCALE
 40
10.0
  9
$ATTMODE
 70
     1
  9
$TEXTSIZE
 40
3.5
  9
$TRACEWID
 40
0.5
  9
$TEXTSTYLE
  7
STANDARD
  9
$CLAYER
  8
BEM
  9
$CELTYPE
  6
ByLayer
  9
$CECOLOR
 62
   256
  9
$CELTSCALE
 40
1.0
  9
$DISPSILH
 70
     0
  9
$DIMSCALE
 40
1.0
  9
$DIMASZ
 40
3.5
  9
$DIMEXO
 40
1.0
  9
$DIMDLI
 40
7.0
  9
$DIMRND
 40
0.0
  9
$DIMDLE
 40
0.0
  9
$DIMEXE
 40
1.0
  9
$DIMTP
 40
0.0
  9
$DIMTM
 40
0.0
  9
$DIMTXT
 40
3.5
  9
$DIMCEN
 40
1.5
  9
$DIMTSZ
 40
0.0
  9
$DIMTOL
 70
     0
  9
$DIMLIM
 70
     0
  9
$DIMTIH
 70
     0
  9
$DIMTOH
 70
     0
  9
$DIMSE1
 70
     0
  9
$DIMSE2
 70
     0
  9
$DIMTAD
 70
     1
  9
$DIMZIN
 70
     8
  9
$DIMBLK
  1

  9
$DIMASO
 70
     1
  9
$DIMSHO
 70
     0
  9
$DIMPOST
  1

  9
$DIMAPOST
  1

  9
$DIMALT
 70
     0
  9
$DIMALTD
 70
     2
  9
$DIMALTF
 40
25.4
  9
$DIMLFAC
 40
1.0
  9
$DIMTOFL
 70
     1
  9
$DIMTVP
 40
0.0
  9
$DIMTIX
 70
     0
  9
$DIMSOXD
 70
     0
  9
$DIMSAH
 70
     0
  9
$DIMBLK1
  1

  9
$DIMBLK2
  1

  9
$DIMSTYLE
  2
Standard
  9
$DIMCLRD
 70
     0
  9
$DIMCLRE
 70
     0
  9
$DIMCLRT
 70
     1
  9
$DIMTFAC
 40
0.5142857142857144
  9
$DIMGAP
 40
1.5
  9
$DIMJUST
 70
     0
  9
$DIMSD1
 70
     0
  9
$DIMSD2
 70
     0
  9
$DIMTOLJ
 70
     1
  9
$DIMTZIN
 70
     8
  9
$DIMALTZ
 70
     8
  9
$DIMALTTZ
 70
     8
  9
$DIMUPT
 70
     0
  9
$DIMDEC
 70
     2
  9
$DIMTDEC
 70
     2
  9
$DIMALTU
 70
     2
  9
$DIMALTTD
 70
     2
  9
$DIMTXSTY
  7
STANDARD
  9
$DIMAUNIT
 70
     0
  9
$DIMADEC
 70
     2
  9
$DIMALTRND
 40
0.0
  9
$DIMAZIN
 70
     2
  9
$DIMDSEP
 70
    46
  9
$DIMATFIT
 70
     3
  9
$DIMFRAC
 70
     0
  9
$DIMLDRBLK
  1

  9
$DIMLUNIT
 70
     2
  9
$DIMLWD
 70
    -2
  9
$DIMLWE
 70
    -2
  9
$DIMTMOVE
 70
     0
  9
$LUNITS
 70
     2
  9
$LUPREC
 70
     2
  9
$SKETCHINC
 40
1.0
  9
$FILLETRAD
 40
88.0
  9
$AUNITS
 70
     1
  9
$AUPREC
 70
     3
  9
$MENU
  1
ACAD
  9
$ELEVATION
 40
0.0
  9
$PELEVATION
 40
0.0
  9
$THICKNESS
 40
0.0
  9
$LIMCHECK
 70
     0
  9
$CHAMFERA
 40
0.0
  9
$CHAMFERB
 40
0.0
  9
$CHAMFERC
 40
0.0
  9
$CHAMFERD
 40
0.0
  9
$SKPOLY
 70
     0
  9
$TDCREATE
 40
2452040.637099653
  9
$TDUCREATE
 40
2452040.553766320
  9
$TDUPDATE
 40
2455663.355253785
  9
$TDUUPDATE
 40
2455663.271920451
  9
$TDINDWG
 40
0.1406885185
  9
$TDUSRTIMER
 40
0.1406885185
  9
$USRTIMER
 70
     1
  9
$ANGBASE
 50
0.0
  9
$ANGDIR
 70
     0
  9
$PDMODE
 70
     0
  9
$PDSIZE
 40
0.0
  9
$PLINEWID
 40
0.0
  9
$SPLFRAME
 70
     0
  9
$SPLINETYPE
 70
     6
  9
$SPLINESEGS
 70
     8
  9
$HANDSEED
  5
530
  9
$SURFTAB1
 70
     6
  9
$SURFTAB2
 70
     6
  9
$SURFTYPE
 70
     6
  9
$SURFU
 70
     6
  9
$SURFV
 70
     6
  9
$UCSBASE
  2

  9
$UCSNAME
  2

  9
$UCSORG
 10
0.0
 20
0.0
 30
0.0
  9
$UCSXDIR
 10
1.0
 20
0.0
 30
0.0
  9
$UCSYDIR
 10
0.0
 20
1.0
 30
0.0
  9
$UCSORTHOREF
  2

  9
$UCSORTHOVIEW
 70
     0
  9
$UCSORGTOP
 10
0.0
 20
0.0
 30
0.0
  9
$UCSORGBOTTOM
 10
0.0
 20
0.0
 30
0.0
  9
$UCSORGLEFT
 10
0.0
 20
0.0
 30
0.0
  9
$UCSORGRIGHT
 10
0.0
 20
0.0
 30
0.0
  9
$UCSORGFRONT
 10
0.0
 20
0.0
 30
0.0
  9
$UCSORGBACK
 10
0.0
 20
0.0
 30
0.0
  9
$PUCSBASE
  2

  9
$PUCSNAME
  2

  9
$PUCSORG
 10
0.0
 20
0.0
 30
0.0
  9
$PUCSXDIR
 10
1.0
 20
0.0
 30
0.0
  9
$PUCSYDIR
 10
0.0
 20
1.0
 30
0.0
  9
$PUCSORTHOREF
  2

  9
$PUCSORTHOVIEW
 70
     0
  9
$PUCSORGTOP
 10
0.0
 20
0.0
 30
0.0
  9
$PUCSORGBOTTOM
 10
0.0
 20
0.0
 30
0.0
  9
$PUCSORGLEFT
 10
0.0
 20
0.0
 30
0.0
  9
$PUCSORGRIGHT
 10
0.0
 20
0.0
 30
0.0
  9
$PUCSORGFRONT
 10
0.0
 20
0.0
 30
0.0
  9
$PUCSORGBACK
 10
0.0
 20
0.0
 30
0.0
  9
$USERI1
 70
     0
  9
$USERI2
 70
     0
  9
$USERI3
 70
     0
  9
$USERI4
 70
     0
  9
$USERI5
 70
     0
  9
$USERR1
 40
0.0
  9
$USERR2
 40
0.0
  9
$USERR3
 40
0.0
  9
$USERR4
 40
0.0
  9
$USERR5
 40
0.0
  9
$WORLDVIEW
 70
     1
  9
$SHADEDGE
 70
     3
  9
$SHADEDIF
 70
    70
  9
$TILEMODE
 70
     1
  9
$MAXACTVP
 70
    16
  9
$PINSBASE
 10
0.0
 20
0.0
 30
0.0
  9
$PLIMCHECK
 70
     0
  9
$PEXTMIN
 10
1.000000000000000E+20
 20
1.000000000000000E+20
 30
1.000000000000000E+20
  9
$PEXTMAX
 10
-1.000000000000000E+20
 20
-1.000000000000000E+20
 30
-1.000000000000000E+20
  9
$PLIMMIN
 10
0.0
 20
0.0
  9
$PLIMMAX
 10
12.0
 20
9.0
  9
$UNITMODE
 70
     0
  9
$VISRETAIN
 70
     0
  9
$PLINEGEN
 70
     0
  9
$PSLTSCALE
 70
     0
  9
$TREEDEPTH
 70
  3020
  9
$CMLSTYLE
  2
Standard
  9
$CMLJUST
 70
     0
  9
$CMLSCALE
 40
1.0
  9
$PROXYGRAPHICS
 70
     1
  9
$MEASUREMENT
 70
     0
  9
$CELWEIGHT
370
    -1
  9
$ENDCAPS
280
     0
  9
$JOINSTYLE
280
     0
  9
$LWDISPLAY
290
     0
  9
$INSUNITS
 70
     0
  9
$HYPERLINKBASE
  1

  9
$STYLESHEET
  1
monochrome 1.ctb
  9
$XEDIT
290
     1
  9
$CEPSNTYPE
380
     0
  9
$PSTYLEMODE
290
     1
  9
$FINGERPRINTGUID
  2
{7AADB5C8-6110-11D8-B72B-000102183313}
  9
$VERSIONGUID
  2
{D331C5E2-59BF-4614-893F-61C329F5AEDC}
  9
$EXTNAMES
290
     1
  9
$PSVPSCALE
 40
0.0
  9
$OLESTARTUP
290
     0
  9
$SORTENTS
280
    96
  9
$INDEXCTL
280
     0
  9
$HIDETEXT
280
     0
  9
$XCLIPFRAME
290
     0
  9
$HALOGAP
280
     0
  9
$OBSCOLOR
 70
   257
  9
$OBSLTYPE
280
     0
  9
$INTERSECTIONDISPLAY
280
     0
  9
$INTERSECTIONCOLOR
 70
   257
  9
$DIMASSOC
280
     1
  9
$PROJECTNAME
  1

  0
ENDSEC
  0
SECTION
  2
CLASSES
  0
CLASS
  1
ACDBDICTIONARYWDFLT
  2
AcDbDictionaryWithDefault
  3
ObjectDBX Classes
 90
        0
 91
        1
280
     0
281
     0
  0
CLASS
  1
DICTIONARYVAR
  2
AcDbDictionaryVar
  3
ObjectDBX Classes
 90
        0
 91
        3
280
     0
281
     0
  0
ENDSEC
  0
SECTION
  2
TABLES
  0
TABLE
  2
VPORT
  5
8
330
0
100
AcDbSymbolTable
 70
     3
  0
VPORT
  5
52F
330
8
100
AcDbSymbolTableRecord
100
AcDbViewportTableRecord
  2
*Active
 70
     0
 10
0.0
 20
0.0
 11
1.0
 21
1.0
 12
104.9993069999999
 22
148.4990199
 13
0.0
 23
0.0
 14
1.0
 24
1.0
 15
10.0
 25
10.0
 16
0.0
 26
0.0
 36
1.0
 17
0.0
 27
0.0
 37
0.0
 40
296.9980398000001
 41
1.334231805929919
 42
50.0
 43
0.0
 44
0.0
 50
0.0
 51
0.0
 71
     0
 72
  1500
 73
     1
 74
     0
 75
     0
 76
     0
 77
     0
 78
     0
281
     0
 65
     1
110
0.0
120
0.0
130
0.0
111
1.0
121
0.0
131
0.0
112
0.0
122
1.0
132
0.0
 79
     0
146
0.0
  0
ENDTAB
  0
TABLE
  2
LTYPE
  5
5
330
0
100
AcDbSymbolTable
 70
     2
  0
LTYPE
  5
13
330
5
100
AcDbSymbolTableRecord
100
AcDbLinetypeTableRecord
  2
ByBlock
 70
     0
  3

 72
    65
 73
     0
 40
0.0
  0
LTYPE
  5
14
330
5
100
AcDbSymbolTableRecord
100
AcDbLinetypeTableRecord
  2
ByLayer
 70
     0
  3

 72
    65
 73
     0
 40
0.0
  0
LTYPE
  5
15
330
5
100
AcDbSymbolTableRecord
100
AcDbLinetypeTableRecord
  2
Continuous
 70
     0
  3
Solid line
 72
    65
 73
     0
 40
0.0
  0
LTYPE
  5
35
330
5
100
AcDbSymbolTableRecord
100
AcDbLinetypeTableRecord
  2
STRICHPUNKT
 70
     0
  3
__ . __ . __ . __ . __ . __ . __ . __ . __ . __
 72
    65
 73
     4
 40
1.0
 49
0.5
 74
     0
 49
-0.25
 74
     0
 49
0.0
 74
     0
 49
-0.25
 74
     0
  0
ENDTAB
  0
TABLE
  2
LAYER
  5
2
330
0
100
AcDbSymbolTable
 70
     9
  0
LAYER
  5
10
330
2
100
AcDbSymbolTableRecord
100
AcDbLayerTableRecord
  2
0
 70
     0
 62
     7
  6
Continuous
370
    -3
390
F
  0
LAYER
  5
38
330
2
100
AcDbSymbolTableRecord
100
AcDbLayerTableRecord
  2
VOLL
 70
     0
 62
     1
  6
Continuous
370
    -3
390
F
  0
LAYER
  5
39
330
2
100
AcDbSymbolTableRecord
100
AcDbLayerTableRecord
  2
HILF
 70
     0
 62
     2
  6
Continuous
370
    -3
390
F
  0
LAYER
  5
3A
330
2
100
AcDbSymbolTableRecord
100
AcDbLayerTableRecord
  2
MITTEL
 70
     0
 62
     2
  6
STRICHPUNKT
370
    -3
390
F
  0
LAYER
  5
3B
330
2
100
AcDbSymbolTableRecord
100
AcDbLayerTableRecord
  2
BEM
 70
     0
 62
     7
  6
Continuous
370
    -3
390
F
  0
LAYER
  5
3C
330
2
100
AcDbSymbolTableRecord
100
AcDbLayerTableRecord
  2
STEMPEL
 70
     0
 62
     3
  6
Continuous
370
    -3
390
F
  0
LAYER
  5
3D
330
2
100
AcDbSymbolTableRecord
100
AcDbLayerTableRecord
  2
TEXT
 70
     0
 62
     7
  6
Continuous
370
    -3
390
F
  0
LAYER
  5
3E
330
2
100
AcDbSymbolTableRecord
100
AcDbLayerTableRecord
  2
DEFPOINTS
 70
     0
 62
     7
  6
Continuous
290
     0
370
    -3
390
F
  0
ENDTAB
  0
TABLE
  2
STYLE
  5
3
330
0
100
AcDbSymbolTable
 70
     2
  0
STYLE
  5
11
330
3
100
AcDbSymbolTableRecord
100
AcDbTextStyleTableRecord
  2
STANDARD
 70
     0
 40
0.0
 41
0.8
 50
0.0
 71
     0
 42
3.5
  3
simplex.shx
  4

  0
STYLE
  5
34
330
3
100
AcDbSymbolTableRecord
100
AcDbTextStyleTableRecord
  2
GREEKS
 70
     0
 40
0.0
 41
0.8
 50
0.0
 71
     0
 42
2.5
  3
SIMPLEX.shx
  4

  0
ENDTAB
  0
TABLE
  2
VIEW
  5
6
330
0
100
AcDbSymbolTable
 70
     0
  0
ENDTAB
  0
TABLE
  2
UCS
  5
7
330
0
100
AcDbSymbolTable
 70
     0
  0
ENDTAB
  0
TABLE
  2
APPID
  5
9
330
0
100
AcDbSymbolTable
 70
     1
  0
APPID
  5
12
330
9
100
AcDbSymbolTableRecord
100
AcDbRegAppTableRecord
  2
ACAD
 70
     0
  0
ENDTAB
  0
TABLE
  2
DIMSTYLE
  5
A
330
0
100
AcDbSymbolTable
 70
     1
100
AcDbDimStyleTable
 71
     1
340
1CB
  0
DIMSTYLE
105
1CB
102
{ACAD_REACTORS
330
33C
330
3B6
330
1E8
330
4A2
330
4B1
102
}
330
A
100
AcDbSymbolTableRecord
100
AcDbDimStyleTableRecord
  2
Standard
 70
     0
340
11
  0
ENDTAB
  0
TABLE
  2
BLOCK_RECORD
  5
1
330
0
100
AcDbSymbolTable
 70
     7
  0
BLOCK_RECORD
  5
1E
330
1
100
AcDbSymbolTableRecord
100
AcDbBlockTableRecord
  2
*Model_Space
340
21
  0
BLOCK_RECORD
  5
1A
330
1
100
AcDbSymbolTableRecord
100
AcDbBlockTableRecord
  2
*Paper_Space
340
1D
  0
BLOCK_RECORD
  5
22
330
1
100
AcDbSymbolTableRecord
100
AcDbBlockTableRecord
  2
LOGO
340
0
102
{BLKREFS
331
135
102
}
  0
BLOCK_RECORD
  5
1E9
330
1
100
AcDbSymbolTableRecord
100
AcDbBlockTableRecord
  2
*D1
340
0
  0
BLOCK_RECORD
  5
33D
330
1
100
AcDbSymbolTableRecord
100
AcDbBlockTableRecord
  2
*D3
340
0
  0
BLOCK_RECORD
  5
3B7
330
1
100
AcDbSymbolTableRecord
100
AcDbBlockTableRecord
  2
*D4
340
0
  0
BLOCK_RECORD
  5
4A3
330
1
100
AcDbSymbolTableRecord
100
AcDbBlockTableRecord
  2
*D5
340
0
  0
BLOCK_RECORD
  5
4B2
330
1
100
AcDbSymbolTableRecord
100
AcDbBlockTableRecord
  2
*D6
340
0
  0
ENDTAB
  0
ENDSEC
  0
SECTION
  2
BLOCKS
  0
BLOCK
  5
43
330
1E
100
AcDbEntity
  8
0
100
AcDbBlockBegin
  2
*Model_Space
 70
     0
 10
0.0
 20
0.0
 30
0.0
  3
*Model_Space
  1

  0
ENDBLK
  5
44
330
1E
100
AcDbEntity
  8
0
100
AcDbBlockEnd
  0
BLOCK
  5
41
330
1A
100
AcDbEntity
 67
     1
  8
0
100
AcDbBlockBegin
  2
*Paper_Space
 70
     0
 10
0.0
 20
0.0
 30
0.0
  3
*Paper_Space
  1

  0
ENDBLK
  5
42
330
1A
100
AcDbEntity
 67
     1
  8
0
100
AcDbBlockEnd
  0
BLOCK
  5
45
330
22
100
AcDbEntity
  8
0
100
AcDbBlockBegin
  2
LOGO
 70
     0
 10
0.0
 20
0.0
 30
0.0
  3
LOGO
  1

  0
ARC
  5
46
330
22
100
AcDbEntity
  8
0
100
AcDbCircle
 10
11.59973089678112
 20
-9.271599258481501
 30
0.0
 40
4.5
100
AcDbArc
 50
270.0
 51
231.0575587310159
  0
LINE
  5
47
330
22
100
AcDbEntity
  8
0
100
AcDbLine
 10
3.599730896781125
 20
-4.771599258481529
 30
0.0
 11
3.599730896781153
 21
-11.77159925848133
 31
0.0
  0
LINE
  5
48
330
22
100
AcDbEntity
  8
0
100
AcDbLine
 10
2.599730896781125
 20
-4.771599258481529
 30
0.0
 11
2.599730896781153
 21
-11.77159925848133
 31
0.0
  0
CIRCLE
  5
49
330
22
100
AcDbEntity
  8
0
100
AcDbCircle
 10
11.59973089678112
 20
-9.271599258481501
 30
0.0
 40
3.5
  0
ARC
  5
4A
330
22
100
AcDbEntity
  8
0
100
AcDbCircle
 10
31.59973089678115
 20
-9.271599258481472
 30
0.0
 40
4.5
100
AcDbArc
 50
270.0
 51
231.0575587310182
  0
LINE
  5
4B
330
22
100
AcDbEntity
  8
0
100
AcDbLine
 10
17.59973089678112
 20
-4.771599258481472
 30
0.0
 11
17.59973089678115
 21
-13.77159925848147
 31
0.0
  0
ARC
  5
4C
330
22
100
AcDbEntity
  8
0
100
AcDbCircle
 10
22.59973089678116
 20
-7.271599258481472
 30
0.0
 40
2.5
100
AcDbArc
 50
293.1161887722295
 51
90.0
  0
CIRCLE
  5
4D
330
22
100
AcDbEntity
  8
0
100
AcDbCircle
 10
31.59973089678115
 20
-9.271599258481472
 30
0.0
 40
3.5
  0
ARC
  5
4E
330
22
100
AcDbEntity
  8
0
100
AcDbCircle
 10
4.599730896781153
 20
-11.77159925848133
 30
0.0
 40
1.0
100
AcDbArc
 50
180.0
 51
270.0
  0
ARC
  5
4F
330
22
100
AcDbEntity
  8
0
100
AcDbCircle
 10
4.599730896781153
 20
-11.77159925848133
 30
0.0
 40
2.0
100
AcDbArc
 50
179.9999999999992
 51
270.0
  0
LINE
  5
50
330
22
100
AcDbEntity
  8
0
100
AcDbLine
 10
11.59973089678115
 20
-13.77159925848144
 30
0.0
 11
4.599730896781153
 21
-13.77159925848147
 31
0.0
  0
LINE
  5
51
330
22
100
AcDbEntity
  8
0
100
AcDbLine
 10
8.771303772034769
 20
-12.77159925848136
 30
0.0
 11
4.599730896781153
 21
-12.77159925848133
 31
0.0
  0
LINE
  5
52
330
22
100
AcDbEntity
  8
0
100
AcDbLine
 10
31.59973089678115
 20
-13.77159925848147
 30
0.0
 11
23.6715276665056
 21
-13.77159925848144
 31
0.0
  0
LINE
  5
53
330
22
100
AcDbEntity
  8
0
100
AcDbLine
 10
23.56565672307022
 20
-9.51278021337896
 30
0.0
 11
24.4388546544846
 21
-12.77159925848144
 31
0.0
  0
LINE
  5
54
330
22
100
AcDbEntity
  8
0
100
AcDbLine
 10
22.59973089678116
 20
-9.771599258481472
 30
0.0
 11
18.59973089678112
 21
-9.771599258481472
 31
0.0
  0
LINE
  5
55
330
22
100
AcDbEntity
  8
0
100
AcDbLine
 10
18.59973089678115
 20
-13.77159925848144
 30
0.0
 11
17.59973089678115
 21
-13.77159925848144
 31
0.0
  0
LINE
  5
56
330
22
100
AcDbEntity
  8
0
100
AcDbLine
 10
18.59973089678115
 20
-9.771599258481472
 30
0.0
 11
18.59973089678115
 21
-13.77159925848144
 31
0.0
  0
LINE
  5
57
330
22
100
AcDbEntity
  8
0
100
AcDbLine
 10
22.59973089678116
 20
-9.771599258481472
 30
0.0
 11
23.67152766650562
 21
-13.77159925848147
 31
0.0
  0
ARC
  5
58
330
22
100
AcDbEntity
  8
0
100
AcDbCircle
 10
22.59973089678116
 20
-7.271599258481472
 30
0.0
 40
2.5
100
AcDbArc
 50
270.0
 51
270.0000000000007
  0
LINE
  5
59
330
22
100
AcDbEntity
  8
0
100
AcDbLine
 10
28.77130377203494
 20
-12.77159925848147
 30
0.0
 11
24.43885465448463
 21
-12.77159925848144
 31
0.0
  0
LINE
  5
5A
330
22
100
AcDbEntity
  8
0
100
AcDbLine
 10
3.599730896781125
 20
-4.771599258481472
 30
0.0
 11
2.599730896781125
 21
-4.771599258481472
 31
0.0
  0
LINE
  5
5B
330
22
100
AcDbEntity
  8
0
100
AcDbLine
 10
22.59973089678116
 20
-8.771599258481472
 30
0.0
 11
18.59973089678115
 21
-8.771599258481472
 31
0.0
  0
LINE
  5
5C
330
22
100
AcDbEntity
  8
0
100
AcDbLine
 10
22.59973089678116
 20
-5.771599258481472
 30
0.0
 11
18.59973089678115
 21
-5.771599258481472
 31
0.0
  0
LINE
  5
5D
330
22
100
AcDbEntity
  8
0
100
AcDbLine
 10
22.59973089678116
 20
-4.771599258481472
 30
0.0
 11
17.59973089678115
 21
-4.771599258481472
 31
0.0
  0
LINE
  5
5E
330
22
100
AcDbEntity
  8
0
100
AcDbLine
 10
18.59973089678115
 20
-5.771599258481472
 30
0.0
 11
18.59973089678115
 21
-8.771599258481472
 31
0.0
  0
ARC
  5
5F
330
22
100
AcDbEntity
  8
0
100
AcDbCircle
 10
22.59973089678116
 20
-7.271599258481472
 30
0.0
 40
1.5
100
AcDbArc
 50
270.0
 51
90.0
  0
ENDBLK
  5
60
330
22
100
AcDbEntity
  8
0
100
AcDbBlockEnd
  0
BLOCK
  5
1F3
330
1E9
100
AcDbEntity
  8
0
100
AcDbBlockBegin
  2
*D1
 70
     1
 10
0.0
 20
0.0
 30
0.0
  3
*D1
  1

  0
LINE
  5
487
330
1E9
100
AcDbEntity
  8
BEM
 62
     0
370
    -2
100
AcDbLine
 10
86.99110829245904
 20
128.1631097468108
 30
0.0
 11
86.99110829245904
 21
110.0953565934311
 31
0.0
  0
LINE
  5
488
330
1E9
100
AcDbEntity
  8
BEM
 62
     0
370
    -2
100
AcDbLine
 10
128.9911082924588
 20
128.1631097468108
 30
0.0
 11
128.9911082924588
 21
110.0953565934311
 31
0.0
  0
LINE
  5
489
330
1E9
100
AcDbEntity
  8
BEM
 62
     0
370
    -2
100
AcDbLine
 10
90.49110829245904
 20
111.0953565934311
 30
0.0
 11
125.4911082924588
 21
111.0953565934311
 31
0.0
  0
SOLID
  5
48A
330
1E9
100
AcDbEntity
  8
BEM
 62
     0
100
AcDbTrace
 10
90.49110829245904
 20
111.6786899267644
 30
0.0
 11
90.49110829245904
 21
110.5120232600978
 31
0.0
 12
86.99110829245904
 22
111.0953565934311
 32
0.0
 13
86.99110829245904
 23
111.0953565934311
 33
0.0
  0
SOLID
  5
48B
330
1E9
100
AcDbEntity
  8
BEM
 62
     0
100
AcDbTrace
 10
125.4911082924588
 20
111.6786899267644
 30
0.0
 11
125.4911082924588
 21
110.5120232600978
 31
0.0
 12
128.9911082924588
 22
111.0953565934311
 32
0.0
 13
128.9911082924588
 23
111.0953565934311
 33
0.0
  0
MTEXT
  5
48C
330
1E9
100
AcDbEntity
  8
BEM
 62
     1
100
AcDbMText
 10
107.9911082924589
 20
114.3453565934311
 30
0.0
 40
3.5
 41
0.0
 71
     5
 72
     1
  1
\A1;%%c42
 73
     1
 44
1.0
  0
POINT
  5
48D
330
1E9
100
AcDbEntity
  8
DEFPOINTS
 62
     0
100
AcDbPoint
 10
86.99110829245904
 20
129.1631097468108
 30
0.0
  0
POINT
  5
48E
330
1E9
100
AcDbEntity
  8
DEFPOINTS
 62
     0
100
AcDbPoint
 10
128.9911082924588
 20
129.1631097468108
 30
0.0
  0
POINT
  5
48F
330
1E9
100
AcDbEntity
  8
DEFPOINTS
 62
     0
100
AcDbPoint
 10
128.9911082924588
 20
111.0953565934311
 30
0.0
  0
ENDBLK
  5
1F4
330
1E9
100
AcDbEntity
  8
0
100
AcDbBlockEnd
  0
BLOCK
  5
347
330
33D
100
AcDbEntity
  8
0
100
AcDbBlockBegin
  2
*D3
 70
     1
 10
0.0
 20
0.0
 30
0.0
  3
*D3
  1

  0
LINE
  5
4DE
330
33D
100
AcDbEntity
  8
BEM
 62
     0
370
    -2
100
AcDbLine
 10
107.0251824661698
 20
191.4219287919135
 30
0.0
 11
74.86749089597447
 21
200.0385562785972
 31
0.0
  0
LINE
  5
4DF
330
33D
100
AcDbEntity
  8
BEM
 62
     0
370
    -2
100
AcDbLine
 10
101.6638247157902
 20
262.2220043589375
 30
0.0
 11
92.2083669178445
 21
264.7555866399638
 31
0.0
  0
LINE
  5
4E0
330
33D
100
AcDbEntity
  8
BEM
 62
     0
370
    -2
100
AcDbLine
 10
76.73928338012243
 20
203.1604776255063
 30
0.0
 11
92.26842608627467
 21
261.1160272028496
 31
0.0
  0
SOLID
  5
4E1
330
33D
100
AcDbEntity
  8
BEM
 62
     0
100
AcDbTrace
 10
76.17582664812047
 20
203.3114554018161
 30
0.0
 11
77.30274011212438
 21
203.0094998491965
 31
0.0
 12
75.83341672226353
 22
199.7797372334946
 32
0.0
 13
75.83341672226353
 23
199.7797372334946
 33
0.0
  0
SOLID
  5
4E2
330
33D
100
AcDbEntity
  8
BEM
 62
     0
100
AcDbTrace
 10
91.70496935427271
 20
261.2670049791594
 30
0.0
 11
92.83188281827662
 21
260.9650494265397
 31
0.0
 12
93.17429274413356
 22
264.4967675948613
 32
0.0
 13
93.17429274413356
 23
264.4967675948613
 33
0.0
  0
MTEXT
  5
4E3
330
33D
100
AcDbEntity
  8
BEM
 62
     1
100
AcDbMText
 10
81.36459579775911
 20
232.9794143107612
 30
0.0
 40
3.5
 41
0.0
 71
     5
 72
     1
  1
\A1;67
 11
0.25881904510254
 21
0.9659258262890631
 31
0.0
 73
     1
 44
1.0
  0
POINT
  5
4E4
330
33D
100
AcDbEntity
  8
DEFPOINTS
 62
     0
100
AcDbPoint
 10
107.9911082924589
 20
191.163109746811
 30
0.0
  0
POINT
  5
4E5
330
33D
100
AcDbEntity
  8
DEFPOINTS
 62
     0
100
AcDbPoint
 10
102.6297505420793
 20
261.963185313835
 30
0.0
  0
POINT
  5
4E6
330
33D
100
AcDbEntity
  8
DEFPOINTS
 62
     0
100
AcDbPoint
 10
93.17429274413354
 20
264.4967675948613
 30
0.0
  0
ENDBLK
  5
348
330
33D
100
AcDbEntity
  8
0
100
AcDbBlockEnd
  0
BLOCK
  5
3C1
330
3B7
100
AcDbEntity
  8
0
100
AcDbBlockBegin
  2
*D4
 70
     1
 10
0.0
 20
0.0
 30
0.0
  3
*D4
  1

  0
LINE
  5
490
330
3B7
100
AcDbEntity
  8
BEM
 62
     0
370
    -2
100
AcDbLine
 10
106.9911082924589
 20
191.1631097468109
 30
0.0
 11
75.01571680670806
 21
191.1631097468109
 31
0.0
  0
LINE
  5
491
330
3B7
100
AcDbEntity
  8
BEM
 62
     0
370
    -2
100
AcDbLine
 10
86.42855161008867
 20
124.1631097468108
 30
0.0
 11
75.01571680670804
 21
124.1631097468108
 31
0.0
  0
LINE
  5
492
330
3B7
100
AcDbEntity
  8
BEM
 62
     0
370
    -2
100
AcDbLine
 10
76.01571680670805
 20
187.6631097468109
 30
0.0
 11
76.01571680670804
 21
127.6631097468108
 31
0.0
  0
SOLID
  5
493
330
3B7
100
AcDbEntity
  8
BEM
 62
     0
100
AcDbTrace
 10
75.43238347337473
 20
187.6631097468109
 30
0.0
 11
76.59905014004138
 21
187.6631097468109
 31
0.0
 12
76.01571680670805
 22
191.1631097468109
 32
0.0
 13
76.01571680670805
 23
191.1631097468109
 33
0.0
  0
SOLID
  5
494
330
3B7
100
AcDbEntity
  8
BEM
 62
     0
100
AcDbTrace
 10
75.43238347337471
 20
127.6631097468108
 30
0.0
 11
76.59905014004137
 21
127.6631097468108
 31
0.0
 12
76.01571680670804
 22
124.1631097468108
 32
0.0
 13
76.01571680670804
 23
124.1631097468108
 33
0.0
  0
MTEXT
  5
495
330
3B7
100
AcDbEntity
  8
BEM
 62
     1
100
AcDbMText
 10
72.76571680670802
 20
157.6631097468109
 30
0.0
 40
3.5
 41
0.0
 71
     5
 72
     1
  1
\A1;67
 11
0.0000000000000001
 21
1.0
 31
0.0
 73
     1
 44
1.0
  0
POINT
  5
496
330
3B7
100
AcDbEntity
  8
DEFPOINTS
 62
     0
100
AcDbPoint
 10
107.9911082924589
 20
191.1631097468109
 30
0.0
  0
POINT
  5
497
330
3B7
100
AcDbEntity
  8
DEFPOINTS
 62
     0
100
AcDbPoint
 10
87.42855161008867
 20
124.1631097468108
 30
0.0
  0
POINT
  5
498
330
3B7
100
AcDbEntity
  8
DEFPOINTS
 62
     0
100
AcDbPoint
 10
76.01571680670804
 20
124.1631097468108
 30
0.0
  0
ENDBLK
  5
3C2
330
3B7
100
AcDbEntity
  8
0
100
AcDbBlockEnd
  0
BLOCK
  5
4AF
330
4A3
100
AcDbEntity
  8
0
100
AcDbBlockBegin
  2
*D5
 70
     1
 10
0.0
 20
0.0
 30
0.0
  3
*D5
  1

  0
LINE
  5
4A4
330
4A3
100
AcDbEntity
  8
BEM
 62
     0
370
    -2
100
AcDbLine
 10
126.8848985849429
 20
261.6756950659127
 30
0.0
 11
128.6111351473543
 21
268.1180976227147
 31
0.0
  0
LINE
  5
4A5
330
4A3
100
AcDbEntity
  8
BEM
 62
     0
370
    -2
100
AcDbLine
 10
107.9911082924589
 20
192.1631097468108
 30
0.0
 11
107.9911082924589
 21
270.8327756584808
 31
0.0
  0
ARC
  5
4A6
330
4A3
100
AcDbEntity
  8
BEM
 62
     0
370
    -2
100
AcDbCircle
 10
107.9911082924589
 20
191.1631097468108
 30
0.0
 40
78.66966591167003
100
AcDbArc
 50
77.54928972098849
 51
87.45071027901142
  0
SOLID
  5
4A7
330
4A3
100
AcDbEntity
  8
BEM
 62
     0
100
AcDbTrace
 10
125.090667713871
 20
268.5492858105101
 30
0.0
 11
124.8138549735399
 21
267.415934224328
 31
0.0
 12
128.3523161022518
 22
267.1521717964257
 32
0.0
 13
128.3523161022518
 23
267.1521717964257
 33
0.0
  0
SOLID
  5
4A8
330
4A3
100
AcDbEntity
  8
BEM
 62
     0
100
AcDbTrace
 10
111.4772660217252
 20
269.1717294691309
 30
0.0
 11
111.5032184220946
 21
270.3381074456145
 31
0.0
 12
107.9911082924589
 22
269.8327756584809
 32
0.0
 13
107.9911082924589
 23
269.8327756584809
 33
0.0
  0
MTEXT
  5
4A9
330
4A3
100
AcDbEntity
  8
BEM
 62
     1
100
AcDbMText
 10
118.683770351848
 20
272.3819415603954
 30
0.0
 40
3.5
 41
0.0
 71
     5
 72
     1
  1
\A1;15°
 11
0.9914448613738102
 21
-0.1305261922200525
 31
0.0
 73
     1
 44
1.0
  0
POINT
  5
4AA
330
4A3
100
AcDbEntity
  8
DEFPOINTS
 62
     0
100
AcDbPoint
 10
121.6519524156867
 20
268.6376066635038
 30
0.0
  0
POINT
  5
4AB
330
4A3
100
AcDbEntity
  8
DEFPOINTS
 62
     0
100
AcDbPoint
 10
107.9911082924589
 20
191.1631097468108
 30
0.0
  0
POINT
  5
4AC
330
4A3
100
AcDbEntity
  8
DEFPOINTS
 62
     0
100
AcDbPoint
 10
126.6260795398404
 20
260.7097692396236
 30
0.0
  0
POINT
  5
4AD
330
4A3
100
AcDbEntity
  8
DEFPOINTS
 62
     0
100
AcDbPoint
 10
107.9911082924589
 20
191.1631097468108
 30
0.0
  0
POINT
  5
4AE
330
4A3
100
AcDbEntity
  8
DEFPOINTS
 62
     0
100
AcDbPoint
 10
107.9911082924589
 20
119.1631097468107
 30
0.0
  0
ENDBLK
  5
4B0
330
4A3
100
AcDbEntity
  8
0
100
AcDbBlockEnd
  0
BLOCK
  5
4B8
330
4B2
100
AcDbEntity
  8
0
100
AcDbBlockBegin
  2
*D6
 70
     1
 10
0.0
 20
0.0
 30
0.0
  3
*D6
  1

  0
LINE
  5
4BF
330
4B2
100
AcDbEntity
  8
BEM
 62
     0
370
    -2
100
AcDbLine
 10
144.6142656290769
 20
185.810044474042
 30
0.0
 11
111.9061089809901
 21
189.553094353829
 31
0.0
  0
MTEXT
  5
4C0
330
4B2
100
AcDbEntity
  8
BEM
 62
     1
100
AcDbMText
 10
137.8635815910381
 20
189.8537897837369
 30
0.0
 40
3.5
 41
0.0
 71
     5
 72
     1
  1
\A1;R67.5
 11
0.9935156142417001
 21
-0.1136957530338633
 31
0.0
 73
     1
 44
1.0
  0
SOLID
  5
4C1
330
4B2
100
AcDbEntity
  8
BEM
 62
     0
100
AcDbTrace
 10
111.9724315035932
 20
190.1326451288033
 30
0.0
 11
111.839786458387
 21
188.9735435788546
 31
0.0
 12
108.4288043311441
 22
189.9510294894475
 32
0.0
 13
108.4288043311441
 23
189.9510294894475
 33
0.0
  0
POINT
  5
4C2
330
4B2
100
AcDbEntity
  8
DEFPOINTS
 62
     0
100
AcDbPoint
 10
108.4288043311441
 20
189.9510294894475
 30
0.0
  0
POINT
  5
4C3
330
4B2
100
AcDbEntity
  8
DEFPOINTS
 62
     0
100
AcDbPoint
 10
175.4911082924589
 20
182.2765661596617
 30
0.0
  0
ENDBLK
  5
4B9
330
4B2
100
AcDbEntity
  8
0
100
AcDbBlockEnd
  0
ENDSEC
  0
SECTION
  2
ENTITIES
  0
TEXT
  5
134
330
1E
100
AcDbEntity
  8
TEXT
100
AcDbText
 10
102.2101278377668
 20
31.5446114028082
 30
0.0
 40
1.9999868
  1
Koeh
 41
0.8
  7
GREEKS
 72
     1
 11
104.8386819177668
 21
31.5446114028082
 31
0.0
100
AcDbText
  0
INSERT
  5
135
330
1E
100
AcDbEntity
  8
STEMPEL
100
AcDbBlockReference
  2
LOGO
 10
75.4972759875795
 20
22.51037781276749
 30
0.0
 41
0.9999933999999999
 42
0.9999933999999999
 43
0.9999933999999999
  0
LINE
  5
136
330
1E
100
AcDbEntity
  8
HILF
100
AcDbLine
 10
209.998614
 20
0.0
 30
0.0
 11
0.0
 21
0.0
 31
0.0
  0
LINE
  5
137
330
1E
100
AcDbEntity
  8
HILF
100
AcDbLine
 10
209.9986139999999
 20
296.9980398000001
 30
0.0
 11
0.0
 21
296.9980398
 31
0.0
  0
LINE
  5
138
330
1E
100
AcDbEntity
  8
STEMPEL
100
AcDbLine
 10
204.998647
 20
291.9980728
 30
0.0
 11
19.99986799999994
 21
291.9980728
 31
0.0
  0
LINE
  5
139
330
1E
100
AcDbEntity
  8
STEMPEL
100
AcDbLine
 10
204.998647
 20
4.999967
 30
0.0
 11
19.99986799999994
 21
4.999967
 31
0.0
  0
LINE
  5
13A
330
1E
100
AcDbEntity
  8
STEMPEL
100
AcDbLine
 10
24.99983499999994
 20
4.999967
 30
0.0
 11
204.998647
 21
4.999967
 31
0.0
  0
TEXT
  5
13B
330
1E
100
AcDbEntity
  8
TEXT
100
AcDbText
 10
101.2306610845419
 20
36.65456353786009
 30
0.0
 40
1.9999868
  1
Name
 41
0.8
  7
GREEKS
100
AcDbText
  0
TEXT
  5
13C
330
1E
100
AcDbEntity
  8
TEXT
100
AcDbText
 10
98.27426534064535
 20
51.3249726417743
 30
0.0
 40
2.4999835
  1
Zul. Abw.
 41
0.8
  7
GREEKS
 72
     4
 11
104.9885067406453
 21
52.57496439177431
 31
0.0
100
AcDbText
  0
LINE
  5
13D
330
1E
100
AcDbEntity
  8
HILF
100
AcDbLine
 10
72.99951820000005
 20
24.99983499999999
 30
0.0
 11
114.999241
 21
24.99983499999999
 31
0.0
  0
LINE
  5
13E
330
1E
100
AcDbEntity
  8
HILF
100
AcDbLine
 10
72.99951820000005
 20
29.99980199999999
 30
0.0
 11
114.999241
 21
29.99980199999999
 31
0.0
  0
LINE
  5
13F
330
1E
100
AcDbEntity
  8
HILF
100
AcDbLine
 10
72.99951820000005
 20
34.99976899999997
 30
0.0
 11
114.999241
 21
34.99976899999997
 31
0.0
  0
LINE
  5
140
330
1E
100
AcDbEntity
  8
STEMPEL
100
AcDbLine
 10
204.998647
 20
39.999736
 30
0.0
 11
72.99951820000005
 21
39.99973599999997
 31
0.0
  0
LINE
  5
141
330
1E
100
AcDbEntity
  8
STEMPEL
100
AcDbLine
 10
204.998647
 20
19.999868
 30
0.0
 11
72.99951820000005
 21
19.99986799999998
 31
0.0
  0
LINE
  5
142
330
1E
100
AcDbEntity
  8
STEMPEL
100
AcDbLine
 10
204.998647
 20
54.99963700000003
 30
0.0
 11
19.99986799999998
 21
54.999637
 31
0.0
  0
LINE
  5
143
330
1E
100
AcDbEntity
  8
MITTEL
100
AcDbLine
 10
107.9911082924589
 20
191.1631097468109
 30
0.0
 11
107.9911082924589
 21
119.1631097468107
 31
0.0
  0
LINE
  5
144
330
1E
100
AcDbEntity
  8
HILF
100
AcDbLine
 10
0.0
 20
0.0
 30
0.0
 11
-0.0000000000000568
 21
296.9980398
 31
0.0
  0
LINE
  5
145
330
1E
100
AcDbEntity
  8
STEMPEL
100
AcDbLine
 10
19.999868
 20
4.999967
 30
0.0
 11
19.99986799999994
 21
291.9980728
 31
0.0
  0
TEXT
  5
146
330
1E
100
AcDbEntity
  8
TEXT
100
AcDbText
 10
20.92741163306
 20
55.83563148239997
 30
0.0
 40
2.4999835
  1
Erstellt mit AUTOCAD 2004
 41
0.8
  7
GREEKS
100
AcDbText
  0
LINE
  5
148
330
1E
100
AcDbEntity
  8
HILF
100
AcDbLine
 10
19.99986800000004
 20
19.99986799999998
 30
0.0
 11
72.99951820000005
 21
19.99986799999998
 31
0.0
  0
LINE
  5
149
330
1E
100
AcDbEntity
  8
HILF
100
AcDbLine
 10
19.99986800000004
 20
24.99983499999999
 30
0.0
 11
72.99951820000005
 21
24.99983499999999
 31
0.0
  0
LINE
  5
14A
330
1E
100
AcDbEntity
  8
HILF
100
AcDbLine
 10
19.99986800000004
 20
29.99980199999999
 30
0.0
 11
72.99951820000005
 21
29.99980199999999
 31
0.0
  0
LINE
  5
14B
330
1E
100
AcDbEntity
  8
HILF
100
AcDbLine
 10
19.99986800000004
 20
34.99976899999997
 30
0.0
 11
72.99951820000005
 21
34.99976899999997
 31
0.0
  0
LINE
  5
14C
330
1E
100
AcDbEntity
  8
HILF
100
AcDbLine
 10
19.99986800000004
 20
39.99973599999997
 30
0.0
 11
72.99951820000005
 21
39.99973599999997
 31
0.0
  0
LINE
  5
14D
330
1E
100
AcDbEntity
  8
HILF
100
AcDbLine
 10
19.99986800000004
 20
44.99970300000002
 30
0.0
 11
72.99951820000005
 21
44.99970300000002
 31
0.0
  0
LINE
  5
14E
330
1E
100
AcDbEntity
  8
HILF
100
AcDbLine
 10
19.99986800000004
 20
49.99967000000003
 30
0.0
 11
72.99951820000005
 21
49.99967000000003
 31
0.0
  0
LINE
  5
14F
330
1E
100
AcDbEntity
  8
STEMPEL
100
AcDbLine
 10
72.99951819999994
 20
14.99990099999998
 30
0.0
 11
19.99986799999998
 21
14.99990099999998
 31
0.0
  0
TEXT
  5
150
330
1E
100
AcDbEntity
  8
TEXT
100
AcDbText
 10
24.13304625607225
 20
6.827284169763039
 30
0.0
 40
1.9999868
  1
Index
 50
90.0
 41
0.8
  7
GREEKS
100
AcDbText
  0
LINE
  5
151
330
1E
100
AcDbEntity
  8
VOLL
100
AcDbLine
 10
26.99982180000005
 20
54.99963700000003
 30
0.0
 11
26.99982179999999
 21
4.999966999999986
 31
0.0
  0
LINE
  5
152
330
1E
100
AcDbEntity
  8
HILF
100
AcDbLine
 10
15.5437330892538
 20
148.4990199
 30
0.0
 11
0.0000000000000568
 21
148.4990199
 31
0.0
  0
LINE
  5
154
330
1E
100
AcDbEntity
  8
VOLL
100
AcDbLine
 10
61.99959080000006
 20
54.99963699999997
 30
0.0
 11
61.99959079999999
 21
4.999966999999986
 31
0.0
  0
LINE
  5
155
330
1E
100
AcDbEntity
  8
VOLL
100
AcDbLine
 10
51.99965680000005
 20
54.99963699999997
 30
0.0
 11
51.9996568
 21
4.999966999999986
 31
0.0
  0
LINE
  5
157
330
1E
100
AcDbEntity
  8
STEMPEL
100
AcDbLine
 10
72.99951820000005
 20
54.99963699999997
 30
0.0
 11
72.99951820000001
 21
4.999966999999986
 31
0.0
  0
TEXT
  5
159
330
1E
100
AcDbEntity
  8
TEXT
100
AcDbText
 10
86.16501496483039
 20
36.65916055409309
 30
0.0
 40
1.9999868
  1
Tag
 41
0.8
  7
GREEKS
100
AcDbText
  0
TEXT
  5
15A
330
1E
100
AcDbEntity
  8
TEXT
100
AcDbText
 10
73.79131933245879
 20
31.81474186940763
 30
0.0
 40
1.9999868
  1
Gez.
 41
0.8
  7
GREEKS
100
AcDbText
  0
LINE
  5
15B
330
1E
100
AcDbEntity
  8
VOLL
100
AcDbLine
 10
81.99945880000006
 20
39.99973599999997
 30
0.0
 11
81.99945880000006
 21
19.99986799999998
 31
0.0
  0
TEXT
  5
15C
330
1E
100
AcDbEntity
  8
TEXT
100
AcDbText
 10
73.79985178712866
 20
21.76458830101818
 30
0.0
 40
1.9999868
  1
Norm.
 41
0.8
  7
GREEKS
100
AcDbText
  0
TEXT
  5
15D
330
1E
100
AcDbEntity
  8
TEXT
100
AcDbText
 10
73.77526740860506
 20
26.84445428257427
 30
0.0
 40
1.9999868
  1
Gepr.
 41
0.8
  7
GREEKS
100
AcDbText
  0
TEXT
  5
15E
330
1E
100
AcDbEntity
  8
TEXT
 62
     1
100
AcDbText
 10
80.24978567201321
 20
44.07421625282263
 30
0.0
 40
3.499976899999999
  1
1:1
 41
0.8
  7
GREEKS
100
AcDbText
  0
TEXT
  5
15F
330
1E
100
AcDbEntity
  8
TEXT
100
AcDbText
 10
76.75767200354004
 20
51.23070662945905
 30
0.0
 40
2.4999835
  1
Maßstab
 41
0.8
  7
GREEKS
100
AcDbText
  0
TEXT
  5
160
330
1E
100
AcDbEntity
  8
TEXT
100
AcDbText
 10
74.31056445808959
 20
36.56988599291778
 30
0.0
 40
1.9999868
  1
2011
 41
0.8
  7
GREEKS
100
AcDbText
  0
LINE
  5
161
330
1E
100
AcDbEntity
  8
VOLL
100
AcDbLine
 10
94.99937300000004
 20
54.99963699999991
 30
0.0
 11
94.99937299999999
 21
19.99986799999998
 31
0.0
  0
LINE
  5
186
330
1E
100
AcDbEntity
  8
HILF
100
AcDbLine
 10
209.998614
 20
-0.0000000000000568
 30
0.0
 11
209.9986139999999
 21
296.9980398
 31
0.0
  0
LINE
  5
187
330
1E
100
AcDbEntity
  8
STEMPEL
100
AcDbLine
 10
204.998647
 20
4.999967
 30
0.0
 11
204.998647
 21
291.9980728
 31
0.0
  0
TEXT
  5
188
330
1E
100
AcDbEntity
  8
TEXT
100
AcDbText
 10
168.618930182566
 20
26.03690904465914
 30
0.0
 40
2.4999835
  1
ersetzt durch:
 41
0.8
  7
GREEKS
100
AcDbText
  0
TEXT
  5
189
330
1E
100
AcDbEntity
  8
TEXT
100
AcDbText
 10
168.3608196261062
 20
36.59034968759802
 30
0.0
 40
2.4999835
  1
Ersatz für:
 41
0.8
  7
GREEKS
100
AcDbText
  0
TEXT
  5
18A
330
1E
100
AcDbEntity
  8
TEXT
100
AcDbText
 10
168.0882680889256
 20
51.15626409328542
 30
0.0
 40
2.4999835
  1
Zeichnungs Nr.
 41
0.8
  7
GREEKS
100
AcDbText
  0
LINE
  5
18B
330
1E
100
AcDbEntity
  8
HILF
100
AcDbLine
 10
116.7447144442934
 20
7.446942139999053
 30
0.0
 11
202.4281059320194
 21
7.446942139999053
 31
0.0
  0
LINE
  5
18C
330
1E
100
AcDbEntity
  8
HILF
100
AcDbLine
 10
168.3608196261062
 20
41.88964171131911
 30
0.0
 11
202.4281059320194
 21
41.88964171131911
 31
0.0
  0
LINE
  5
18D
330
1E
100
AcDbEntity
  8
VOLL
100
AcDbLine
 10
165.9989044
 20
29.999802
 30
0.0
 11
204.998647
 21
29.999802
 31
0.0
  0
TEXT
  5
18E
330
1E
100
AcDbEntity
  8
TEXT
 62
     1
100
AcDbText
 10
117.4634179523254
 20
43.70845546855885
 30
0.0
 40
3.499976899999999
  1
Bogen DN40 15°
 41
0.8
  7
GREEKS
100
AcDbText
  0
LINE
  5
18F
330
1E
100
AcDbEntity
  8
HILF
100
AcDbLine
 10
117.386065301703
 20
24.99983499999999
 30
0.0
 11
162.416623871023
 21
24.99983499999999
 31
0.0
  0
LINE
  5
190
330
1E
100
AcDbEntity
  8
HILF
100
AcDbLine
 10
117.386065301703
 20
29.99980199999999
 30
0.0
 11
162.416623871023
 21
29.99980199999999
 31
0.0
  0
LINE
  5
191
330
1E
100
AcDbEntity
  8
HILF
100
AcDbLine
 10
117.386065301703
 20
34.99976899999997
 30
0.0
 11
162.416623871023
 21
34.99976899999997
 31
0.0
  0
LINE
  5
192
330
1E
100
AcDbEntity
  8
HILF
100
AcDbLine
 10
117.386065301703
 20
42.01851391379852
 30
0.0
 11
162.416623871023
 21
42.01851391379852
 31
0.0
  0
LINE
  5
193
330
1E
100
AcDbEntity
  8
STEMPEL
100
AcDbLine
 10
114.999241
 20
54.99963700000003
 30
0.0
 11
114.999241
 21
4.999966999999986
 31
0.0
  0
TEXT
  5
194
330
1E
100
AcDbEntity
  8
TEXT
100
AcDbText
 10
117.5640436284566
 20
35.75143612689066
 30
0.0
 40
2.4999835
  1
dünnwandig
 41
0.8
  7
GREEKS
100
AcDbText
  0
TEXT
  5
195
330
1E
100
AcDbEntity
  8
TEXT
100
AcDbText
 10
117.4910996325158
 20
21.31473008696612
 30
0.0
 40
1.9999868
  1
5340040W.DWG
 41
0.8
  7
GREEKS
100
AcDbText
  0
TEXT
  5
196
330
1E
100
AcDbEntity
  8
TEXT
100
AcDbText
 10
117.3703445461813
 20
15.42270106046647
 30
0.0
 40
2.4999835
  1
Bauvorhaben
 41
0.8
  7
GREEKS
100
AcDbText
  0
TEXT
  5
197
330
1E
100
AcDbEntity
  8
TEXT
100
AcDbText
 10
117.4381950932472
 20
51.27412798911073
 30
0.0
 40
2.4999835
  1
Benennung
 41
0.8
  7
GREEKS
100
AcDbText
  0
LINE
  5
198
330
1E
100
AcDbEntity
  8
STEMPEL
100
AcDbLine
 10
165.9989044
 20
54.99963699999988
 30
0.0
 11
165.9989044
 21
19.999868
 31
0.0
  0
TEXT
  5
19A
330
1E
100
AcDbEntity
  8
TEXT
 62
     1
100
AcDbText
 10
174.4631221383072
 20
44.07421625282263
 30
0.0
 40
3.499976899999999
  1
5340040W
 41
0.8
  7
GREEKS
 72
     1
 11
185.1297184049739
 21
44.07421625282263
 31
0.0
100
AcDbText
  0
LINE
  5
1D4
330
1E
100
AcDbEntity
  8
STEMPEL
100
AcDbLine
 10
128.553664974829
 20
124.1631097468108
 30
0.0
 11
87.42855161008867
 21
124.1631097468108
 31
0.0
  0
LINE
  5
1D6
330
1E
100
AcDbEntity
  8
HILF
100
AcDbLine
 10
127.9911082924588
 20
129.1631097468108
 30
0.0
 11
87.99110829245881
 21
129.1631097468108
 31
0.0
  0
LINE
  5
1D7
330
1E
100
AcDbEntity
  8
STEMPEL
100
AcDbLine
 10
86.99110829245904
 20
129.1631097468108
 30
0.0
 11
87.42855161008865
 21
124.1631097468108
 31
0.0
  0
LINE
  5
1D8
330
1E
100
AcDbEntity
  8
STEMPEL
100
AcDbLine
 10
128.9911082924586
 20
129.163109746811
 30
0.0
 11
128.553664974829
 21
124.1631097468108
 31
0.0
  0
DIMENSION
  5
1E8
330
1E
100
AcDbEntity
  8
BEM
100
AcDbDimension
  2
*D1
 10
128.9911082924588
 20
111.0953565934311
 30
0.0
 11
107.9911082924589
 21
114.3453565934311
 31
0.0
 70
    32
  1
%%c<>
 71
     5
 42
41.99999999999977
  3
Standard
100
AcDbAlignedDimension
 13
86.99110829245904
 23
129.1631097468108
 33
0.0
 14
128.9911082924588
 24
129.1631097468108
 34
0.0
100
AcDbRotatedDimension
1001
ACAD
1000
DSTYLE
1002
{
1070
    41
1040
3.5
1070
    42
1040
1.0
1070
    43
1040
7.0
1070
    44
1040
1.0
1070
    73
1070
     0
1070
    74
1070
     0
1070
    77
1070
     1
1070
    78
1070
     8
1070
    79
1070
     2
1070
   140
1040
3.5
1070
   141
1040
1.5
1070
   146
1040
0.5142857142857144
1070
   147
1040
1.5
1070
   172
1070
     1
1070
   178
1070
     1
1070
   179
1070
     2
1070
   271
1070
     2
1070
   272
1070
     2
1070
   284
1070
     8
1070
   285
1070
     8
1070
   286
1070
     8
1002
}
  0
LINE
  5
20F
330
1E
100
AcDbEntity
  8
STEMPEL
100
AcDbLine
 10
128.9911082924587
 20
182.3423924084552
 30
0.0
 11
128.9911082924588
 21
129.1631097468108
 31
0.0
  0
LINE
  5
210
330
1E
100
AcDbEntity
  8
STEMPEL
100
AcDbLine
 10
86.99110829245899
 20
182.3423924084554
 30
0.0
 11
86.99110829245904
 21
129.1631097468108
 31
0.0
  0
TEXT
  5
212
330
1E
100
AcDbEntity
  8
TEXT
100
AcDbText
 10
117.5640436284566
 20
25.75150212689068
 30
0.0
 40
2.4999835
  1
EDV-Art.Nr. 5.340.040C
 41
0.8
  7
GREEKS
100
AcDbText
  0
TEXT
  5
255
330
1E
100
AcDbEntity
  8
TEXT
 62
     1
100
AcDbText
 10
148.9977603004411
 20
65.61338533149475
 30
0.0
 40
3.499976899999999
  1
Werkstoff: 1.4404
 41
0.8
  7
GREEKS
100
AcDbText
  0
TEXT
  5
269
330
1E
100
AcDbEntity
  8
TEXT
 62
     1
100
AcDbText
 10
116.9080049804335
 20
242.4782581530937
 30
0.0
 40
3.5
  1
DN40
 50
74.99999999999999
 41
0.8
  7
GREEKS
100
AcDbText
  0
LINE
  5
26A
330
1E
100
AcDbEntity
  8
HILF
  6
Continuous
100
AcDbLine
 10
97.55280711657162
 20
230.5489323370633
 30
0.0
 11
136.7238535782565
 21
220.0530820709728
 31
0.0
  0
LINE
  5
26B
330
1E
100
AcDbEntity
  8
HILF
  6
Continuous
100
AcDbLine
 10
96.85388345947291
 20
234.8484851399931
 30
0.0
 11
139.4789156220749
 21
223.4271421946733
 31
0.0
  0
LINE
  5
26C
330
1E
100
AcDbEntity
  8
HILF
  6
Continuous
100
AcDbLine
 10
98.59091903833126
 20
243.1869473297018
 30
0.0
 11
142.1438297783605
 21
231.5169800688862
 31
0.0
  0
LINE
  5
26D
330
1E
100
AcDbEntity
  8
STEMPEL
100
AcDbLine
 10
148.0342180865762
 20
249.7970949025219
 30
0.0
 11
102.6297505420793
 21
261.9631853138349
 31
0.0
  0
LINE
  5
26E
330
1E
100
AcDbEntity
  8
STEMPEL
100
AcDbLine
 10
96.34978527099798
 20
228.8548701716789
 30
0.0
 11
89.98963557902101
 21
205.1184683774774
 31
0.0
  0
ARC
  5
26F
330
1E
100
AcDbEntity
  8
STEMPEL
100
AcDbCircle
 10
87.15189885597551
 20
244.3696633850834
 30
0.0
 40
10.5
100
AcDbArc
 50
345.0
 51
3.193970598384359
  0
ARC
  5
270
330
1E
100
AcDbEntity
  8
STEMPEL
100
AcDbCircle
 10
115.0429953669567
 20
251.8680700139656
 30
0.0
 40
16.0
100
AcDbArc
 50
140.8801443097411
 51
164.9999999999999
  0
ARC
  5
271
330
1E
100
AcDbEntity
  8
STEMPEL
100
AcDbCircle
 10
117.1051429006892
 20
246.0411478145111
 30
0.0
 40
19.49984481626527
100
AcDbArc
 50
165.0000000000001
 51
183.1939705983843
  0
LINE
  5
272
330
1E
100
AcDbEntity
  8
STEMPEL
100
AcDbLine
 10
99.58818214633158
 20
256.009174735606
 30
0.0
 11
98.26958928805238
 21
251.0881191940104
 31
0.0
  0
ARC
  5
273
330
1E
100
AcDbEntity
  8
STEMPEL
100
AcDbCircle
 10
105.3521552920613
 20
235.0198790122127
 30
0.0
 40
9.5
100
AcDbArc
 50
164.9999999999999
 51
197.3107790801091
  0
ARC
  5
274
330
1E
100
AcDbEntity
  8
STEMPEL
100
AcDbCircle
 10
90.55423031326359
 20
230.4077844422941
 30
0.0
 40
6.0
100
AcDbArc
 50
345.0000000000001
 51
17.31077908010919
  0
LINE
  5
275
330
1E
100
AcDbEntity
  8
STEMPEL
100
AcDbLine
 10
97.29412003201076
 20
241.6520634115071
 30
0.0
 11
96.17585994231518
 21
237.4786599406868
 31
0.0
  0
LINE
  5
276
330
1E
100
AcDbEntity
  8
MITTEL
100
AcDbLine
 10
126.6260795398404
 20
260.7097692396235
 30
0.0
 11
107.9911082924589
 21
191.1631097468109
 31
0.0
  0
LINE
  5
277
330
1E
100
AcDbEntity
  8
STEMPEL
100
AcDbLine
 10
136.9186699751388
 20
217.9844702773731
 30
0.0
 11
130.5585202831617
 21
194.2480684831713
 31
0.0
  0
ARC
  5
278
330
1E
100
AcDbEntity
  8
STEMPEL
100
AcDbCircle
 10
127.5371418246113
 20
243.2459021274039
 30
0.0
 40
19.49984481626527
100
AcDbArc
 50
326.8060294016156
 51
344.9999999999999
  0
ARC
  5
279
330
1E
100
AcDbEntity
  8
STEMPEL
100
AcDbCircle
 10
132.2048932628974
 20
227.8247095583625
 30
0.0
 40
9.5
100
AcDbArc
 50
312.6892209198909
 51
345.0
  0
ARC
  5
27A
330
1E
100
AcDbEntity
  8
STEMPEL
100
AcDbCircle
 10
142.7142249328732
 20
216.431556006758
 30
0.0
 40
6.0
100
AcDbArc
 50
132.6892209198907
 51
164.9999999999999
  0
ARC
  5
27B
330
1E
100
AcDbEntity
  8
STEMPEL
100
AcDbCircle
 10
152.6416698783744
 20
226.8217321271324
 30
0.0
 40
10.5
100
AcDbArc
 50
146.8060294016156
 51
165.0
  0
LINE
  5
27C
330
1E
100
AcDbEntity
  8
STEMPEL
100
AcDbLine
 10
142.499448702339
 20
229.539332100709
 30
0.0
 11
141.3811886126435
 21
225.3659286298888
 31
0.0
  0
ARC
  5
27D
330
1E
100
AcDbEntity
  8
STEMPEL
100
AcDbCircle
 10
132.2364750749022
 20
247.2610910111407
 30
0.0
 40
16.0
100
AcDbArc
 50
345.0
 51
9.119855690260356
  0
LINE
  5
27E
330
1E
100
AcDbEntity
  8
STEMPEL
100
AcDbLine
 10
147.6912882955271
 20
243.1199862895005
 30
0.0
 11
146.3726954372479
 21
238.1989307479049
 31
0.0
  0
DIMENSION
  5
33C
330
1E
100
AcDbEntity
  8
BEM
100
AcDbDimension
  2
*D3
 10
93.17429274413354
 20
264.4967675948613
 30
0.0
 11
81.36459579775911
 21
232.9794143107612
 31
0.0
 70
    32
 71
     5
 42
66.9999999999994
 51
357.0000000000001
  3
Standard
100
AcDbAlignedDimension
 13
107.9911082924589
 23
191.1631097468109
 33
0.0
 14
102.6297505420793
 24
261.9631853138349
 34
0.0
 50
74.99999999999883
100
AcDbRotatedDimension
1001
ACAD
1000
DSTYLE
1002
{
1070
    41
1040
3.5
1070
    42
1040
1.0
1070
    43
1040
7.0
1070
    44
1040
1.0
1070
    73
1070
     0
1070
    74
1070
     0
1070
    77
1070
     1
1070
    78
1070
     8
1070
    79
1070
     2
1070
   140
1040
3.5
1070
   141
1040
1.5
1070
   146
1040
0.5142857142857144
1070
   147
1040
1.5
1070
   172
1070
     1
1070
   178
1070
     1
1070
   179
1070
     2
1070
   271
1070
     2
1070
   272
1070
     2
1070
   284
1070
     8
1070
   285
1070
     8
1070
   286
1070
     8
1002
}
  0
DIMENSION
  5
3B6
330
1E
100
AcDbEntity
  8
BEM
100
AcDbDimension
  2
*D4
 10
76.01571680670804
 20
124.1631097468108
 30
0.0
 11
72.76571680670802
 21
157.6631097468109
 31
0.0
 70
    32
 71
     5
 42
67.00000000000007
  3
Standard
100
AcDbAlignedDimension
 13
107.9911082924589
 23
191.1631097468109
 33
0.0
 14
87.42855161008867
 24
124.1631097468108
 34
0.0
 50
90.0
100
AcDbRotatedDimension
1001
ACAD
1000
DSTYLE
1002
{
1070
    41
1040
3.5
1070
    42
1040
1.0
1070
    43
1040
7.0
1070
    44
1040
1.0
1070
    73
1070
     0
1070
    74
1070
     0
1070
    77
1070
     1
1070
    78
1070
     8
1070
    79
1070
     2
1070
   140
1040
3.5
1070
   141
1040
1.5
1070
   146
1040
0.5142857142857144
1070
   147
1040
1.5
1070
   172
1070
     1
1070
   178
1070
     1
1070
   179
1070
     2
1070
   271
1070
     2
1070
   272
1070
     2
1070
   284
1070
     8
1070
   285
1070
     8
1070
   286
1070
     8
1002
}
  0
ARC
  5
418
330
1E
100
AcDbEntity
  8
MITTEL
100
AcDbCircle
 10
175.4911082924589
 20
182.2765661596616
 30
0.0
 40
67.5
100
AcDbArc
 50
164.9999999999999
 51
180.0
  0
ARC
  5
419
330
1E
100
AcDbEntity
  8
STEMPEL
100
AcDbCircle
 10
174.9911082924587
 20
182.3423924084552
 30
0.0
 40
46.0
100
AcDbArc
 50
164.9999999999997
 51
180.0
  0
ARC
  5
41A
330
1E
100
AcDbEntity
  8
STEMPEL
100
AcDbCircle
 10
174.991108292459
 20
182.3423924084555
 30
0.0
 40
88.0
100
AcDbArc
 50
164.9999999999999
 51
180.0000000000001
  0
DIMENSION
  5
4A2
330
1E
100
AcDbEntity
  8
BEM
100
AcDbDimension
  2
*D5
 10
107.9911082924589
 20
119.1631097468107
 30
0.0
 11
118.683770351848
 21
272.3819415603953
 31
0.0
 70
    34
 71
     5
 42
0.2617993877991513
  3
Standard
100
AcDb2LineAngularDimension
 13
126.6260795398404
 23
260.7097692396235
 33
0.0
 14
107.9911082924589
 24
191.1631097468109
 34
0.0
 15
107.9911082924589
 25
191.1631097468109
 35
0.0
 16
121.6519524156867
 26
268.6376066635038
 36
0.0
1001
ACAD
1000
DSTYLE
1002
{
1070
    41
1040
3.5
1070
    42
1040
1.0
1070
    43
1040
7.0
1070
    44
1040
1.0
1070
    73
1070
     0
1070
    74
1070
     0
1070
    77
1070
     1
1070
    78
1070
     8
1070
    79
1070
     2
1070
   140
1040
3.5
1070
   141
1040
1.5
1070
   146
1040
0.5142857142857144
1070
   147
1040
1.5
1070
   172
1070
     1
1070
   178
1070
     1
1070
   179
1070
     2
1070
   271
1070
     2
1070
   272
1070
     2
1070
   284
1070
     8
1070
   285
1070
     8
1070
   286
1070
     8
1002
}
  0
DIMENSION
  5
4B1
330
1E
100
AcDbEntity
  8
BEM
100
AcDbDimension
  2
*D6
 10
175.4911082924589
 20
182.2765661596617
 30
0.0
 11
137.4940703936781
 21
186.6248640374514
 31
0.0
 70
   164
 71
     5
 42
67.49999999999999
  3
Standard
100
AcDbRadialDimension
 15
108.4288043311441
 25
189.9510294894475
 35
0.0
 40
0.0
1001
ACAD
1000
DSTYLE
1002
{
1070
    41
1040
3.5
1070
    42
1040
1.0
1070
    43
1040
7.0
1070
    44
1040
1.0
1070
    73
1070
     0
1070
    74
1070
     0
1070
    77
1070
     1
1070
    78
1070
     8
1070
    79
1070
     2
1070
   140
1040
3.5
1070
   141
1040
1.5
1070
   146
1040
0.5142857142857144
1070
   147
1040
1.5
1070
   172
1070
     1
1070
   178
1070
     1
1070
   179
1070
     2
1070
   271
1070
     2
1070
   272
1070
     2
1070
   284
1070
     8
1070
   285
1070
     8
1070
   286
1070
     8
1070
   288
1070
     1
1002
}
  0
TEXT
  5
4F0
330
1E
100
AcDbEntity
  8
BEM
100
AcDbText
 10
207.8083132524798
 20
5.273041914107694
 30
0.0
 40
1.886779999999999
  1
Diese Zeichnung ist urheberrechtlich geschützt und bleibt unser Eigentum. Sie darf weder ganz noch teilweise vervielfältigt und nicht an Dritte weitergegeben werden.
 50
90.0
 41
0.8
  7
GREEKS
100
AcDbText
  0
TEXT
  5
4F1
330
1E
100
AcDbEntity
  8
TEXT
100
AcDbText
 10
96.97060388143725
 20
44.4003739497491
 30
0.0
 40
1.886779999999999
  1
DIN EN1124-3
 41
0.8
  7
GREEKS
 72
     1
 11
104.9849265481039
 21
44.4003739497491
 31
0.0
100
AcDbText
  0
TEXT
  5
4F2
330
1E
100
AcDbEntity
  8
TEXT
100
AcDbText
 10
63.90484559783025
 20
9.619390365219697
 30
0.0
 40
1.886779999999999
  1
Name
 41
0.8
  7
GREEKS
 72
     1
 11
66.88775493116358
 21
9.619390365219697
 31
0.0
100
AcDbText
  0
TEXT
  5
4F3
330
1E
100
AcDbEntity
  8
TEXT
100
AcDbText
 10
54.99474645052137
 20
9.656333764662416
 30
0.0
 40
1.886779999999999
  1
Tag
 41
0.8
  7
GREEKS
 72
     1
 11
56.75574111718804
 21
9.656333764662416
 31
0.0
100
AcDbText
  0
TEXT
  5
4F4
330
1E
100
AcDbEntity
  8
TEXT
100
AcDbText
 10
34.54631858940717
 20
9.657398029545401
 30
0.0
 40
1.886779999999999
  1
Änderung
 41
0.8
  7
GREEKS
 72
     1
 11
39.61367058940716
 21
9.657398029545401
 31
0.0
100
AcDbText
  0
TEXT
  5
523
330
1E
100
AcDbEntity
  8
TEXT
100
AcDbText
 10
85.50369613076091
 20
31.55361694888231
 30
0.0
 40
1.9999868
  1
11.04.
 41
0.8
  7
GREEKS
 72
     1
 11
88.7036750107609
 21
31.55361694888231
 31
0.0
100
AcDbText
  0
ENDSEC
  0
SECTION
  2
OBJECTS
  0
DICTIONARY
  5
C
330
0
100
AcDbDictionary
281
     1
  3
ACAD_COLOR
350
4DC
  3
ACAD_GROUP
350
D
  3
ACAD_LAYOUT
350
19
  3
ACAD_MATERIAL
350
4DB
  3
ACAD_MLINESTYLE
350
16
  3
ACAD_PLOTSETTINGS
350
18
  3
ACAD_PLOTSTYLENAME
350
E
  3
AcDbVariableDictionary
350
246
  0
DICTIONARY
  5
4DC
102
{ACAD_REACTORS
330
C
102
}
330
C
100
AcDbDictionary
281
     1
  0
DICTIONARY
  5
D
102
{ACAD_REACTORS
330
C
102
}
330
C
100
AcDbDictionary
281
     1
  0
DICTIONARY
  5
19
102
{ACAD_REACTORS
330
C
102
}
330
C
100
AcDbDictionary
281
     1
  3
Layout1
350
1D
  3
Model
350
21
  0
DICTIONARY
  5
4DB
102
{ACAD_REACTORS
330
C
102
}
330
C
100
AcDbDictionary
281
     1
  0
DICTIONARY
  5
16
102
{ACAD_REACTORS
330
C
102
}
330
C
100
AcDbDictionary
281
     1
  3
Standard
350
17
  0
DICTIONARY
  5
18
102
{ACAD_REACTORS
330
C
102
}
330
C
100
AcDbDictionary
281
     1
  0
ACDBDICTIONARYWDFLT
  5
E
102
{ACAD_REACTORS
330
C
102
}
330
C
100
AcDbDictionary
281
     1
  3
Normal
350
F
100
AcDbDictionaryWithDefault
340
F
  0
DICTIONARY
  5
246
102
{ACAD_REACTORS
330
C
102
}
330
C
100
AcDbDictionary
281
     1
  3
DIMASSOC
350
4FD
  3
PROJECTNAME
350
4FE
  3
SORTENTS
350
247
  0
LAYOUT
  5
1D
102
{ACAD_REACTORS
330
19
102
}
330
19
100
AcDbPlotSettings
  1

  2
Tektronix Phaser 740
  4

  6

 40
0.0
 41
0.0
 42
0.0
 43
0.0
 44
0.0
 45
0.0
 46
0.0
 47
0.0
 48
0.0
 49
0.0
140
0.0
141
0.0
142
1.0
143
1.0
 70
   688
 72
     0
 73
     0
 74
     5
  7
monochrome.ctb
 75
    16
147
1.0
 76
     0
 77
     2
 78
   300
148
0.0
149
0.0
100
AcDbLayout
  1
Layout1
 70
     0
 71
     1
 10
0.0
 20
0.0
 11
12.0
 21
9.0
 12
0.0
 22
0.0
 32
0.0
 14
1.000000000000000E+20
 24
1.000000000000000E+20
 34
1.000000000000000E+20
 15
-1.000000000000000E+20
 25
-1.000000000000000E+20
 35
-1.000000000000000E+20
146
0.0
 13
0.0
 23
0.0
 33
0.0
 16
1.0
 26
0.0
 36
0.0
 17
0.0
 27
1.0
 37
0.0
 76
     0
330
1A
  0
LAYOUT
  5
21
102
{ACAD_REACTORS
330
19
102
}
330
19
100
AcDbPlotSettings
  1

  2
Tektronix Phaser 740
  4
A4
  6

 40
5.873749732971191
 41
6.085414409637451
 42
5.577407836914062
 43
5.662078857421875
 44
209.9733276367187
 45
296.9683227539062
 46
0.0
 47
0.0
 48
0.0
 49
0.0
140
0.0
141
0.0
142
1.0
143
1.0
 70
 11952
 72
     0
 73
     1
 74
     0
  7
monochrome.ctb
 75
     0
147
1.0
 76
     0
 77
     2
 78
   300
148
1150.120678237584
149
45.30495740799864
100
AcDbLayout
  1
Model
 70
     1
 71
     0
 10
0.0
 20
0.0
 11
12.0
 21
9.0
 12
0.0
 22
0.0
 32
0.0
 14
0.0
 24
0.0
 34
0.0
 15
0.0
 25
0.0
 35
0.0
146
0.0
 13
0.0
 23
0.0
 33
0.0
 16
1.0
 26
0.0
 36
0.0
 17
0.0
 27
1.0
 37
0.0
 76
     0
330
1E
  0
MLINESTYLE
  5
17
102
{ACAD_REACTORS
330
16
102
}
330
16
100
AcDbMlineStyle
  2
STANDARD
 70
     0
  3

 62
   256
 51
90.0
 52
90.0
 71
     2
 49
0.5
 62
   256
  6
BYLAYER
 49
-0.5
 62
   256
  6
BYLAYER
  0
ACDBPLACEHOLDER
  5
F
102
{ACAD_REACTORS
330
E
102
}
330
E
  0
DICTIONARYVAR
  5
4FD
102
{ACAD_REACTORS
330
246
102
}
330
246
100
DictionaryVariables
280
     0
  1
1
  0
DICTIONARYVAR
  5
4FE
102
{ACAD_REACTORS
330
246
102
}
330
246
100
DictionaryVariables
280
     0
  1

  0
DICTIONARYVAR
  5
247
102
{ACAD_REACTORS
330
246
102
}
330
246
100
DictionaryVariables
280
     0
  1
96
  0
ENDSEC
  0
EOF
