  0
SECTION
  2
HEADER
  9
$ACADVER
  1
AC1018
  9
$ACADMAINTVER
 70
     2
  9
$DWGCODEPAGE
  3
ANSI_1252
  9
$INSBASE
 10
0.0
 20
0.0
 30
0.0
  9
$EXTMIN
 10
-0.0298833957432407
 20
-0.0377883985895551
 30
-0.0000000000000023
  9
$EXTMAX
 10
420.0162770935492
 20
594.0363186253305
 30
0.000000000000013
  9
$LIMMIN
 10
0.0
 20
0.0
  9
$LIMMAX
 10
419.9999999999999
 20
594.0
  9
$ORTHOMODE
 70
     1
  9
$REGENMODE
 70
     1
  9
$FILLMODE
 70
     1
  9
$QTEXTMODE
 70
     0
  9
$MIRRTEXT
 70
     1
  9
$LTSCALE
 40
20.0
  9
$ATTMODE
 70
     1
  9
$TEXTSIZE
 40
3.5
  9
$TRACEWID
 40
0.5
  9
$TEXTSTYLE
  7
STANDARD
  9
$CLAYER
  8
VOLL
  9
$CELTYPE
  6
ByLayer
  9
$CECOLOR
 62
   256
  9
$CELTSCALE
 40
1.0
  9
$DISPSILH
 70
     0
  9
$DIMSCALE
 40
2.0
  9
$DIMASZ
 40
3.5
  9
$DIMEXO
 40
1.0
  9
$DIMDLI
 40
7.0
  9
$DIMRND
 40
0.0
  9
$DIMDLE
 40
0.0
  9
$DIMEXE
 40
1.0
  9
$DIMTP
 40
0.0
  9
$DIMTM
 40
0.0
  9
$DIMTXT
 40
3.5
  9
$DIMCEN
 40
1.5
  9
$DIMTSZ
 40
0.0
  9
$DIMTOL
 70
     0
  9
$DIMLIM
 70
     0
  9
$DIMTIH
 70
     0
  9
$DIMTOH
 70
     0
  9
$DIMSE1
 70
     0
  9
$DIMSE2
 70
     0
  9
$DIMTAD
 70
     1
  9
$DIMZIN
 70
     8
  9
$DIMBLK
  1

  9
$DIMASO
 70
     1
  9
$DIMSHO
 70
     0
  9
$DIMPOST
  1

  9
$DIMAPOST
  1

  9
$DIMALT
 70
     0
  9
$DIMALTD
 70
     2
  9
$DIMALTF
 40
25.4
  9
$DIMLFAC
 40
1.0
  9
$DIMTOFL
 70
     1
  9
$DIMTVP
 40
0.0
  9
$DIMTIX
 70
     0
  9
$DIMSOXD
 70
     0
  9
$DIMSAH
 70
     0
  9
$DIMBLK1
  1

  9
$DIMBLK2
  1

  9
$DIMSTYLE
  2
Standard
  9
$DIMCLRD
 70
     0
  9
$DIMCLRE
 70
     0
  9
$DIMCLRT
 70
     1
  9
$DIMTFAC
 40
0.5142857142857144
  9
$DIMGAP
 40
1.5
  9
$DIMJUST
 70
     0
  9
$DIMSD1
 70
     0
  9
$DIMSD2
 70
     0
  9
$DIMTOLJ
 70
     1
  9
$DIMTZIN
 70
     8
  9
$DIMALTZ
 70
     8
  9
$DIMALTTZ
 70
     8
  9
$DIMUPT
 70
     0
  9
$DIMDEC
 70
     2
  9
$DIMTDEC
 70
     2
  9
$DIMALTU
 70
     2
  9
$DIMALTTD
 70
     2
  9
$DIMTXSTY
  7
STANDARD
  9
$DIMAUNIT
 70
     0
  9
$DIMADEC
 70
     2
  9
$DIMALTRND
 40
0.0
  9
$DIMAZIN
 70
     2
  9
$DIMDSEP
 70
    46
  9
$DIMATFIT
 70
     3
  9
$DIMFRAC
 70
     0
  9
$DIMLDRBLK
  1

  9
$DIMLUNIT
 70
     2
  9
$DIMLWD
 70
    -2
  9
$DIMLWE
 70
    -2
  9
$DIMTMOVE
 70
     0
  9
$LUNITS
 70
     2
  9
$LUPREC
 70
     2
  9
$SKETCHINC
 40
1.0
  9
$FILLETRAD
 40
0.0
  9
$AUNITS
 70
     1
  9
$AUPREC
 70
     3
  9
$MENU
  1
ACAD
  9
$ELEVATION
 40
0.0
  9
$PELEVATION
 40
0.0
  9
$THICKNESS
 40
0.0
  9
$LIMCHECK
 70
     0
  9
$CHAMFERA
 40
0.0
  9
$CHAMFERB
 40
0.0
  9
$CHAMFERC
 40
0.0
  9
$CHAMFERD
 40
0.0
  9
$SKPOLY
 70
     0
  9
$TDCREATE
 40
2452040.637099653
  9
$TDUCREATE
 40
2452040.553766320
  9
$TDUPDATE
 40
2455663.338398900
  9
$TDUUPDATE
 40
2455663.255065568
  9
$TDINDWG
 40
0.4171445139
  9
$TDUSRTIMER
 40
0.4171445139
  9
$USRTIMER
 70
     1
  9
$ANGBASE
 50
0.0
  9
$ANGDIR
 70
     0
  9
$PDMODE
 70
     0
  9
$PDSIZE
 40
0.0
  9
$PLINEWID
 40
0.0
  9
$SPLFRAME
 70
     0
  9
$SPLINETYPE
 70
     6
  9
$SPLINESEGS
 70
     8
  9
$HANDSEED
  5
1AA2
  9
$SURFTAB1
 70
     6
  9
$SURFTAB2
 70
     6
  9
$SURFTYPE
 70
     6
  9
$SURFU
 70
     6
  9
$SURFV
 70
     6
  9
$UCSBASE
  2

  9
$UCSNAME
  2

  9
$UCSORG
 10
0.0
 20
0.0
 30
0.0
  9
$UCSXDIR
 10
1.0
 20
0.0
 30
0.0
  9
$UCSYDIR
 10
0.0
 20
1.0
 30
0.0
  9
$UCSORTHOREF
  2

  9
$UCSORTHOVIEW
 70
     0
  9
$UCSORGTOP
 10
0.0
 20
0.0
 30
0.0
  9
$UCSORGBOTTOM
 10
0.0
 20
0.0
 30
0.0
  9
$UCSORGLEFT
 10
0.0
 20
0.0
 30
0.0
  9
$UCSORGRIGHT
 10
0.0
 20
0.0
 30
0.0
  9
$UCSORGFRONT
 10
0.0
 20
0.0
 30
0.0
  9
$UCSORGBACK
 10
0.0
 20
0.0
 30
0.0
  9
$PUCSBASE
  2

  9
$PUCSNAME
  2

  9
$PUCSORG
 10
0.0
 20
0.0
 30
0.0
  9
$PUCSXDIR
 10
1.0
 20
0.0
 30
0.0
  9
$PUCSYDIR
 10
0.0
 20
1.0
 30
0.0
  9
$PUCSORTHOREF
  2

  9
$PUCSORTHOVIEW
 70
     0
  9
$PUCSORGTOP
 10
0.0
 20
0.0
 30
0.0
  9
$PUCSORGBOTTOM
 10
0.0
 20
0.0
 30
0.0
  9
$PUCSORGLEFT
 10
0.0
 20
0.0
 30
0.0
  9
$PUCSORGRIGHT
 10
0.0
 20
0.0
 30
0.0
  9
$PUCSORGFRONT
 10
0.0
 20
0.0
 30
0.0
  9
$PUCSORGBACK
 10
0.0
 20
0.0
 30
0.0
  9
$USERI1
 70
     0
  9
$USERI2
 70
     0
  9
$USERI3
 70
     0
  9
$USERI4
 70
     0
  9
$USERI5
 70
     0
  9
$USERR1
 40
0.0
  9
$USERR2
 40
0.0
  9
$USERR3
 40
0.0
  9
$USERR4
 40
0.0
  9
$USERR5
 40
0.0
  9
$WORLDVIEW
 70
     1
  9
$SHADEDGE
 70
     3
  9
$SHADEDIF
 70
    70
  9
$TILEMODE
 70
     1
  9
$MAXACTVP
 70
    16
  9
$PINSBASE
 10
0.0
 20
0.0
 30
0.0
  9
$PLIMCHECK
 70
     0
  9
$PEXTMIN
 10
1.000000000000000E+20
 20
1.000000000000000E+20
 30
1.000000000000000E+20
  9
$PEXTMAX
 10
-1.000000000000000E+20
 20
-1.000000000000000E+20
 30
-1.000000000000000E+20
  9
$PLIMMIN
 10
0.0
 20
0.0
  9
$PLIMMAX
 10
12.0
 20
9.0
  9
$UNITMODE
 70
     0
  9
$VISRETAIN
 70
     0
  9
$PLINEGEN
 70
     0
  9
$PSLTSCALE
 70
     0
  9
$TREEDEPTH
 70
  3020
  9
$CMLSTYLE
  2
Standard
  9
$CMLJUST
 70
     0
  9
$CMLSCALE
 40
1.0
  9
$PROXYGRAPHICS
 70
     1
  9
$MEASUREMENT
 70
     0
  9
$CELWEIGHT
370
    -1
  9
$ENDCAPS
280
     0
  9
$JOINSTYLE
280
     0
  9
$LWDISPLAY
290
     0
  9
$INSUNITS
 70
     0
  9
$HYPERLINKBASE
  1

  9
$STYLESHEET
  1
monochrome 1.ctb
  9
$XEDIT
290
     1
  9
$CEPSNTYPE
380
     0
  9
$PSTYLEMODE
290
     1
  9
$FINGERPRINTGUID
  2
{7AADB5C8-6110-11D8-B72B-000102183313}
  9
$VERSIONGUID
  2
{9934882C-7F8D-4AD0-A3FF-D821F288D101}
  9
$EXTNAMES
290
     1
  9
$PSVPSCALE
 40
0.0
  9
$OLESTARTUP
290
     0
  9
$SORTENTS
280
    96
  9
$INDEXCTL
280
     0
  9
$HIDETEXT
280
     0
  9
$XCLIPFRAME
290
     0
  9
$HALOGAP
280
     0
  9
$OBSCOLOR
 70
   257
  9
$OBSLTYPE
280
     0
  9
$INTERSECTIONDISPLAY
280
     0
  9
$INTERSECTIONCOLOR
 70
   257
  9
$DIMASSOC
280
     1
  9
$PROJECTNAME
  1

  0
ENDSEC
  0
SECTION
  2
CLASSES
  0
CLASS
  1
ACDBDICTIONARYWDFLT
  2
AcDbDictionaryWithDefault
  3
ObjectDBX Classes
 90
        0
 91
        1
280
     0
281
     0
  0
CLASS
  1
DICTIONARYVAR
  2
AcDbDictionaryVar
  3
ObjectDBX Classes
 90
        0
 91
        3
280
     0
281
     0
  0
ENDSEC
  0
SECTION
  2
TABLES
  0
TABLE
  2
VPORT
  5
8
330
0
100
AcDbSymbolTable
 70
     3
  0
VPORT
  5
1AA1
330
8
100
AcDbSymbolTableRecord
100
AcDbViewportTableRecord
  2
*Active
 70
     0
 10
0.0
 20
0.0
 11
1.0
 21
1.0
 12
210.0
 22
297.0
 13
0.0
 23
0.0
 14
1.0
 24
1.0
 15
10.0
 25
10.0
 16
0.0
 26
0.0
 36
1.0
 17
0.0
 27
0.0
 37
0.0
 40
594.0
 41
1.334231805929919
 42
50.0
 43
0.0
 44
0.0
 50
0.0
 51
0.0
 71
     0
 72
  1500
 73
     1
 74
     0
 75
     0
 76
     0
 77
     0
 78
     0
281
     0
 65
     1
110
0.0
120
0.0
130
0.0
111
1.0
121
0.0
131
0.0
112
0.0
122
1.0
132
0.0
 79
     0
146
0.0
  0
ENDTAB
  0
TABLE
  2
LTYPE
  5
5
330
0
100
AcDbSymbolTable
 70
     2
  0
LTYPE
  5
13
330
5
100
AcDbSymbolTableRecord
100
AcDbLinetypeTableRecord
  2
ByBlock
 70
     0
  3

 72
    65
 73
     0
 40
0.0
  0
LTYPE
  5
14
330
5
100
AcDbSymbolTableRecord
100
AcDbLinetypeTableRecord
  2
ByLayer
 70
     0
  3

 72
    65
 73
     0
 40
0.0
  0
LTYPE
  5
15
330
5
100
AcDbSymbolTableRecord
100
AcDbLinetypeTableRecord
  2
Continuous
 70
     0
  3
Solid line
 72
    65
 73
     0
 40
0.0
  0
LTYPE
  5
35
330
5
100
AcDbSymbolTableRecord
100
AcDbLinetypeTableRecord
  2
STRICHPUNKT
 70
     0
  3
__ . __ . __ . __ . __ . __ . __ . __ . __ . __
 72
    65
 73
     4
 40
1.0
 49
0.5
 74
     0
 49
-0.25
 74
     0
 49
0.0
 74
     0
 49
-0.25
 74
     0
  0
ENDTAB
  0
TABLE
  2
LAYER
  5
2
330
0
100
AcDbSymbolTable
 70
     9
  0
LAYER
  5
10
330
2
100
AcDbSymbolTableRecord
100
AcDbLayerTableRecord
  2
0
 70
     0
 62
     7
  6
Continuous
370
    -3
390
F
  0
LAYER
  5
38
330
2
100
AcDbSymbolTableRecord
100
AcDbLayerTableRecord
  2
VOLL
 70
     0
 62
     1
  6
Continuous
370
    -3
390
F
  0
LAYER
  5
39
330
2
100
AcDbSymbolTableRecord
100
AcDbLayerTableRecord
  2
HILF
 70
     0
 62
     2
  6
Continuous
370
    -3
390
F
  0
LAYER
  5
3A
330
2
100
AcDbSymbolTableRecord
100
AcDbLayerTableRecord
  2
MITTEL
 70
     0
 62
     2
  6
STRICHPUNKT
370
    -3
390
F
  0
LAYER
  5
3B
330
2
100
AcDbSymbolTableRecord
100
AcDbLayerTableRecord
  2
BEM
 70
     0
 62
     7
  6
Continuous
370
    -3
390
F
  0
LAYER
  5
3C
330
2
100
AcDbSymbolTableRecord
100
AcDbLayerTableRecord
  2
STEMPEL
 70
     0
 62
     3
  6
Continuous
370
    -3
390
F
  0
LAYER
  5
3D
330
2
100
AcDbSymbolTableRecord
100
AcDbLayerTableRecord
  2
TEXT
 70
     0
 62
     7
  6
Continuous
370
    -3
390
F
  0
LAYER
  5
3E
330
2
100
AcDbSymbolTableRecord
100
AcDbLayerTableRecord
  2
DEFPOINTS
 70
     0
 62
     7
  6
Continuous
290
     0
370
    -3
390
F
  0
LAYER
  5
3F
330
2
100
AcDbSymbolTableRecord
100
AcDbLayerTableRecord
  2
SCHRAFF
 70
     0
 62
     7
  6
Continuous
370
    -3
390
F
  0
ENDTAB
  0
TABLE
  2
STYLE
  5
3
330
0
100
AcDbSymbolTable
 70
     2
  0
STYLE
  5
11
330
3
100
AcDbSymbolTableRecord
100
AcDbTextStyleTableRecord
  2
STANDARD
 70
     0
 40
0.0
 41
0.8
 50
0.0
 71
     0
 42
3.5
  3
simplex.shx
  4

  0
STYLE
  5
34
330
3
100
AcDbSymbolTableRecord
100
AcDbTextStyleTableRecord
  2
GREEKS
 70
     0
 40
0.0
 41
0.8
 50
0.0
 71
     0
 42
2.5
  3
SIMPLEX.shx
  4

  0
ENDTAB
  0
TABLE
  2
VIEW
  5
6
330
0
100
AcDbSymbolTable
 70
     0
  0
ENDTAB
  0
TABLE
  2
UCS
  5
7
330
0
100
AcDbSymbolTable
 70
     0
  0
ENDTAB
  0
TABLE
  2
APPID
  5
9
330
0
100
AcDbSymbolTable
 70
     2
  0
APPID
  5
12
330
9
100
AcDbSymbolTableRecord
100
AcDbRegAppTableRecord
  2
ACAD
 70
     0
  0
APPID
  5
DDB
330
9
100
AcDbSymbolTableRecord
100
AcDbRegAppTableRecord
  2
AVE_RENDER
 70
     0
  0
ENDTAB
  0
TABLE
  2
DIMSTYLE
  5
A
330
0
100
AcDbSymbolTable
 70
     1
100
AcDbDimStyleTable
 71
     1
340
1CB
  0
DIMSTYLE
105
1CB
102
{ACAD_REACTORS
330
17DE
330
183F
330
184C
330
1982
102
}
330
A
100
AcDbSymbolTableRecord
100
AcDbDimStyleTableRecord
  2
Standard
 70
     0
340
11
  0
ENDTAB
  0
TABLE
  2
BLOCK_RECORD
  5
1
330
0
100
AcDbSymbolTable
 70
     8
  0
BLOCK_RECORD
  5
1E
330
1
100
AcDbSymbolTableRecord
100
AcDbBlockTableRecord
  2
*Model_Space
340
21
  0
BLOCK_RECORD
  5
1A
330
1
100
AcDbSymbolTableRecord
100
AcDbBlockTableRecord
  2
*Paper_Space
340
1D
  0
BLOCK_RECORD
  5
22
330
1
100
AcDbSymbolTableRecord
100
AcDbBlockTableRecord
  2
LOGO
340
0
102
{BLKREFS
331
135
102
}
  0
BLOCK_RECORD
  5
17FF
330
1
100
AcDbSymbolTableRecord
100
AcDbBlockTableRecord
  2
*D1
340
0
  0
BLOCK_RECORD
  5
1840
330
1
100
AcDbSymbolTableRecord
100
AcDbBlockTableRecord
  2
*D3
340
0
  0
BLOCK_RECORD
  5
184D
330
1
100
AcDbSymbolTableRecord
100
AcDbBlockTableRecord
  2
*D4
340
0
  0
BLOCK_RECORD
  5
1983
330
1
100
AcDbSymbolTableRecord
100
AcDbBlockTableRecord
  2
*D5
340
0
  0
ENDTAB
  0
ENDSEC
  0
SECTION
  2
BLOCKS
  0
BLOCK
  5
43
330
1E
100
AcDbEntity
  8
0
100
AcDbBlockBegin
  2
*Model_Space
 70
     0
 10
0.0
 20
0.0
 30
0.0
  3
*Model_Space
  1

  0
ENDBLK
  5
44
330
1E
100
AcDbEntity
  8
0
100
AcDbBlockEnd
  0
BLOCK
  5
41
330
1A
100
AcDbEntity
 67
     1
  8
0
100
AcDbBlockBegin
  2
*Paper_Space
 70
     0
 10
0.0
 20
0.0
 30
0.0
  3
*Paper_Space
  1

  0
ENDBLK
  5
42
330
1A
100
AcDbEntity
 67
     1
  8
0
100
AcDbBlockEnd
  0
BLOCK
  5
45
330
22
100
AcDbEntity
  8
0
100
AcDbBlockBegin
  2
LOGO
 70
     0
 10
0.0
 20
0.0
 30
0.0
  3
LOGO
  1

  0
ARC
  5
46
330
22
100
AcDbEntity
  8
0
100
AcDbCircle
 10
11.59973089678112
 20
-9.271599258481501
 30
0.0
 40
4.5
100
AcDbArc
 50
270.0
 51
231.0575587310159
  0
LINE
  5
47
330
22
100
AcDbEntity
  8
0
100
AcDbLine
 10
3.599730896781125
 20
-4.771599258481529
 30
0.0
 11
3.599730896781153
 21
-11.77159925848133
 31
0.0
  0
LINE
  5
48
330
22
100
AcDbEntity
  8
0
100
AcDbLine
 10
2.599730896781125
 20
-4.771599258481529
 30
0.0
 11
2.599730896781153
 21
-11.77159925848133
 31
0.0
  0
CIRCLE
  5
49
330
22
100
AcDbEntity
  8
0
100
AcDbCircle
 10
11.59973089678112
 20
-9.271599258481501
 30
0.0
 40
3.5
  0
ARC
  5
4A
330
22
100
AcDbEntity
  8
0
100
AcDbCircle
 10
31.59973089678115
 20
-9.271599258481472
 30
0.0
 40
4.5
100
AcDbArc
 50
270.0
 51
231.0575587310182
  0
LINE
  5
4B
330
22
100
AcDbEntity
  8
0
100
AcDbLine
 10
17.59973089678112
 20
-4.771599258481472
 30
0.0
 11
17.59973089678115
 21
-13.77159925848147
 31
0.0
  0
ARC
  5
4C
330
22
100
AcDbEntity
  8
0
100
AcDbCircle
 10
22.59973089678116
 20
-7.271599258481472
 30
0.0
 40
2.5
100
AcDbArc
 50
293.1161887722295
 51
90.0
  0
CIRCLE
  5
4D
330
22
100
AcDbEntity
  8
0
100
AcDbCircle
 10
31.59973089678115
 20
-9.271599258481472
 30
0.0
 40
3.5
  0
ARC
  5
4E
330
22
100
AcDbEntity
  8
0
100
AcDbCircle
 10
4.599730896781153
 20
-11.77159925848133
 30
0.0
 40
1.0
100
AcDbArc
 50
180.0
 51
270.0
  0
ARC
  5
4F
330
22
100
AcDbEntity
  8
0
100
AcDbCircle
 10
4.599730896781153
 20
-11.77159925848133
 30
0.0
 40
2.0
100
AcDbArc
 50
179.9999999999992
 51
270.0
  0
LINE
  5
50
330
22
100
AcDbEntity
  8
0
100
AcDbLine
 10
11.59973089678115
 20
-13.77159925848144
 30
0.0
 11
4.599730896781153
 21
-13.77159925848147
 31
0.0
  0
LINE
  5
51
330
22
100
AcDbEntity
  8
0
100
AcDbLine
 10
8.771303772034769
 20
-12.77159925848136
 30
0.0
 11
4.599730896781153
 21
-12.77159925848133
 31
0.0
  0
LINE
  5
52
330
22
100
AcDbEntity
  8
0
100
AcDbLine
 10
31.59973089678115
 20
-13.77159925848147
 30
0.0
 11
23.6715276665056
 21
-13.77159925848144
 31
0.0
  0
LINE
  5
53
330
22
100
AcDbEntity
  8
0
100
AcDbLine
 10
23.56565672307022
 20
-9.51278021337896
 30
0.0
 11
24.4388546544846
 21
-12.77159925848144
 31
0.0
  0
LINE
  5
54
330
22
100
AcDbEntity
  8
0
100
AcDbLine
 10
22.59973089678116
 20
-9.771599258481472
 30
0.0
 11
18.59973089678112
 21
-9.771599258481472
 31
0.0
  0
LINE
  5
55
330
22
100
AcDbEntity
  8
0
100
AcDbLine
 10
18.59973089678115
 20
-13.77159925848144
 30
0.0
 11
17.59973089678115
 21
-13.77159925848144
 31
0.0
  0
LINE
  5
56
330
22
100
AcDbEntity
  8
0
100
AcDbLine
 10
18.59973089678115
 20
-9.771599258481472
 30
0.0
 11
18.59973089678115
 21
-13.77159925848144
 31
0.0
  0
LINE
  5
57
330
22
100
AcDbEntity
  8
0
100
AcDbLine
 10
22.59973089678116
 20
-9.771599258481472
 30
0.0
 11
23.67152766650562
 21
-13.77159925848147
 31
0.0
  0
ARC
  5
58
330
22
100
AcDbEntity
  8
0
100
AcDbCircle
 10
22.59973089678116
 20
-7.271599258481472
 30
0.0
 40
2.5
100
AcDbArc
 50
270.0
 51
270.0000000000007
  0
LINE
  5
59
330
22
100
AcDbEntity
  8
0
100
AcDbLine
 10
28.77130377203494
 20
-12.77159925848147
 30
0.0
 11
24.43885465448463
 21
-12.77159925848144
 31
0.0
  0
LINE
  5
5A
330
22
100
AcDbEntity
  8
0
100
AcDbLine
 10
3.599730896781125
 20
-4.771599258481472
 30
0.0
 11
2.599730896781125
 21
-4.771599258481472
 31
0.0
  0
LINE
  5
5B
330
22
100
AcDbEntity
  8
0
100
AcDbLine
 10
22.59973089678116
 20
-8.771599258481472
 30
0.0
 11
18.59973089678115
 21
-8.771599258481472
 31
0.0
  0
LINE
  5
5C
330
22
100
AcDbEntity
  8
0
100
AcDbLine
 10
22.59973089678116
 20
-5.771599258481472
 30
0.0
 11
18.59973089678115
 21
-5.771599258481472
 31
0.0
  0
LINE
  5
5D
330
22
100
AcDbEntity
  8
0
100
AcDbLine
 10
22.59973089678116
 20
-4.771599258481472
 30
0.0
 11
17.59973089678115
 21
-4.771599258481472
 31
0.0
  0
LINE
  5
5E
330
22
100
AcDbEntity
  8
0
100
AcDbLine
 10
18.59973089678115
 20
-5.771599258481472
 30
0.0
 11
18.59973089678115
 21
-8.771599258481472
 31
0.0
  0
ARC
  5
5F
330
22
100
AcDbEntity
  8
0
100
AcDbCircle
 10
22.59973089678116
 20
-7.271599258481472
 30
0.0
 40
1.5
100
AcDbArc
 50
270.0
 51
90.0
  0
ENDBLK
  5
60
330
22
100
AcDbEntity
  8
0
100
AcDbBlockEnd
  0
BLOCK
  5
1809
330
17FF
100
AcDbEntity
  8
0
100
AcDbBlockBegin
  2
*D1
 70
     1
 10
0.0
 20
0.0
 30
0.0
  3
*D1
  1

  0
LINE
  5
1951
330
17FF
100
AcDbEntity
  8
BEM
 62
     0
370
    -2
100
AcDbLine
 10
154.5403112111923
 20
240.0109221192404
 30
0.0
 11
154.5403112111923
 21
210.9210328661631
 31
0.0
  0
LINE
  5
1952
330
17FF
100
AcDbEntity
  8
BEM
 62
     0
370
    -2
100
AcDbLine
 10
256.1403112111922
 20
240.0109221192398
 30
0.0
 11
256.1403112111922
 21
210.9210328661631
 31
0.0
  0
LINE
  5
1953
330
17FF
100
AcDbEntity
  8
BEM
 62
     0
370
    -2
100
AcDbLine
 10
161.5403112111923
 20
212.9210328661631
 30
0.0
 11
249.1403112111922
 21
212.9210328661631
 31
0.0
  0
SOLID
  5
1954
330
17FF
100
AcDbEntity
  8
BEM
 62
     0
100
AcDbTrace
 10
161.5403112111923
 20
214.0876995328298
 30
0.0
 11
161.5403112111923
 21
211.7543661994965
 31
0.0
 12
154.5403112111923
 22
212.9210328661631
 32
0.0
 13
154.5403112111923
 23
212.9210328661631
 33
0.0
  0
SOLID
  5
1955
330
17FF
100
AcDbEntity
  8
BEM
 62
     0
100
AcDbTrace
 10
249.1403112111922
 20
214.0876995328298
 30
0.0
 11
249.1403112111922
 21
211.7543661994965
 31
0.0
 12
256.1403112111922
 22
212.9210328661631
 32
0.0
 13
256.1403112111922
 23
212.9210328661631
 33
0.0
  0
MTEXT
  5
1956
330
17FF
100
AcDbEntity
  8
BEM
 62
     1
100
AcDbMText
 10
205.3403112111922
 20
219.4210328661631
 30
0.0
 40
7.0
 41
0.0
 71
     5
 72
     1
  1
\A1;%%c101.6
 73
     1
 44
1.0
  0
POINT
  5
1957
330
17FF
100
AcDbEntity
  8
DEFPOINTS
 62
     0
100
AcDbPoint
 10
154.5403112111923
 20
242.0109221192404
 30
0.0
  0
POINT
  5
1958
330
17FF
100
AcDbEntity
  8
DEFPOINTS
 62
     0
100
AcDbPoint
 10
256.1403112111922
 20
242.0109221192398
 30
0.0
  0
POINT
  5
1959
330
17FF
100
AcDbEntity
  8
DEFPOINTS
 62
     0
100
AcDbPoint
 10
256.1403112111922
 20
212.9210328661631
 30
0.0
  0
ENDBLK
  5
180A
330
17FF
100
AcDbEntity
  8
0
100
AcDbBlockEnd
  0
BLOCK
  5
184A
330
1840
100
AcDbEntity
  8
0
100
AcDbBlockBegin
  2
*D3
 70
     1
 10
0.0
 20
0.0
 30
0.0
  3
*D3
  1

  0
LINE
  5
193F
330
1840
100
AcDbEntity
  8
BEM
 62
     0
370
    -2
100
AcDbLine
 10
153.2402205193996
 20
234.0109221192403
 30
0.0
 11
127.9789842806712
 21
234.0109221192403
 31
0.0
  0
LINE
  5
1940
330
1840
100
AcDbEntity
  8
BEM
 62
     0
370
    -2
100
AcDbLine
 10
203.340311211192
 20
360.0109221192398
 30
0.0
 11
127.9789842806712
 21
360.0109221192399
 31
0.0
  0
LINE
  5
1941
330
1840
100
AcDbEntity
  8
BEM
 62
     0
370
    -2
100
AcDbLine
 10
129.9789842806712
 20
241.0109221192403
 30
0.0
 11
129.9789842806712
 21
353.0109221192398
 31
0.0
  0
SOLID
  5
1942
330
1840
100
AcDbEntity
  8
BEM
 62
     0
100
AcDbTrace
 10
128.8123176140046
 20
241.0109221192403
 30
0.0
 11
131.1456509473378
 21
241.0109221192403
 31
0.0
 12
129.9789842806712
 22
234.0109221192403
 32
0.0
 13
129.9789842806712
 23
234.0109221192403
 33
0.0
  0
SOLID
  5
1943
330
1840
100
AcDbEntity
  8
BEM
 62
     0
100
AcDbTrace
 10
128.8123176140046
 20
353.0109221192398
 30
0.0
 11
131.1456509473379
 21
353.0109221192398
 31
0.0
 12
129.9789842806712
 22
360.0109221192398
 32
0.0
 13
129.9789842806712
 23
360.0109221192398
 33
0.0
  0
MTEXT
  5
1944
330
1840
100
AcDbEntity
  8
BEM
 62
     1
100
AcDbMText
 10
123.4789842806712
 20
297.0109221192402
 30
0.0
 40
7.0
 41
0.0
 71
     5
 72
     1
  1
\A1;126
 11
0.0000000000000001
 21
1.0
 31
0.0
 73
     1
 44
1.0
  0
POINT
  5
1945
330
1840
100
AcDbEntity
  8
DEFPOINTS
 62
     0
100
AcDbPoint
 10
155.2402205193996
 20
234.0109221192403
 30
0.0
  0
POINT
  5
1946
330
1840
100
AcDbEntity
  8
DEFPOINTS
 62
     0
100
AcDbPoint
 10
205.340311211192
 20
360.0109221192398
 30
0.0
  0
POINT
  5
1947
330
1840
100
AcDbEntity
  8
DEFPOINTS
 62
     0
100
AcDbPoint
 10
129.9789842806712
 20
360.0109221192398
 30
0.0
  0
ENDBLK
  5
184B
330
1840
100
AcDbEntity
  8
0
100
AcDbBlockEnd
  0
BLOCK
  5
1857
330
184D
100
AcDbEntity
  8
0
100
AcDbBlockBegin
  2
*D4
 70
     1
 10
0.0
 20
0.0
 30
0.0
  3
*D4
  1

  0
LINE
  5
196C
330
184D
100
AcDbEntity
  8
BEM
 62
     0
370
    -2
100
AcDbLine
 10
203.6082604036234
 20
361.0109221192402
 30
0.0
 11
133.5992699041725
 21
401.4306316297919
 31
0.0
  0
LINE
  5
196D
330
184D
100
AcDbEntity
  8
BEM
 62
     0
370
    -2
100
AcDbLine
 10
219.2714998306665
 20
497.4600144554414
 30
0.0
 11
196.5992699041725
 21
510.5498325066317
 31
0.0
  0
LINE
  5
196E
330
184D
100
AcDbEntity
  8
BEM
 62
     0
370
    -2
100
AcDbLine
 10
138.8313207117414
 20
406.4928094562829
 30
0.0
 11
194.8313207117414
 21
503.4876546801406
 31
0.0
  0
SOLID
  5
196F
330
184D
100
AcDbEntity
  8
BEM
 62
     0
100
AcDbTrace
 10
137.8209577406595
 20
407.0761427896163
 30
0.0
 11
139.8416836828232
 21
405.9094761229497
 31
0.0
 12
135.3313207117414
 22
400.4306316297919
 32
0.0
 13
135.3313207117414
 23
400.4306316297919
 33
0.0
  0
SOLID
  5
1970
330
184D
100
AcDbEntity
  8
BEM
 62
     0
100
AcDbTrace
 10
193.8209577406596
 20
504.0709880134739
 30
0.0
 11
195.8416836828233
 21
502.9043213468074
 31
0.0
 12
198.3313207117414
 22
509.5498325066317
 32
0.0
 13
198.3313207117414
 23
509.5498325066317
 33
0.0
  0
MTEXT
  5
1971
330
184D
100
AcDbEntity
  8
BEM
 62
     1
100
AcDbMText
 10
161.2021555871426
 20
458.2402320682119
 30
0.0
 40
7.0
 41
0.0
 71
     5
 72
     1
  1
\A1;126
 11
0.4999999999999986
 21
0.8660254037844394
 31
0.0
 73
     1
 44
1.0
  0
POINT
  5
1972
330
184D
100
AcDbEntity
  8
DEFPOINTS
 62
     0
100
AcDbPoint
 10
205.3403112111923
 20
360.0109221192401
 30
0.0
  0
POINT
  5
1973
330
184D
100
AcDbEntity
  8
DEFPOINTS
 62
     0
100
AcDbPoint
 10
221.0035506382355
 20
496.4600144554412
 30
0.0
  0
POINT
  5
1974
330
184D
100
AcDbEntity
  8
DEFPOINTS
 62
     0
100
AcDbPoint
 10
198.3313207117415
 20
509.5498325066317
 30
0.0
  0
ENDBLK
  5
1858
330
184D
100
AcDbEntity
  8
0
100
AcDbBlockEnd
  0
BLOCK
  5
198F
330
1983
100
AcDbEntity
  8
0
100
AcDbBlockBegin
  2
*D5
 70
     1
 10
0.0
 20
0.0
 30
0.0
  3
*D5
  1

  0
LINE
  5
1984
330
1983
100
AcDbEntity
  8
SCHRAFF
 62
     0
370
    -2
100
AcDbLine
 10
271.8403112111922
 20
475.1923008225704
 30
0.0
 11
283.0049018069827
 21
494.5299389801853
 31
0.0
  0
LINE
  5
1985
330
1983
100
AcDbEntity
  8
SCHRAFF
 62
     0
370
    -2
100
AcDbLine
 10
205.3403112111923
 20
362.0109221192401
 30
0.0
 11
205.3403112111924
 21
515.340103310821
 31
0.0
  0
ARC
  5
1986
330
1983
100
AcDbEntity
  8
SCHRAFF
 62
     0
370
    -2
100
AcDbCircle
 10
205.3403112111923
 20
360.0109221192401
 30
0.0
 40
153.329181191581
100
AcDbArc
 50
62.6159749359944
 51
87.38402506400561
  0
SOLID
  5
1987
330
1983
100
AcDbEntity
  8
SCHRAFF
 62
     0
100
AcDbTrace
 10
276.4245281735963
 20
497.1820119417312
 30
0.0
 11
275.3042920124448
 21
495.1351813704105
 31
0.0
 12
282.0049018069827
 22
492.7978881726165
 32
0.0
 13
282.0049018069827
 23
492.7978881726165
 33
0.0
  0
SOLID
  5
1988
330
1983
100
AcDbEntity
  8
SCHRAFF
 62
     0
100
AcDbTrace
 10
212.311856113006
 20
512.0139536989342
 30
0.0
 11
212.3651184248713
 21
514.3466790515163
 31
0.0
 12
205.3403112111924
 22
513.340103310821
 32
0.0
 13
205.3403112111924
 23
513.340103310821
 33
0.0
  0
MTEXT
  5
1989
330
1983
100
AcDbEntity
  8
SCHRAFF
 62
     1
100
AcDbMText
 10
246.707147266715
 20
514.3940560268231
 30
0.0
 40
7.0
 41
0.0
 71
     5
 72
     1
  1
\A1;30°
 11
0.9659258262890681
 21
-0.2588190451025209
 31
0.0
 73
     1
 44
1.0
  0
POINT
  5
198A
330
1983
100
AcDbEntity
  8
DEFPOINTS
 62
     0
100
AcDbPoint
 10
257.7819797383442
 20
504.0932222361142
 30
0.0
  0
POINT
  5
198B
330
1983
100
AcDbEntity
  8
DEFPOINTS
 62
     0
100
AcDbPoint
 10
205.3403112111923
 20
360.0109221192401
 30
0.0
  0
POINT
  5
198C
330
1983
100
AcDbEntity
  8
DEFPOINTS
 62
     0
100
AcDbPoint
 10
270.8403112111922
 20
473.4602500150015
 30
0.0
  0
POINT
  5
198D
330
1983
100
AcDbEntity
  8
DEFPOINTS
 62
     0
100
AcDbPoint
 10
205.3403112111923
 20
360.0109221192401
 30
0.0
  0
POINT
  5
198E
330
1983
100
AcDbEntity
  8
DEFPOINTS
 62
     0
100
AcDbPoint
 10
205.3403112111922
 20
229.0109221192403
 30
0.0
  0
ENDBLK
  5
1990
330
1983
100
AcDbEntity
  8
0
100
AcDbBlockEnd
  0
ENDSEC
  0
SECTION
  2
ENTITIES
  0
TEXT
  5
134
330
1E
100
AcDbEntity
  8
TEXT
100
AcDbText
 10
204.4216048581257
 20
63.0896391972351
 30
0.0
 40
4.0
  1
Koeh
 41
0.8
  7
GREEKS
 72
     1
 11
209.6787477152686
 21
63.0896391972351
 31
0.0
100
AcDbText
  0
INSERT
  5
135
330
1E
100
AcDbEntity
  8
STEMPEL
100
AcDbBlockReference
  2
LOGO
 10
150.9955485457794
 20
45.02105276448322
 30
0.0
 41
2.0
 42
2.0
 43
2.0
  0
LINE
  5
136
330
1E
100
AcDbEntity
  8
HILF
100
AcDbLine
 10
420.0
 20
0.0
 30
0.0
 11
0.0
 21
0.0
 31
0.0
  0
LINE
  5
137
330
1E
100
AcDbEntity
  8
HILF
100
AcDbLine
 10
419.9999999999999
 20
594.0000000000002
 30
0.0
 11
0.0
 21
594.0
 31
0.0
  0
LINE
  5
138
330
1E
100
AcDbEntity
  8
STEMPEL
100
AcDbLine
 10
410.0
 20
584.0
 30
0.0
 11
39.99999999999989
 21
584.0
 31
0.0
  0
LINE
  5
139
330
1E
100
AcDbEntity
  8
STEMPEL
100
AcDbLine
 10
410.0
 20
10.0
 30
0.0
 11
39.99999999999989
 21
10.0
 31
0.0
  0
LINE
  5
13A
330
1E
100
AcDbEntity
  8
STEMPEL
100
AcDbLine
 10
49.99999999999989
 20
10.0
 30
0.0
 11
410.0
 21
10.0
 31
0.0
  0
TEXT
  5
13B
330
1E
100
AcDbEntity
  8
TEXT
100
AcDbText
 10
202.4626584226295
 20
73.30961091915225
 30
0.0
 40
4.0
  1
Name
 41
0.8
  7
GREEKS
100
AcDbText
  0
TEXT
  5
13C
330
1E
100
AcDbEntity
  8
TEXT
100
AcDbText
 10
196.5498279101549
 20
102.6506227776589
 30
0.0
 40
5.0
  1
Zul. Abw.
 41
0.8
  7
GREEKS
 72
     4
 11
209.9783993387263
 21
105.1506227776589
 31
0.0
100
AcDbText
  0
LINE
  5
13D
330
1E
100
AcDbEntity
  8
HILF
100
AcDbLine
 10
146.0000000000001
 20
49.99999999999997
 30
0.0
 11
230.0
 21
49.99999999999997
 31
0.0
  0
LINE
  5
13E
330
1E
100
AcDbEntity
  8
HILF
100
AcDbLine
 10
146.0000000000001
 20
59.99999999999997
 30
0.0
 11
230.0
 21
59.99999999999997
 31
0.0
  0
LINE
  5
13F
330
1E
100
AcDbEntity
  8
HILF
100
AcDbLine
 10
146.0000000000001
 20
69.99999999999994
 30
0.0
 11
230.0
 21
69.99999999999994
 31
0.0
  0
LINE
  5
140
330
1E
100
AcDbEntity
  8
STEMPEL
100
AcDbLine
 10
410.0
 20
80.0
 30
0.0
 11
146.0000000000001
 21
79.99999999999994
 31
0.0
  0
LINE
  5
141
330
1E
100
AcDbEntity
  8
STEMPEL
100
AcDbLine
 10
410.0
 20
40.0
 30
0.0
 11
146.0000000000001
 21
39.99999999999997
 31
0.0
  0
LINE
  5
142
330
1E
100
AcDbEntity
  8
STEMPEL
100
AcDbLine
 10
410.0
 20
110.0
 30
0.0
 11
39.99999999999997
 21
110.0
 31
0.0
  0
LINE
  5
144
330
1E
100
AcDbEntity
  8
HILF
100
AcDbLine
 10
0.0
 20
0.0
 30
0.0
 11
-0.0000000000001137
 21
594.0
 31
0.0
  0
LINE
  5
145
330
1E
100
AcDbEntity
  8
STEMPEL
100
AcDbLine
 10
40.0
 20
10.0
 30
0.0
 11
39.99999999999989
 21
584.0
 31
0.0
  0
LINE
  5
148
330
1E
100
AcDbEntity
  8
HILF
100
AcDbLine
 10
40.00000000000008
 20
39.99999999999997
 30
0.0
 11
146.0000000000001
 21
39.99999999999997
 31
0.0
  0
LINE
  5
149
330
1E
100
AcDbEntity
  8
HILF
100
AcDbLine
 10
40.00000000000008
 20
49.99999999999997
 30
0.0
 11
146.0000000000001
 21
49.99999999999997
 31
0.0
  0
LINE
  5
14A
330
1E
100
AcDbEntity
  8
HILF
100
AcDbLine
 10
40.00000000000008
 20
59.99999999999997
 30
0.0
 11
146.0000000000001
 21
59.99999999999997
 31
0.0
  0
LINE
  5
14B
330
1E
100
AcDbEntity
  8
HILF
100
AcDbLine
 10
40.00000000000008
 20
69.99999999999994
 30
0.0
 11
146.0000000000001
 21
69.99999999999994
 31
0.0
  0
LINE
  5
14C
330
1E
100
AcDbEntity
  8
HILF
100
AcDbLine
 10
40.00000000000008
 20
79.99999999999994
 30
0.0
 11
146.0000000000001
 21
79.99999999999994
 31
0.0
  0
LINE
  5
14D
330
1E
100
AcDbEntity
  8
HILF
100
AcDbLine
 10
40.00000000000008
 20
90.00000000000005
 30
0.0
 11
146.0000000000001
 21
90.00000000000005
 31
0.0
  0
LINE
  5
14E
330
1E
100
AcDbEntity
  8
HILF
100
AcDbLine
 10
40.00000000000008
 20
100.0
 30
0.0
 11
146.0000000000001
 21
100.0
 31
0.0
  0
LINE
  5
14F
330
1E
100
AcDbEntity
  8
STEMPEL
100
AcDbLine
 10
145.9999999999999
 20
29.99999999999997
 30
0.0
 11
39.99999999999997
 21
29.99999999999997
 31
0.0
  0
TEXT
  5
150
330
1E
100
AcDbEntity
  8
TEXT
100
AcDbText
 10
48.26641107045756
 20
13.65465846027192
 30
0.0
 40
4.0
  1
Index
 50
90.0
 41
0.8
  7
GREEKS
100
AcDbText
  0
LINE
  5
151
330
1E
100
AcDbEntity
  8
VOLL
100
AcDbLine
 10
54.00000000000009
 20
110.0
 30
0.0
 11
53.99999999999997
 21
9.999999999999971
 31
0.0
  0
LINE
  5
152
330
1E
100
AcDbEntity
  8
HILF
100
AcDbLine
 10
31.08767135713856
 20
297.0
 30
0.0
 11
0.0000000000001137
 21
297.0
 31
0.0
  0
LINE
  5
154
330
1E
100
AcDbEntity
  8
VOLL
100
AcDbLine
 10
124.0000000000001
 20
109.9999999999999
 30
0.0
 11
124.0
 21
9.999999999999971
 31
0.0
  0
LINE
  5
155
330
1E
100
AcDbEntity
  8
VOLL
100
AcDbLine
 10
104.0000000000001
 20
109.9999999999999
 30
0.0
 11
104.0
 21
9.999999999999971
 31
0.0
  0
LINE
  5
157
330
1E
100
AcDbEntity
  8
STEMPEL
100
AcDbLine
 10
146.0000000000001
 20
109.9999999999999
 30
0.0
 11
146.0
 21
9.999999999999971
 31
0.0
  0
TEXT
  5
159
330
1E
100
AcDbEntity
  8
TEXT
100
AcDbText
 10
172.331167315365
 20
73.31880501229926
 30
0.0
 40
4.0
  1
Tag
 41
0.8
  7
GREEKS
100
AcDbText
  0
TEXT
  5
15A
330
1E
100
AcDbEntity
  8
TEXT
100
AcDbText
 10
147.5836127167615
 20
63.62990369617964
 30
0.0
 40
4.0
  1
Gez.
 41
0.8
  7
GREEKS
100
AcDbText
  0
LINE
  5
15B
330
1E
100
AcDbEntity
  8
VOLL
100
AcDbLine
 10
164.0000000000001
 20
79.99999999999994
 30
0.0
 11
164.0000000000001
 21
39.99999999999997
 31
0.0
  0
TEXT
  5
15C
330
1E
100
AcDbEntity
  8
TEXT
100
AcDbText
 10
147.6006777387303
 20
43.52946389649807
 30
0.0
 40
4.0
  1
Norm.
 41
0.8
  7
GREEKS
100
AcDbText
  0
TEXT
  5
15D
330
1E
100
AcDbEntity
  8
TEXT
100
AcDbText
 10
147.5515086571672
 20
53.68926291428377
 30
0.0
 40
4.0
  1
Gepr.
 41
0.8
  7
GREEKS
100
AcDbText
  0
TEXT
  5
15E
330
1E
100
AcDbEntity
  8
TEXT
 62
     1
100
AcDbText
 10
160.5006306481887
 20
88.14901428913959
 30
0.0
 40
7.0
  1
1:2
 41
0.8
  7
GREEKS
100
AcDbText
  0
TEXT
  5
160
330
1E
100
AcDbEntity
  8
TEXT
100
AcDbText
 10
148.622109822104
 20
73.14025471151666
 30
0.0
 40
4.0
  1
2011
 41
0.8
  7
GREEKS
100
AcDbText
  0
LINE
  5
161
330
1E
100
AcDbEntity
  8
VOLL
100
AcDbLine
 10
190.0000000000001
 20
109.9999999999998
 30
0.0
 11
190.0
 21
39.99999999999997
 31
0.0
  0
LINE
  5
186
330
1E
100
AcDbEntity
  8
HILF
100
AcDbLine
 10
420.0
 20
-0.0000000000001137
 30
0.0
 11
419.9999999999999
 21
594.0
 31
0.0
  0
LINE
  5
187
330
1E
100
AcDbEntity
  8
STEMPEL
100
AcDbLine
 10
410.0
 20
10.0
 30
0.0
 11
410.0
 21
584.0
 31
0.0
  0
TEXT
  5
188
330
1E
100
AcDbEntity
  8
TEXT
100
AcDbText
 10
337.2400861497006
 20
52.07416177878602
 30
0.0
 40
5.0
  1
ersetzt durch:
 41
0.8
  7
GREEKS
100
AcDbText
  0
TEXT
  5
18A
330
1E
100
AcDbEntity
  8
TEXT
100
AcDbText
 10
336.178754957634
 20
102.3132034537136
 30
0.0
 40
5.0
  1
Zeichnungs Nr.
 41
0.8
  7
GREEKS
100
AcDbText
  0
LINE
  5
18B
330
1E
100
AcDbEntity
  8
HILF
100
AcDbLine
 10
233.4909699289885
 20
14.89398258028314
 30
0.0
 11
404.8588839326728
 21
14.89398258028314
 31
0.0
  0
LINE
  5
18C
330
1E
100
AcDbEntity
  8
HILF
100
AcDbLine
 10
336.7238616296993
 20
83.77983636955827
 30
0.0
 11
404.8588839326728
 21
83.77983636955827
 31
0.0
  0
LINE
  5
18D
330
1E
100
AcDbEntity
  8
VOLL
100
AcDbLine
 10
332.0
 20
60.0
 30
0.0
 11
410.0
 21
60.0
 31
0.0
  0
TEXT
  5
18E
330
1E
100
AcDbEntity
  8
TEXT
 62
     1
100
AcDbText
 10
234.9283864320014
 20
87.41748789253779
 30
0.0
 40
7.0
  1
Bogen DN100 30°
 41
0.8
  7
GREEKS
100
AcDbText
  0
LINE
  5
18F
330
1E
100
AcDbEntity
  8
HILF
100
AcDbLine
 10
234.7736801096947
 20
49.99999999999997
 30
0.0
 11
324.835391655631
 21
49.99999999999997
 31
0.0
  0
LINE
  5
190
330
1E
100
AcDbEntity
  8
HILF
100
AcDbLine
 10
234.7736801096947
 20
59.99999999999997
 30
0.0
 11
324.835391655631
 21
59.99999999999997
 31
0.0
  0
LINE
  5
191
330
1E
100
AcDbEntity
  8
HILF
100
AcDbLine
 10
234.7736801096947
 20
69.99999999999994
 30
0.0
 11
324.835391655631
 21
69.99999999999994
 31
0.0
  0
LINE
  5
192
330
1E
100
AcDbEntity
  8
HILF
100
AcDbLine
 10
234.7736801096947
 20
84.03758247564139
 30
0.0
 11
324.8353916556311
 21
84.03758247564139
 31
0.0
  0
LINE
  5
193
330
1E
100
AcDbEntity
  8
STEMPEL
100
AcDbLine
 10
230.0
 20
110.0
 30
0.0
 11
230.0
 21
9.999999999999971
 31
0.0
  0
TEXT
  5
194
330
1E
100
AcDbEntity
  8
TEXT
100
AcDbText
 10
235.1296391125315
 20
71.50334417585288
 30
0.0
 40
5.0
  1
dünnwandig
 41
0.8
  7
GREEKS
100
AcDbText
  0
TEXT
  5
195
330
1E
100
AcDbEntity
  8
TEXT
100
AcDbText
 10
234.9837501577827
 20
42.62974153022632
 30
0.0
 40
4.0
  1
5330100W.DWG
 41
0.8
  7
GREEKS
100
AcDbText
  0
TEXT
  5
196
330
1E
100
AcDbEntity
  8
TEXT
100
AcDbText
 10
234.742238391136
 20
30.84560570193057
 30
0.0
 40
5.0
  1
Bauvorhaben
 41
0.8
  7
GREEKS
100
AcDbText
  0
TEXT
  5
197
330
1E
100
AcDbEntity
  8
TEXT
100
AcDbText
 10
234.877940380901
 20
102.5489328011779
 30
0.0
 40
5.0
  1
Benennung
 41
0.8
  7
GREEKS
100
AcDbText
  0
LINE
  5
198
330
1E
100
AcDbEntity
  8
STEMPEL
100
AcDbLine
 10
332.0
 20
109.9999999999997
 30
0.0
 11
332.0
 21
40.0
 31
0.0
  0
TEXT
  5
19A
330
1E
100
AcDbEntity
  8
TEXT
 62
     1
100
AcDbText
 10
348.0209001885017
 20
88.14901428913959
 30
0.0
 40
7.0
  1
5330100W
 41
0.8
  7
GREEKS
 72
     1
 11
368.8209001885017
 21
88.14901428913959
 31
0.0
100
AcDbText
  0
TEXT
  5
212
330
1E
100
AcDbEntity
  8
TEXT
100
AcDbText
 10
235.1296391125315
 20
51.50334417585291
 30
0.0
 40
5.0
  1
EDV-Art.Nr. 5.330.100C
 41
0.8
  7
GREEKS
100
AcDbText
  0
TEXT
  5
E61
330
1E
100
AcDbEntity
  8
TEXT
 62
     1
100
AcDbText
 10
297.0573649355706
 20
132.2248663682012
 30
0.0
 40
7.0
  1
Werkstoff: 1.4404
 41
0.8
  7
GREEKS
100
AcDbText
  0
TEXT
  5
12CF
330
1E
100
AcDbEntity
  8
VOLL
100
AcDbText
 10
1383.918177163095
 20
253.7900361884587
 30
0.0
 40
1.8
  1

  7
GREEKS
100
AcDbText
  0
TEXT
  5
1574
330
1E
100
AcDbEntity
  8
BEM
100
AcDbText
 10
416.5811541437437
 20
12.14804815338303
 30
0.0
 40
4.0
  1
Diese Zeichnung ist urheberrechtlich geschützt und bleibt unser Eigentum. Sie darf weder ganz noch teilweise vervielfältigt und nicht an Dritte weitergegeben werden.
 50
90.0
 41
0.8
  7
GREEKS
100
AcDbText
  0
TEXT
  5
1575
330
1E
100
AcDbEntity
  8
TEXT
100
AcDbText
 10
336.7238616296993
 20
73.1811823709997
 30
0.0
 40
5.0
  1
Ersatz für:
 41
0.8
  7
GREEKS
100
AcDbText
  0
TEXT
  5
1576
330
1E
100
AcDbEntity
  8
TEXT
100
AcDbText
 10
192.6882715247924
 20
89.50150693558043
 30
0.0
 40
4.0
  1
DIN EN1124-3
 41
0.8
  7
GREEKS
 72
     1
 11
209.6787477152686
 21
89.50150693558043
 31
0.0
100
AcDbText
  0
TEXT
  5
1577
330
1E
100
AcDbEntity
  8
TEXT
100
AcDbText
 10
153.5163572150377
 20
102.4620895087088
 30
0.0
 40
5.0
  1
Maßstab
 41
0.8
  7
GREEKS
100
AcDbText
  0
TEXT
  5
1578
330
1E
100
AcDbEntity
  8
TEXT
100
AcDbText
 10
41.85509950977674
 20
111.6719999999999
 30
0.0
 40
5.0
  1
Erstellt mit AUTOCAD 2004
 41
0.8
  7
GREEKS
100
AcDbText
  0
TEXT
  5
1579
330
1E
100
AcDbEntity
  8
TEXT
100
AcDbText
 10
129.3020371565846
 20
18.59324216966408
 30
0.0
 40
4.0
  1
Name
 41
0.8
  7
GREEKS
 72
     1
 11
135.6258466803941
 21
18.59324216966408
 31
0.0
100
AcDbText
  0
TEXT
  5
157A
330
1E
100
AcDbEntity
  8
TEXT
100
AcDbText
 10
110.2468354498985
 20
18.6715626933981
 30
0.0
 40
4.0
  1
Tag
 41
0.8
  7
GREEKS
 72
     1
 11
113.9801687832318
 21
18.6715626933981
 31
0.0
100
AcDbText
  0
TEXT
  5
157B
330
1E
100
AcDbEntity
  8
TEXT
100
AcDbText
 10
66.72469466776535
 20
18.67381894984132
 30
0.0
 40
4.0
  1
Änderung
 41
0.8
  7
GREEKS
 72
     1
 11
77.46755181062249
 21
18.67381894984132
 31
0.0
100
AcDbText
  0
LINE
  5
16B5
330
1E
100
AcDbEntity
  8
MITTEL
100
AcDbLine
 10
205.3403112111923
 20
360.0109221192401
 30
0.0
 11
205.3403112111922
 21
229.0109221192404
 31
0.0
  0
LINE
  5
1707
330
1E
100
AcDbEntity
  8
MITTEL
100
AcDbLine
 10
270.8403112111922
 20
473.4602500150015
 30
0.0
 11
205.3403112111923
 21
360.0109221192401
 31
0.0
  0
LINE
  5
17DB
330
1E
100
AcDbEntity
  8
STEMPEL
100
AcDbLine
 10
256.1403112111918
 20
346.3991031437384
 30
0.0
 11
256.1403112111922
 21
242.0109221192398
 31
0.0
  0
LINE
  5
17DC
330
1E
100
AcDbEntity
  8
STEMPEL
100
AcDbLine
 10
255.4404019029848
 20
234.0109221192399
 30
0.0
 11
155.2402205193996
 21
234.0109221192403
 31
0.0
  0
LINE
  5
17DD
330
1E
100
AcDbEntity
  8
HILF
100
AcDbLine
 10
254.8855364142627
 20
242.0109221192398
 30
0.0
 11
155.7950860081214
 21
242.0109221192404
 31
0.0
  0
DIMENSION
  5
17DE
330
1E
100
AcDbEntity
  8
BEM
100
AcDbDimension
  2
*D1
 10
256.1403112111922
 20
212.9210328661631
 30
0.0
 11
205.3403112111922
 21
219.4210328661631
 31
0.0
 70
    32
  1
%%c<>
 71
     5
 42
101.5999999999999
  3
Standard
100
AcDbAlignedDimension
 13
154.5403112111923
 23
242.0109221192404
 33
0.0
 14
256.1403112111922
 24
242.0109221192398
 34
0.0
100
AcDbRotatedDimension
1001
ACAD
1000
DSTYLE
1002
{
1070
    40
1040
2.0
1070
    41
1040
3.5
1070
    42
1040
1.0
1070
    43
1040
7.0
1070
    44
1040
1.0
1070
    73
1070
     0
1070
    74
1070
     0
1070
    77
1070
     1
1070
    78
1070
     8
1070
    79
1070
     2
1070
   140
1040
3.5
1070
   141
1040
1.5
1070
   146
1040
0.5142857142857144
1070
   147
1040
1.5
1070
   172
1070
     1
1070
   178
1070
     1
1070
   179
1070
     2
1070
   271
1070
     2
1070
   272
1070
     2
1070
   284
1070
     8
1070
   285
1070
     8
1070
   286
1070
     8
1002
}
  0
LINE
  5
17DF
330
1E
100
AcDbEntity
  8
STEMPEL
100
AcDbLine
 10
256.1403112111923
 20
242.0109221192411
 30
0.0
 11
255.4404019029848
 21
234.0109221192399
 31
0.0
  0
LINE
  5
17FD
330
1E
100
AcDbEntity
  8
STEMPEL
100
AcDbLine
 10
154.5403112111923
 20
373.6227410947409
 30
0.0
 11
154.5403112111923
 21
242.0109221192404
 31
0.0
  0
LINE
  5
17FE
330
1E
100
AcDbEntity
  8
STEMPEL
100
AcDbLine
 10
154.5403112111923
 20
242.0109221192404
 30
0.0
 11
155.2402205193996
 21
234.0109221192403
 31
0.0
  0
TEXT
  5
1839
330
1E
100
AcDbEntity
  8
TEXT
 62
     1
100
AcDbText
 10
237.2784075199351
 20
446.630129866097
 30
0.0
 40
7.0
  1
DN100
 50
59.99999999999971
 41
0.8
  7
GREEKS
100
AcDbText
  0
LINE
  5
183E
330
1E
100
AcDbEntity
  8
STEMPEL
100
AcDbLine
 10
256.140311211192
 20
346.3991031437384
 30
0.0
 11
154.5403112111923
 21
373.6227410947409
 31
0.0
  0
DIMENSION
  5
183F
330
1E
100
AcDbEntity
  8
BEM
100
AcDbDimension
  2
*D3
 10
129.9789842806712
 20
360.0109221192398
 30
0.0
 11
123.4789842806712
 21
297.0109221192402
 31
0.0
 70
    32
 71
     5
 42
125.9999999999995
  3
Standard
100
AcDbAlignedDimension
 13
155.2402205193996
 23
234.0109221192403
 33
0.0
 14
205.340311211192
 24
360.0109221192398
 34
0.0
 50
90.0
100
AcDbRotatedDimension
1001
ACAD
1000
DSTYLE
1002
{
1070
    40
1040
2.0
1070
    41
1040
3.5
1070
    42
1040
1.0
1070
    43
1040
7.0
1070
    44
1040
1.0
1070
    73
1070
     0
1070
    74
1070
     0
1070
    77
1070
     1
1070
    78
1070
     8
1070
    79
1070
     2
1070
   140
1040
3.5
1070
   141
1040
1.5
1070
   146
1040
0.5142857142857144
1070
   147
1040
1.5
1070
   172
1070
     1
1070
   178
1070
     1
1070
   179
1070
     2
1070
   271
1070
     2
1070
   272
1070
     2
1070
   284
1070
     8
1070
   285
1070
     8
1070
   286
1070
     8
1002
}
  0
DIMENSION
  5
184C
330
1E
100
AcDbEntity
  8
BEM
100
AcDbDimension
  2
*D4
 10
198.3313207117415
 20
509.5498325066317
 30
0.0
 11
161.2021555871426
 21
458.2402320682119
 31
0.0
 70
    32
 71
     5
 42
126.0000000000005
 51
314.9999999999999
  3
Standard
100
AcDbAlignedDimension
 13
205.3403112111923
 23
360.0109221192401
 33
0.0
 14
221.0035506382356
 24
496.4600144554414
 34
0.0
 50
60.00000000000007
100
AcDbRotatedDimension
1001
ACAD
1000
DSTYLE
1002
{
1070
    40
1040
2.0
1070
    41
1040
3.5
1070
    42
1040
1.0
1070
    43
1040
7.0
1070
    44
1040
1.0
1070
    73
1070
     0
1070
    74
1070
     0
1070
    77
1070
     1
1070
    78
1070
     8
1070
    79
1070
     2
1070
   140
1040
3.5
1070
   141
1040
1.5
1070
   146
1040
0.5142857142857144
1070
   147
1040
1.5
1070
   172
1070
     1
1070
   178
1070
     1
1070
   179
1070
     2
1070
   271
1070
     2
1070
   272
1070
     2
1070
   284
1070
     8
1070
   285
1070
     8
1070
   286
1070
     8
1002
}
  0
ARC
  5
187A
330
1E
100
AcDbEntity
  8
SCHRAFF
100
AcDbCircle
 10
155.1261512038968
 20
373.465765741802
 30
0.0
 40
5.0
100
AcDbArc
 50
308.1301023541564
 51
21.86989764584361
  0
ARC
  5
187B
330
1E
100
AcDbEntity
  8
SCHRAFF
100
AcDbCircle
 10
159.9557803353421
 20
372.1716705162892
 30
0.0
 40
5.0
100
AcDbArc
 50
308.1301023541564
 51
21.86989764584361
  0
ARC
  5
187C
330
1E
100
AcDbEntity
  8
SCHRAFF
100
AcDbCircle
 10
164.7854094667876
 20
370.8775752907767
 30
0.0
 40
5.0
100
AcDbArc
 50
308.1301023541564
 51
21.86989764584361
  0
ARC
  5
187D
330
1E
100
AcDbEntity
  8
SCHRAFF
100
AcDbCircle
 10
169.6150385982328
 20
369.583480065264
 30
0.0
 40
5.0
100
AcDbArc
 50
308.1301023541564
 51
21.86989764584361
  0
ARC
  5
187E
330
1E
100
AcDbEntity
  8
SCHRAFF
100
AcDbCircle
 10
174.4446677296782
 20
368.2893848397514
 30
0.0
 40
5.0
100
AcDbArc
 50
308.1301023541564
 51
21.86989764584361
  0
ARC
  5
187F
330
1E
100
AcDbEntity
  8
SCHRAFF
100
AcDbCircle
 10
179.2742968611235
 20
366.9952896142387
 30
0.0
 40
5.0
100
AcDbArc
 50
308.1301023541564
 51
21.86989764584361
  0
ARC
  5
1880
330
1E
100
AcDbEntity
  8
SCHRAFF
100
AcDbCircle
 10
184.1039259925689
 20
365.7011943887261
 30
0.0
 40
5.0
100
AcDbArc
 50
308.1301023541564
 51
21.86989764584361
  0
ARC
  5
1881
330
1E
100
AcDbEntity
  8
SCHRAFF
100
AcDbCircle
 10
188.9335551240143
 20
364.4070991632136
 30
0.0
 40
5.0
100
AcDbArc
 50
308.1301023541564
 51
21.86989764584361
  0
ARC
  5
1882
330
1E
100
AcDbEntity
  8
SCHRAFF
100
AcDbCircle
 10
193.7631842554595
 20
363.1130039377008
 30
0.0
 40
5.0
100
AcDbArc
 50
308.1301023541564
 51
21.86989764584361
  0
ARC
  5
1883
330
1E
100
AcDbEntity
  8
SCHRAFF
100
AcDbCircle
 10
198.5928133869049
 20
361.8189087121883
 30
0.0
 40
5.0
100
AcDbArc
 50
308.1301023541564
 51
21.86989764584361
  0
ARC
  5
1884
330
1E
100
AcDbEntity
  8
SCHRAFF
100
AcDbCircle
 10
203.4133561573839
 20
360.4913668492012
 30
0.0
 40
5.0
100
AcDbArc
 50
308.1301023541564
 51
21.86989764584361
  0
ARC
  5
1885
330
1E
100
AcDbEntity
  8
SCHRAFF
100
AcDbCircle
 10
208.2518395881415
 20
359.2307804418958
 30
0.0
 40
5.0
100
AcDbArc
 50
308.1301023541564
 51
21.86989764584361
  0
ARC
  5
1886
330
1E
100
AcDbEntity
  8
SCHRAFF
100
AcDbCircle
 10
213.0814687195868
 20
357.9366852163831
 30
0.0
 40
5.0
100
AcDbArc
 50
308.1301023541564
 51
21.86989764584361
  0
ARC
  5
1887
330
1E
100
AcDbEntity
  8
SCHRAFF
100
AcDbCircle
 10
217.9110978510323
 20
356.6425899908705
 30
0.0
 40
5.0
100
AcDbArc
 50
308.1301023541564
 51
21.86989764584361
  0
ARC
  5
1888
330
1E
100
AcDbEntity
  8
SCHRAFF
100
AcDbCircle
 10
222.7407269824776
 20
355.348494765358
 30
0.0
 40
5.0
100
AcDbArc
 50
308.1301023541564
 51
21.86989764584361
  0
ARC
  5
1889
330
1E
100
AcDbEntity
  8
SCHRAFF
100
AcDbCircle
 10
227.5703561139229
 20
354.0543995398453
 30
0.0
 40
5.0
100
AcDbArc
 50
308.1301023541564
 51
21.86989764584361
  0
ARC
  5
188A
330
1E
100
AcDbEntity
  8
SCHRAFF
100
AcDbCircle
 10
232.3999852453683
 20
352.7603043143328
 30
0.0
 40
5.0
100
AcDbArc
 50
308.1301023541564
 51
21.86989764584361
  0
ARC
  5
188B
330
1E
100
AcDbEntity
  8
SCHRAFF
100
AcDbCircle
 10
237.2296143768136
 20
351.46620908882
 30
0.0
 40
5.0
100
AcDbArc
 50
308.1301023541564
 51
21.86989764584361
  0
ARC
  5
188C
330
1E
100
AcDbEntity
  8
SCHRAFF
100
AcDbCircle
 10
242.059243508259
 20
350.1721138633073
 30
0.0
 40
5.0
100
AcDbArc
 50
308.1301023541564
 51
21.86989764584361
  0
ARC
  5
188D
330
1E
100
AcDbEntity
  8
SCHRAFF
100
AcDbCircle
 10
246.8888726397042
 20
348.8780186377947
 30
0.0
 40
5.0
100
AcDbArc
 50
308.1301023541564
 51
21.86989764584361
  0
ARC
  5
1977
330
1E
100
AcDbEntity
  8
SCHRAFF
100
AcDbCircle
 10
156.2884305768562
 20
373.1543339224382
 30
0.0
 40
3.164160677633741
100
AcDbArc
 50
93.53696793621086
 51
236.4630320637877
  0
ARC
  5
1978
330
1E
100
AcDbEntity
  8
SCHRAFF
100
AcDbCircle
 10
254.6822192285512
 20
346.7897977129774
 30
0.0
 40
3.788364566918895
100
AcDbArc
 50
292.6367205059572
 51
37.36327949403769
  0
HATCH
  5
1981
330
1E
100
AcDbEntity
  8
SCHRAFF
100
AcDbHatch
 10
0.0
 20
0.0
 30
0.0
210
0.0
220
0.0
230
1.0
  2
_USER
 70
     0
 71
     0
 91
        2
 92
        7
 72
     1
 73
     1
 93
        3
 10
257.6932254818072
 20
349.0888295602426
 42
0.0
 10
256.1403112111917
 20
346.3991031437379
 42
0.0
 10
256.1403112111917
 20
343.2932746025081
 42
0.4916630303835275
 97
        0
 92
        7
 72
     1
 73
     1
 93
        3
 10
154.5403112111923
 20
373.6227410947409
 42
0.0
 10
156.0932254818075
 20
376.3124675112451
 42
0.7194073050472589
 10
154.5403112111923
 20
370.5169125535109
 42
0.0
 97
        0
 75
     0
 76
     0
 52
0.0
 41
0.1
 77
     0
 78
     1
 53
0.0
 43
0.0
 44
0.0
 45
0.0
 46
0.1
 79
     0
 47
0.196309163097153
 98
        2
 10
257.4562242411207
 20
346.4593498898073
 10
154.3184232736871
 20
372.7647789149946
  0
DIMENSION
  5
1982
330
1E
100
AcDbEntity
  8
SCHRAFF
100
AcDbDimension
  2
*D5
 10
205.3403112111922
 20
229.0109221192404
 30
0.0
 11
246.707147266715
 21
514.3940560268231
 31
0.0
 70
    34
 71
     5
 42
0.5235987755982974
  3
Standard
100
AcDb2LineAngularDimension
 13
270.8403112111922
 23
473.4602500150015
 33
0.0
 14
205.3403112111923
 24
360.0109221192401
 34
0.0
 15
205.3403112111923
 25
360.0109221192401
 35
0.0
 16
257.7819797383442
 26
504.0932222361142
 36
0.0
1001
ACAD
1000
DSTYLE
1002
{
1070
    40
1040
2.0
1070
    41
1040
3.5
1070
    42
1040
1.0
1070
    43
1040
7.0
1070
    44
1040
1.0
1070
    73
1070
     0
1070
    74
1070
     0
1070
    77
1070
     1
1070
    78
1070
     8
1070
    79
1070
     2
1070
   140
1040
3.5
1070
   141
1040
1.5
1070
   146
1040
0.5142857142857144
1070
   147
1040
1.5
1070
   172
1070
     1
1070
   178
1070
     1
1070
   179
1070
     2
1070
   271
1070
     2
1070
   272
1070
     2
1070
   284
1070
     8
1070
   285
1070
     8
1070
   286
1070
     8
1002
}
  0
LINE
  5
19D9
330
1E
100
AcDbEntity
  8
STEMPEL
100
AcDbLine
 10
312.385026631486
 20
429.6178079089408
 30
0.0
 11
303.0981820903115
 21
413.5325213216323
 31
0.0
  0
ARC
  5
19DA
330
1E
100
AcDbEntity
  8
STEMPEL
100
AcDbCircle
 10
302.3526053782737
 20
394.6411445754429
 30
0.0
 40
12.8
100
AcDbArc
 50
123.1119523822753
 51
150.0
  0
ARC
  5
19DB
330
1E
100
AcDbEntity
  8
STEMPEL
100
AcDbCircle
 10
281.9910416153971
 20
375.1738816165874
 30
0.0
 40
8.0
100
AcDbArc
 50
119.1404189093777
 51
150.0
  0
ARC
  5
19DC
330
1E
100
AcDbEntity
  8
STEMPEL
100
AcDbCircle
 10
271.1074735263763
 20
394.5229887187677
 30
0.0
 40
14.2
100
AcDbArc
 50
299.3570682370605
 51
330.0000000000001
  0
LINE
  5
19DD
330
1E
100
AcDbEntity
  8
STEMPEL
100
AcDbLine
 10
275.012629770816
 20
379.0869177456325
 30
0.0
 11
256.1403112111919
 21
346.3991031437384
 31
0.0
  0
LINE
  5
19DE
330
1E
100
AcDbEntity
  8
STEMPEL
100
AcDbLine
 10
291.2674802098329
 20
401.0411445754427
 30
0.0
 11
283.4050342601153
 21
387.4229887187678
 31
0.0
  0
ARC
  5
19DF
330
1E
100
AcDbEntity
  8
STEMPEL
100
AcDbCircle
 10
282.1403673187279
 20
425.6325213216322
 30
0.0
 40
24.2
100
AcDbArc
 50
303.1119523822754
 51
330.0000000000001
  0
ARC
  5
19E0
330
1E
100
AcDbEntity
  8
STEMPEL
100
AcDbCircle
 10
291.4272118599028
 20
441.7178079089406
 30
0.0
 40
24.2
100
AcDbArc
 50
330.0000000000001
 51
0.2636519420998833
  0
ARC
  5
19E2
330
1E
100
AcDbEntity
  8
STEMPEL
100
AcDbCircle
 10
186.8248165134296
 20
461.3411445754428
 30
0.0
 40
12.8
100
AcDbArc
 50
330.0000000000001
 51
356.8880476177246
  0
ARC
  5
19E3
330
1E
100
AcDbEntity
  8
STEMPEL
100
AcDbCircle
 10
223.7702551036567
 20
459.3325213216322
 30
0.0
 40
24.2
100
AcDbArc
 50
150.0
 51
176.8880476177246
  0
LINE
  5
19E4
330
1E
100
AcDbEntity
  8
STEMPEL
100
AcDbLine
 10
212.0992848732481
 20
487.5178079089406
 30
0.0
 11
202.8124403320734
 21
471.4325213216321
 31
0.0
  0
ARC
  5
19E5
330
1E
100
AcDbEntity
  8
STEMPEL
100
AcDbCircle
 10
180.1464541303474
 20
433.9738816165874
 30
0.0
 40
8.0
100
AcDbArc
 50
330.0000000000001
 51
0.8595810906222748
  0
ARC
  5
19E6
330
1E
100
AcDbEntity
  8
STEMPEL
100
AcDbCircle
 10
202.3450564658917
 20
434.2229887187675
 30
0.0
 40
14.2
100
AcDbArc
 50
150.0
 51
180.6429317629396
  0
LINE
  5
19E7
330
1E
100
AcDbEntity
  8
STEMPEL
100
AcDbLine
 10
187.0244487463172
 20
429.8869177456322
 30
0.0
 11
154.5403112111923
 21
373.6227410947409
 31
0.0
  0
LINE
  5
19E8
330
1E
100
AcDbEntity
  8
STEMPEL
100
AcDbLine
 10
197.9099416818704
 20
454.9411445754427
 30
0.0
 11
190.0474957321527
 21
441.3229887187675
 31
0.0
  0
ARC
  5
19E9
330
1E
100
AcDbEntity
  8
STEMPEL
100
AcDbCircle
 10
233.0570996448315
 20
475.4178079089405
 30
0.0
 40
24.2
100
AcDbArc
 50
119.7363480579001
 51
150.0
  0
LINE
  5
19EB
330
1E
100
AcDbEntity
  8
STEMPEL
100
AcDbLine
 10
315.6269556468279
 20
441.8291661020909
 30
0.0
 11
221.0035506382354
 21
496.460014455441
 31
0.0
  0
LINE
  5
19EC
330
1E
100
AcDbEntity
  8
HILF
100
AcDbLine
 10
275.303997133068
 20
381.4923811292369
 30
0.0
 11
188.9619574632659
 21
431.3419809749783
 31
0.0
  0
LINE
  5
19ED
330
1E
100
AcDbEntity
  8
HILF
100
AcDbLine
 10
280.0106090787116
 20
385.0501761830556
 30
0.0
 11
189.6897923885098
 21
437.1969240125705
 31
0.0
  0
LINE
  5
19EE
330
1E
100
AcDbEntity
  8
HILF
100
AcDbLine
 10
291.9933038296307
 20
404.0584091158642
 30
0.0
 11
200.1600576139145
 21
457.0783585390651
 31
0.0
  0
TEXT
  5
1A06
330
1E
100
AcDbEntity
  8
TEXT
100
AcDbText
 10
171.4290321728254
 20
63.29410943275274
 30
0.0
 40
4.24
  1
11.04.
 41
0.8
  7
GREEKS
 72
     1
 11
178.2130321728255
 21
63.29410943275274
 31
0.0
100
AcDbText
  0
ENDSEC
  0
SECTION
  2
OBJECTS
  0
DICTIONARY
  5
C
330
0
100
AcDbDictionary
281
     1
  3
ACAD_COLOR
350
FE6
  3
ACAD_GROUP
350
D
  3
ACAD_LAYOUT
350
19
  3
ACAD_MATERIAL
350
FE5
  3
ACAD_MLINESTYLE
350
16
  3
ACAD_PLOTSETTINGS
350
18
  3
ACAD_PLOTSTYLENAME
350
E
  3
AcDbVariableDictionary
350
246
  0
DICTIONARY
  5
FE6
102
{ACAD_REACTORS
330
C
102
}
330
C
100
AcDbDictionary
281
     1
  0
DICTIONARY
  5
D
102
{ACAD_REACTORS
330
C
102
}
330
C
100
AcDbDictionary
281
     1
  0
DICTIONARY
  5
19
102
{ACAD_REACTORS
330
C
102
}
330
C
100
AcDbDictionary
281
     1
  3
Layout1
350
1D
  3
Model
350
21
  0
DICTIONARY
  5
FE5
102
{ACAD_REACTORS
330
C
102
}
330
C
100
AcDbDictionary
281
     1
  0
DICTIONARY
  5
16
102
{ACAD_REACTORS
330
C
102
}
330
C
100
AcDbDictionary
281
     1
  3
Standard
350
17
  0
DICTIONARY
  5
18
102
{ACAD_REACTORS
330
C
102
}
330
C
100
AcDbDictionary
281
     1
  0
ACDBDICTIONARYWDFLT
  5
E
102
{ACAD_REACTORS
330
C
102
}
330
C
100
AcDbDictionary
281
     1
  3
Normal
350
F
100
AcDbDictionaryWithDefault
340
F
  0
DICTIONARY
  5
246
102
{ACAD_REACTORS
330
C
102
}
330
C
100
AcDbDictionary
281
     1
  3
DIMASSOC
350
1595
  3
PROJECTNAME
350
1596
  3
SORTENTS
350
247
  0
LAYOUT
  5
1D
102
{ACAD_REACTORS
330
19
102
}
330
19
100
AcDbPlotSettings
  1

  2
Tektronix Phaser 740
  4

  6

 40
0.0
 41
0.0
 42
0.0
 43
0.0
 44
0.0
 45
0.0
 46
0.0
 47
0.0
 48
0.0
 49
0.0
140
0.0
141
0.0
142
1.0
143
1.0
 70
   688
 72
     0
 73
     0
 74
     5
  7
monochrome.ctb
 75
    16
147
1.0
 76
     0
 77
     2
 78
   300
148
0.0
149
0.0
100
AcDbLayout
  1
Layout1
 70
     0
 71
     1
 10
0.0
 20
0.0
 11
12.0
 21
9.0
 12
0.0
 22
0.0
 32
0.0
 14
1.000000000000000E+20
 24
1.000000000000000E+20
 34
1.000000000000000E+20
 15
-1.000000000000000E+20
 25
-1.000000000000000E+20
 35
-1.000000000000000E+20
146
0.0
 13
0.0
 23
0.0
 33
0.0
 16
1.0
 26
0.0
 36
0.0
 17
0.0
 27
1.0
 37
0.0
 76
     0
330
1A
  0
LAYOUT
  5
21
102
{ACAD_REACTORS
330
19
102
}
330
19
100
AcDbPlotSettings
  1

  2
Tektronix Phaser 740
  4
A4
  6

 40
5.873749732971191
 41
6.085414409637451
 42
5.577407836914062
 43
5.662078857421875
 44
209.9733276367187
 45
296.9683227539062
 46
0.0
 47
0.0
 48
0.0
 49
0.0
140
0.0
141
0.0
142
1.0
143
1.0
 70
 11952
 72
     0
 73
     1
 74
     0
  7
monochrome.ctb
 75
     0
147
1.0
 76
     0
 77
     2
 78
   300
148
1150.120678237584
149
45.30495740799864
100
AcDbLayout
  1
Model
 70
     1
 71
     0
 10
0.0
 20
0.0
 11
12.0
 21
9.0
 12
0.0
 22
0.0
 32
0.0
 14
0.0
 24
0.0
 34
0.0
 15
0.0
 25
0.0
 35
0.0
146
0.0
 13
0.0
 23
0.0
 33
0.0
 16
1.0
 26
0.0
 36
0.0
 17
0.0
 27
1.0
 37
0.0
 76
     0
330
1E
  0
MLINESTYLE
  5
17
102
{ACAD_REACTORS
330
16
102
}
330
16
100
AcDbMlineStyle
  2
STANDARD
 70
     0
  3

 62
   256
 51
90.0
 52
90.0
 71
     2
 49
0.5
 62
   256
  6
BYLAYER
 49
-0.5
 62
   256
  6
BYLAYER
  0
ACDBPLACEHOLDER
  5
F
102
{ACAD_REACTORS
330
E
102
}
330
E
  0
DICTIONARYVAR
  5
1595
102
{ACAD_REACTORS
330
246
102
}
330
246
100
DictionaryVariables
280
     0
  1
1
  0
DICTIONARYVAR
  5
1596
102
{ACAD_REACTORS
330
246
102
}
330
246
100
DictionaryVariables
280
     0
  1

  0
DICTIONARYVAR
  5
247
102
{ACAD_REACTORS
330
246
102
}
330
246
100
DictionaryVariables
280
     0
  1
96
  0
ENDSEC
  0
EOF
