  0
SECTION
  2
HEADER
  9
$ACADVER
  1
AC1018
  9
$ACADMAINTVER
 70
     2
  9
$DWGCODEPAGE
  3
ANSI_1252
  9
$INSBASE
 10
0.0
 20
0.0
 30
0.0
  9
$EXTMIN
 10
-0.0170337558839719
 20
-0.0090483683025013
 30
-0.0000000000000098
  9
$EXTMAX
 10
420.0033537866142
 20
594.0090698065175
 30
0.0000000000000055
  9
$LIMMIN
 10
0.0
 20
0.0
  9
$LIMMAX
 10
419.9999999999999
 20
594.0000000000002
  9
$ORTHOMODE
 70
     1
  9
$REGENMODE
 70
     1
  9
$FILLMODE
 70
     1
  9
$QTEXTMODE
 70
     0
  9
$MIRRTEXT
 70
     1
  9
$LTSCALE
 40
20.0
  9
$ATTMODE
 70
     1
  9
$TEXTSIZE
 40
3.5
  9
$TRACEWID
 40
0.5
  9
$TEXTSTYLE
  7
STANDARD
  9
$CLAYER
  8
VOLL
  9
$CELTYPE
  6
ByLayer
  9
$CECOLOR
 62
   256
  9
$CELTSCALE
 40
1.0
  9
$DISPSILH
 70
     0
  9
$DIMSCALE
 40
2.0
  9
$DIMASZ
 40
3.5
  9
$DIMEXO
 40
1.0
  9
$DIMDLI
 40
7.0
  9
$DIMRND
 40
0.0
  9
$DIMDLE
 40
0.0
  9
$DIMEXE
 40
1.0
  9
$DIMTP
 40
0.0
  9
$DIMTM
 40
0.0
  9
$DIMTXT
 40
3.5
  9
$DIMCEN
 40
1.5
  9
$DIMTSZ
 40
0.0
  9
$DIMTOL
 70
     0
  9
$DIMLIM
 70
     0
  9
$DIMTIH
 70
     0
  9
$DIMTOH
 70
     0
  9
$DIMSE1
 70
     0
  9
$DIMSE2
 70
     0
  9
$DIMTAD
 70
     1
  9
$DIMZIN
 70
     8
  9
$DIMBLK
  1

  9
$DIMASO
 70
     1
  9
$DIMSHO
 70
     0
  9
$DIMPOST
  1

  9
$DIMAPOST
  1

  9
$DIMALT
 70
     0
  9
$DIMALTD
 70
     2
  9
$DIMALTF
 40
25.4
  9
$DIMLFAC
 40
1.0
  9
$DIMTOFL
 70
     1
  9
$DIMTVP
 40
0.0
  9
$DIMTIX
 70
     0
  9
$DIMSOXD
 70
     0
  9
$DIMSAH
 70
     0
  9
$DIMBLK1
  1

  9
$DIMBLK2
  1

  9
$DIMSTYLE
  2
Standard
  9
$DIMCLRD
 70
     0
  9
$DIMCLRE
 70
     0
  9
$DIMCLRT
 70
     1
  9
$DIMTFAC
 40
0.5142857142857144
  9
$DIMGAP
 40
1.5
  9
$DIMJUST
 70
     0
  9
$DIMSD1
 70
     0
  9
$DIMSD2
 70
     0
  9
$DIMTOLJ
 70
     1
  9
$DIMTZIN
 70
     8
  9
$DIMALTZ
 70
     8
  9
$DIMALTTZ
 70
     8
  9
$DIMUPT
 70
     0
  9
$DIMDEC
 70
     2
  9
$DIMTDEC
 70
     2
  9
$DIMALTU
 70
     2
  9
$DIMALTTD
 70
     2
  9
$DIMTXSTY
  7
STANDARD
  9
$DIMAUNIT
 70
     0
  9
$DIMADEC
 70
     2
  9
$DIMALTRND
 40
0.0
  9
$DIMAZIN
 70
     2
  9
$DIMDSEP
 70
    46
  9
$DIMATFIT
 70
     3
  9
$DIMFRAC
 70
     0
  9
$DIMLDRBLK
  1

  9
$DIMLUNIT
 70
     2
  9
$DIMLWD
 70
    -2
  9
$DIMLWE
 70
    -2
  9
$DIMTMOVE
 70
     0
  9
$LUNITS
 70
     2
  9
$LUPREC
 70
     2
  9
$SKETCHINC
 40
1.0
  9
$FILLETRAD
 40
159.5
  9
$AUNITS
 70
     1
  9
$AUPREC
 70
     3
  9
$MENU
  1
ACAD
  9
$ELEVATION
 40
0.0
  9
$PELEVATION
 40
0.0
  9
$THICKNESS
 40
0.0
  9
$LIMCHECK
 70
     0
  9
$CHAMFERA
 40
0.0
  9
$CHAMFERB
 40
0.0
  9
$CHAMFERC
 40
0.0
  9
$CHAMFERD
 40
0.0
  9
$SKPOLY
 70
     0
  9
$TDCREATE
 40
2452040.637099653
  9
$TDUCREATE
 40
2452040.553766320
  9
$TDUPDATE
 40
2455663.314241077
  9
$TDUUPDATE
 40
2455663.230907743
  9
$TDINDWG
 40
0.1856615162
  9
$TDUSRTIMER
 40
0.1856615162
  9
$USRTIMER
 70
     1
  9
$ANGBASE
 50
0.0
  9
$ANGDIR
 70
     0
  9
$PDMODE
 70
     0
  9
$PDSIZE
 40
0.0
  9
$PLINEWID
 40
0.0
  9
$SPLFRAME
 70
     0
  9
$SPLINETYPE
 70
     6
  9
$SPLINESEGS
 70
     8
  9
$HANDSEED
  5
FEF
  9
$SURFTAB1
 70
     6
  9
$SURFTAB2
 70
     6
  9
$SURFTYPE
 70
     6
  9
$SURFU
 70
     6
  9
$SURFV
 70
     6
  9
$UCSBASE
  2

  9
$UCSNAME
  2

  9
$UCSORG
 10
0.0
 20
0.0
 30
0.0
  9
$UCSXDIR
 10
1.0
 20
0.0
 30
0.0
  9
$UCSYDIR
 10
0.0
 20
1.0
 30
0.0
  9
$UCSORTHOREF
  2

  9
$UCSORTHOVIEW
 70
     0
  9
$UCSORGTOP
 10
0.0
 20
0.0
 30
0.0
  9
$UCSORGBOTTOM
 10
0.0
 20
0.0
 30
0.0
  9
$UCSORGLEFT
 10
0.0
 20
0.0
 30
0.0
  9
$UCSORGRIGHT
 10
0.0
 20
0.0
 30
0.0
  9
$UCSORGFRONT
 10
0.0
 20
0.0
 30
0.0
  9
$UCSORGBACK
 10
0.0
 20
0.0
 30
0.0
  9
$PUCSBASE
  2

  9
$PUCSNAME
  2

  9
$PUCSORG
 10
0.0
 20
0.0
 30
0.0
  9
$PUCSXDIR
 10
1.0
 20
0.0
 30
0.0
  9
$PUCSYDIR
 10
0.0
 20
1.0
 30
0.0
  9
$PUCSORTHOREF
  2

  9
$PUCSORTHOVIEW
 70
     0
  9
$PUCSORGTOP
 10
0.0
 20
0.0
 30
0.0
  9
$PUCSORGBOTTOM
 10
0.0
 20
0.0
 30
0.0
  9
$PUCSORGLEFT
 10
0.0
 20
0.0
 30
0.0
  9
$PUCSORGRIGHT
 10
0.0
 20
0.0
 30
0.0
  9
$PUCSORGFRONT
 10
0.0
 20
0.0
 30
0.0
  9
$PUCSORGBACK
 10
0.0
 20
0.0
 30
0.0
  9
$USERI1
 70
     0
  9
$USERI2
 70
     0
  9
$USERI3
 70
     0
  9
$USERI4
 70
     0
  9
$USERI5
 70
     0
  9
$USERR1
 40
0.0
  9
$USERR2
 40
0.0
  9
$USERR3
 40
0.0
  9
$USERR4
 40
0.0
  9
$USERR5
 40
0.0
  9
$WORLDVIEW
 70
     1
  9
$SHADEDGE
 70
     3
  9
$SHADEDIF
 70
    70
  9
$TILEMODE
 70
     1
  9
$MAXACTVP
 70
    16
  9
$PINSBASE
 10
0.0
 20
0.0
 30
0.0
  9
$PLIMCHECK
 70
     0
  9
$PEXTMIN
 10
1.000000000000000E+20
 20
1.000000000000000E+20
 30
1.000000000000000E+20
  9
$PEXTMAX
 10
-1.000000000000000E+20
 20
-1.000000000000000E+20
 30
-1.000000000000000E+20
  9
$PLIMMIN
 10
0.0
 20
0.0
  9
$PLIMMAX
 10
12.0
 20
9.0
  9
$UNITMODE
 70
     0
  9
$VISRETAIN
 70
     0
  9
$PLINEGEN
 70
     0
  9
$PSLTSCALE
 70
     0
  9
$TREEDEPTH
 70
  3020
  9
$CMLSTYLE
  2
Standard
  9
$CMLJUST
 70
     0
  9
$CMLSCALE
 40
1.0
  9
$PROXYGRAPHICS
 70
     1
  9
$MEASUREMENT
 70
     0
  9
$CELWEIGHT
370
    -1
  9
$ENDCAPS
280
     0
  9
$JOINSTYLE
280
     0
  9
$LWDISPLAY
290
     0
  9
$INSUNITS
 70
     0
  9
$HYPERLINKBASE
  1

  9
$STYLESHEET
  1
monochrome 1.ctb
  9
$XEDIT
290
     1
  9
$CEPSNTYPE
380
     0
  9
$PSTYLEMODE
290
     1
  9
$FINGERPRINTGUID
  2
{7AADB5C8-6110-11D8-B72B-000102183313}
  9
$VERSIONGUID
  2
{B037F1FC-9760-423F-AC4C-762B6FD93C0A}
  9
$EXTNAMES
290
     1
  9
$PSVPSCALE
 40
0.0
  9
$OLESTARTUP
290
     0
  9
$SORTENTS
280
    96
  9
$INDEXCTL
280
     0
  9
$HIDETEXT
280
     0
  9
$XCLIPFRAME
290
     0
  9
$HALOGAP
280
     0
  9
$OBSCOLOR
 70
   257
  9
$OBSLTYPE
280
     0
  9
$INTERSECTIONDISPLAY
280
     0
  9
$INTERSECTIONCOLOR
 70
   257
  9
$DIMASSOC
280
     1
  9
$PROJECTNAME
  1

  0
ENDSEC
  0
SECTION
  2
CLASSES
  0
CLASS
  1
ACDBDICTIONARYWDFLT
  2
AcDbDictionaryWithDefault
  3
ObjectDBX Classes
 90
        0
 91
        1
280
     0
281
     0
  0
CLASS
  1
DICTIONARYVAR
  2
AcDbDictionaryVar
  3
ObjectDBX Classes
 90
        0
 91
        3
280
     0
281
     0
  0
ENDSEC
  0
SECTION
  2
TABLES
  0
TABLE
  2
VPORT
  5
8
330
0
100
AcDbSymbolTable
 70
     4
  0
VPORT
  5
FEE
330
8
100
AcDbSymbolTableRecord
100
AcDbViewportTableRecord
  2
*Active
 70
     0
 10
0.0
 20
0.0
 11
1.0
 21
1.0
 12
210.0
 22
297.0
 13
0.0
 23
0.0
 14
1.0
 24
1.0
 15
10.0
 25
10.0
 16
0.0
 26
0.0
 36
1.0
 17
0.0
 27
0.0
 37
0.0
 40
594.0
 41
1.334231805929919
 42
50.0
 43
0.0
 44
0.0
 50
0.0
 51
0.0
 71
     0
 72
  1500
 73
     1
 74
     0
 75
     0
 76
     0
 77
     0
 78
     0
281
     0
 65
     1
110
0.0
120
0.0
130
0.0
111
1.0
121
0.0
131
0.0
112
0.0
122
1.0
132
0.0
 79
     0
146
0.0
  0
ENDTAB
  0
TABLE
  2
LTYPE
  5
5
330
0
100
AcDbSymbolTable
 70
     2
  0
LTYPE
  5
13
330
5
100
AcDbSymbolTableRecord
100
AcDbLinetypeTableRecord
  2
ByBlock
 70
     0
  3

 72
    65
 73
     0
 40
0.0
  0
LTYPE
  5
14
330
5
100
AcDbSymbolTableRecord
100
AcDbLinetypeTableRecord
  2
ByLayer
 70
     0
  3

 72
    65
 73
     0
 40
0.0
  0
LTYPE
  5
15
330
5
100
AcDbSymbolTableRecord
100
AcDbLinetypeTableRecord
  2
Continuous
 70
     0
  3
Solid line
 72
    65
 73
     0
 40
0.0
  0
LTYPE
  5
35
330
5
100
AcDbSymbolTableRecord
100
AcDbLinetypeTableRecord
  2
STRICHPUNKT
 70
     0
  3
__ . __ . __ . __ . __ . __ . __ . __ . __ . __
 72
    65
 73
     4
 40
1.0
 49
0.5
 74
     0
 49
-0.25
 74
     0
 49
0.0
 74
     0
 49
-0.25
 74
     0
  0
ENDTAB
  0
TABLE
  2
LAYER
  5
2
330
0
100
AcDbSymbolTable
 70
     9
  0
LAYER
  5
10
330
2
100
AcDbSymbolTableRecord
100
AcDbLayerTableRecord
  2
0
 70
     0
 62
     7
  6
Continuous
370
    -3
390
F
  0
LAYER
  5
38
330
2
100
AcDbSymbolTableRecord
100
AcDbLayerTableRecord
  2
VOLL
 70
     0
 62
     1
  6
Continuous
370
    -3
390
F
  0
LAYER
  5
39
330
2
100
AcDbSymbolTableRecord
100
AcDbLayerTableRecord
  2
HILF
 70
     0
 62
     2
  6
Continuous
370
    -3
390
F
  0
LAYER
  5
3A
330
2
100
AcDbSymbolTableRecord
100
AcDbLayerTableRecord
  2
MITTEL
 70
     0
 62
     2
  6
STRICHPUNKT
370
    -3
390
F
  0
LAYER
  5
3B
330
2
100
AcDbSymbolTableRecord
100
AcDbLayerTableRecord
  2
BEM
 70
     0
 62
     7
  6
Continuous
370
    -3
390
F
  0
LAYER
  5
3C
330
2
100
AcDbSymbolTableRecord
100
AcDbLayerTableRecord
  2
STEMPEL
 70
     0
 62
     3
  6
Continuous
370
    -3
390
F
  0
LAYER
  5
3D
330
2
100
AcDbSymbolTableRecord
100
AcDbLayerTableRecord
  2
TEXT
 70
     0
 62
     7
  6
Continuous
370
    -3
390
F
  0
LAYER
  5
3E
330
2
100
AcDbSymbolTableRecord
100
AcDbLayerTableRecord
  2
DEFPOINTS
 70
     0
 62
     7
  6
Continuous
290
     0
370
    -3
390
F
  0
LAYER
  5
3F
330
2
100
AcDbSymbolTableRecord
100
AcDbLayerTableRecord
  2
SCHRAFF
 70
     0
 62
     7
  6
Continuous
370
    -3
390
F
  0
ENDTAB
  0
TABLE
  2
STYLE
  5
3
330
0
100
AcDbSymbolTable
 70
     2
  0
STYLE
  5
11
330
3
100
AcDbSymbolTableRecord
100
AcDbTextStyleTableRecord
  2
STANDARD
 70
     0
 40
0.0
 41
0.8
 50
0.0
 71
     0
 42
3.5
  3
simplex.shx
  4

  0
STYLE
  5
34
330
3
100
AcDbSymbolTableRecord
100
AcDbTextStyleTableRecord
  2
GREEKS
 70
     0
 40
0.0
 41
0.8
 50
0.0
 71
     0
 42
2.5
  3
SIMPLEX.shx
  4

  0
ENDTAB
  0
TABLE
  2
VIEW
  5
6
330
0
100
AcDbSymbolTable
 70
     0
  0
ENDTAB
  0
TABLE
  2
UCS
  5
7
330
0
100
AcDbSymbolTable
 70
     0
  0
ENDTAB
  0
TABLE
  2
APPID
  5
9
330
0
100
AcDbSymbolTable
 70
     1
  0
APPID
  5
12
330
9
100
AcDbSymbolTableRecord
100
AcDbRegAppTableRecord
  2
ACAD
 70
     0
  0
ENDTAB
  0
TABLE
  2
DIMSTYLE
  5
A
330
0
100
AcDbSymbolTable
 70
     1
100
AcDbDimStyleTable
 71
     1
340
1CB
  0
DIMSTYLE
105
1CB
102
{ACAD_REACTORS
330
DC0
330
EDE
330
EEB
330
EF8
102
}
330
A
100
AcDbSymbolTableRecord
100
AcDbDimStyleTableRecord
  2
Standard
 70
     0
340
11
  0
ENDTAB
  0
TABLE
  2
BLOCK_RECORD
  5
1
330
0
100
AcDbSymbolTable
 70
     8
  0
BLOCK_RECORD
  5
1E
330
1
100
AcDbSymbolTableRecord
100
AcDbBlockTableRecord
  2
*Model_Space
340
21
  0
BLOCK_RECORD
  5
1A
330
1
100
AcDbSymbolTableRecord
100
AcDbBlockTableRecord
  2
*Paper_Space
340
1D
  0
BLOCK_RECORD
  5
22
330
1
100
AcDbSymbolTableRecord
100
AcDbBlockTableRecord
  2
LOGO
340
0
102
{BLKREFS
331
135
102
}
  0
BLOCK_RECORD
  5
DCA
330
1
100
AcDbSymbolTableRecord
100
AcDbBlockTableRecord
  2
*D1
340
0
  0
BLOCK_RECORD
  5
EDF
330
1
100
AcDbSymbolTableRecord
100
AcDbBlockTableRecord
  2
*D3
340
0
  0
BLOCK_RECORD
  5
EEC
330
1
100
AcDbSymbolTableRecord
100
AcDbBlockTableRecord
  2
*D4
340
0
  0
BLOCK_RECORD
  5
EF9
330
1
100
AcDbSymbolTableRecord
100
AcDbBlockTableRecord
  2
*D5
340
0
  0
ENDTAB
  0
ENDSEC
  0
SECTION
  2
BLOCKS
  0
BLOCK
  5
43
330
1E
100
AcDbEntity
  8
0
100
AcDbBlockBegin
  2
*Model_Space
 70
     0
 10
0.0
 20
0.0
 30
0.0
  3
*Model_Space
  1

  0
ENDBLK
  5
44
330
1E
100
AcDbEntity
  8
0
100
AcDbBlockEnd
  0
BLOCK
  5
41
330
1A
100
AcDbEntity
 67
     1
  8
0
100
AcDbBlockBegin
  2
*Paper_Space
 70
     0
 10
0.0
 20
0.0
 30
0.0
  3
*Paper_Space
  1

  0
ENDBLK
  5
42
330
1A
100
AcDbEntity
 67
     1
  8
0
100
AcDbBlockEnd
  0
BLOCK
  5
45
330
22
100
AcDbEntity
  8
0
100
AcDbBlockBegin
  2
LOGO
 70
     0
 10
0.0
 20
0.0
 30
0.0
  3
LOGO
  1

  0
ARC
  5
46
330
22
100
AcDbEntity
  8
0
100
AcDbCircle
 10
11.59973089678112
 20
-9.271599258481501
 30
0.0
 40
4.5
100
AcDbArc
 50
270.0
 51
231.0575587310159
  0
LINE
  5
47
330
22
100
AcDbEntity
  8
0
100
AcDbLine
 10
3.599730896781125
 20
-4.771599258481529
 30
0.0
 11
3.599730896781153
 21
-11.77159925848133
 31
0.0
  0
LINE
  5
48
330
22
100
AcDbEntity
  8
0
100
AcDbLine
 10
2.599730896781125
 20
-4.771599258481529
 30
0.0
 11
2.599730896781153
 21
-11.77159925848133
 31
0.0
  0
CIRCLE
  5
49
330
22
100
AcDbEntity
  8
0
100
AcDbCircle
 10
11.59973089678112
 20
-9.271599258481501
 30
0.0
 40
3.5
  0
ARC
  5
4A
330
22
100
AcDbEntity
  8
0
100
AcDbCircle
 10
31.59973089678115
 20
-9.271599258481472
 30
0.0
 40
4.5
100
AcDbArc
 50
270.0
 51
231.0575587310182
  0
LINE
  5
4B
330
22
100
AcDbEntity
  8
0
100
AcDbLine
 10
17.59973089678112
 20
-4.771599258481472
 30
0.0
 11
17.59973089678115
 21
-13.77159925848147
 31
0.0
  0
ARC
  5
4C
330
22
100
AcDbEntity
  8
0
100
AcDbCircle
 10
22.59973089678116
 20
-7.271599258481472
 30
0.0
 40
2.5
100
AcDbArc
 50
293.1161887722295
 51
90.0
  0
CIRCLE
  5
4D
330
22
100
AcDbEntity
  8
0
100
AcDbCircle
 10
31.59973089678115
 20
-9.271599258481472
 30
0.0
 40
3.5
  0
ARC
  5
4E
330
22
100
AcDbEntity
  8
0
100
AcDbCircle
 10
4.599730896781153
 20
-11.77159925848133
 30
0.0
 40
1.0
100
AcDbArc
 50
180.0
 51
270.0
  0
ARC
  5
4F
330
22
100
AcDbEntity
  8
0
100
AcDbCircle
 10
4.599730896781153
 20
-11.77159925848133
 30
0.0
 40
2.0
100
AcDbArc
 50
179.9999999999992
 51
270.0
  0
LINE
  5
50
330
22
100
AcDbEntity
  8
0
100
AcDbLine
 10
11.59973089678115
 20
-13.77159925848144
 30
0.0
 11
4.599730896781153
 21
-13.77159925848147
 31
0.0
  0
LINE
  5
51
330
22
100
AcDbEntity
  8
0
100
AcDbLine
 10
8.771303772034769
 20
-12.77159925848136
 30
0.0
 11
4.599730896781153
 21
-12.77159925848133
 31
0.0
  0
LINE
  5
52
330
22
100
AcDbEntity
  8
0
100
AcDbLine
 10
31.59973089678115
 20
-13.77159925848147
 30
0.0
 11
23.6715276665056
 21
-13.77159925848144
 31
0.0
  0
LINE
  5
53
330
22
100
AcDbEntity
  8
0
100
AcDbLine
 10
23.56565672307022
 20
-9.51278021337896
 30
0.0
 11
24.4388546544846
 21
-12.77159925848144
 31
0.0
  0
LINE
  5
54
330
22
100
AcDbEntity
  8
0
100
AcDbLine
 10
22.59973089678116
 20
-9.771599258481472
 30
0.0
 11
18.59973089678112
 21
-9.771599258481472
 31
0.0
  0
LINE
  5
55
330
22
100
AcDbEntity
  8
0
100
AcDbLine
 10
18.59973089678115
 20
-13.77159925848144
 30
0.0
 11
17.59973089678115
 21
-13.77159925848144
 31
0.0
  0
LINE
  5
56
330
22
100
AcDbEntity
  8
0
100
AcDbLine
 10
18.59973089678115
 20
-9.771599258481472
 30
0.0
 11
18.59973089678115
 21
-13.77159925848144
 31
0.0
  0
LINE
  5
57
330
22
100
AcDbEntity
  8
0
100
AcDbLine
 10
22.59973089678116
 20
-9.771599258481472
 30
0.0
 11
23.67152766650562
 21
-13.77159925848147
 31
0.0
  0
ARC
  5
58
330
22
100
AcDbEntity
  8
0
100
AcDbCircle
 10
22.59973089678116
 20
-7.271599258481472
 30
0.0
 40
2.5
100
AcDbArc
 50
270.0
 51
270.0000000000007
  0
LINE
  5
59
330
22
100
AcDbEntity
  8
0
100
AcDbLine
 10
28.77130377203494
 20
-12.77159925848147
 30
0.0
 11
24.43885465448463
 21
-12.77159925848144
 31
0.0
  0
LINE
  5
5A
330
22
100
AcDbEntity
  8
0
100
AcDbLine
 10
3.599730896781125
 20
-4.771599258481472
 30
0.0
 11
2.599730896781125
 21
-4.771599258481472
 31
0.0
  0
LINE
  5
5B
330
22
100
AcDbEntity
  8
0
100
AcDbLine
 10
22.59973089678116
 20
-8.771599258481472
 30
0.0
 11
18.59973089678115
 21
-8.771599258481472
 31
0.0
  0
LINE
  5
5C
330
22
100
AcDbEntity
  8
0
100
AcDbLine
 10
22.59973089678116
 20
-5.771599258481472
 30
0.0
 11
18.59973089678115
 21
-5.771599258481472
 31
0.0
  0
LINE
  5
5D
330
22
100
AcDbEntity
  8
0
100
AcDbLine
 10
22.59973089678116
 20
-4.771599258481472
 30
0.0
 11
17.59973089678115
 21
-4.771599258481472
 31
0.0
  0
LINE
  5
5E
330
22
100
AcDbEntity
  8
0
100
AcDbLine
 10
18.59973089678115
 20
-5.771599258481472
 30
0.0
 11
18.59973089678115
 21
-8.771599258481472
 31
0.0
  0
ARC
  5
5F
330
22
100
AcDbEntity
  8
0
100
AcDbCircle
 10
22.59973089678116
 20
-7.271599258481472
 30
0.0
 40
1.5
100
AcDbArc
 50
270.0
 51
90.0
  0
ENDBLK
  5
60
330
22
100
AcDbEntity
  8
0
100
AcDbBlockEnd
  0
BLOCK
  5
DD4
330
DCA
100
AcDbEntity
  8
0
100
AcDbBlockBegin
  2
*D1
 70
     1
 10
0.0
 20
0.0
 30
0.0
  3
*D1
  1

  0
LINE
  5
DE2
330
DCA
100
AcDbEntity
  8
BEM
 62
     0
370
    -2
100
AcDbLine
 10
168.4167792596745
 20
229.6689544561087
 30
0.0
 11
168.4167792596745
 21
203.9780691715969
 31
0.0
  0
LINE
  5
DE3
330
DCA
100
AcDbEntity
  8
BEM
 62
     0
370
    -2
100
AcDbLine
 10
257.3167792596746
 20
229.6689544561118
 30
0.0
 11
257.3167792596746
 21
203.9780691715969
 31
0.0
  0
LINE
  5
DE4
330
DCA
100
AcDbEntity
  8
BEM
 62
     0
370
    -2
100
AcDbLine
 10
175.4167792596745
 20
205.9780691715969
 30
0.0
 11
250.3167792596746
 21
205.9780691715969
 31
0.0
  0
SOLID
  5
DE5
330
DCA
100
AcDbEntity
  8
BEM
 62
     0
100
AcDbTrace
 10
175.4167792596745
 20
207.1447358382635
 30
0.0
 11
175.4167792596745
 21
204.8114025049302
 31
0.0
 12
168.4167792596745
 22
205.9780691715969
 32
0.0
 13
168.4167792596745
 23
205.9780691715969
 33
0.0
  0
SOLID
  5
DE6
330
DCA
100
AcDbEntity
  8
BEM
 62
     0
100
AcDbTrace
 10
250.3167792596746
 20
207.1447358382635
 30
0.0
 11
250.3167792596746
 21
204.8114025049302
 31
0.0
 12
257.3167792596746
 22
205.9780691715969
 32
0.0
 13
257.3167792596746
 23
205.9780691715969
 33
0.0
  0
MTEXT
  5
DE7
330
DCA
100
AcDbEntity
  8
BEM
 62
     1
100
AcDbMText
 10
212.8667792596746
 20
212.4780691715969
 30
0.0
 40
7.0
 41
0.0
 71
     5
 72
     1
  1
\A1;%%c88.9
 73
     1
 44
1.0
  0
POINT
  5
DE8
330
DCA
100
AcDbEntity
  8
DEFPOINTS
 62
     0
100
AcDbPoint
 10
168.4167792596745
 20
231.6689544561087
 30
0.0
  0
POINT
  5
DE9
330
DCA
100
AcDbEntity
  8
DEFPOINTS
 62
     0
100
AcDbPoint
 10
257.3167792596746
 20
231.6689544561118
 30
0.0
  0
POINT
  5
DEA
330
DCA
100
AcDbEntity
  8
DEFPOINTS
 62
     0
100
AcDbPoint
 10
257.3167792596746
 20
205.9780691715969
 30
0.0
  0
ENDBLK
  5
DD5
330
DCA
100
AcDbEntity
  8
0
100
AcDbBlockEnd
  0
BLOCK
  5
EE9
330
EDF
100
AcDbEntity
  8
0
100
AcDbBlockBegin
  2
*D3
 70
     1
 10
0.0
 20
0.0
 30
0.0
  3
*D3
  1

  0
LINE
  5
EE0
330
EDF
100
AcDbEntity
  8
BEM
 62
     0
370
    -2
100
AcDbLine
 10
166.8542225773042
 20
226.6689544561087
 30
0.0
 11
141.6461721247828
 21
226.6689544561087
 31
0.0
  0
LINE
  5
EE1
330
EDF
100
AcDbEntity
  8
BEM
 62
     0
370
    -2
100
AcDbLine
 10
210.8667792596745
 20
348.6689544561087
 30
0.0
 11
141.6461721247828
 21
348.6689544561087
 31
0.0
  0
LINE
  5
EE2
330
EDF
100
AcDbEntity
  8
BEM
 62
     0
370
    -2
100
AcDbLine
 10
143.6461721247828
 20
233.6689544561088
 30
0.0
 11
143.6461721247829
 21
341.6689544561087
 31
0.0
  0
SOLID
  5
EE3
330
EDF
100
AcDbEntity
  8
BEM
 62
     0
100
AcDbTrace
 10
142.4795054581162
 20
233.6689544561088
 30
0.0
 11
144.8128387914495
 21
233.6689544561088
 31
0.0
 12
143.6461721247828
 22
226.6689544561087
 32
0.0
 13
143.6461721247828
 23
226.6689544561087
 33
0.0
  0
SOLID
  5
EE4
330
EDF
100
AcDbEntity
  8
BEM
 62
     0
100
AcDbTrace
 10
142.4795054581162
 20
341.6689544561087
 30
0.0
 11
144.8128387914495
 21
341.6689544561087
 31
0.0
 12
143.6461721247829
 22
348.6689544561087
 32
0.0
 13
143.6461721247829
 23
348.6689544561087
 33
0.0
  0
MTEXT
  5
EE5
330
EDF
100
AcDbEntity
  8
BEM
 62
     1
100
AcDbMText
 10
137.1461721247828
 20
287.6689544561088
 30
0.0
 40
7.0
 41
0.0
 71
     5
 72
     1
  1
\A1;122
 11
0.0000000000000001
 21
1.0
 31
0.0
 73
     1
 44
1.0
  0
POINT
  5
EE6
330
EDF
100
AcDbEntity
  8
DEFPOINTS
 62
     0
100
AcDbPoint
 10
168.8542225773042
 20
226.6689544561087
 30
0.0
  0
POINT
  5
EE7
330
EDF
100
AcDbEntity
  8
DEFPOINTS
 62
     0
100
AcDbPoint
 10
212.8667792596745
 20
348.6689544561087
 30
0.0
  0
POINT
  5
EE8
330
EDF
100
AcDbEntity
  8
DEFPOINTS
 62
     0
100
AcDbPoint
 10
143.6461721247829
 20
348.6689544561087
 30
0.0
  0
ENDBLK
  5
EEA
330
EDF
100
AcDbEntity
  8
0
100
AcDbBlockEnd
  0
BLOCK
  5
EF6
330
EEC
100
AcDbEntity
  8
0
100
AcDbBlockBegin
  2
*D4
 70
     1
 10
0.0
 20
0.0
 30
0.0
  3
*D4
  1

  0
LINE
  5
F39
330
EEC
100
AcDbEntity
  8
BEM
 62
     0
370
    -2
100
AcDbLine
 10
264.3074443385398
 20
469.762343986761
 30
0.0
 11
239.2440754374732
 21
494.8257128878275
 31
0.0
  0
LINE
  5
F3A
330
EEC
100
AcDbEntity
  8
BEM
 62
     0
370
    -2
100
AcDbLine
 10
211.4525656973014
 20
350.0831680184817
 30
0.0
 11
152.9770481327144
 21
408.5586855830684
 31
0.0
  0
LINE
  5
F3B
330
EEC
100
AcDbEntity
  8
BEM
 62
     0
370
    -2
100
AcDbLine
 10
235.7085415315404
 20
488.4617518571486
 30
0.0
 11
159.3410091633933
 21
412.0942194890012
 31
0.0
  0
SOLID
  5
F3C
330
EEC
100
AcDbEntity
  8
BEM
 62
     0
100
AcDbTrace
 10
234.8835836201561
 20
489.2867097685329
 30
0.0
 11
236.5334994429247
 21
487.6367939457643
 31
0.0
 12
240.6582889998463
 22
493.4114993254545
 32
0.0
 13
240.6582889998463
 23
493.4114993254545
 33
0.0
  0
SOLID
  5
F3D
330
EEC
100
AcDbEntity
  8
BEM
 62
     0
100
AcDbTrace
 10
158.516051252009
 20
412.9191774003855
 30
0.0
 11
160.1659670747776
 21
411.2692615776169
 31
0.0
 12
154.3912616950875
 22
407.1444720206954
 32
0.0
 13
154.3912616950875
 23
407.1444720206954
 33
0.0
  0
MTEXT
  5
F3E
330
EEC
100
AcDbEntity
  8
BEM
 62
     1
100
AcDbMText
 10
192.9285812697543
 20
454.8741797507874
 30
0.0
 40
7.0
 41
0.0
 71
     5
 72
     1
  1
\A1;122
 11
0.7071067811865462
 21
0.7071067811865489
 31
0.0
 73
     1
 44
1.0
  0
POINT
  5
F3F
330
EEC
100
AcDbEntity
  8
DEFPOINTS
 62
     0
100
AcDbPoint
 10
265.7216579009129
 20
468.3481304243879
 30
0.0
  0
POINT
  5
F40
330
EEC
100
AcDbEntity
  8
DEFPOINTS
 62
     0
100
AcDbPoint
 10
212.8667792596745
 20
348.6689544561086
 30
0.0
  0
POINT
  5
F41
330
EEC
100
AcDbEntity
  8
DEFPOINTS
 62
     0
100
AcDbPoint
 10
154.3912616950875
 20
407.1444720206954
 30
0.0
  0
ENDBLK
  5
EF7
330
EEC
100
AcDbEntity
  8
0
100
AcDbBlockEnd
  0
BLOCK
  5
F05
330
EF9
100
AcDbEntity
  8
0
100
AcDbBlockBegin
  2
*D5
 70
     1
 10
0.0
 20
0.0
 30
0.0
  3
*D5
  1

  0
LINE
  5
F2F
330
EF9
100
AcDbEntity
  8
BEM
 62
     0
370
    -2
100
AcDbLine
 10
212.8667792596745
 20
350.6689544561086
 30
0.0
 11
212.8667792596745
 21
454.824098223731
 31
0.0
  0
ARC
  5
F30
330
EF9
100
AcDbEntity
  8
BEM
 62
     0
370
    -2
100
AcDbCircle
 10
212.8667792596745
 20
348.6689544561087
 30
0.0
 40
104.1551437676224
100
AcDbArc
 50
48.8514274243048
 51
86.14857257569532
  0
SOLID
  5
F31
330
EF9
100
AcDbEntity
  8
BEM
 62
     0
100
AcDbTrace
 10
282.1990761238288
 20
427.9505986794743
 30
0.0
 11
280.60553541953
 21
426.2461713656275
 31
0.0
 12
286.51558771322
 22
422.3177629096544
 32
0.0
 13
286.51558771322
 23
422.3177629096544
 33
0.0
  0
SOLID
  5
F32
330
EF9
100
AcDbEntity
  8
BEM
 62
     0
100
AcDbTrace
 10
219.823621572199
 20
451.4228644281849
 30
0.0
 11
219.9020302457532
 21
453.754879977952
 31
0.0
 12
212.8667792596745
 22
452.8240982237311
 32
0.0
 13
212.8667792596745
 23
452.8240982237311
 33
0.0
  0
MTEXT
  5
F33
330
EF9
100
AcDbEntity
  8
BEM
 62
     1
100
AcDbMText
 10
257.7527820911941
 20
449.8114657559672
 30
0.0
 40
7.0
 41
0.0
 71
     5
 72
     1
  1
\A1;45°
 11
0.9140335266497817
 21
-0.40563864727139
 31
0.0
 73
     1
 44
1.0
  0
POINT
  5
F34
330
EF9
100
AcDbEntity
  8
DEFPOINTS
 62
     0
100
AcDbPoint
 10
239.8241141121263
 20
449.2750977621061
 30
0.0
  0
POINT
  5
F35
330
EF9
100
AcDbEntity
  8
DEFPOINTS
 62
     0
100
AcDbPoint
 10
212.8667792596745
 20
348.6689544561087
 30
0.0
  0
POINT
  5
F36
330
EF9
100
AcDbEntity
  8
DEFPOINTS
 62
     0
100
AcDbPoint
 10
302.6693404703658
 20
438.4715156668002
 30
0.0
  0
POINT
  5
F37
330
EF9
100
AcDbEntity
  8
DEFPOINTS
 62
     0
100
AcDbPoint
 10
212.8667792596745
 20
348.6689544561087
 30
0.0
  0
POINT
  5
F38
330
EF9
100
AcDbEntity
  8
DEFPOINTS
 62
     0
100
AcDbPoint
 10
212.8667792596746
 20
221.668954456109
 30
0.0
  0
ENDBLK
  5
F06
330
EF9
100
AcDbEntity
  8
0
100
AcDbBlockEnd
  0
ENDSEC
  0
SECTION
  2
ENTITIES
  0
TEXT
  5
134
330
1E
100
AcDbEntity
  8
TEXT
100
AcDbText
 10
204.4216048581257
 20
63.0896391972351
 30
0.0
 40
4.0
  1
Koeh
 41
0.8
  7
GREEKS
 72
     1
 11
209.6787477152686
 21
63.0896391972351
 31
0.0
100
AcDbText
  0
INSERT
  5
135
330
1E
100
AcDbEntity
  8
STEMPEL
100
AcDbBlockReference
  2
LOGO
 10
150.9955485457794
 20
45.02105276448322
 30
0.0
 41
2.0
 42
2.0
 43
2.0
  0
LINE
  5
136
330
1E
100
AcDbEntity
  8
HILF
100
AcDbLine
 10
420.0
 20
0.0
 30
0.0
 11
0.0
 21
0.0
 31
0.0
  0
LINE
  5
137
330
1E
100
AcDbEntity
  8
HILF
100
AcDbLine
 10
419.9999999999999
 20
594.0000000000002
 30
0.0
 11
0.0
 21
594.0
 31
0.0
  0
LINE
  5
138
330
1E
100
AcDbEntity
  8
STEMPEL
100
AcDbLine
 10
410.0
 20
584.0
 30
0.0
 11
39.99999999999989
 21
584.0
 31
0.0
  0
LINE
  5
139
330
1E
100
AcDbEntity
  8
STEMPEL
100
AcDbLine
 10
410.0
 20
10.0
 30
0.0
 11
39.99999999999989
 21
10.0
 31
0.0
  0
LINE
  5
13A
330
1E
100
AcDbEntity
  8
STEMPEL
100
AcDbLine
 10
49.99999999999989
 20
10.0
 30
0.0
 11
410.0
 21
10.0
 31
0.0
  0
TEXT
  5
13B
330
1E
100
AcDbEntity
  8
TEXT
100
AcDbText
 10
202.4626584226295
 20
73.30961091915225
 30
0.0
 40
4.0
  1
Name
 41
0.8
  7
GREEKS
100
AcDbText
  0
TEXT
  5
13C
330
1E
100
AcDbEntity
  8
TEXT
100
AcDbText
 10
196.5498279101549
 20
102.6506227776589
 30
0.0
 40
5.0
  1
Zul. Abw.
 41
0.8
  7
GREEKS
 72
     4
 11
209.9783993387263
 21
105.1506227776589
 31
0.0
100
AcDbText
  0
LINE
  5
13D
330
1E
100
AcDbEntity
  8
HILF
100
AcDbLine
 10
146.0000000000001
 20
49.99999999999997
 30
0.0
 11
230.0
 21
49.99999999999997
 31
0.0
  0
LINE
  5
13E
330
1E
100
AcDbEntity
  8
HILF
100
AcDbLine
 10
146.0000000000001
 20
59.99999999999997
 30
0.0
 11
230.0
 21
59.99999999999997
 31
0.0
  0
LINE
  5
13F
330
1E
100
AcDbEntity
  8
HILF
100
AcDbLine
 10
146.0000000000001
 20
69.99999999999994
 30
0.0
 11
230.0
 21
69.99999999999994
 31
0.0
  0
LINE
  5
140
330
1E
100
AcDbEntity
  8
STEMPEL
100
AcDbLine
 10
410.0
 20
80.0
 30
0.0
 11
146.0000000000001
 21
79.99999999999994
 31
0.0
  0
LINE
  5
141
330
1E
100
AcDbEntity
  8
STEMPEL
100
AcDbLine
 10
410.0
 20
40.0
 30
0.0
 11
146.0000000000001
 21
39.99999999999997
 31
0.0
  0
LINE
  5
142
330
1E
100
AcDbEntity
  8
STEMPEL
100
AcDbLine
 10
410.0
 20
110.0
 30
0.0
 11
39.99999999999997
 21
110.0
 31
0.0
  0
LINE
  5
144
330
1E
100
AcDbEntity
  8
HILF
100
AcDbLine
 10
0.0
 20
0.0
 30
0.0
 11
-0.0000000000001137
 21
594.0
 31
0.0
  0
LINE
  5
145
330
1E
100
AcDbEntity
  8
STEMPEL
100
AcDbLine
 10
40.0
 20
10.0
 30
0.0
 11
39.99999999999989
 21
584.0
 31
0.0
  0
TEXT
  5
146
330
1E
100
AcDbEntity
  8
TEXT
100
AcDbText
 10
41.85509950977674
 20
111.6719999999999
 30
0.0
 40
5.0
  1
Erstellt mit AUTOCAD 2004
 41
0.8
  7
GREEKS
100
AcDbText
  0
TEXT
  5
147
330
1E
100
AcDbEntity
  8
TEXT
100
AcDbText
 10
66.72469466776535
 20
18.67381894984132
 30
0.0
 40
4.0
  1
Änderung
 41
0.8
  7
GREEKS
 72
     1
 11
77.46755181062249
 21
18.67381894984132
 31
0.0
100
AcDbText
  0
LINE
  5
148
330
1E
100
AcDbEntity
  8
HILF
100
AcDbLine
 10
40.00000000000008
 20
39.99999999999997
 30
0.0
 11
146.0000000000001
 21
39.99999999999997
 31
0.0
  0
LINE
  5
149
330
1E
100
AcDbEntity
  8
HILF
100
AcDbLine
 10
40.00000000000008
 20
49.99999999999997
 30
0.0
 11
146.0000000000001
 21
49.99999999999997
 31
0.0
  0
LINE
  5
14A
330
1E
100
AcDbEntity
  8
HILF
100
AcDbLine
 10
40.00000000000008
 20
59.99999999999997
 30
0.0
 11
146.0000000000001
 21
59.99999999999997
 31
0.0
  0
LINE
  5
14B
330
1E
100
AcDbEntity
  8
HILF
100
AcDbLine
 10
40.00000000000008
 20
69.99999999999994
 30
0.0
 11
146.0000000000001
 21
69.99999999999994
 31
0.0
  0
LINE
  5
14C
330
1E
100
AcDbEntity
  8
HILF
100
AcDbLine
 10
40.00000000000008
 20
79.99999999999994
 30
0.0
 11
146.0000000000001
 21
79.99999999999994
 31
0.0
  0
LINE
  5
14D
330
1E
100
AcDbEntity
  8
HILF
100
AcDbLine
 10
40.00000000000008
 20
90.00000000000005
 30
0.0
 11
146.0000000000001
 21
90.00000000000005
 31
0.0
  0
LINE
  5
14E
330
1E
100
AcDbEntity
  8
HILF
100
AcDbLine
 10
40.00000000000008
 20
100.0
 30
0.0
 11
146.0000000000001
 21
100.0
 31
0.0
  0
LINE
  5
14F
330
1E
100
AcDbEntity
  8
STEMPEL
100
AcDbLine
 10
145.9999999999999
 20
29.99999999999997
 30
0.0
 11
39.99999999999997
 21
29.99999999999997
 31
0.0
  0
TEXT
  5
150
330
1E
100
AcDbEntity
  8
TEXT
100
AcDbText
 10
48.26641107045756
 20
13.65465846027192
 30
0.0
 40
4.0
  1
Index
 50
90.0
 41
0.8
  7
GREEKS
100
AcDbText
  0
LINE
  5
151
330
1E
100
AcDbEntity
  8
VOLL
100
AcDbLine
 10
54.00000000000009
 20
110.0
 30
0.0
 11
53.99999999999997
 21
9.999999999999971
 31
0.0
  0
LINE
  5
152
330
1E
100
AcDbEntity
  8
HILF
100
AcDbLine
 10
31.08767135713856
 20
297.0
 30
0.0
 11
0.0000000000001137
 21
297.0
 31
0.0
  0
TEXT
  5
153
330
1E
100
AcDbEntity
  8
TEXT
100
AcDbText
 10
110.2468354498985
 20
18.6715626933981
 30
0.0
 40
4.0
  1
Tag
 41
0.8
  7
GREEKS
 72
     1
 11
113.9801687832318
 21
18.6715626933981
 31
0.0
100
AcDbText
  0
LINE
  5
154
330
1E
100
AcDbEntity
  8
VOLL
100
AcDbLine
 10
124.0000000000001
 20
109.9999999999999
 30
0.0
 11
124.0
 21
9.999999999999971
 31
0.0
  0
LINE
  5
155
330
1E
100
AcDbEntity
  8
VOLL
100
AcDbLine
 10
104.0000000000001
 20
109.9999999999999
 30
0.0
 11
104.0
 21
9.999999999999971
 31
0.0
  0
TEXT
  5
156
330
1E
100
AcDbEntity
  8
TEXT
100
AcDbText
 10
129.3020371565846
 20
18.59324216966408
 30
0.0
 40
4.0
  1
Name
 41
0.8
  7
GREEKS
 72
     1
 11
135.6258466803941
 21
18.59324216966408
 31
0.0
100
AcDbText
  0
LINE
  5
157
330
1E
100
AcDbEntity
  8
STEMPEL
100
AcDbLine
 10
146.0000000000001
 20
109.9999999999999
 30
0.0
 11
146.0
 21
9.999999999999971
 31
0.0
  0
TEXT
  5
159
330
1E
100
AcDbEntity
  8
TEXT
100
AcDbText
 10
172.331167315365
 20
73.31880501229926
 30
0.0
 40
4.0
  1
Tag
 41
0.8
  7
GREEKS
100
AcDbText
  0
TEXT
  5
15A
330
1E
100
AcDbEntity
  8
TEXT
100
AcDbText
 10
147.5836127167615
 20
63.62990369617964
 30
0.0
 40
4.0
  1
Gez.
 41
0.8
  7
GREEKS
100
AcDbText
  0
LINE
  5
15B
330
1E
100
AcDbEntity
  8
VOLL
100
AcDbLine
 10
164.0000000000001
 20
79.99999999999994
 30
0.0
 11
164.0000000000001
 21
39.99999999999997
 31
0.0
  0
TEXT
  5
15C
330
1E
100
AcDbEntity
  8
TEXT
100
AcDbText
 10
147.6006777387303
 20
43.52946389649807
 30
0.0
 40
4.0
  1
Norm.
 41
0.8
  7
GREEKS
100
AcDbText
  0
TEXT
  5
15D
330
1E
100
AcDbEntity
  8
TEXT
100
AcDbText
 10
147.5515086571672
 20
53.68926291428377
 30
0.0
 40
4.0
  1
Gepr.
 41
0.8
  7
GREEKS
100
AcDbText
  0
TEXT
  5
15E
330
1E
100
AcDbEntity
  8
TEXT
 62
     1
100
AcDbText
 10
160.5006306481887
 20
88.14901428913959
 30
0.0
 40
7.0
  1
1:2
 41
0.8
  7
GREEKS
100
AcDbText
  0
TEXT
  5
15F
330
1E
100
AcDbEntity
  8
TEXT
100
AcDbText
 10
153.5163572150377
 20
102.4620895087088
 30
0.0
 40
5.0
  1
Maßstab
 41
0.8
  7
GREEKS
100
AcDbText
  0
TEXT
  5
160
330
1E
100
AcDbEntity
  8
TEXT
100
AcDbText
 10
148.622109822104
 20
73.14025471151666
 30
0.0
 40
4.0
  1
2011
 41
0.8
  7
GREEKS
100
AcDbText
  0
LINE
  5
161
330
1E
100
AcDbEntity
  8
VOLL
100
AcDbLine
 10
190.0000000000001
 20
109.9999999999998
 30
0.0
 11
190.0
 21
39.99999999999997
 31
0.0
  0
LINE
  5
186
330
1E
100
AcDbEntity
  8
HILF
100
AcDbLine
 10
420.0
 20
-0.0000000000001137
 30
0.0
 11
419.9999999999999
 21
594.0
 31
0.0
  0
LINE
  5
187
330
1E
100
AcDbEntity
  8
STEMPEL
100
AcDbLine
 10
410.0
 20
10.0
 30
0.0
 11
410.0
 21
584.0
 31
0.0
  0
TEXT
  5
188
330
1E
100
AcDbEntity
  8
TEXT
100
AcDbText
 10
337.2400861497006
 20
52.07416177878602
 30
0.0
 40
5.0
  1
ersetzt durch:
 41
0.8
  7
GREEKS
100
AcDbText
  0
TEXT
  5
189
330
1E
100
AcDbEntity
  8
TEXT
100
AcDbText
 10
336.7238616296993
 20
73.1811823709997
 30
0.0
 40
5.0
  1
Ersatz für:
 41
0.8
  7
GREEKS
100
AcDbText
  0
TEXT
  5
18A
330
1E
100
AcDbEntity
  8
TEXT
100
AcDbText
 10
336.178754957634
 20
102.3132034537136
 30
0.0
 40
5.0
  1
Zeichnungs Nr.
 41
0.8
  7
GREEKS
100
AcDbText
  0
LINE
  5
18B
330
1E
100
AcDbEntity
  8
HILF
100
AcDbLine
 10
233.4909699289885
 20
14.89398258028314
 30
0.0
 11
404.8588839326728
 21
14.89398258028314
 31
0.0
  0
LINE
  5
18C
330
1E
100
AcDbEntity
  8
HILF
100
AcDbLine
 10
336.7238616296993
 20
83.77983636955827
 30
0.0
 11
404.8588839326728
 21
83.77983636955827
 31
0.0
  0
LINE
  5
18D
330
1E
100
AcDbEntity
  8
VOLL
100
AcDbLine
 10
332.0
 20
60.0
 30
0.0
 11
410.0
 21
60.0
 31
0.0
  0
TEXT
  5
18E
330
1E
100
AcDbEntity
  8
TEXT
 62
     1
100
AcDbText
 10
234.9283864320014
 20
87.41748789253779
 30
0.0
 40
7.0
  1
Bogen DN80 45°
 41
0.8
  7
GREEKS
100
AcDbText
  0
LINE
  5
18F
330
1E
100
AcDbEntity
  8
HILF
100
AcDbLine
 10
234.7736801096947
 20
49.99999999999997
 30
0.0
 11
324.835391655631
 21
49.99999999999997
 31
0.0
  0
LINE
  5
190
330
1E
100
AcDbEntity
  8
HILF
100
AcDbLine
 10
234.7736801096947
 20
59.99999999999997
 30
0.0
 11
324.835391655631
 21
59.99999999999997
 31
0.0
  0
LINE
  5
191
330
1E
100
AcDbEntity
  8
HILF
100
AcDbLine
 10
234.7736801096947
 20
69.99999999999994
 30
0.0
 11
324.835391655631
 21
69.99999999999994
 31
0.0
  0
LINE
  5
192
330
1E
100
AcDbEntity
  8
HILF
100
AcDbLine
 10
234.7736801096947
 20
84.03758247564139
 30
0.0
 11
324.8353916556311
 21
84.03758247564139
 31
0.0
  0
LINE
  5
193
330
1E
100
AcDbEntity
  8
STEMPEL
100
AcDbLine
 10
230.0
 20
110.0
 30
0.0
 11
230.0
 21
9.999999999999971
 31
0.0
  0
TEXT
  5
194
330
1E
100
AcDbEntity
  8
TEXT
100
AcDbText
 10
235.1296391125315
 20
71.50334417585288
 30
0.0
 40
5.0
  1
dünnwandig
 41
0.8
  7
GREEKS
100
AcDbText
  0
TEXT
  5
195
330
1E
100
AcDbEntity
  8
TEXT
100
AcDbText
 10
234.9837501577827
 20
42.62974153022632
 30
0.0
 40
4.0
  1
5320080W.DWG
 41
0.8
  7
GREEKS
100
AcDbText
  0
TEXT
  5
196
330
1E
100
AcDbEntity
  8
TEXT
100
AcDbText
 10
234.742238391136
 20
30.84560570193057
 30
0.0
 40
5.0
  1
Bauvorhaben
 41
0.8
  7
GREEKS
100
AcDbText
  0
TEXT
  5
197
330
1E
100
AcDbEntity
  8
TEXT
100
AcDbText
 10
234.877940380901
 20
102.5489328011779
 30
0.0
 40
5.0
  1
Benennung
 41
0.8
  7
GREEKS
100
AcDbText
  0
LINE
  5
198
330
1E
100
AcDbEntity
  8
STEMPEL
100
AcDbLine
 10
332.0
 20
109.9999999999997
 30
0.0
 11
332.0
 21
40.0
 31
0.0
  0
TEXT
  5
19A
330
1E
100
AcDbEntity
  8
TEXT
 62
     1
100
AcDbText
 10
348.9428677606527
 20
88.14901428913959
 30
0.0
 40
7.0
  1
5320080W
 41
0.8
  7
GREEKS
 72
     1
 11
370.276201093986
 21
88.14901428913959
 31
0.0
100
AcDbText
  0
TEXT
  5
212
330
1E
100
AcDbEntity
  8
TEXT
100
AcDbText
 10
235.1296391125315
 20
51.50334417585291
 30
0.0
 40
5.0
  1
EDV-Art.Nr. 5.320.080C
 41
0.8
  7
GREEKS
100
AcDbText
  0
TEXT
  5
255
330
1E
100
AcDbEntity
  8
TEXT
 62
     1
100
AcDbText
 10
297.9974873842989
 20
131.2276367653921
 30
0.0
 40
7.0
  1
Werkstoff: 1.4404
 41
0.8
  7
GREEKS
100
AcDbText
  0
LINE
  5
95F
330
1E
100
AcDbEntity
  8
MITTEL
100
AcDbLine
 10
212.8667792596745
 20
348.6689544561087
 30
0.0
 11
212.8667792596746
 21
221.668954456109
 31
0.0
  0
LINE
  5
A23
330
1E
100
AcDbEntity
  8
MITTEL
100
AcDbLine
 10
302.6693404703658
 20
438.4715156668002
 30
0.0
 11
212.8667792596745
 21
348.6689544561087
 31
0.0
  0
DIMENSION
  5
DC0
330
1E
100
AcDbEntity
  8
BEM
100
AcDbDimension
  2
*D1
 10
257.3167792596746
 20
205.9780691715969
 30
0.0
 11
212.8667792596746
 21
212.4780691715969
 31
0.0
 70
    32
  1
%%c<>
 71
     5
 42
88.90000000000009
  3
Standard
100
AcDbAlignedDimension
 13
168.4167792596745
 23
231.6689544561087
 33
0.0
 14
257.3167792596746
 24
231.6689544561118
 34
0.0
100
AcDbRotatedDimension
1001
ACAD
1000
DSTYLE
1002
{
1070
    40
1040
2.0
1070
    41
1040
3.5
1070
    42
1040
1.0
1070
    43
1040
7.0
1070
    44
1040
1.0
1070
    73
1070
     0
1070
    74
1070
     0
1070
    77
1070
     1
1070
    78
1070
     8
1070
    79
1070
     2
1070
   140
1040
3.5
1070
   141
1040
1.5
1070
   146
1040
0.5
1070
   147
1040
1.5
1070
   172
1070
     1
1070
   178
1070
     1
1070
   179
1070
     2
1070
   271
1070
     2
1070
   272
1070
     2
1070
   284
1070
     8
1070
   285
1070
     8
1070
   286
1070
     8
1002
}
  0
LINE
  5
DC1
330
1E
100
AcDbEntity
  8
HILF
100
AcDbLine
 10
256.1121954546225
 20
231.668954456109
 30
0.0
 11
169.6213630647266
 21
231.6689544561087
 31
0.0
  0
LINE
  5
DC2
330
1E
100
AcDbEntity
  8
STEMPEL
100
AcDbLine
 10
256.8793359420449
 20
226.6689544561089
 30
0.0
 11
168.8542225773042
 21
226.6689544561087
 31
0.0
  0
LINE
  5
DC3
102
{ACAD_REACTORS
330
ED7
102
}
330
1E
100
AcDbEntity
  8
STEMPEL
100
AcDbLine
 10
257.3167792596745
 20
330.257161608625
 30
0.0
 11
257.3167792596746
 21
231.6689544561118
 31
0.0
  0
LINE
  5
DC7
330
1E
100
AcDbEntity
  8
STEMPEL
100
AcDbLine
 10
257.3167792596746
 20
231.6689544561118
 30
0.0
 11
256.8793359420449
 21
226.6689544561089
 31
0.0
  0
LINE
  5
DC8
330
1E
100
AcDbEntity
  8
STEMPEL
100
AcDbLine
 10
168.4167792596745
 20
231.6689544561087
 30
0.0
 11
168.8542225773042
 21
226.6689544561087
 31
0.0
  0
LINE
  5
DC9
102
{ACAD_REACTORS
330
ED7
102
}
330
1E
100
AcDbEntity
  8
STEMPEL
100
AcDbLine
 10
168.4167792596745
 20
367.080747303593
 30
0.0
 11
168.4167792596745
 21
231.6689544561087
 31
0.0
  0
ARC
  5
E6D
330
1E
100
AcDbEntity
  8
STEMPEL
100
AcDbCircle
 10
316.7156433226683
 20
366.7457659611746
 30
0.0
 40
13.6
100
AcDbArc
 50
110.1494976597717
 51
135.0000000000007
  0
ARC
  5
E6E
330
1E
100
AcDbEntity
  8
STEMPEL
100
AcDbCircle
 10
266.4301179345556
 20
439.4968204995207
 30
0.0
 40
24.2
100
AcDbArc
 50
135.0000000000007
 51
159.8505023402276
  0
LINE
  5
E6F
330
1E
100
AcDbEntity
  8
HILF
100
AcDbLine
 10
308.5262347528871
 20
379.073522743217
 30
0.0
 11
243.2713475467827
 21
444.3284099493215
 31
0.0
  0
LINE
  5
E70
330
1E
100
AcDbEntity
  8
HILF
100
AcDbLine
 10
285.6689186080021
 20
359.9421758885781
 30
0.0
 11
224.140000692144
 21
421.4710938044365
 31
0.0
  0
LINE
  5
E71
330
1E
100
AcDbEntity
  8
HILF
100
AcDbLine
 10
290.4770564744459
 20
362.0209139929287
 30
0.0
 11
226.2187387964943
 21
426.2792316708802
 31
0.0
  0
LINE
  5
E72
330
1E
100
AcDbEntity
  8
STEMPEL
100
AcDbLine
 10
307.0989910985313
 20
376.3624181853117
 30
0.0
 11
293.667881355738
 21
362.9313084425184
 31
0.0
  0
ARC
  5
E73
330
1E
100
AcDbEntity
  8
STEMPEL
100
AcDbCircle
 10
285.4654426939738
 20
371.1337471042824
 30
0.0
 40
11.6
100
AcDbArc
 50
286.0449756281402
 51
315.0000000000007
  0
ARC
  5
E74
330
1E
100
AcDbEntity
  8
STEMPEL
100
AcDbCircle
 10
291.2143928640023
 20
351.1440104391201
 30
0.0
 40
9.200000000000001
100
AcDbArc
 50
106.0449756281403
 51
135.0000000000007
  0
ARC
  5
E75
330
1E
100
AcDbEntity
  8
STEMPEL
100
AcDbCircle
 10
215.3418352426856
 20
427.0165680604365
 30
0.0
 40
9.200000000000001
100
AcDbArc
 50
315.0000000000007
 51
343.9550243718589
  0
LINE
  5
E76
330
1E
100
AcDbEntity
  8
STEMPEL
100
AcDbLine
 10
240.5602429888771
 20
442.9011662949655
 30
0.0
 11
227.1291332460839
 21
429.4700565521723
 31
0.0
  0
ARC
  5
E77
330
1E
100
AcDbEntity
  8
STEMPEL
100
AcDbCircle
 10
235.3315719078479
 20
421.2676178904082
 30
0.0
 40
11.6
100
AcDbArc
 50
135.0000000000007
 51
163.955024371859
  0
ARC
  5
E78
330
1E
100
AcDbEntity
  8
STEMPEL
100
AcDbCircle
 10
230.9435907647401
 20
452.5178185191024
 30
0.0
 40
13.6
100
AcDbArc
 50
315.0000000000007
 51
339.8505023402276
  0
LINE
  5
E79
330
1E
100
AcDbEntity
  8
STEMPEL
100
AcDbLine
 10
332.5459552279535
 20
401.5238330973473
 30
0.0
 11
265.7216579009129
 21
468.3481304243879
 31
0.0
  0
ARC
  5
E7A
330
1E
100
AcDbEntity
  8
STEMPEL
100
AcDbCircle
 10
309.1419760933685
 20
407.6796239212718
 30
0.0
 40
24.2
100
AcDbArc
 50
315.0000000000007
 51
345.2636519420975
  0
LINE
  5
E7B
330
1E
100
AcDbEntity
  8
STEMPEL
100
AcDbLine
 10
326.253960198083
 20
390.5676398165575
 30
0.0
 11
320.806629407801
 21
385.1203090262755
 31
0.0
  0
ARC
  5
E7C
330
1E
100
AcDbEntity
  8
STEMPEL
100
AcDbCircle
 10
303.6946453030865
 20
402.2322931309898
 30
0.0
 40
24.2
100
AcDbArc
 50
290.1494976597717
 51
315.0000000000007
  0
TEXT
  5
E7D
330
1E
100
AcDbEntity
  8
TEXT
 62
     1
100
AcDbText
 10
294.9457228482513
 20
398.8411240506859
 30
0.0
 40
7.0
  1
DN80
 50
45.00000000000071
 41
0.8
  7
GREEKS
100
AcDbText
  0
ARC
  5
E7E
330
1E
100
AcDbEntity
  8
STEMPEL
100
AcDbCircle
 10
271.8774487248377
 20
444.9441512898029
 30
0.0
 40
24.2
100
AcDbArc
 50
104.7363480579021
 51
135.0000000000007
  0
LINE
  5
E7F
330
1E
100
AcDbEntity
  8
STEMPEL
100
AcDbLine
 10
254.7654646201232
 20
462.0561353945173
 30
0.0
 11
249.3181338298411
 21
456.6088046042353
 31
0.0
  0
LINE
  5
E80
102
{ACAD_REACTORS
330
ED7
102
}
330
1E
100
AcDbEntity
  8
STEMPEL
100
AcDbLine
 10
221.8472176296018
 20
420.5111856735204
 30
0.0
 11
168.4167792596745
 21
367.080747303593
 31
0.0
  0
LINE
  5
E81
102
{ACAD_REACTORS
330
ED7
102
}
330
1E
100
AcDbEntity
  8
STEMPEL
100
AcDbLine
 10
284.709010477086
 20
357.6493928260366
 30
0.0
 11
257.3167792596745
 21
330.257161608625
 31
0.0
  0
LINE
  5
EAC
330
1E
100
AcDbEntity
  8
STEMPEL
100
AcDbLine
 10
168.4167792596745
 20
367.080747303593
 30
0.0
 11
257.3167792596745
 21
330.257161608625
 31
0.0
  0
ARC
  5
EB9
330
1E
100
AcDbEntity
  8
SCHRAFF
100
AcDbCircle
 10
166.5690201946519
 20
367.8461141683232
 30
0.0
 40
5.0
100
AcDbArc
 50
307.4999999999996
 51
7.500000000000157
  0
ARC
  5
EBA
330
1E
100
AcDbEntity
  8
SCHRAFF
100
AcDbCircle
 10
171.1884178572083
 20
365.9326970064977
 30
0.0
 40
5.0
100
AcDbArc
 50
307.4999999999996
 51
7.500000000000157
  0
ARC
  5
EBB
330
1E
100
AcDbEntity
  8
SCHRAFF
100
AcDbCircle
 10
175.8078155197648
 20
364.0192798446723
 30
0.0
 40
5.0
100
AcDbArc
 50
307.4999999999996
 51
7.500000000000157
  0
ARC
  5
EBC
330
1E
100
AcDbEntity
  8
SCHRAFF
100
AcDbCircle
 10
180.4272131823212
 20
362.1058626828469
 30
0.0
 40
5.0
100
AcDbArc
 50
307.4999999999996
 51
7.500000000000157
  0
ARC
  5
EBD
330
1E
100
AcDbEntity
  8
SCHRAFF
100
AcDbCircle
 10
185.0466108448777
 20
360.1924455210215
 30
0.0
 40
5.0
100
AcDbArc
 50
307.4999999999996
 51
7.500000000000157
  0
ARC
  5
EBE
330
1E
100
AcDbEntity
  8
SCHRAFF
100
AcDbCircle
 10
189.6660085074341
 20
358.279028359196
 30
0.0
 40
5.0
100
AcDbArc
 50
307.4999999999996
 51
7.500000000000157
  0
ARC
  5
EBF
330
1E
100
AcDbEntity
  8
SCHRAFF
100
AcDbCircle
 10
194.2854061699905
 20
356.3656111973707
 30
0.0
 40
5.0
100
AcDbArc
 50
307.4999999999996
 51
7.500000000000157
  0
ARC
  5
EC0
330
1E
100
AcDbEntity
  8
SCHRAFF
100
AcDbCircle
 10
198.9048038325469
 20
354.4521940355451
 30
0.0
 40
5.0
100
AcDbArc
 50
307.4999999999996
 51
7.500000000000157
  0
ARC
  5
EC1
330
1E
100
AcDbEntity
  8
SCHRAFF
100
AcDbCircle
 10
203.5242014951033
 20
352.5387768737197
 30
0.0
 40
5.0
100
AcDbArc
 50
307.4999999999996
 51
7.500000000000157
  0
ARC
  5
EC2
330
1E
100
AcDbEntity
  8
SCHRAFF
100
AcDbCircle
 10
208.1435991576598
 20
350.6253597118943
 30
0.0
 40
5.0
100
AcDbArc
 50
307.4999999999996
 51
7.500000000000157
  0
ARC
  5
EC3
330
1E
100
AcDbEntity
  8
SCHRAFF
100
AcDbCircle
 10
212.7629968202162
 20
348.7119425500688
 30
0.0
 40
5.0
100
AcDbArc
 50
307.4999999999996
 51
7.500000000000157
  0
ARC
  5
EC4
330
1E
100
AcDbEntity
  8
SCHRAFF
100
AcDbCircle
 10
217.3823944827726
 20
346.7985253882433
 30
0.0
 40
5.0
100
AcDbArc
 50
307.4999999999996
 51
7.500000000000157
  0
ARC
  5
EC5
330
1E
100
AcDbEntity
  8
SCHRAFF
100
AcDbCircle
 10
222.0017921453291
 20
344.885108226418
 30
0.0
 40
5.0
100
AcDbArc
 50
307.4999999999996
 51
7.500000000000157
  0
ARC
  5
EC6
330
1E
100
AcDbEntity
  8
SCHRAFF
100
AcDbCircle
 10
226.6211898078855
 20
342.9716910645924
 30
0.0
 40
5.0
100
AcDbArc
 50
307.4999999999996
 51
7.500000000000157
  0
ARC
  5
EC7
330
1E
100
AcDbEntity
  8
SCHRAFF
100
AcDbCircle
 10
231.240587470442
 20
341.0582739027671
 30
0.0
 40
5.0
100
AcDbArc
 50
307.4999999999996
 51
7.500000000000157
  0
ARC
  5
EC8
330
1E
100
AcDbEntity
  8
SCHRAFF
100
AcDbCircle
 10
235.8599851329983
 20
339.1448567409416
 30
0.0
 40
5.0
100
AcDbArc
 50
307.4999999999996
 51
7.500000000000157
  0
ARC
  5
EC9
330
1E
100
AcDbEntity
  8
SCHRAFF
100
AcDbCircle
 10
240.4793827955548
 20
337.2314395791162
 30
0.0
 40
5.0
100
AcDbArc
 50
307.4999999999996
 51
7.500000000000157
  0
ARC
  5
ECA
330
1E
100
AcDbEntity
  8
SCHRAFF
100
AcDbCircle
 10
245.0987804581112
 20
335.3180224172907
 30
0.0
 40
5.0
100
AcDbArc
 50
307.4999999999996
 51
7.500000000000157
  0
ARC
  5
ECB
330
1E
100
AcDbEntity
  8
SCHRAFF
100
AcDbCircle
 10
249.7181781206676
 20
333.4046052554654
 30
0.0
 40
5.0
100
AcDbArc
 50
307.4999999999996
 51
7.500000000000157
  0
ARC
  5
ECF
102
{ACAD_REACTORS
330
ED7
102
}
330
1E
100
AcDbEntity
  8
SCHRAFF
100
AcDbCircle
 10
170.0200726716369
 20
366.4166414278948
 30
0.0
 40
2.596112815190137
100
AcDbArc
 50
83.13923664089672
 51
231.8607633591024
  0
ARC
  5
ED0
102
{ACAD_REACTORS
330
ED7
102
}
330
1E
100
AcDbEntity
  8
SCHRAFF
100
AcDbCircle
 10
256.3316317814945
 20
330.6652230550247
 30
0.0
 40
3.266155661056933
100
AcDbArc
 50
287.5551068613662
 51
27.44489313863491
  0
HATCH
  5
ED7
330
1E
100
AcDbEntity
  8
SCHRAFF
100
AcDbHatch
 10
0.0
 20
0.0
 30
0.0
210
0.0
220
0.0
230
1.0
  2
_USER
 70
     0
 71
     1
 91
        2
 92
        7
 72
     1
 73
     1
 93
        3
 10
259.2301964214999
 20
332.1705787704504
 42
0.0
 10
257.3167792596745
 20
330.257161608625
 42
0.0
 10
257.3167792596745
 20
327.5511811078939
 42
0.4657223234418087
 97
        3
330
E81
330
DC3
330
ED0
 92
        7
 72
     1
 73
     1
 93
        3
 10
170.3301964215001
 20
368.9941644654185
 42
0.7585017748938605
 10
168.4167792596745
 20
364.3747668028621
 42
0.0
 10
168.4167792596745
 20
367.0807473035929
 42
0.0
 97
        3
330
ECF
330
DC9
330
E80
 75
     0
 76
     0
 52
0.0
 41
0.1
 77
     0
 78
     1
 53
0.0
 43
0.0
 44
0.0
 45
0.0
 46
0.1
 79
     0
 47
0.1812134958620282
 98
        2
 10
258.6131265048839
 20
330.7306333262741
 10
168.1213562024959
 20
367.6981869616227
  0
DIMENSION
  5
EDE
330
1E
100
AcDbEntity
  8
BEM
100
AcDbDimension
  2
*D3
 10
143.6461721247829
 20
348.6689544561087
 30
0.0
 11
137.1461721247828
 21
287.6689544561088
 31
0.0
 70
    32
 71
     5
 42
121.9999999999999
  3
Standard
100
AcDbAlignedDimension
 13
168.8542225773042
 23
226.6689544561087
 33
0.0
 14
212.8667792596745
 24
348.6689544561087
 34
0.0
 50
90.0
100
AcDbRotatedDimension
1001
ACAD
1000
DSTYLE
1002
{
1070
    40
1040
2.0
1070
    41
1040
3.5
1070
    42
1040
1.0
1070
    43
1040
7.0
1070
    44
1040
1.0
1070
    73
1070
     0
1070
    74
1070
     0
1070
    77
1070
     1
1070
    78
1070
     8
1070
    79
1070
     2
1070
   140
1040
3.5
1070
   141
1040
1.5
1070
   146
1040
0.5142857142857144
1070
   147
1040
1.5
1070
   172
1070
     1
1070
   178
1070
     1
1070
   179
1070
     2
1070
   271
1070
     2
1070
   272
1070
     2
1070
   284
1070
     8
1070
   285
1070
     8
1070
   286
1070
     8
1002
}
  0
DIMENSION
  5
EEB
330
1E
100
AcDbEntity
  8
BEM
100
AcDbDimension
  2
*D4
 10
154.3912616950875
 20
407.1444720206954
 30
0.0
 11
192.9285812697543
 21
454.8741797507874
 31
0.0
 70
    32
 71
     5
 42
122.0000000000001
 51
314.9999999999999
  3
Standard
100
AcDbAlignedDimension
 13
265.7216579009129
 23
468.3481304243879
 33
0.0
 14
212.8667792596745
 24
348.6689544561087
 34
0.0
 50
45.00000000000009
100
AcDbRotatedDimension
1001
ACAD
1000
DSTYLE
1002
{
1070
    40
1040
2.0
1070
    41
1040
3.5
1070
    42
1040
1.0
1070
    43
1040
7.0
1070
    44
1040
1.0
1070
    73
1070
     0
1070
    74
1070
     0
1070
    77
1070
     1
1070
    78
1070
     8
1070
    79
1070
     2
1070
   140
1040
3.5
1070
   141
1040
1.5
1070
   146
1040
0.5142857142857144
1070
   147
1040
1.5
1070
   172
1070
     1
1070
   178
1070
     1
1070
   179
1070
     2
1070
   271
1070
     2
1070
   272
1070
     2
1070
   284
1070
     8
1070
   285
1070
     8
1070
   286
1070
     8
1002
}
  0
DIMENSION
  5
EF8
330
1E
100
AcDbEntity
  8
BEM
100
AcDbDimension
  2
*D5
 10
212.8667792596746
 20
221.668954456109
 30
0.0
 11
255.1161308839301
 21
443.8702478327436
 31
0.0
 70
   162
 71
     5
 42
0.7853981633974467
  3
Standard
100
AcDb2LineAngularDimension
 13
302.6693404703658
 23
438.4715156668002
 33
0.0
 14
212.8667792596745
 24
348.6689544561087
 34
0.0
 15
212.8667792596745
 25
348.6689544561087
 35
0.0
 16
239.8241141121263
 26
449.2750977621061
 36
0.0
1001
ACAD
1000
DSTYLE
1002
{
1070
    40
1040
2.0
1070
    41
1040
3.5
1070
    42
1040
1.0
1070
    43
1040
7.0
1070
    44
1040
1.0
1070
    73
1070
     0
1070
    74
1070
     0
1070
    77
1070
     1
1070
    78
1070
     8
1070
    79
1070
     2
1070
   140
1040
3.5
1070
   141
1040
1.5
1070
   146
1040
0.5142857142857144
1070
   147
1040
1.5
1070
   172
1070
     1
1070
   178
1070
     1
1070
   179
1070
     2
1070
   271
1070
     2
1070
   272
1070
     2
1070
   284
1070
     8
1070
   285
1070
     8
1070
   286
1070
     8
1002
}
  0
TEXT
  5
F42
330
1E
100
AcDbEntity
  8
BEM
100
AcDbText
 10
416.5811541437437
 20
12.14804815338303
 30
0.0
 40
4.0
  1
Diese Zeichnung ist urheberrechtlich geschützt und bleibt unser Eigentum. Sie darf weder ganz noch teilweise vervielfältigt und nicht an Dritte weitergegeben werden.
 50
90.0
 41
0.8
  7
GREEKS
100
AcDbText
  0
TEXT
  5
F43
330
1E
100
AcDbEntity
  8
TEXT
100
AcDbText
 10
192.6882715247924
 20
89.50150693558043
 30
0.0
 40
4.0
  1
DIN EN1124-3
 41
0.8
  7
GREEKS
 72
     1
 11
209.6787477152686
 21
89.50150693558043
 31
0.0
100
AcDbText
  0
TEXT
  5
F6C
330
1E
100
AcDbEntity
  8
TEXT
100
AcDbText
 10
171.0085209177598
 20
63.10765040825732
 30
0.0
 40
4.0
  1
11.04.
 41
0.8
  7
GREEKS
 72
     1
 11
177.4085209177598
 21
63.10765040825732
 31
0.0
100
AcDbText
  0
ENDSEC
  0
SECTION
  2
OBJECTS
  0
DICTIONARY
  5
C
330
0
100
AcDbDictionary
281
     1
  3
ACAD_COLOR
350
B7D
  3
ACAD_GROUP
350
D
  3
ACAD_LAYOUT
350
19
  3
ACAD_MATERIAL
350
B7C
  3
ACAD_MLINESTYLE
350
16
  3
ACAD_PLOTSETTINGS
350
18
  3
ACAD_PLOTSTYLENAME
350
E
  3
AcDbVariableDictionary
350
246
  0
DICTIONARY
  5
B7D
102
{ACAD_REACTORS
330
C
102
}
330
C
100
AcDbDictionary
281
     1
  0
DICTIONARY
  5
D
102
{ACAD_REACTORS
330
C
102
}
330
C
100
AcDbDictionary
281
     1
  0
DICTIONARY
  5
19
102
{ACAD_REACTORS
330
C
102
}
330
C
100
AcDbDictionary
281
     1
  3
Layout1
350
1D
  3
Model
350
21
  0
DICTIONARY
  5
B7C
102
{ACAD_REACTORS
330
C
102
}
330
C
100
AcDbDictionary
281
     1
  0
DICTIONARY
  5
16
102
{ACAD_REACTORS
330
C
102
}
330
C
100
AcDbDictionary
281
     1
  3
Standard
350
17
  0
DICTIONARY
  5
18
102
{ACAD_REACTORS
330
C
102
}
330
C
100
AcDbDictionary
281
     1
  0
ACDBDICTIONARYWDFLT
  5
E
102
{ACAD_REACTORS
330
C
102
}
330
C
100
AcDbDictionary
281
     1
  3
Normal
350
F
100
AcDbDictionaryWithDefault
340
F
  0
DICTIONARY
  5
246
102
{ACAD_REACTORS
330
C
102
}
330
C
100
AcDbDictionary
281
     1
  3
DIMASSOC
350
F51
  3
PROJECTNAME
350
F52
  3
SORTENTS
350
247
  0
LAYOUT
  5
1D
102
{ACAD_REACTORS
330
19
102
}
330
19
100
AcDbPlotSettings
  1

  2
Tektronix Phaser 740
  4

  6

 40
0.0
 41
0.0
 42
0.0
 43
0.0
 44
0.0
 45
0.0
 46
0.0
 47
0.0
 48
0.0
 49
0.0
140
0.0
141
0.0
142
1.0
143
1.0
 70
   688
 72
     0
 73
     0
 74
     5
  7
monochrome.ctb
 75
    16
147
1.0
 76
     0
 77
     2
 78
   300
148
0.0
149
0.0
100
AcDbLayout
  1
Layout1
 70
     0
 71
     1
 10
0.0
 20
0.0
 11
12.0
 21
9.0
 12
0.0
 22
0.0
 32
0.0
 14
1.000000000000000E+20
 24
1.000000000000000E+20
 34
1.000000000000000E+20
 15
-1.000000000000000E+20
 25
-1.000000000000000E+20
 35
-1.000000000000000E+20
146
0.0
 13
0.0
 23
0.0
 33
0.0
 16
1.0
 26
0.0
 36
0.0
 17
0.0
 27
1.0
 37
0.0
 76
     0
330
1A
  0
LAYOUT
  5
21
102
{ACAD_REACTORS
330
19
102
}
330
19
100
AcDbPlotSettings
  1

  2
Tektronix Phaser 740
  4
A4
  6

 40
5.873749732971191
 41
6.085414409637451
 42
5.577407836914062
 43
5.662078857421875
 44
209.9733276367187
 45
296.9683227539062
 46
0.0
 47
0.0
 48
0.0
 49
0.0
140
0.0
141
0.0
142
1.0
143
1.0
 70
 11952
 72
     0
 73
     1
 74
     0
  7
monochrome.ctb
 75
     0
147
1.0
 76
     0
 77
     2
 78
   300
148
1150.120678237584
149
45.30495740799864
100
AcDbLayout
  1
Model
 70
     1
 71
     0
 10
0.0
 20
0.0
 11
12.0
 21
9.0
 12
0.0
 22
0.0
 32
0.0
 14
0.0
 24
0.0
 34
0.0
 15
0.0
 25
0.0
 35
0.0
146
0.0
 13
0.0
 23
0.0
 33
0.0
 16
1.0
 26
0.0
 36
0.0
 17
0.0
 27
1.0
 37
0.0
 76
     0
330
1E
  0
MLINESTYLE
  5
17
102
{ACAD_REACTORS
330
16
102
}
330
16
100
AcDbMlineStyle
  2
STANDARD
 70
     0
  3

 62
   256
 51
90.0
 52
90.0
 71
     2
 49
0.5
 62
   256
  6
BYLAYER
 49
-0.5
 62
   256
  6
BYLAYER
  0
ACDBPLACEHOLDER
  5
F
102
{ACAD_REACTORS
330
E
102
}
330
E
  0
DICTIONARYVAR
  5
F51
102
{ACAD_REACTORS
330
246
102
}
330
246
100
DictionaryVariables
280
     0
  1
1
  0
DICTIONARYVAR
  5
F52
102
{ACAD_REACTORS
330
246
102
}
330
246
100
DictionaryVariables
280
     0
  1

  0
DICTIONARYVAR
  5
247
102
{ACAD_REACTORS
330
246
102
}
330
246
100
DictionaryVariables
280
     0
  1
96
  0
ENDSEC
  0
EOF
