  0
SECTION
  2
HEADER
  9
$ACADVER
  1
AC1018
  9
$ACADMAINTVER
 70
     2
  9
$DWGCODEPAGE
  3
ANSI_1252
  9
$INSBASE
 10
0.0
 20
0.0
 30
0.0
  9
$EXTMIN
 10
-0.0064041928749248
 20
-0.0090573584946014
 30
-0.0000000000112498
  9
$EXTMAX
 10
420.0064100605654
 20
594.0090656570857
 30
0.0000000000002956
  9
$LIMMIN
 10
0.0
 20
0.0
  9
$LIMMAX
 10
419.9999999999999
 20
594.0000000000002
  9
$ORTHOMODE
 70
     1
  9
$REGENMODE
 70
     1
  9
$FILLMODE
 70
     1
  9
$QTEXTMODE
 70
     0
  9
$MIRRTEXT
 70
     1
  9
$LTSCALE
 40
20.0
  9
$ATTMODE
 70
     1
  9
$TEXTSIZE
 40
3.5
  9
$TRACEWID
 40
0.5
  9
$TEXTSTYLE
  7
STANDARD
  9
$CLAYER
  8
VOLL
  9
$CELTYPE
  6
ByLayer
  9
$CECOLOR
 62
   256
  9
$CELTSCALE
 40
1.0
  9
$DISPSILH
 70
     0
  9
$DIMSCALE
 40
2.0
  9
$DIMASZ
 40
3.5
  9
$DIMEXO
 40
1.0
  9
$DIMDLI
 40
7.0
  9
$DIMRND
 40
0.0
  9
$DIMDLE
 40
0.0
  9
$DIMEXE
 40
1.0
  9
$DIMTP
 40
0.0
  9
$DIMTM
 40
0.0
  9
$DIMTXT
 40
3.5
  9
$DIMCEN
 40
1.5
  9
$DIMTSZ
 40
0.0
  9
$DIMTOL
 70
     0
  9
$DIMLIM
 70
     0
  9
$DIMTIH
 70
     0
  9
$DIMTOH
 70
     0
  9
$DIMSE1
 70
     0
  9
$DIMSE2
 70
     0
  9
$DIMTAD
 70
     1
  9
$DIMZIN
 70
     8
  9
$DIMBLK
  1

  9
$DIMASO
 70
     1
  9
$DIMSHO
 70
     0
  9
$DIMPOST
  1

  9
$DIMAPOST
  1

  9
$DIMALT
 70
     0
  9
$DIMALTD
 70
     2
  9
$DIMALTF
 40
25.4
  9
$DIMLFAC
 40
1.0
  9
$DIMTOFL
 70
     1
  9
$DIMTVP
 40
0.0
  9
$DIMTIX
 70
     0
  9
$DIMSOXD
 70
     0
  9
$DIMSAH
 70
     0
  9
$DIMBLK1
  1

  9
$DIMBLK2
  1

  9
$DIMSTYLE
  2
Standard
  9
$DIMCLRD
 70
     0
  9
$DIMCLRE
 70
     0
  9
$DIMCLRT
 70
     1
  9
$DIMTFAC
 40
0.5142857142857144
  9
$DIMGAP
 40
1.5
  9
$DIMJUST
 70
     0
  9
$DIMSD1
 70
     0
  9
$DIMSD2
 70
     0
  9
$DIMTOLJ
 70
     1
  9
$DIMTZIN
 70
     8
  9
$DIMALTZ
 70
     8
  9
$DIMALTTZ
 70
     8
  9
$DIMUPT
 70
     0
  9
$DIMDEC
 70
     2
  9
$DIMTDEC
 70
     2
  9
$DIMALTU
 70
     2
  9
$DIMALTTD
 70
     2
  9
$DIMTXSTY
  7
STANDARD
  9
$DIMAUNIT
 70
     0
  9
$DIMADEC
 70
     2
  9
$DIMALTRND
 40
0.0
  9
$DIMAZIN
 70
     2
  9
$DIMDSEP
 70
    46
  9
$DIMATFIT
 70
     3
  9
$DIMFRAC
 70
     0
  9
$DIMLDRBLK
  1

  9
$DIMLUNIT
 70
     2
  9
$DIMLWD
 70
    -2
  9
$DIMLWE
 70
    -2
  9
$DIMTMOVE
 70
     0
  9
$LUNITS
 70
     2
  9
$LUPREC
 70
     2
  9
$SKETCHINC
 40
1.0
  9
$FILLETRAD
 40
154.0
  9
$AUNITS
 70
     1
  9
$AUPREC
 70
     3
  9
$MENU
  1
ACAD
  9
$ELEVATION
 40
0.0
  9
$PELEVATION
 40
0.0
  9
$THICKNESS
 40
0.0
  9
$LIMCHECK
 70
     0
  9
$CHAMFERA
 40
0.0
  9
$CHAMFERB
 40
0.0
  9
$CHAMFERC
 40
0.0
  9
$CHAMFERD
 40
0.0
  9
$SKPOLY
 70
     0
  9
$TDCREATE
 40
2452040.637099653
  9
$TDUCREATE
 40
2452040.553766320
  9
$TDUPDATE
 40
2455663.311189884
  9
$TDUUPDATE
 40
2455663.227856551
  9
$TDINDWG
 40
0.1677412153
  9
$TDUSRTIMER
 40
0.1677412153
  9
$USRTIMER
 70
     1
  9
$ANGBASE
 50
0.0
  9
$ANGDIR
 70
     0
  9
$PDMODE
 70
     0
  9
$PDSIZE
 40
0.0
  9
$PLINEWID
 40
0.0
  9
$SPLFRAME
 70
     0
  9
$SPLINETYPE
 70
     6
  9
$SPLINESEGS
 70
     8
  9
$HANDSEED
  5
96A
  9
$SURFTAB1
 70
     6
  9
$SURFTAB2
 70
     6
  9
$SURFTYPE
 70
     6
  9
$SURFU
 70
     6
  9
$SURFV
 70
     6
  9
$UCSBASE
  2

  9
$UCSNAME
  2

  9
$UCSORG
 10
0.0
 20
0.0
 30
0.0
  9
$UCSXDIR
 10
1.0
 20
0.0
 30
0.0
  9
$UCSYDIR
 10
0.0
 20
1.0
 30
0.0
  9
$UCSORTHOREF
  2

  9
$UCSORTHOVIEW
 70
     0
  9
$UCSORGTOP
 10
0.0
 20
0.0
 30
0.0
  9
$UCSORGBOTTOM
 10
0.0
 20
0.0
 30
0.0
  9
$UCSORGLEFT
 10
0.0
 20
0.0
 30
0.0
  9
$UCSORGRIGHT
 10
0.0
 20
0.0
 30
0.0
  9
$UCSORGFRONT
 10
0.0
 20
0.0
 30
0.0
  9
$UCSORGBACK
 10
0.0
 20
0.0
 30
0.0
  9
$PUCSBASE
  2

  9
$PUCSNAME
  2

  9
$PUCSORG
 10
0.0
 20
0.0
 30
0.0
  9
$PUCSXDIR
 10
1.0
 20
0.0
 30
0.0
  9
$PUCSYDIR
 10
0.0
 20
1.0
 30
0.0
  9
$PUCSORTHOREF
  2

  9
$PUCSORTHOVIEW
 70
     0
  9
$PUCSORGTOP
 10
0.0
 20
0.0
 30
0.0
  9
$PUCSORGBOTTOM
 10
0.0
 20
0.0
 30
0.0
  9
$PUCSORGLEFT
 10
0.0
 20
0.0
 30
0.0
  9
$PUCSORGRIGHT
 10
0.0
 20
0.0
 30
0.0
  9
$PUCSORGFRONT
 10
0.0
 20
0.0
 30
0.0
  9
$PUCSORGBACK
 10
0.0
 20
0.0
 30
0.0
  9
$USERI1
 70
     0
  9
$USERI2
 70
     0
  9
$USERI3
 70
     0
  9
$USERI4
 70
     0
  9
$USERI5
 70
     0
  9
$USERR1
 40
0.0
  9
$USERR2
 40
0.0
  9
$USERR3
 40
0.0
  9
$USERR4
 40
0.0
  9
$USERR5
 40
0.0
  9
$WORLDVIEW
 70
     1
  9
$SHADEDGE
 70
     3
  9
$SHADEDIF
 70
    70
  9
$TILEMODE
 70
     1
  9
$MAXACTVP
 70
    16
  9
$PINSBASE
 10
0.0
 20
0.0
 30
0.0
  9
$PLIMCHECK
 70
     0
  9
$PEXTMIN
 10
1.000000000000000E+20
 20
1.000000000000000E+20
 30
1.000000000000000E+20
  9
$PEXTMAX
 10
-1.000000000000000E+20
 20
-1.000000000000000E+20
 30
-1.000000000000000E+20
  9
$PLIMMIN
 10
0.0
 20
0.0
  9
$PLIMMAX
 10
12.0
 20
9.0
  9
$UNITMODE
 70
     0
  9
$VISRETAIN
 70
     0
  9
$PLINEGEN
 70
     0
  9
$PSLTSCALE
 70
     0
  9
$TREEDEPTH
 70
  3020
  9
$CMLSTYLE
  2
Standard
  9
$CMLJUST
 70
     0
  9
$CMLSCALE
 40
1.0
  9
$PROXYGRAPHICS
 70
     1
  9
$MEASUREMENT
 70
     0
  9
$CELWEIGHT
370
    -1
  9
$ENDCAPS
280
     0
  9
$JOINSTYLE
280
     0
  9
$LWDISPLAY
290
     0
  9
$INSUNITS
 70
     0
  9
$HYPERLINKBASE
  1

  9
$STYLESHEET
  1
monochrome 1.ctb
  9
$XEDIT
290
     1
  9
$CEPSNTYPE
380
     0
  9
$PSTYLEMODE
290
     1
  9
$FINGERPRINTGUID
  2
{7AADB5C8-6110-11D8-B72B-000102183313}
  9
$VERSIONGUID
  2
{12D81C12-27D8-42EF-857C-824D899C71B6}
  9
$EXTNAMES
290
     1
  9
$PSVPSCALE
 40
0.0
  9
$OLESTARTUP
290
     0
  9
$SORTENTS
280
    96
  9
$INDEXCTL
280
     0
  9
$HIDETEXT
280
     0
  9
$XCLIPFRAME
290
     0
  9
$HALOGAP
280
     0
  9
$OBSCOLOR
 70
   257
  9
$OBSLTYPE
280
     0
  9
$INTERSECTIONDISPLAY
280
     0
  9
$INTERSECTIONCOLOR
 70
   257
  9
$DIMASSOC
280
     1
  9
$PROJECTNAME
  1

  0
ENDSEC
  0
SECTION
  2
CLASSES
  0
CLASS
  1
ACDBDICTIONARYWDFLT
  2
AcDbDictionaryWithDefault
  3
ObjectDBX Classes
 90
        0
 91
        1
280
     0
281
     0
  0
CLASS
  1
DICTIONARYVAR
  2
AcDbDictionaryVar
  3
ObjectDBX Classes
 90
        0
 91
        3
280
     0
281
     0
  0
ENDSEC
  0
SECTION
  2
TABLES
  0
TABLE
  2
VPORT
  5
8
330
0
100
AcDbSymbolTable
 70
     3
  0
VPORT
  5
969
330
8
100
AcDbSymbolTableRecord
100
AcDbViewportTableRecord
  2
*Active
 70
     0
 10
0.0
 20
0.0
 11
1.0
 21
1.0
 12
210.0
 22
297.0
 13
0.0
 23
0.0
 14
1.0
 24
1.0
 15
10.0
 25
10.0
 16
0.0
 26
0.0
 36
1.0
 17
0.0
 27
0.0
 37
0.0
 40
594.0
 41
1.334231805929919
 42
50.0
 43
0.0
 44
0.0
 50
0.0
 51
0.0
 71
     0
 72
  1500
 73
     1
 74
     0
 75
     0
 76
     0
 77
     0
 78
     0
281
     0
 65
     1
110
0.0
120
0.0
130
0.0
111
1.0
121
0.0
131
0.0
112
0.0
122
1.0
132
0.0
 79
     0
146
0.0
  0
ENDTAB
  0
TABLE
  2
LTYPE
  5
5
330
0
100
AcDbSymbolTable
 70
     2
  0
LTYPE
  5
13
330
5
100
AcDbSymbolTableRecord
100
AcDbLinetypeTableRecord
  2
ByBlock
 70
     0
  3

 72
    65
 73
     0
 40
0.0
  0
LTYPE
  5
14
330
5
100
AcDbSymbolTableRecord
100
AcDbLinetypeTableRecord
  2
ByLayer
 70
     0
  3

 72
    65
 73
     0
 40
0.0
  0
LTYPE
  5
15
330
5
100
AcDbSymbolTableRecord
100
AcDbLinetypeTableRecord
  2
Continuous
 70
     0
  3
Solid line
 72
    65
 73
     0
 40
0.0
  0
LTYPE
  5
35
330
5
100
AcDbSymbolTableRecord
100
AcDbLinetypeTableRecord
  2
STRICHPUNKT
 70
     0
  3
__ . __ . __ . __ . __ . __ . __ . __ . __ . __
 72
    65
 73
     4
 40
1.0
 49
0.5
 74
     0
 49
-0.25
 74
     0
 49
0.0
 74
     0
 49
-0.25
 74
     0
  0
ENDTAB
  0
TABLE
  2
LAYER
  5
2
330
0
100
AcDbSymbolTable
 70
     9
  0
LAYER
  5
10
330
2
100
AcDbSymbolTableRecord
100
AcDbLayerTableRecord
  2
0
 70
     0
 62
     7
  6
Continuous
370
    -3
390
F
  0
LAYER
  5
38
330
2
100
AcDbSymbolTableRecord
100
AcDbLayerTableRecord
  2
VOLL
 70
     0
 62
     1
  6
Continuous
370
    -3
390
F
  0
LAYER
  5
39
330
2
100
AcDbSymbolTableRecord
100
AcDbLayerTableRecord
  2
HILF
 70
     0
 62
     2
  6
Continuous
370
    -3
390
F
  0
LAYER
  5
3A
330
2
100
AcDbSymbolTableRecord
100
AcDbLayerTableRecord
  2
MITTEL
 70
     0
 62
     2
  6
STRICHPUNKT
370
    -3
390
F
  0
LAYER
  5
3B
330
2
100
AcDbSymbolTableRecord
100
AcDbLayerTableRecord
  2
BEM
 70
     0
 62
     7
  6
Continuous
370
    -3
390
F
  0
LAYER
  5
3C
330
2
100
AcDbSymbolTableRecord
100
AcDbLayerTableRecord
  2
STEMPEL
 70
     0
 62
     3
  6
Continuous
370
    -3
390
F
  0
LAYER
  5
3D
330
2
100
AcDbSymbolTableRecord
100
AcDbLayerTableRecord
  2
TEXT
 70
     0
 62
     7
  6
Continuous
370
    -3
390
F
  0
LAYER
  5
3E
330
2
100
AcDbSymbolTableRecord
100
AcDbLayerTableRecord
  2
DEFPOINTS
 70
     0
 62
     7
  6
Continuous
290
     0
370
    -3
390
F
  0
LAYER
  5
3F
330
2
100
AcDbSymbolTableRecord
100
AcDbLayerTableRecord
  2
SCHRAFF
 70
     0
 62
     7
  6
Continuous
370
    -3
390
F
  0
ENDTAB
  0
TABLE
  2
STYLE
  5
3
330
0
100
AcDbSymbolTable
 70
     2
  0
STYLE
  5
11
330
3
100
AcDbSymbolTableRecord
100
AcDbTextStyleTableRecord
  2
STANDARD
 70
     0
 40
0.0
 41
0.8
 50
0.0
 71
     0
 42
3.5
  3
simplex.shx
  4

  0
STYLE
  5
34
330
3
100
AcDbSymbolTableRecord
100
AcDbTextStyleTableRecord
  2
GREEKS
 70
     0
 40
0.0
 41
0.8
 50
0.0
 71
     0
 42
2.5
  3
SIMPLEX.shx
  4

  0
ENDTAB
  0
TABLE
  2
VIEW
  5
6
330
0
100
AcDbSymbolTable
 70
     0
  0
ENDTAB
  0
TABLE
  2
UCS
  5
7
330
0
100
AcDbSymbolTable
 70
     0
  0
ENDTAB
  0
TABLE
  2
APPID
  5
9
330
0
100
AcDbSymbolTable
 70
     2
  0
APPID
  5
12
330
9
100
AcDbSymbolTableRecord
100
AcDbRegAppTableRecord
  2
ACAD
 70
     0
  0
APPID
  5
895
330
9
100
AcDbSymbolTableRecord
100
AcDbRegAppTableRecord
  2
DCO15
 70
     0
  0
ENDTAB
  0
TABLE
  2
DIMSTYLE
  5
A
330
0
100
AcDbSymbolTable
 70
     1
100
AcDbDimStyleTable
 71
     1
340
1CB
  0
DIMSTYLE
105
1CB
102
{ACAD_REACTORS
330
695
330
741
330
75C
330
7DF
102
}
330
A
100
AcDbSymbolTableRecord
100
AcDbDimStyleTableRecord
  2
Standard
 70
     0
340
11
  0
ENDTAB
  0
TABLE
  2
BLOCK_RECORD
  5
1
330
0
100
AcDbSymbolTable
 70
     8
  0
BLOCK_RECORD
  5
1E
330
1
100
AcDbSymbolTableRecord
100
AcDbBlockTableRecord
  2
*Model_Space
340
21
  0
BLOCK_RECORD
  5
1A
330
1
100
AcDbSymbolTableRecord
100
AcDbBlockTableRecord
  2
*Paper_Space
340
1D
  0
BLOCK_RECORD
  5
22
330
1
100
AcDbSymbolTableRecord
100
AcDbBlockTableRecord
  2
LOGO
340
0
102
{BLKREFS
331
135
102
}
  0
BLOCK_RECORD
  5
6B2
330
1
100
AcDbSymbolTableRecord
100
AcDbBlockTableRecord
  2
*D2
340
0
  0
BLOCK_RECORD
  5
742
330
1
100
AcDbSymbolTableRecord
100
AcDbBlockTableRecord
  2
*D3
340
0
  0
BLOCK_RECORD
  5
75D
330
1
100
AcDbSymbolTableRecord
100
AcDbBlockTableRecord
  2
*D4
340
0
  0
BLOCK_RECORD
  5
7E0
330
1
100
AcDbSymbolTableRecord
100
AcDbBlockTableRecord
  2
*D5
340
0
  0
ENDTAB
  0
ENDSEC
  0
SECTION
  2
BLOCKS
  0
BLOCK
  5
43
330
1E
100
AcDbEntity
  8
0
100
AcDbBlockBegin
  2
*Model_Space
 70
     0
 10
0.0
 20
0.0
 30
0.0
  3
*Model_Space
  1

  0
ENDBLK
  5
44
330
1E
100
AcDbEntity
  8
0
100
AcDbBlockEnd
  0
BLOCK
  5
41
330
1A
100
AcDbEntity
 67
     1
  8
0
100
AcDbBlockBegin
  2
*Paper_Space
 70
     0
 10
0.0
 20
0.0
 30
0.0
  3
*Paper_Space
  1

  0
ENDBLK
  5
42
330
1A
100
AcDbEntity
 67
     1
  8
0
100
AcDbBlockEnd
  0
BLOCK
  5
45
330
22
100
AcDbEntity
  8
0
100
AcDbBlockBegin
  2
LOGO
 70
     0
 10
0.0
 20
0.0
 30
0.0
  3
LOGO
  1

  0
ARC
  5
46
330
22
100
AcDbEntity
  8
0
100
AcDbCircle
 10
11.59973089678112
 20
-9.271599258481501
 30
0.0
 40
4.5
100
AcDbArc
 50
270.0
 51
231.0575587310159
  0
LINE
  5
47
330
22
100
AcDbEntity
  8
0
100
AcDbLine
 10
3.599730896781125
 20
-4.771599258481529
 30
0.0
 11
3.599730896781153
 21
-11.77159925848133
 31
0.0
  0
LINE
  5
48
330
22
100
AcDbEntity
  8
0
100
AcDbLine
 10
2.599730896781125
 20
-4.771599258481529
 30
0.0
 11
2.599730896781153
 21
-11.77159925848133
 31
0.0
  0
CIRCLE
  5
49
330
22
100
AcDbEntity
  8
0
100
AcDbCircle
 10
11.59973089678112
 20
-9.271599258481501
 30
0.0
 40
3.5
  0
ARC
  5
4A
330
22
100
AcDbEntity
  8
0
100
AcDbCircle
 10
31.59973089678115
 20
-9.271599258481472
 30
0.0
 40
4.5
100
AcDbArc
 50
270.0
 51
231.0575587310182
  0
LINE
  5
4B
330
22
100
AcDbEntity
  8
0
100
AcDbLine
 10
17.59973089678112
 20
-4.771599258481472
 30
0.0
 11
17.59973089678115
 21
-13.77159925848147
 31
0.0
  0
ARC
  5
4C
330
22
100
AcDbEntity
  8
0
100
AcDbCircle
 10
22.59973089678116
 20
-7.271599258481472
 30
0.0
 40
2.5
100
AcDbArc
 50
293.1161887722295
 51
90.0
  0
CIRCLE
  5
4D
330
22
100
AcDbEntity
  8
0
100
AcDbCircle
 10
31.59973089678115
 20
-9.271599258481472
 30
0.0
 40
3.5
  0
ARC
  5
4E
330
22
100
AcDbEntity
  8
0
100
AcDbCircle
 10
4.599730896781153
 20
-11.77159925848133
 30
0.0
 40
1.0
100
AcDbArc
 50
180.0
 51
270.0
  0
ARC
  5
4F
330
22
100
AcDbEntity
  8
0
100
AcDbCircle
 10
4.599730896781153
 20
-11.77159925848133
 30
0.0
 40
2.0
100
AcDbArc
 50
179.9999999999992
 51
270.0
  0
LINE
  5
50
330
22
100
AcDbEntity
  8
0
100
AcDbLine
 10
11.59973089678115
 20
-13.77159925848144
 30
0.0
 11
4.599730896781153
 21
-13.77159925848147
 31
0.0
  0
LINE
  5
51
330
22
100
AcDbEntity
  8
0
100
AcDbLine
 10
8.771303772034769
 20
-12.77159925848136
 30
0.0
 11
4.599730896781153
 21
-12.77159925848133
 31
0.0
  0
LINE
  5
52
330
22
100
AcDbEntity
  8
0
100
AcDbLine
 10
31.59973089678115
 20
-13.77159925848147
 30
0.0
 11
23.6715276665056
 21
-13.77159925848144
 31
0.0
  0
LINE
  5
53
330
22
100
AcDbEntity
  8
0
100
AcDbLine
 10
23.56565672307022
 20
-9.51278021337896
 30
0.0
 11
24.4388546544846
 21
-12.77159925848144
 31
0.0
  0
LINE
  5
54
330
22
100
AcDbEntity
  8
0
100
AcDbLine
 10
22.59973089678116
 20
-9.771599258481472
 30
0.0
 11
18.59973089678112
 21
-9.771599258481472
 31
0.0
  0
LINE
  5
55
330
22
100
AcDbEntity
  8
0
100
AcDbLine
 10
18.59973089678115
 20
-13.77159925848144
 30
0.0
 11
17.59973089678115
 21
-13.77159925848144
 31
0.0
  0
LINE
  5
56
330
22
100
AcDbEntity
  8
0
100
AcDbLine
 10
18.59973089678115
 20
-9.771599258481472
 30
0.0
 11
18.59973089678115
 21
-13.77159925848144
 31
0.0
  0
LINE
  5
57
330
22
100
AcDbEntity
  8
0
100
AcDbLine
 10
22.59973089678116
 20
-9.771599258481472
 30
0.0
 11
23.67152766650562
 21
-13.77159925848147
 31
0.0
  0
ARC
  5
58
330
22
100
AcDbEntity
  8
0
100
AcDbCircle
 10
22.59973089678116
 20
-7.271599258481472
 30
0.0
 40
2.5
100
AcDbArc
 50
270.0
 51
270.0000000000007
  0
LINE
  5
59
330
22
100
AcDbEntity
  8
0
100
AcDbLine
 10
28.77130377203494
 20
-12.77159925848147
 30
0.0
 11
24.43885465448463
 21
-12.77159925848144
 31
0.0
  0
LINE
  5
5A
330
22
100
AcDbEntity
  8
0
100
AcDbLine
 10
3.599730896781125
 20
-4.771599258481472
 30
0.0
 11
2.599730896781125
 21
-4.771599258481472
 31
0.0
  0
LINE
  5
5B
330
22
100
AcDbEntity
  8
0
100
AcDbLine
 10
22.59973089678116
 20
-8.771599258481472
 30
0.0
 11
18.59973089678115
 21
-8.771599258481472
 31
0.0
  0
LINE
  5
5C
330
22
100
AcDbEntity
  8
0
100
AcDbLine
 10
22.59973089678116
 20
-5.771599258481472
 30
0.0
 11
18.59973089678115
 21
-5.771599258481472
 31
0.0
  0
LINE
  5
5D
330
22
100
AcDbEntity
  8
0
100
AcDbLine
 10
22.59973089678116
 20
-4.771599258481472
 30
0.0
 11
17.59973089678115
 21
-4.771599258481472
 31
0.0
  0
LINE
  5
5E
330
22
100
AcDbEntity
  8
0
100
AcDbLine
 10
18.59973089678115
 20
-5.771599258481472
 30
0.0
 11
18.59973089678115
 21
-8.771599258481472
 31
0.0
  0
ARC
  5
5F
330
22
100
AcDbEntity
  8
0
100
AcDbCircle
 10
22.59973089678116
 20
-7.271599258481472
 30
0.0
 40
1.5
100
AcDbArc
 50
270.0
 51
90.0
  0
ENDBLK
  5
60
330
22
100
AcDbEntity
  8
0
100
AcDbBlockEnd
  0
BLOCK
  5
6BC
330
6B2
100
AcDbEntity
  8
0
100
AcDbBlockBegin
  2
*D2
 70
     1
 10
0.0
 20
0.0
 30
0.0
  3
*D2
  1

  0
LINE
  5
7C0
330
6B2
100
AcDbEntity
  8
BEM
 62
     0
370
    -2
100
AcDbLine
 10
148.1985840622011
 20
225.4269738002634
 30
0.0
 11
148.1985840622011
 21
199.5113458608543
 31
0.0
  0
LINE
  5
7C1
330
6B2
100
AcDbEntity
  8
BEM
 62
     0
370
    -2
100
AcDbLine
 10
221.1985840622011
 20
225.4269738002638
 30
0.0
 11
221.1985840622011
 21
199.5113458608543
 31
0.0
  0
LINE
  5
7C2
330
6B2
100
AcDbEntity
  8
BEM
 62
     0
370
    -2
100
AcDbLine
 10
155.1985840622011
 20
201.5113458608543
 30
0.0
 11
214.1985840622011
 21
201.5113458608543
 31
0.0
  0
SOLID
  5
7C3
330
6B2
100
AcDbEntity
  8
BEM
 62
     0
100
AcDbTrace
 10
155.1985840622011
 20
202.678012527521
 30
0.0
 11
155.1985840622011
 21
200.3446791941877
 31
0.0
 12
148.1985840622011
 22
201.5113458608543
 32
0.0
 13
148.1985840622011
 23
201.5113458608543
 33
0.0
  0
SOLID
  5
7C4
330
6B2
100
AcDbEntity
  8
BEM
 62
     0
100
AcDbTrace
 10
214.1985840622011
 20
202.678012527521
 30
0.0
 11
214.1985840622011
 21
200.3446791941877
 31
0.0
 12
221.1985840622011
 22
201.5113458608543
 32
0.0
 13
221.1985840622011
 23
201.5113458608543
 33
0.0
  0
MTEXT
  5
7C5
330
6B2
100
AcDbEntity
  8
BEM
 62
     1
100
AcDbMText
 10
184.6985840622011
 20
208.0113458608543
 30
0.0
 40
7.0
 41
0.0
 71
     5
 72
     1
  1
\A1;%%c73
 73
     1
 44
1.0
  0
POINT
  5
7C6
330
6B2
100
AcDbEntity
  8
DEFPOINTS
 62
     0
100
AcDbPoint
 10
148.1985840622011
 20
227.4269738002634
 30
0.0
  0
POINT
  5
7C7
330
6B2
100
AcDbEntity
  8
DEFPOINTS
 62
     0
100
AcDbPoint
 10
221.1985840622011
 20
227.4269738002638
 30
0.0
  0
POINT
  5
7C8
330
6B2
100
AcDbEntity
  8
DEFPOINTS
 62
     0
100
AcDbPoint
 10
221.1985840622011
 20
201.5113458608543
 30
0.0
  0
ENDBLK
  5
6BD
330
6B2
100
AcDbEntity
  8
0
100
AcDbBlockEnd
  0
BLOCK
  5
74C
330
742
100
AcDbEntity
  8
0
100
AcDbBlockBegin
  2
*D3
 70
     1
 10
0.0
 20
0.0
 30
0.0
  3
*D3
  1

  0
LINE
  5
7B7
330
742
100
AcDbEntity
  8
BEM
 62
     0
370
    -2
100
AcDbLine
 10
146.6360273798307
 20
222.4269738002632
 30
0.0
 11
126.6284429368818
 21
222.4269738002632
 31
0.0
  0
LINE
  5
7B8
330
742
100
AcDbEntity
  8
BEM
 62
     0
370
    -2
100
AcDbLine
 10
182.6985840622012
 20
344.4269738002633
 30
0.0
 11
126.6284429368818
 21
344.4269738002633
 31
0.0
  0
LINE
  5
7B9
330
742
100
AcDbEntity
  8
BEM
 62
     0
370
    -2
100
AcDbLine
 10
128.6284429368818
 20
229.4269738002632
 30
0.0
 11
128.6284429368818
 21
337.4269738002633
 31
0.0
  0
SOLID
  5
7BA
330
742
100
AcDbEntity
  8
BEM
 62
     0
100
AcDbTrace
 10
127.4617762702151
 20
229.4269738002632
 30
0.0
 11
129.7951096035484
 21
229.4269738002632
 31
0.0
 12
128.6284429368818
 22
222.4269738002632
 32
0.0
 13
128.6284429368818
 23
222.4269738002632
 33
0.0
  0
SOLID
  5
7BB
330
742
100
AcDbEntity
  8
BEM
 62
     0
100
AcDbTrace
 10
127.4617762702151
 20
337.4269738002634
 30
0.0
 11
129.7951096035484
 21
337.4269738002633
 31
0.0
 12
128.6284429368818
 22
344.4269738002633
 32
0.0
 13
128.6284429368818
 23
344.4269738002633
 33
0.0
  0
MTEXT
  5
7BC
330
742
100
AcDbEntity
  8
BEM
 62
     1
100
AcDbMText
 10
122.1284429368817
 20
283.4269738002633
 30
0.0
 40
7.0
 41
0.0
 71
     5
 72
     1
  1
\A1;122
 11
0.0000000000000001
 21
1.0
 31
0.0
 73
     1
 44
1.0
  0
POINT
  5
7BD
330
742
100
AcDbEntity
  8
DEFPOINTS
 62
     0
100
AcDbPoint
 10
148.6360273798307
 20
222.4269738002632
 30
0.0
  0
POINT
  5
7BE
330
742
100
AcDbEntity
  8
DEFPOINTS
 62
     0
100
AcDbPoint
 10
184.6985840622012
 20
344.4269738002633
 30
0.0
  0
POINT
  5
7BF
330
742
100
AcDbEntity
  8
DEFPOINTS
 62
     0
100
AcDbPoint
 10
128.6284429368818
 20
344.4269738002633
 30
0.0
  0
ENDBLK
  5
74D
330
742
100
AcDbEntity
  8
0
100
AcDbBlockEnd
  0
BLOCK
  5
767
330
75D
100
AcDbEntity
  8
0
100
AcDbBlockBegin
  2
*D4
 70
     1
 10
0.0
 20
0.0
 30
0.0
  3
*D4
  1

  0
LINE
  5
841
330
75D
100
AcDbEntity
  8
BEM
 62
     0
370
    -2
100
AcDbLine
 10
183.2843704998281
 20
345.8411873626364
 30
0.0
 11
116.737659707414
 21
412.3878981550507
 31
0.0
  0
LINE
  5
842
330
75D
100
AcDbEntity
  8
BEM
 62
     0
370
    -2
100
AcDbLine
 10
253.0824298154112
 20
471.2045996545402
 30
0.0
 11
214.3183955111577
 21
509.9686339587939
 31
0.0
  0
LINE
  5
843
330
75D
100
AcDbEntity
  8
BEM
 62
     0
370
    -2
100
AcDbLine
 10
123.101620738093
 20
415.9234320609835
 30
0.0
 11
210.7828616052249
 21
503.6046729281149
 31
0.0
  0
SOLID
  5
844
330
75D
100
AcDbEntity
  8
BEM
 62
     0
100
AcDbTrace
 10
122.2766628267087
 20
416.7483899723678
 30
0.0
 11
123.9265786494773
 21
415.0984741495991
 31
0.0
 12
118.1518732697871
 22
410.9736845926776
 32
0.0
 13
118.1518732697871
 23
410.9736845926776
 33
0.0
  0
SOLID
  5
845
330
75D
100
AcDbEntity
  8
BEM
 62
     0
100
AcDbTrace
 10
209.9579036938406
 20
504.4296308394993
 30
0.0
 11
211.6078195166092
 21
502.7797150167306
 31
0.0
 12
215.7326090735308
 22
508.5544203964208
 32
0.0
 13
215.7326090735308
 23
508.5544203964208
 33
0.0
  0
MTEXT
  5
846
330
75D
100
AcDbEntity
  8
BEM
 62
     1
100
AcDbMText
 10
162.3460470939463
 20
464.3602465722619
 30
0.0
 40
7.0
 41
0.0
 71
     5
 72
     1
  1
\A1;138
 11
0.7071067811865493
 21
0.7071067811865458
 31
0.0
 73
     1
 44
1.0
  0
POINT
  5
847
330
75D
100
AcDbEntity
  8
DEFPOINTS
 62
     0
100
AcDbPoint
 10
184.6985840622012
 20
344.4269738002633
 30
0.0
  0
POINT
  5
848
330
75D
100
AcDbEntity
  8
DEFPOINTS
 62
     0
100
AcDbPoint
 10
254.4966433777843
 20
469.7903860921671
 30
0.0
  0
POINT
  5
849
330
75D
100
AcDbEntity
  8
DEFPOINTS
 62
     0
100
AcDbPoint
 10
215.7326090735308
 20
508.5544203964208
 30
0.0
  0
ENDBLK
  5
768
330
75D
100
AcDbEntity
  8
0
100
AcDbBlockEnd
  0
BLOCK
  5
7EC
330
7E0
100
AcDbEntity
  8
0
100
AcDbBlockBegin
  2
*D5
 70
     1
 10
0.0
 20
0.0
 30
0.0
  3
*D5
  1

  0
LINE
  5
837
330
7E0
100
AcDbEntity
  8
BEM
 62
     0
370
    -2
100
AcDbLine
 10
184.6985840622012
 20
346.4269738002631
 30
0.0
 11
184.6985840622012
 21
467.9218774724872
 31
0.0
  0
ARC
  5
838
330
7E0
100
AcDbEntity
  8
BEM
 62
     0
370
    -2
100
AcDbCircle
 10
184.6985840622012
 20
344.4269738002631
 30
0.0
 40
121.4949036722241
100
AcDbArc
 50
48.30158664423349
 51
86.69841335576665
  0
SOLID
  5
839
330
7E0
100
AcDbEntity
  8
BEM
 62
     0
100
AcDbTrace
 10
266.3190201698159
 20
435.9903266843168
 30
0.0
 11
264.7173195455843
 21
434.2935651940712
 31
0.0
 12
270.6084543284371
 22
430.3368440664994
 32
0.0
 13
270.6084543284371
 23
430.3368440664994
 33
0.0
  0
SOLID
  5
83A
330
7E0
100
AcDbEntity
  8
BEM
 62
     0
100
AcDbTrace
 10
191.6620697566105
 20
464.5540404592183
 30
0.0
 11
191.7292879395945
 21
466.886405387852
 31
0.0
 12
184.6985840622012
 22
465.9218774724871
 32
0.0
 13
184.6985840622012
 23
465.9218774724871
 33
0.0
  0
MTEXT
  5
83B
330
7E0
100
AcDbEntity
  8
BEM
 62
     1
100
AcDbMText
 10
226.5033004569321
 20
465.4024302086522
 30
0.0
 40
7.0
 41
0.0
 71
     5
 72
     1
  1
\A1;45°
 11
0.9451583847290454
 21
-0.3266123509244283
 31
0.0
 73
     1
 44
1.0
  0
POINT
  5
83C
330
7E0
100
AcDbEntity
  8
DEFPOINTS
 62
     0
100
AcDbPoint
 10
245.4460358983131
 20
449.6446468107525
 30
0.0
  0
POINT
  5
83D
330
7E0
100
AcDbEntity
  8
DEFPOINTS
 62
     0
100
AcDbPoint
 10
184.6985840622012
 20
344.4269738002631
 30
0.0
  0
POINT
  5
83E
330
7E0
100
AcDbEntity
  8
DEFPOINTS
 62
     0
100
AcDbPoint
 10
285.8148537718773
 20
445.5432435099395
 30
0.0
  0
POINT
  5
83F
330
7E0
100
AcDbEntity
  8
DEFPOINTS
 62
     0
100
AcDbPoint
 10
184.6985840622012
 20
344.4269738002631
 30
0.0
  0
POINT
  5
840
330
7E0
100
AcDbEntity
  8
DEFPOINTS
 62
     0
100
AcDbPoint
 10
184.6985840622012
 20
217.4269738002635
 30
0.0
  0
ENDBLK
  5
7ED
330
7E0
100
AcDbEntity
  8
0
100
AcDbBlockEnd
  0
ENDSEC
  0
SECTION
  2
ENTITIES
  0
TEXT
  5
134
330
1E
100
AcDbEntity
  8
TEXT
100
AcDbText
 10
204.4216048581257
 20
63.0896391972351
 30
0.0
 40
4.0
  1
Koeh
 41
0.8
  7
GREEKS
 72
     1
 11
209.6787477152686
 21
63.0896391972351
 31
0.0
100
AcDbText
  0
INSERT
  5
135
330
1E
100
AcDbEntity
  8
STEMPEL
100
AcDbBlockReference
  2
LOGO
 10
150.9955485457794
 20
45.02105276448322
 30
0.0
 41
2.0
 42
2.0
 43
2.0
  0
LINE
  5
136
330
1E
100
AcDbEntity
  8
HILF
100
AcDbLine
 10
420.0
 20
0.0
 30
0.0
 11
0.0
 21
0.0
 31
0.0
  0
LINE
  5
137
330
1E
100
AcDbEntity
  8
HILF
100
AcDbLine
 10
419.9999999999999
 20
594.0000000000002
 30
0.0
 11
0.0
 21
594.0
 31
0.0
  0
LINE
  5
138
330
1E
100
AcDbEntity
  8
STEMPEL
100
AcDbLine
 10
410.0
 20
584.0
 30
0.0
 11
39.99999999999989
 21
584.0
 31
0.0
  0
LINE
  5
139
330
1E
100
AcDbEntity
  8
STEMPEL
100
AcDbLine
 10
410.0
 20
10.0
 30
0.0
 11
39.99999999999989
 21
10.0
 31
0.0
  0
LINE
  5
13A
330
1E
100
AcDbEntity
  8
STEMPEL
100
AcDbLine
 10
49.99999999999989
 20
10.0
 30
0.0
 11
410.0
 21
10.0
 31
0.0
  0
TEXT
  5
13B
330
1E
100
AcDbEntity
  8
TEXT
100
AcDbText
 10
202.4626584226295
 20
73.30961091915225
 30
0.0
 40
4.0
  1
Name
 41
0.8
  7
GREEKS
100
AcDbText
  0
TEXT
  5
13C
330
1E
100
AcDbEntity
  8
TEXT
100
AcDbText
 10
196.5498279101549
 20
102.6506227776589
 30
0.0
 40
5.0
  1
Zul. Abw.
 41
0.8
  7
GREEKS
 72
     4
 11
209.9783993387263
 21
105.1506227776589
 31
0.0
100
AcDbText
  0
LINE
  5
13D
330
1E
100
AcDbEntity
  8
HILF
100
AcDbLine
 10
146.0000000000001
 20
49.99999999999997
 30
0.0
 11
230.0
 21
49.99999999999997
 31
0.0
  0
LINE
  5
13E
330
1E
100
AcDbEntity
  8
HILF
100
AcDbLine
 10
146.0000000000001
 20
59.99999999999997
 30
0.0
 11
230.0
 21
59.99999999999997
 31
0.0
  0
LINE
  5
13F
330
1E
100
AcDbEntity
  8
HILF
100
AcDbLine
 10
146.0000000000001
 20
69.99999999999994
 30
0.0
 11
230.0
 21
69.99999999999994
 31
0.0
  0
LINE
  5
140
330
1E
100
AcDbEntity
  8
STEMPEL
100
AcDbLine
 10
410.0
 20
80.0
 30
0.0
 11
146.0000000000001
 21
79.99999999999994
 31
0.0
  0
LINE
  5
141
330
1E
100
AcDbEntity
  8
STEMPEL
100
AcDbLine
 10
410.0
 20
40.0
 30
0.0
 11
146.0000000000001
 21
39.99999999999997
 31
0.0
  0
LINE
  5
142
330
1E
100
AcDbEntity
  8
STEMPEL
100
AcDbLine
 10
410.0
 20
110.0
 30
0.0
 11
39.99999999999997
 21
110.0
 31
0.0
  0
LINE
  5
144
330
1E
100
AcDbEntity
  8
HILF
100
AcDbLine
 10
0.0
 20
0.0
 30
0.0
 11
-0.0000000000001137
 21
594.0
 31
0.0
  0
LINE
  5
145
330
1E
100
AcDbEntity
  8
STEMPEL
100
AcDbLine
 10
40.0
 20
10.0
 30
0.0
 11
39.99999999999989
 21
584.0
 31
0.0
  0
LINE
  5
148
330
1E
100
AcDbEntity
  8
HILF
100
AcDbLine
 10
40.00000000000008
 20
39.99999999999997
 30
0.0
 11
146.0000000000001
 21
39.99999999999997
 31
0.0
  0
LINE
  5
149
330
1E
100
AcDbEntity
  8
HILF
100
AcDbLine
 10
40.00000000000008
 20
49.99999999999997
 30
0.0
 11
146.0000000000001
 21
49.99999999999997
 31
0.0
  0
LINE
  5
14A
330
1E
100
AcDbEntity
  8
HILF
100
AcDbLine
 10
40.00000000000008
 20
59.99999999999997
 30
0.0
 11
146.0000000000001
 21
59.99999999999997
 31
0.0
  0
LINE
  5
14B
330
1E
100
AcDbEntity
  8
HILF
100
AcDbLine
 10
40.00000000000008
 20
69.99999999999994
 30
0.0
 11
146.0000000000001
 21
69.99999999999994
 31
0.0
  0
LINE
  5
14C
330
1E
100
AcDbEntity
  8
HILF
100
AcDbLine
 10
40.00000000000008
 20
79.99999999999994
 30
0.0
 11
146.0000000000001
 21
79.99999999999994
 31
0.0
  0
LINE
  5
14D
330
1E
100
AcDbEntity
  8
HILF
100
AcDbLine
 10
40.00000000000008
 20
90.00000000000005
 30
0.0
 11
146.0000000000001
 21
90.00000000000005
 31
0.0
  0
LINE
  5
14E
330
1E
100
AcDbEntity
  8
HILF
100
AcDbLine
 10
40.00000000000008
 20
100.0
 30
0.0
 11
146.0000000000001
 21
100.0
 31
0.0
  0
LINE
  5
14F
330
1E
100
AcDbEntity
  8
STEMPEL
100
AcDbLine
 10
145.9999999999999
 20
29.99999999999997
 30
0.0
 11
39.99999999999997
 21
29.99999999999997
 31
0.0
  0
TEXT
  5
150
330
1E
100
AcDbEntity
  8
TEXT
100
AcDbText
 10
48.26641107045756
 20
13.65465846027192
 30
0.0
 40
4.0
  1
Index
 50
90.0
 41
0.8
  7
GREEKS
100
AcDbText
  0
LINE
  5
151
330
1E
100
AcDbEntity
  8
VOLL
100
AcDbLine
 10
54.00000000000009
 20
110.0
 30
0.0
 11
53.99999999999997
 21
9.999999999999971
 31
0.0
  0
LINE
  5
152
330
1E
100
AcDbEntity
  8
HILF
100
AcDbLine
 10
31.08767135713856
 20
297.0
 30
0.0
 11
0.0000000000001137
 21
297.0
 31
0.0
  0
LINE
  5
154
330
1E
100
AcDbEntity
  8
VOLL
100
AcDbLine
 10
124.0000000000001
 20
109.9999999999999
 30
0.0
 11
124.0
 21
9.999999999999971
 31
0.0
  0
LINE
  5
155
330
1E
100
AcDbEntity
  8
VOLL
100
AcDbLine
 10
104.0000000000001
 20
109.9999999999999
 30
0.0
 11
104.0
 21
9.999999999999971
 31
0.0
  0
LINE
  5
157
330
1E
100
AcDbEntity
  8
STEMPEL
100
AcDbLine
 10
146.0000000000001
 20
109.9999999999999
 30
0.0
 11
146.0
 21
9.999999999999971
 31
0.0
  0
TEXT
  5
159
330
1E
100
AcDbEntity
  8
TEXT
100
AcDbText
 10
172.331167315365
 20
73.31880501229926
 30
0.0
 40
4.0
  1
Tag
 41
0.8
  7
GREEKS
100
AcDbText
  0
TEXT
  5
15A
330
1E
100
AcDbEntity
  8
TEXT
100
AcDbText
 10
147.5836127167615
 20
63.62990369617964
 30
0.0
 40
4.0
  1
Gez.
 41
0.8
  7
GREEKS
100
AcDbText
  0
LINE
  5
15B
330
1E
100
AcDbEntity
  8
VOLL
100
AcDbLine
 10
164.0000000000001
 20
79.99999999999994
 30
0.0
 11
164.0000000000001
 21
39.99999999999997
 31
0.0
  0
TEXT
  5
15C
330
1E
100
AcDbEntity
  8
TEXT
100
AcDbText
 10
147.6006777387303
 20
43.52946389649807
 30
0.0
 40
4.0
  1
Norm.
 41
0.8
  7
GREEKS
100
AcDbText
  0
TEXT
  5
15D
330
1E
100
AcDbEntity
  8
TEXT
100
AcDbText
 10
147.5515086571672
 20
53.68926291428377
 30
0.0
 40
4.0
  1
Gepr.
 41
0.8
  7
GREEKS
100
AcDbText
  0
TEXT
  5
15E
330
1E
100
AcDbEntity
  8
TEXT
 62
     1
100
AcDbText
 10
160.5006306481887
 20
88.14901428913959
 30
0.0
 40
7.0
  1
1:2
 41
0.8
  7
GREEKS
100
AcDbText
  0
TEXT
  5
15F
330
1E
100
AcDbEntity
  8
TEXT
100
AcDbText
 10
153.5163572150377
 20
102.4620895087088
 30
0.0
 40
5.0
  1
Maßstab
 41
0.8
  7
GREEKS
100
AcDbText
  0
TEXT
  5
160
330
1E
100
AcDbEntity
  8
TEXT
100
AcDbText
 10
148.622109822104
 20
73.14025471151666
 30
0.0
 40
4.0
  1
2011
 41
0.8
  7
GREEKS
100
AcDbText
  0
LINE
  5
161
330
1E
100
AcDbEntity
  8
VOLL
100
AcDbLine
 10
190.0000000000001
 20
109.9999999999998
 30
0.0
 11
190.0
 21
39.99999999999997
 31
0.0
  0
LINE
  5
186
330
1E
100
AcDbEntity
  8
HILF
100
AcDbLine
 10
420.0
 20
-0.0000000000001137
 30
0.0
 11
419.9999999999999
 21
594.0
 31
0.0
  0
LINE
  5
187
330
1E
100
AcDbEntity
  8
STEMPEL
100
AcDbLine
 10
410.0
 20
10.0
 30
0.0
 11
410.0
 21
584.0
 31
0.0
  0
TEXT
  5
188
330
1E
100
AcDbEntity
  8
TEXT
100
AcDbText
 10
337.2400861497006
 20
52.07416177878602
 30
0.0
 40
5.0
  1
ersetzt durch:
 41
0.8
  7
GREEKS
100
AcDbText
  0
TEXT
  5
189
330
1E
100
AcDbEntity
  8
TEXT
100
AcDbText
 10
336.7238616296993
 20
73.1811823709997
 30
0.0
 40
5.0
  1
Ersatz für:
 41
0.8
  7
GREEKS
100
AcDbText
  0
TEXT
  5
18A
330
1E
100
AcDbEntity
  8
TEXT
100
AcDbText
 10
336.178754957634
 20
102.3132034537136
 30
0.0
 40
5.0
  1
Zeichnungs Nr.
 41
0.8
  7
GREEKS
100
AcDbText
  0
LINE
  5
18B
330
1E
100
AcDbEntity
  8
HILF
100
AcDbLine
 10
233.4909699289885
 20
14.89398258028314
 30
0.0
 11
404.8588839326728
 21
14.89398258028314
 31
0.0
  0
LINE
  5
18C
330
1E
100
AcDbEntity
  8
HILF
100
AcDbLine
 10
336.7238616296993
 20
83.77983636955827
 30
0.0
 11
404.8588839326728
 21
83.77983636955827
 31
0.0
  0
LINE
  5
18D
330
1E
100
AcDbEntity
  8
VOLL
100
AcDbLine
 10
332.0
 20
60.0
 30
0.0
 11
410.0
 21
60.0
 31
0.0
  0
TEXT
  5
18E
330
1E
100
AcDbEntity
  8
TEXT
 62
     1
100
AcDbText
 10
234.9283864320014
 20
87.41748789253779
 30
0.0
 40
7.0
  1
Bogen DN70 45°
 41
0.8
  7
GREEKS
100
AcDbText
  0
LINE
  5
18F
330
1E
100
AcDbEntity
  8
HILF
100
AcDbLine
 10
234.7736801096947
 20
49.99999999999997
 30
0.0
 11
324.835391655631
 21
49.99999999999997
 31
0.0
  0
LINE
  5
190
330
1E
100
AcDbEntity
  8
HILF
100
AcDbLine
 10
234.7736801096947
 20
59.99999999999997
 30
0.0
 11
324.835391655631
 21
59.99999999999997
 31
0.0
  0
LINE
  5
191
330
1E
100
AcDbEntity
  8
HILF
100
AcDbLine
 10
234.7736801096947
 20
69.99999999999994
 30
0.0
 11
324.835391655631
 21
69.99999999999994
 31
0.0
  0
LINE
  5
192
330
1E
100
AcDbEntity
  8
HILF
100
AcDbLine
 10
234.7736801096947
 20
84.03758247564139
 30
0.0
 11
324.8353916556311
 21
84.03758247564139
 31
0.0
  0
LINE
  5
193
330
1E
100
AcDbEntity
  8
STEMPEL
100
AcDbLine
 10
230.0
 20
110.0
 30
0.0
 11
230.0
 21
9.999999999999971
 31
0.0
  0
TEXT
  5
194
330
1E
100
AcDbEntity
  8
TEXT
100
AcDbText
 10
235.1296391125315
 20
71.50334417585288
 30
0.0
 40
5.0
  1
dünnwandig
 41
0.8
  7
GREEKS
100
AcDbText
  0
TEXT
  5
195
330
1E
100
AcDbEntity
  8
TEXT
100
AcDbText
 10
234.9837501577827
 20
42.62974153022632
 30
0.0
 40
4.0
  1
5320070W.DWG
 41
0.8
  7
GREEKS
100
AcDbText
  0
TEXT
  5
196
330
1E
100
AcDbEntity
  8
TEXT
100
AcDbText
 10
234.742238391136
 20
30.84560570193057
 30
0.0
 40
5.0
  1
Bauvorhaben
 41
0.8
  7
GREEKS
100
AcDbText
  0
TEXT
  5
197
330
1E
100
AcDbEntity
  8
TEXT
100
AcDbText
 10
234.877940380901
 20
102.5489328011779
 30
0.0
 40
5.0
  1
Benennung
 41
0.8
  7
GREEKS
100
AcDbText
  0
LINE
  5
198
330
1E
100
AcDbEntity
  8
STEMPEL
100
AcDbLine
 10
332.0
 20
109.9999999999997
 30
0.0
 11
332.0
 21
40.0
 31
0.0
  0
TEXT
  5
19A
330
1E
100
AcDbEntity
  8
TEXT
 62
     1
100
AcDbText
 10
349.0245681025306
 20
88.14901428913959
 30
0.0
 40
7.0
  1
5320070W
 41
0.8
  7
GREEKS
 72
     1
 11
370.357901435864
 21
88.14901428913959
 31
0.0
100
AcDbText
  0
TEXT
  5
212
330
1E
100
AcDbEntity
  8
TEXT
100
AcDbText
 10
235.1296391125315
 20
51.50334417585291
 30
0.0
 40
5.0
  1
EDV-Art.Nr. 5.320.070C
 41
0.8
  7
GREEKS
100
AcDbText
  0
TEXT
  5
255
330
1E
100
AcDbEntity
  8
TEXT
 62
     1
100
AcDbText
 10
297.9974873842989
 20
131.2276367653921
 30
0.0
 40
7.0
  1
Werkstoff: 1.4404
 41
0.8
  7
GREEKS
100
AcDbText
  0
TEXT
  5
269
330
1E
100
AcDbEntity
  8
TEXT
 62
     1
100
AcDbText
 10
209.6364423403437
 20
386.249918107076
 30
0.0
 40
7.0
  1
DN70
 50
44.99999999999999
 41
0.8
  7
GREEKS
100
AcDbText
  0
LINE
  5
644
330
1E
100
AcDbEntity
  8
MITTEL
100
AcDbLine
 10
184.6985840622012
 20
344.4269738002631
 30
0.0
 11
184.6985840622012
 21
217.4269738002635
 31
0.0
  0
LINE
  5
678
330
1E
100
AcDbEntity
  8
STEMPEL
100
AcDbLine
 10
220.7611407445715
 20
222.4269738002635
 30
0.0
 11
148.6360273798307
 21
222.4269738002632
 31
0.0
  0
LINE
  5
679
330
1E
100
AcDbEntity
  8
STEMPEL
100
AcDbLine
 10
148.1985840622011
 20
227.4269738002632
 30
0.0
 11
148.6360273798307
 21
222.4269738002632
 31
0.0
  0
LINE
  5
67A
330
1E
100
AcDbEntity
  8
STEMPEL
100
AcDbLine
 10
221.1985840622011
 20
227.4269738002639
 30
0.0
 11
220.7611407445715
 21
222.4269738002635
 31
0.0
  0
LINE
  5
692
330
1E
100
AcDbEntity
  8
HILF
100
AcDbLine
 10
219.9485840622011
 20
227.4269738002635
 30
0.0
 11
149.4485840622011
 21
227.4269738002635
 31
0.0
  0
DIMENSION
  5
695
330
1E
100
AcDbEntity
  8
BEM
100
AcDbDimension
  2
*D2
 10
221.1985840622011
 20
201.5113458608543
 30
0.0
 11
184.6985840622011
 21
208.0113458608543
 31
0.0
 70
    32
  1
%%c<>
 71
     5
 42
73.0
  3
Standard
100
AcDbAlignedDimension
 13
148.1985840622011
 23
227.4269738002634
 33
0.0
 14
221.1985840622011
 24
227.4269738002638
 34
0.0
100
AcDbRotatedDimension
1001
ACAD
1000
DSTYLE
1002
{
1070
    40
1040
2.0
1070
    41
1040
3.5
1070
    42
1040
1.0
1070
    43
1040
7.0
1070
    44
1040
1.0
1070
    73
1070
     0
1070
    74
1070
     0
1070
    77
1070
     1
1070
    78
1070
     8
1070
    79
1070
     2
1070
   140
1040
3.5
1070
   141
1040
1.5
1070
   146
1040
0.5142857142857144
1070
   147
1040
1.5
1070
   172
1070
     1
1070
   178
1070
     1
1070
   179
1070
     2
1070
   271
1070
     2
1070
   272
1070
     2
1070
   284
1070
     8
1070
   285
1070
     8
1070
   286
1070
     8
1002
}
  0
LINE
  5
696
102
{ACAD_REACTORS
330
88D
102
}
330
1E
100
AcDbEntity
  8
STEMPEL
100
AcDbLine
 10
221.1985840622011
 20
329.3081787736452
 30
0.0
 11
221.1985840622011
 21
227.4269738002638
 31
0.0
  0
LINE
  5
697
102
{ACAD_REACTORS
330
88D
102
}
330
1E
100
AcDbEntity
  8
STEMPEL
100
AcDbLine
 10
148.1985840622011
 20
359.5457688268818
 30
0.0
 11
148.1985840622011
 21
227.4269738002634
 31
0.0
  0
LINE
  5
6F4
330
1E
100
AcDbEntity
  8
MITTEL
100
AcDbLine
 10
285.8148537718773
 20
445.5432435099395
 30
0.0
 11
184.6985840622012
 21
344.4269738002631
 31
0.0
  0
LINE
  5
6F6
102
{ACAD_REACTORS
330
88D
102
}
330
1E
100
AcDbEntity
  8
STEMPEL
100
AcDbLine
 10
265.9143630298524
 20
374.0239577412967
 30
0.0
 11
221.1985840622011
 21
329.3081787736452
 31
0.0
  0
LINE
  5
6F7
102
{ACAD_REACTORS
330
88D
102
}
330
1E
100
AcDbEntity
  8
STEMPEL
100
AcDbLine
 10
214.2955680032345
 20
425.6427527679147
 30
0.0
 11
148.1985840622011
 21
359.5457688268818
 31
0.0
  0
LINE
  5
6F8
330
1E
100
AcDbEntity
  8
STEMPEL
100
AcDbLine
 10
310.0619963541049
 20
414.2250331158465
 30
0.0
 11
254.4966433777843
 21
469.7903860921671
 31
0.0
  0
LINE
  5
6F9
330
1E
100
AcDbEntity
  8
HILF
  6
Continuous
100
AcDbLine
 10
218.6869483442447
 20
431.5592048631724
 30
0.0
 11
271.8308151251104
 21
378.4153380823067
 31
0.0
  0
LINE
  5
6FA
330
1E
100
AcDbEntity
  8
HILF
  6
Continuous
100
AcDbLine
 10
233.7507813278878
 20
447.4055548044051
 30
0.0
 11
287.6771650663429
 21
393.4791710659498
 31
0.0
  0
LINE
  5
6FB
330
1E
100
AcDbEntity
  8
HILF
  6
Continuous
100
AcDbLine
 10
216.8365284298845
 20
427.0149443077386
 30
0.0
 11
267.2865545696764
 21
376.5649181679468
 31
0.0
  0
LINE
  5
6FC
330
1E
100
AcDbEntity
  8
STEMPEL
100
AcDbLine
 10
231.2631361456737
 20
446.3579868506426
 30
0.0
 11
219.3903252778956
 21
434.4851759828645
 31
0.0
  0
ARC
  5
6FD
330
1E
100
AcDbEntity
  8
STEMPEL
100
AcDbCircle
 10
227.6281192787189
 20
426.2473819820411
 30
0.0
 40
11.65
100
AcDbArc
 50
135.0
 51
165.1013105468016
  0
ARC
  5
6FE
330
1E
100
AcDbEntity
  8
STEMPEL
100
AcDbCircle
 10
208.6387137537422
 20
431.299607017407
 30
0.0
 40
8.0
100
AcDbArc
 50
315.0
 51
345.1013105468027
  0
LINE
  5
700
330
1E
100
AcDbEntity
  8
STEMPEL
100
AcDbLine
 10
245.4046230837581
 20
464.0350076946596
 30
0.0
 11
238.9960975999285
 21
457.62648221083
 31
0.0
  0
ARC
  5
701
330
1E
100
AcDbEntity
  8
STEMPEL
100
AcDbCircle
 10
256.3795690134199
 20
440.1495893118247
 30
0.0
 40
24.65009324312573
100
AcDbArc
 50
134.8382525687444
 51
156.1831543930339
  0
ARC
  5
702
330
1E
100
AcDbEntity
  8
STEMPEL
100
AcDbCircle
 10
222.5303673980199
 20
455.0907555982965
 30
0.0
 40
12.35
100
AcDbArc
 50
315.0
 51
336.1831543930339
  0
ARC
  5
703
330
1E
100
AcDbEntity
  8
STEMPEL
100
AcDbCircle
 10
262.8170380999386
 20
446.5870774559498
 30
0.0
 40
24.65
100
AcDbArc
 50
109.7271515321634
 51
135.0614902701031
  0
LINE
  5
704
330
1E
100
AcDbEntity
  8
STEMPEL
100
AcDbLine
 10
286.6295971125802
 20
390.991525883736
 30
0.0
 11
274.7567862448022
 21
379.1187150159579
 31
0.0
  0
ARC
  5
705
330
1E
100
AcDbEntity
  8
STEMPEL
100
AcDbCircle
 10
266.5189922439789
 20
387.3565090167811
 30
0.0
 40
11.65
100
AcDbArc
 50
284.8986894531984
 51
315.0
  0
ARC
  5
706
330
1E
100
AcDbEntity
  8
STEMPEL
100
AcDbCircle
 10
271.5712172793449
 20
368.3671034918043
 30
0.0
 40
8.0
100
AcDbArc
 50
104.8986894531973
 51
135.0
  0
LINE
  5
707
330
1E
100
AcDbEntity
  8
STEMPEL
100
AcDbLine
 10
304.3066179565974
 20
405.1330128218202
 30
0.0
 11
297.8980924727677
 21
398.7244873379907
 31
0.0
  0
ARC
  5
708
330
1E
100
AcDbEntity
  8
STEMPEL
100
AcDbCircle
 10
280.4211995737626
 20
416.1079587514821
 30
0.0
 40
24.65009324312573
100
AcDbArc
 50
293.8168456069661
 51
315.1617474312556
  0
ARC
  5
709
330
1E
100
AcDbEntity
  8
STEMPEL
100
AcDbCircle
 10
295.3623658602343
 20
382.258757136082
 30
0.0
 40
12.35
100
AcDbArc
 50
113.816845606966
 51
135.0
  0
ARC
  5
70A
330
1E
100
AcDbEntity
  8
STEMPEL
100
AcDbCircle
 10
286.8586877178877
 20
422.5454278380007
 30
0.0
 40
24.65
100
AcDbArc
 50
314.9385097298968
 51
340.2728484678366
  0
DIMENSION
  5
741
330
1E
100
AcDbEntity
  8
BEM
100
AcDbDimension
  2
*D3
 10
128.6284429368818
 20
344.4269738002633
 30
0.0
 11
122.1284429368817
 21
283.4269738002633
 31
0.0
 70
    32
 71
     5
 42
122.0000000000001
  3
Standard
100
AcDbAlignedDimension
 13
148.6360273798307
 23
222.4269738002632
 33
0.0
 14
184.6985840622012
 24
344.4269738002633
 34
0.0
 50
90.0
100
AcDbRotatedDimension
1001
ACAD
1000
DSTYLE
1002
{
1070
    40
1040
2.0
1070
    41
1040
3.5
1070
    42
1040
1.0
1070
    43
1040
7.0
1070
    44
1040
1.0
1070
    73
1070
     0
1070
    74
1070
     0
1070
    77
1070
     1
1070
    78
1070
     8
1070
    79
1070
     2
1070
   140
1040
3.5
1070
   141
1040
1.5
1070
   146
1040
0.5142857142857144
1070
   147
1040
1.5
1070
   172
1070
     1
1070
   178
1070
     1
1070
   179
1070
     2
1070
   271
1070
     2
1070
   272
1070
     2
1070
   284
1070
     8
1070
   285
1070
     8
1070
   286
1070
     8
1002
}
  0
DIMENSION
  5
75C
330
1E
100
AcDbEntity
  8
BEM
100
AcDbDimension
  2
*D4
 10
215.7326090735308
 20
508.5544203964208
 30
0.0
 11
162.3460470939463
 21
464.3602465722619
 31
0.0
 70
    32
 71
     5
 42
137.9999999999997
 51
356.9999999999999
  3
Standard
100
AcDbAlignedDimension
 13
184.6985840622012
 23
344.4269738002633
 33
0.0
 14
254.4966433777843
 24
469.7903860921671
 34
0.0
 50
44.99999999999985
100
AcDbRotatedDimension
1001
ACAD
1000
DSTYLE
1002
{
1070
    40
1040
2.0
1070
    41
1040
3.5
1070
    42
1040
1.0
1070
    43
1040
7.0
1070
    44
1040
1.0
1070
    73
1070
     0
1070
    74
1070
     0
1070
    77
1070
     1
1070
    78
1070
     8
1070
    79
1070
     2
1070
   140
1040
3.5
1070
   141
1040
1.5
1070
   146
1040
0.5142857142857144
1070
   147
1040
1.5
1070
   172
1070
     1
1070
   178
1070
     1
1070
   179
1070
     2
1070
   271
1070
     2
1070
   272
1070
     2
1070
   284
1070
     8
1070
   285
1070
     8
1070
   286
1070
     8
1002
}
  0
DIMENSION
  5
7DF
330
1E
100
AcDbEntity
  8
BEM
100
AcDbDimension
  2
*D5
 10
184.6985840622012
 20
217.4269738002635
 30
0.0
 11
224.3803201759233
 21
459.2589007079133
 31
0.0
 70
   162
 71
     5
 42
0.7853981633974461
  3
Standard
100
AcDb2LineAngularDimension
 13
285.8148537718773
 23
445.5432435099395
 33
0.0
 14
184.6985840622012
 24
344.4269738002631
 34
0.0
 15
184.6985840622012
 25
344.4269738002631
 35
0.0
 16
245.4460358983131
 26
449.6446468107525
 36
0.0
1001
ACAD
1000
DSTYLE
1002
{
1070
    40
1040
2.0
1070
    41
1040
3.5
1070
    42
1040
1.0
1070
    43
1040
7.0
1070
    44
1040
1.0
1070
    73
1070
     0
1070
    74
1070
     0
1070
    77
1070
     1
1070
    78
1070
     8
1070
    79
1070
     2
1070
   140
1040
3.5
1070
   141
1040
1.5
1070
   146
1040
0.5142857142857144
1070
   147
1040
1.5
1070
   172
1070
     1
1070
   178
1070
     1
1070
   179
1070
     2
1070
   271
1070
     2
1070
   272
1070
     2
1070
   284
1070
     8
1070
   285
1070
     8
1070
   286
1070
     8
1002
}
  0
TEXT
  5
854
330
1E
100
AcDbEntity
  8
TEXT
100
AcDbText
 10
41.85509950977674
 20
111.6719999999999
 30
0.0
 40
5.0
  1
Erstellt mit AUTOCAD 2004
 41
0.8
  7
GREEKS
100
AcDbText
  0
TEXT
  5
855
330
1E
100
AcDbEntity
  8
TEXT
100
AcDbText
 10
66.99867878482315
 20
18.67381894984132
 30
0.0
 40
4.0
  1
Änderung
 41
0.8
  7
GREEKS
 72
     1
 11
77.7415359276803
 21
18.67381894984132
 31
0.0
100
AcDbText
  0
TEXT
  5
856
330
1E
100
AcDbEntity
  8
TEXT
100
AcDbText
 10
110.3496319666763
 20
18.6715626933981
 30
0.0
 40
4.0
  1
Tag
 41
0.8
  7
GREEKS
 72
     1
 11
114.0829653000096
 21
18.6715626933981
 31
0.0
100
AcDbText
  0
TEXT
  5
857
330
1E
100
AcDbEntity
  8
TEXT
100
AcDbText
 10
129.2391668299012
 20
18.59324216966408
 30
0.0
 40
4.0
  1
Name
 41
0.8
  7
GREEKS
 72
     1
 11
135.5629763537107
 21
18.59324216966408
 31
0.0
100
AcDbText
  0
TEXT
  5
858
330
1E
100
AcDbEntity
  8
TEXT
100
AcDbText
 10
192.6882715247924
 20
89.00646370679282
 30
0.0
 40
4.0
  1
DIN EN1124-3
 41
0.8
  7
GREEKS
 72
     1
 11
209.6787477152686
 21
89.00646370679282
 31
0.0
100
AcDbText
  0
TEXT
  5
859
330
1E
100
AcDbEntity
  8
BEM
100
AcDbText
 10
416.5811541437437
 20
12.14804815338303
 30
0.0
 40
4.0
  1
Diese Zeichnung ist urheberrechtlich geschützt und bleibt unser Eigentum. Sie darf weder ganz noch teilweise vervielfältigt und nicht an Dritte weitergegeben werden.
 50
90.0
 41
0.8
  7
GREEKS
100
AcDbText
  0
LINE
  5
870
330
1E
100
AcDbEntity
  8
STEMPEL
100
AcDbLine
 10
148.1985840622011
 20
359.5457688268818
 30
0.0
 11
221.1985840622011
 21
329.3081787736452
 31
0.0
  0
ARC
  5
873
330
1E
100
AcDbEntity
  8
SCHRAFF
100
AcDbCircle
 10
148.1985840622011
 20
359.5457688268818
 30
0.0
 40
5.0
100
AcDbArc
 50
300.6301023541549
 51
14.3698976458437
  0
ARC
  5
874
330
1E
100
AcDbEntity
  8
SCHRAFF
100
AcDbCircle
 10
152.8179817247575
 20
357.6323516650564
 30
0.0
 40
5.0
100
AcDbArc
 50
300.6301023541549
 51
14.3698976458437
  0
ARC
  5
875
330
1E
100
AcDbEntity
  8
SCHRAFF
100
AcDbCircle
 10
157.4373793873139
 20
355.7189345032309
 30
0.0
 40
5.0
100
AcDbArc
 50
300.6301023541549
 51
14.3698976458437
  0
ARC
  5
876
330
1E
100
AcDbEntity
  8
SCHRAFF
100
AcDbCircle
 10
162.0567770498704
 20
353.8055173414055
 30
0.0
 40
5.0
100
AcDbArc
 50
300.6301023541549
 51
14.3698976458437
  0
ARC
  5
877
330
1E
100
AcDbEntity
  8
SCHRAFF
100
AcDbCircle
 10
166.6761747124268
 20
351.8921001795799
 30
0.0
 40
5.0
100
AcDbArc
 50
300.6301023541549
 51
14.3698976458437
  0
ARC
  5
878
330
1E
100
AcDbEntity
  8
SCHRAFF
100
AcDbCircle
 10
171.2955723749832
 20
349.9786830177544
 30
0.0
 40
5.0
100
AcDbArc
 50
300.6301023541549
 51
14.3698976458437
  0
ARC
  5
879
330
1E
100
AcDbEntity
  8
SCHRAFF
100
AcDbCircle
 10
175.9149700375396
 20
348.0652658559289
 30
0.0
 40
5.0
100
AcDbArc
 50
300.6301023541549
 51
14.3698976458437
  0
ARC
  5
87A
330
1E
100
AcDbEntity
  8
SCHRAFF
100
AcDbCircle
 10
180.534367700096
 20
346.1518486941035
 30
0.0
 40
5.0
100
AcDbArc
 50
300.6301023541549
 51
14.3698976458437
  0
ARC
  5
87B
330
1E
100
AcDbEntity
  8
SCHRAFF
100
AcDbCircle
 10
185.1537653626525
 20
344.238431532278
 30
0.0
 40
5.0
100
AcDbArc
 50
300.6301023541549
 51
14.3698976458437
  0
ARC
  5
87C
330
1E
100
AcDbEntity
  8
SCHRAFF
100
AcDbCircle
 10
189.7731630252089
 20
342.3250143704525
 30
0.0
 40
5.0
100
AcDbArc
 50
300.6301023541549
 51
14.3698976458437
  0
ARC
  5
87D
330
1E
100
AcDbEntity
  8
SCHRAFF
100
AcDbCircle
 10
194.3925606877653
 20
340.411597208627
 30
0.0
 40
5.0
100
AcDbArc
 50
300.6301023541549
 51
14.3698976458437
  0
ARC
  5
87E
330
1E
100
AcDbEntity
  8
SCHRAFF
100
AcDbCircle
 10
199.0119583503217
 20
338.4981800468015
 30
0.0
 40
5.0
100
AcDbArc
 50
300.6301023541549
 51
14.3698976458437
  0
ARC
  5
87F
330
1E
100
AcDbEntity
  8
SCHRAFF
100
AcDbCircle
 10
203.6313560128781
 20
336.584762884976
 30
0.0
 40
5.0
100
AcDbArc
 50
300.6301023541549
 51
14.3698976458437
  0
ARC
  5
880
330
1E
100
AcDbEntity
  8
SCHRAFF
100
AcDbCircle
 10
208.2507536754345
 20
334.6713457231505
 30
0.0
 40
5.0
100
AcDbArc
 50
300.6301023541549
 51
14.3698976458437
  0
ARC
  5
881
330
1E
100
AcDbEntity
  8
SCHRAFF
100
AcDbCircle
 10
212.8701513379909
 20
332.757928561325
 30
0.0
 40
5.0
100
AcDbArc
 50
300.6301023541549
 51
14.3698976458437
  0
ARC
  5
882
102
{ACAD_REACTORS
330
88D
102
}
330
1E
100
AcDbEntity
  8
SCHRAFF
100
AcDbCircle
 10
218.4205630792928
 20
330.4588727413228
 30
0.0
 40
5.201794509516893
100
AcDbArc
 50
302.2795418679665
 51
12.72045813203378
  0
ARC
  5
883
102
{ACAD_REACTORS
330
88D
102
}
330
1E
100
AcDbEntity
  8
SCHRAFF
100
AcDbCircle
 10
149.8059883896305
 20
358.8799601542433
 30
0.0
 40
3.040922401637102
100
AcDbArc
 50
76.91030625435701
 51
238.0896937456421
  0
HATCH
  5
88D
330
1E
100
AcDbEntity
  8
SCHRAFF
100
AcDbHatch
 10
0.0
 20
0.0
 30
0.0
210
0.0
220
0.0
230
1.0
  2
_USER
 70
     0
 71
     1
 91
        2
 92
        7
 72
     1
 73
     1
 93
        3
 10
223.4946846563916
 20
331.6042793678357
 42
0.0
 10
221.1985840622011
 20
329.3081787736452
 42
0.0
 10
221.1985840622011
 20
326.0610021727679
 42
0.3174151927496693
 97
        3
330
6F6
330
696
330
882
 92
        7
 72
     1
 73
     1
 93
        3
 10
148.1985840622011
 20
359.5457688268818
 42
0.0
 10
150.4946846563917
 20
361.8418694210724
 42
0.8479070606768273
 10
148.1985840622011
 20
356.2985922260046
 42
0.0
 97
        3
330
6F7
330
883
330
697
 75
     0
 76
     0
 52
0.0
 41
0.1
 77
     0
 78
     1
 53
0.0
 43
0.0
 44
0.0
 45
0.0
 46
0.1
 79
     0
 47
0.1797088666285593
 98
        2
 10
222.4777590320259
 20
329.0621798748837
 10
147.3044309637639
 20
358.7141424922015
  0
TEXT
  5
8DE
330
1E
100
AcDbEntity
  8
TEXT
100
AcDbText
 10
171.0085209177598
 20
63.10765040825732
 30
0.0
 40
4.0
  1
11.04.
 41
0.8
  7
GREEKS
 72
     1
 11
177.4085209177598
 21
63.10765040825732
 31
0.0
100
AcDbText
  0
ENDSEC
  0
SECTION
  2
OBJECTS
  0
DICTIONARY
  5
C
330
0
100
AcDbDictionary
281
     1
  3
ACAD_COLOR
350
802
  3
ACAD_GROUP
350
D
  3
ACAD_LAYOUT
350
19
  3
ACAD_MATERIAL
350
801
  3
ACAD_MLINESTYLE
350
16
  3
ACAD_PLOTSETTINGS
350
18
  3
ACAD_PLOTSTYLENAME
350
E
  3
AcDbVariableDictionary
350
246
  3
ASE_INDEX_DICTIONARY
350
894
  0
DICTIONARY
  5
802
102
{ACAD_REACTORS
330
C
102
}
330
C
100
AcDbDictionary
281
     1
  0
DICTIONARY
  5
D
102
{ACAD_REACTORS
330
C
102
}
330
C
100
AcDbDictionary
281
     1
  0
DICTIONARY
  5
19
102
{ACAD_REACTORS
330
C
102
}
330
C
100
AcDbDictionary
281
     1
  3
Layout1
350
1D
  3
Model
350
21
  0
DICTIONARY
  5
801
102
{ACAD_REACTORS
330
C
102
}
330
C
100
AcDbDictionary
281
     1
  0
DICTIONARY
  5
16
102
{ACAD_REACTORS
330
C
102
}
330
C
100
AcDbDictionary
281
     1
  3
Standard
350
17
  0
DICTIONARY
  5
18
102
{ACAD_REACTORS
330
C
102
}
330
C
100
AcDbDictionary
281
     1
  0
ACDBDICTIONARYWDFLT
  5
E
102
{ACAD_REACTORS
330
C
102
}
330
C
100
AcDbDictionary
281
     1
  3
Normal
350
F
100
AcDbDictionaryWithDefault
340
F
  0
DICTIONARY
  5
246
102
{ACAD_REACTORS
330
C
102
}
330
C
100
AcDbDictionary
281
     1
  3
DIMASSOC
350
86C
  3
PROJECTNAME
350
86D
  3
SORTENTS
350
247
  0
DICTIONARY
  5
894
102
{ACAD_REACTORS
330
C
102
}
330
C
100
AcDbDictionary
281
     1
  3
ASEBlockHierarchyIndexRecord
350
896
1001
DCO15
1040
1558863328.156
  0
LAYOUT
  5
1D
102
{ACAD_REACTORS
330
19
102
}
330
19
100
AcDbPlotSettings
  1

  2
Tektronix Phaser 740
  4

  6

 40
0.0
 41
0.0
 42
0.0
 43
0.0
 44
0.0
 45
0.0
 46
0.0
 47
0.0
 48
0.0
 49
0.0
140
0.0
141
0.0
142
1.0
143
1.0
 70
   688
 72
     0
 73
     0
 74
     5
  7
monochrome.ctb
 75
    16
147
1.0
 76
     0
 77
     2
 78
   300
148
0.0
149
0.0
100
AcDbLayout
  1
Layout1
 70
     0
 71
     1
 10
0.0
 20
0.0
 11
12.0
 21
9.0
 12
0.0
 22
0.0
 32
0.0
 14
1.000000000000000E+20
 24
1.000000000000000E+20
 34
1.000000000000000E+20
 15
-1.000000000000000E+20
 25
-1.000000000000000E+20
 35
-1.000000000000000E+20
146
0.0
 13
0.0
 23
0.0
 33
0.0
 16
1.0
 26
0.0
 36
0.0
 17
0.0
 27
1.0
 37
0.0
 76
     0
330
1A
  0
LAYOUT
  5
21
102
{ACAD_REACTORS
330
19
102
}
330
19
100
AcDbPlotSettings
  1

  2
Tektronix Phaser 740
  4
A4
  6

 40
5.873749732971191
 41
6.085414409637451
 42
5.577407836914062
 43
5.662078857421875
 44
209.9733276367187
 45
296.9683227539062
 46
0.0
 47
0.0
 48
0.0
 49
0.0
140
0.0
141
0.0
142
1.0
143
1.0
 70
 11952
 72
     0
 73
     1
 74
     0
  7
monochrome.ctb
 75
     0
147
1.0
 76
     0
 77
     2
 78
   300
148
1150.120678237584
149
45.30495740799864
100
AcDbLayout
  1
Model
 70
     1
 71
     0
 10
0.0
 20
0.0
 11
12.0
 21
9.0
 12
0.0
 22
0.0
 32
0.0
 14
0.0
 24
0.0
 34
0.0
 15
0.0
 25
0.0
 35
0.0
146
0.0
 13
0.0
 23
0.0
 33
0.0
 16
1.0
 26
0.0
 36
0.0
 17
0.0
 27
1.0
 37
0.0
 76
     0
330
1E
  0
MLINESTYLE
  5
17
102
{ACAD_REACTORS
330
16
102
}
330
16
100
AcDbMlineStyle
  2
STANDARD
 70
     0
  3

 62
   256
 51
90.0
 52
90.0
 71
     2
 49
0.5
 62
   256
  6
BYLAYER
 49
-0.5
 62
   256
  6
BYLAYER
  0
ACDBPLACEHOLDER
  5
F
102
{ACAD_REACTORS
330
E
102
}
330
E
  0
DICTIONARYVAR
  5
86C
102
{ACAD_REACTORS
330
246
102
}
330
246
100
DictionaryVariables
280
     0
  1
1
  0
DICTIONARYVAR
  5
86D
102
{ACAD_REACTORS
330
246
102
}
330
246
100
DictionaryVariables
280
     0
  1

  0
DICTIONARYVAR
  5
247
102
{ACAD_REACTORS
330
246
102
}
330
246
100
DictionaryVariables
280
     0
  1
96
  0
XRECORD
  5
896
102
{ACAD_REACTORS
330
894
102
}
330
894
100
AcDbXrecord
280
     1
330
135
  0
ENDSEC
  0
EOF
