  0
SECTION
  2
HEADER
  9
$ACADVER
  1
AC1018
  9
$ACADMAINTVER
 70
     2
  9
$DWGCODEPAGE
  3
ANSI_1252
  9
$INSBASE
 10
0.0
 20
0.0
 30
0.0
  9
$EXTMIN
 10
-0.0047763161587682
 20
-0.0271522965551867
 30
-0.000000000000002
  9
$EXTMAX
 10
420.0217363946624
 20
594.0362682300542
 30
0.0000000000000133
  9
$LIMMIN
 10
0.0
 20
0.0
  9
$LIMMAX
 10
419.9999999999999
 20
594.0000000000002
  9
$ORTHOMODE
 70
     0
  9
$REGENMODE
 70
     1
  9
$FILLMODE
 70
     1
  9
$QTEXTMODE
 70
     0
  9
$MIRRTEXT
 70
     1
  9
$LTSCALE
 40
20.0
  9
$ATTMODE
 70
     1
  9
$TEXTSIZE
 40
3.5
  9
$TRACEWID
 40
0.5
  9
$TEXTSTYLE
  7
STANDARD
  9
$CLAYER
  8
SCHRAFF
  9
$CELTYPE
  6
ByLayer
  9
$CECOLOR
 62
   256
  9
$CELTSCALE
 40
1.0
  9
$DISPSILH
 70
     0
  9
$DIMSCALE
 40
2.0
  9
$DIMASZ
 40
3.5
  9
$DIMEXO
 40
1.0
  9
$DIMDLI
 40
7.0
  9
$DIMRND
 40
0.0
  9
$DIMDLE
 40
0.0
  9
$DIMEXE
 40
1.0
  9
$DIMTP
 40
0.0
  9
$DIMTM
 40
0.0
  9
$DIMTXT
 40
3.5
  9
$DIMCEN
 40
1.5
  9
$DIMTSZ
 40
0.0
  9
$DIMTOL
 70
     0
  9
$DIMLIM
 70
     0
  9
$DIMTIH
 70
     0
  9
$DIMTOH
 70
     0
  9
$DIMSE1
 70
     0
  9
$DIMSE2
 70
     0
  9
$DIMTAD
 70
     1
  9
$DIMZIN
 70
     8
  9
$DIMBLK
  1

  9
$DIMASO
 70
     1
  9
$DIMSHO
 70
     0
  9
$DIMPOST
  1

  9
$DIMAPOST
  1

  9
$DIMALT
 70
     0
  9
$DIMALTD
 70
     2
  9
$DIMALTF
 40
25.4
  9
$DIMLFAC
 40
1.0
  9
$DIMTOFL
 70
     1
  9
$DIMTVP
 40
0.0
  9
$DIMTIX
 70
     0
  9
$DIMSOXD
 70
     0
  9
$DIMSAH
 70
     0
  9
$DIMBLK1
  1

  9
$DIMBLK2
  1

  9
$DIMSTYLE
  2
Standard
  9
$DIMCLRD
 70
     0
  9
$DIMCLRE
 70
     0
  9
$DIMCLRT
 70
     1
  9
$DIMTFAC
 40
0.5142857142857144
  9
$DIMGAP
 40
1.5
  9
$DIMJUST
 70
     0
  9
$DIMSD1
 70
     0
  9
$DIMSD2
 70
     0
  9
$DIMTOLJ
 70
     1
  9
$DIMTZIN
 70
     8
  9
$DIMALTZ
 70
     8
  9
$DIMALTTZ
 70
     8
  9
$DIMUPT
 70
     0
  9
$DIMDEC
 70
     2
  9
$DIMTDEC
 70
     2
  9
$DIMALTU
 70
     2
  9
$DIMALTTD
 70
     2
  9
$DIMTXSTY
  7
STANDARD
  9
$DIMAUNIT
 70
     0
  9
$DIMADEC
 70
     2
  9
$DIMALTRND
 40
0.0
  9
$DIMAZIN
 70
     2
  9
$DIMDSEP
 70
    46
  9
$DIMATFIT
 70
     3
  9
$DIMFRAC
 70
     0
  9
$DIMLDRBLK
  1

  9
$DIMLUNIT
 70
     2
  9
$DIMLWD
 70
    -2
  9
$DIMLWE
 70
    -2
  9
$DIMTMOVE
 70
     0
  9
$LUNITS
 70
     2
  9
$LUPREC
 70
     2
  9
$SKETCHINC
 40
1.0
  9
$FILLETRAD
 40
0.0
  9
$AUNITS
 70
     1
  9
$AUPREC
 70
     3
  9
$MENU
  1
ACAD
  9
$ELEVATION
 40
0.0
  9
$PELEVATION
 40
0.0
  9
$THICKNESS
 40
0.0
  9
$LIMCHECK
 70
     0
  9
$CHAMFERA
 40
0.0
  9
$CHAMFERB
 40
0.0
  9
$CHAMFERC
 40
0.0
  9
$CHAMFERD
 40
0.0
  9
$SKPOLY
 70
     0
  9
$TDCREATE
 40
2452040.637099653
  9
$TDUCREATE
 40
2452040.553766320
  9
$TDUPDATE
 40
2455660.601900752
  9
$TDUUPDATE
 40
2455660.518567419
  9
$TDINDWG
 40
0.3534934144
  9
$TDUSRTIMER
 40
0.3534934144
  9
$USRTIMER
 70
     1
  9
$ANGBASE
 50
0.0
  9
$ANGDIR
 70
     0
  9
$PDMODE
 70
     0
  9
$PDSIZE
 40
0.0
  9
$PLINEWID
 40
0.0
  9
$SPLFRAME
 70
     0
  9
$SPLINETYPE
 70
     6
  9
$SPLINESEGS
 70
     8
  9
$HANDSEED
  5
125B
  9
$SURFTAB1
 70
     6
  9
$SURFTAB2
 70
     6
  9
$SURFTYPE
 70
     6
  9
$SURFU
 70
     6
  9
$SURFV
 70
     6
  9
$UCSBASE
  2

  9
$UCSNAME
  2

  9
$UCSORG
 10
0.0
 20
0.0
 30
0.0
  9
$UCSXDIR
 10
1.0
 20
0.0
 30
0.0
  9
$UCSYDIR
 10
0.0
 20
1.0
 30
0.0
  9
$UCSORTHOREF
  2

  9
$UCSORTHOVIEW
 70
     0
  9
$UCSORGTOP
 10
0.0
 20
0.0
 30
0.0
  9
$UCSORGBOTTOM
 10
0.0
 20
0.0
 30
0.0
  9
$UCSORGLEFT
 10
0.0
 20
0.0
 30
0.0
  9
$UCSORGRIGHT
 10
0.0
 20
0.0
 30
0.0
  9
$UCSORGFRONT
 10
0.0
 20
0.0
 30
0.0
  9
$UCSORGBACK
 10
0.0
 20
0.0
 30
0.0
  9
$PUCSBASE
  2

  9
$PUCSNAME
  2

  9
$PUCSORG
 10
0.0
 20
0.0
 30
0.0
  9
$PUCSXDIR
 10
1.0
 20
0.0
 30
0.0
  9
$PUCSYDIR
 10
0.0
 20
1.0
 30
0.0
  9
$PUCSORTHOREF
  2

  9
$PUCSORTHOVIEW
 70
     0
  9
$PUCSORGTOP
 10
0.0
 20
0.0
 30
0.0
  9
$PUCSORGBOTTOM
 10
0.0
 20
0.0
 30
0.0
  9
$PUCSORGLEFT
 10
0.0
 20
0.0
 30
0.0
  9
$PUCSORGRIGHT
 10
0.0
 20
0.0
 30
0.0
  9
$PUCSORGFRONT
 10
0.0
 20
0.0
 30
0.0
  9
$PUCSORGBACK
 10
0.0
 20
0.0
 30
0.0
  9
$USERI1
 70
     0
  9
$USERI2
 70
     0
  9
$USERI3
 70
     0
  9
$USERI4
 70
     0
  9
$USERI5
 70
     0
  9
$USERR1
 40
0.0
  9
$USERR2
 40
0.0
  9
$USERR3
 40
0.0
  9
$USERR4
 40
0.0
  9
$USERR5
 40
0.0
  9
$WORLDVIEW
 70
     1
  9
$SHADEDGE
 70
     3
  9
$SHADEDIF
 70
    70
  9
$TILEMODE
 70
     1
  9
$MAXACTVP
 70
    16
  9
$PINSBASE
 10
0.0
 20
0.0
 30
0.0
  9
$PLIMCHECK
 70
     0
  9
$PEXTMIN
 10
1.000000000000000E+20
 20
1.000000000000000E+20
 30
1.000000000000000E+20
  9
$PEXTMAX
 10
-1.000000000000000E+20
 20
-1.000000000000000E+20
 30
-1.000000000000000E+20
  9
$PLIMMIN
 10
0.0
 20
0.0
  9
$PLIMMAX
 10
12.0
 20
9.0
  9
$UNITMODE
 70
     0
  9
$VISRETAIN
 70
     0
  9
$PLINEGEN
 70
     0
  9
$PSLTSCALE
 70
     0
  9
$TREEDEPTH
 70
  3020
  9
$CMLSTYLE
  2
Standard
  9
$CMLJUST
 70
     0
  9
$CMLSCALE
 40
1.0
  9
$PROXYGRAPHICS
 70
     1
  9
$MEASUREMENT
 70
     0
  9
$CELWEIGHT
370
    -1
  9
$ENDCAPS
280
     0
  9
$JOINSTYLE
280
     0
  9
$LWDISPLAY
290
     0
  9
$INSUNITS
 70
     0
  9
$HYPERLINKBASE
  1

  9
$STYLESHEET
  1
monochrome 1.ctb
  9
$XEDIT
290
     1
  9
$CEPSNTYPE
380
     0
  9
$PSTYLEMODE
290
     1
  9
$FINGERPRINTGUID
  2
{7AADB5C8-6110-11D8-B72B-000102183313}
  9
$VERSIONGUID
  2
{A0937934-712A-42BD-AA17-017A20B33AF6}
  9
$EXTNAMES
290
     1
  9
$PSVPSCALE
 40
0.0
  9
$OLESTARTUP
290
     0
  9
$SORTENTS
280
    96
  9
$INDEXCTL
280
     0
  9
$HIDETEXT
280
     0
  9
$XCLIPFRAME
290
     0
  9
$HALOGAP
280
     0
  9
$OBSCOLOR
 70
   257
  9
$OBSLTYPE
280
     0
  9
$INTERSECTIONDISPLAY
280
     0
  9
$INTERSECTIONCOLOR
 70
   257
  9
$DIMASSOC
280
     1
  9
$PROJECTNAME
  1

  0
ENDSEC
  0
SECTION
  2
CLASSES
  0
CLASS
  1
ACDBDICTIONARYWDFLT
  2
AcDbDictionaryWithDefault
  3
ObjectDBX Classes
 90
        0
 91
        1
280
     0
281
     0
  0
CLASS
  1
DICTIONARYVAR
  2
AcDbDictionaryVar
  3
ObjectDBX Classes
 90
        0
 91
        3
280
     0
281
     0
  0
ENDSEC
  0
SECTION
  2
TABLES
  0
TABLE
  2
VPORT
  5
8
330
0
100
AcDbSymbolTable
 70
     3
  0
VPORT
  5
125A
330
8
100
AcDbSymbolTableRecord
100
AcDbViewportTableRecord
  2
*Active
 70
     0
 10
0.0
 20
0.0
 11
1.0
 21
1.0
 12
210.0
 22
297.0
 13
0.0
 23
0.0
 14
1.0
 24
1.0
 15
10.0
 25
10.0
 16
0.0
 26
0.0
 36
1.0
 17
0.0
 27
0.0
 37
0.0
 40
594.0
 41
1.334231805929919
 42
50.0
 43
0.0
 44
0.0
 50
0.0
 51
0.0
 71
     0
 72
  1500
 73
     1
 74
     0
 75
     0
 76
     0
 77
     0
 78
     0
281
     0
 65
     1
110
0.0
120
0.0
130
0.0
111
1.0
121
0.0
131
0.0
112
0.0
122
1.0
132
0.0
 79
     0
146
0.0
  0
ENDTAB
  0
TABLE
  2
LTYPE
  5
5
330
0
100
AcDbSymbolTable
 70
     2
  0
LTYPE
  5
13
330
5
100
AcDbSymbolTableRecord
100
AcDbLinetypeTableRecord
  2
ByBlock
 70
     0
  3

 72
    65
 73
     0
 40
0.0
  0
LTYPE
  5
14
330
5
100
AcDbSymbolTableRecord
100
AcDbLinetypeTableRecord
  2
ByLayer
 70
     0
  3

 72
    65
 73
     0
 40
0.0
  0
LTYPE
  5
15
330
5
100
AcDbSymbolTableRecord
100
AcDbLinetypeTableRecord
  2
Continuous
 70
     0
  3
Solid line
 72
    65
 73
     0
 40
0.0
  0
LTYPE
  5
35
330
5
100
AcDbSymbolTableRecord
100
AcDbLinetypeTableRecord
  2
STRICHPUNKT
 70
     0
  3
__ . __ . __ . __ . __ . __ . __ . __ . __ . __
 72
    65
 73
     4
 40
1.0
 49
0.5
 74
     0
 49
-0.25
 74
     0
 49
0.0
 74
     0
 49
-0.25
 74
     0
  0
ENDTAB
  0
TABLE
  2
LAYER
  5
2
330
0
100
AcDbSymbolTable
 70
     9
  0
LAYER
  5
10
330
2
100
AcDbSymbolTableRecord
100
AcDbLayerTableRecord
  2
0
 70
     0
 62
     7
  6
Continuous
370
    -3
390
F
  0
LAYER
  5
38
330
2
100
AcDbSymbolTableRecord
100
AcDbLayerTableRecord
  2
VOLL
 70
     0
 62
     1
  6
Continuous
370
    -3
390
F
  0
LAYER
  5
39
330
2
100
AcDbSymbolTableRecord
100
AcDbLayerTableRecord
  2
HILF
 70
     0
 62
     2
  6
Continuous
370
    -3
390
F
  0
LAYER
  5
3A
330
2
100
AcDbSymbolTableRecord
100
AcDbLayerTableRecord
  2
MITTEL
 70
     0
 62
     2
  6
STRICHPUNKT
370
    -3
390
F
  0
LAYER
  5
3B
330
2
100
AcDbSymbolTableRecord
100
AcDbLayerTableRecord
  2
BEM
 70
     0
 62
     7
  6
Continuous
370
    -3
390
F
  0
LAYER
  5
3C
330
2
100
AcDbSymbolTableRecord
100
AcDbLayerTableRecord
  2
STEMPEL
 70
     0
 62
     3
  6
Continuous
370
    -3
390
F
  0
LAYER
  5
3D
330
2
100
AcDbSymbolTableRecord
100
AcDbLayerTableRecord
  2
TEXT
 70
     0
 62
     7
  6
Continuous
370
    -3
390
F
  0
LAYER
  5
3E
330
2
100
AcDbSymbolTableRecord
100
AcDbLayerTableRecord
  2
DEFPOINTS
 70
     0
 62
     7
  6
Continuous
290
     0
370
    -3
390
F
  0
LAYER
  5
3F
330
2
100
AcDbSymbolTableRecord
100
AcDbLayerTableRecord
  2
SCHRAFF
 70
     0
 62
     7
  6
Continuous
370
    -3
390
F
  0
ENDTAB
  0
TABLE
  2
STYLE
  5
3
330
0
100
AcDbSymbolTable
 70
     2
  0
STYLE
  5
11
330
3
100
AcDbSymbolTableRecord
100
AcDbTextStyleTableRecord
  2
STANDARD
 70
     0
 40
0.0
 41
0.8
 50
0.0
 71
     0
 42
3.5
  3
simplex.shx
  4

  0
STYLE
  5
34
330
3
100
AcDbSymbolTableRecord
100
AcDbTextStyleTableRecord
  2
GREEKS
 70
     0
 40
0.0
 41
0.8
 50
0.0
 71
     0
 42
2.5
  3
SIMPLEX.shx
  4

  0
ENDTAB
  0
TABLE
  2
VIEW
  5
6
330
0
100
AcDbSymbolTable
 70
     0
  0
ENDTAB
  0
TABLE
  2
UCS
  5
7
330
0
100
AcDbSymbolTable
 70
     0
  0
ENDTAB
  0
TABLE
  2
APPID
  5
9
330
0
100
AcDbSymbolTable
 70
     1
  0
APPID
  5
12
330
9
100
AcDbSymbolTableRecord
100
AcDbRegAppTableRecord
  2
ACAD
 70
     0
  0
ENDTAB
  0
TABLE
  2
DIMSTYLE
  5
A
330
0
100
AcDbSymbolTable
 70
     1
100
AcDbDimStyleTable
 71
     1
340
1CB
  0
DIMSTYLE
105
1CB
102
{ACAD_REACTORS
330
1E8
330
10BB
330
1101
330
1212
102
}
330
A
100
AcDbSymbolTableRecord
100
AcDbDimStyleTableRecord
  2
Standard
 70
     0
340
11
  0
ENDTAB
  0
TABLE
  2
BLOCK_RECORD
  5
1
330
0
100
AcDbSymbolTable
 70
     9
  0
BLOCK_RECORD
  5
1E
330
1
100
AcDbSymbolTableRecord
100
AcDbBlockTableRecord
  2
*Model_Space
340
21
  0
BLOCK_RECORD
  5
1A
330
1
100
AcDbSymbolTableRecord
100
AcDbBlockTableRecord
  2
*Paper_Space
340
1D
  0
BLOCK_RECORD
  5
22
330
1
100
AcDbSymbolTableRecord
100
AcDbBlockTableRecord
  2
LOGO
340
0
102
{BLKREFS
331
135
102
}
  0
BLOCK_RECORD
  5
1E9
330
1
100
AcDbSymbolTableRecord
100
AcDbBlockTableRecord
  2
*D1
340
0
  0
BLOCK_RECORD
  5
10BC
330
1
100
AcDbSymbolTableRecord
100
AcDbBlockTableRecord
  2
*D5
340
0
  0
BLOCK_RECORD
  5
1102
330
1
100
AcDbSymbolTableRecord
100
AcDbBlockTableRecord
  2
*D6
340
0
  0
BLOCK_RECORD
  5
1213
330
1
100
AcDbSymbolTableRecord
100
AcDbBlockTableRecord
  2
*D8
340
0
  0
ENDTAB
  0
ENDSEC
  0
SECTION
  2
BLOCKS
  0
BLOCK
  5
43
330
1E
100
AcDbEntity
  8
0
100
AcDbBlockBegin
  2
*Model_Space
 70
     0
 10
0.0
 20
0.0
 30
0.0
  3
*Model_Space
  1

  0
ENDBLK
  5
44
330
1E
100
AcDbEntity
  8
0
100
AcDbBlockEnd
  0
BLOCK
  5
41
330
1A
100
AcDbEntity
 67
     1
  8
0
100
AcDbBlockBegin
  2
*Paper_Space
 70
     0
 10
0.0
 20
0.0
 30
0.0
  3
*Paper_Space
  1

  0
ENDBLK
  5
42
330
1A
100
AcDbEntity
 67
     1
  8
0
100
AcDbBlockEnd
  0
BLOCK
  5
45
330
22
100
AcDbEntity
  8
0
100
AcDbBlockBegin
  2
LOGO
 70
     0
 10
0.0
 20
0.0
 30
0.0
  3
LOGO
  1

  0
ARC
  5
46
330
22
100
AcDbEntity
  8
0
100
AcDbCircle
 10
11.59973089678112
 20
-9.271599258481501
 30
0.0
 40
4.5
100
AcDbArc
 50
270.0
 51
231.0575587310159
  0
LINE
  5
47
330
22
100
AcDbEntity
  8
0
100
AcDbLine
 10
3.599730896781125
 20
-4.771599258481529
 30
0.0
 11
3.599730896781153
 21
-11.77159925848133
 31
0.0
  0
LINE
  5
48
330
22
100
AcDbEntity
  8
0
100
AcDbLine
 10
2.599730896781125
 20
-4.771599258481529
 30
0.0
 11
2.599730896781153
 21
-11.77159925848133
 31
0.0
  0
CIRCLE
  5
49
330
22
100
AcDbEntity
  8
0
100
AcDbCircle
 10
11.59973089678112
 20
-9.271599258481501
 30
0.0
 40
3.5
  0
ARC
  5
4A
330
22
100
AcDbEntity
  8
0
100
AcDbCircle
 10
31.59973089678115
 20
-9.271599258481472
 30
0.0
 40
4.5
100
AcDbArc
 50
270.0
 51
231.0575587310182
  0
LINE
  5
4B
330
22
100
AcDbEntity
  8
0
100
AcDbLine
 10
17.59973089678112
 20
-4.771599258481472
 30
0.0
 11
17.59973089678115
 21
-13.77159925848147
 31
0.0
  0
ARC
  5
4C
330
22
100
AcDbEntity
  8
0
100
AcDbCircle
 10
22.59973089678116
 20
-7.271599258481472
 30
0.0
 40
2.5
100
AcDbArc
 50
293.1161887722295
 51
90.0
  0
CIRCLE
  5
4D
330
22
100
AcDbEntity
  8
0
100
AcDbCircle
 10
31.59973089678115
 20
-9.271599258481472
 30
0.0
 40
3.5
  0
ARC
  5
4E
330
22
100
AcDbEntity
  8
0
100
AcDbCircle
 10
4.599730896781153
 20
-11.77159925848133
 30
0.0
 40
1.0
100
AcDbArc
 50
180.0
 51
270.0
  0
ARC
  5
4F
330
22
100
AcDbEntity
  8
0
100
AcDbCircle
 10
4.599730896781153
 20
-11.77159925848133
 30
0.0
 40
2.0
100
AcDbArc
 50
179.9999999999992
 51
270.0
  0
LINE
  5
50
330
22
100
AcDbEntity
  8
0
100
AcDbLine
 10
11.59973089678115
 20
-13.77159925848144
 30
0.0
 11
4.599730896781153
 21
-13.77159925848147
 31
0.0
  0
LINE
  5
51
330
22
100
AcDbEntity
  8
0
100
AcDbLine
 10
8.771303772034769
 20
-12.77159925848136
 30
0.0
 11
4.599730896781153
 21
-12.77159925848133
 31
0.0
  0
LINE
  5
52
330
22
100
AcDbEntity
  8
0
100
AcDbLine
 10
31.59973089678115
 20
-13.77159925848147
 30
0.0
 11
23.6715276665056
 21
-13.77159925848144
 31
0.0
  0
LINE
  5
53
330
22
100
AcDbEntity
  8
0
100
AcDbLine
 10
23.56565672307022
 20
-9.51278021337896
 30
0.0
 11
24.4388546544846
 21
-12.77159925848144
 31
0.0
  0
LINE
  5
54
330
22
100
AcDbEntity
  8
0
100
AcDbLine
 10
22.59973089678116
 20
-9.771599258481472
 30
0.0
 11
18.59973089678112
 21
-9.771599258481472
 31
0.0
  0
LINE
  5
55
330
22
100
AcDbEntity
  8
0
100
AcDbLine
 10
18.59973089678115
 20
-13.77159925848144
 30
0.0
 11
17.59973089678115
 21
-13.77159925848144
 31
0.0
  0
LINE
  5
56
330
22
100
AcDbEntity
  8
0
100
AcDbLine
 10
18.59973089678115
 20
-9.771599258481472
 30
0.0
 11
18.59973089678115
 21
-13.77159925848144
 31
0.0
  0
LINE
  5
57
330
22
100
AcDbEntity
  8
0
100
AcDbLine
 10
22.59973089678116
 20
-9.771599258481472
 30
0.0
 11
23.67152766650562
 21
-13.77159925848147
 31
0.0
  0
ARC
  5
58
330
22
100
AcDbEntity
  8
0
100
AcDbCircle
 10
22.59973089678116
 20
-7.271599258481472
 30
0.0
 40
2.5
100
AcDbArc
 50
270.0
 51
270.0000000000007
  0
LINE
  5
59
330
22
100
AcDbEntity
  8
0
100
AcDbLine
 10
28.77130377203494
 20
-12.77159925848147
 30
0.0
 11
24.43885465448463
 21
-12.77159925848144
 31
0.0
  0
LINE
  5
5A
330
22
100
AcDbEntity
  8
0
100
AcDbLine
 10
3.599730896781125
 20
-4.771599258481472
 30
0.0
 11
2.599730896781125
 21
-4.771599258481472
 31
0.0
  0
LINE
  5
5B
330
22
100
AcDbEntity
  8
0
100
AcDbLine
 10
22.59973089678116
 20
-8.771599258481472
 30
0.0
 11
18.59973089678115
 21
-8.771599258481472
 31
0.0
  0
LINE
  5
5C
330
22
100
AcDbEntity
  8
0
100
AcDbLine
 10
22.59973089678116
 20
-5.771599258481472
 30
0.0
 11
18.59973089678115
 21
-5.771599258481472
 31
0.0
  0
LINE
  5
5D
330
22
100
AcDbEntity
  8
0
100
AcDbLine
 10
22.59973089678116
 20
-4.771599258481472
 30
0.0
 11
17.59973089678115
 21
-4.771599258481472
 31
0.0
  0
LINE
  5
5E
330
22
100
AcDbEntity
  8
0
100
AcDbLine
 10
18.59973089678115
 20
-5.771599258481472
 30
0.0
 11
18.59973089678115
 21
-8.771599258481472
 31
0.0
  0
ARC
  5
5F
330
22
100
AcDbEntity
  8
0
100
AcDbCircle
 10
22.59973089678116
 20
-7.271599258481472
 30
0.0
 40
1.5
100
AcDbArc
 50
270.0
 51
90.0
  0
ENDBLK
  5
60
330
22
100
AcDbEntity
  8
0
100
AcDbBlockEnd
  0
BLOCK
  5
1F3
330
1E9
100
AcDbEntity
  8
0
100
AcDbBlockBegin
  2
*D1
 70
     1
 10
0.0
 20
0.0
 30
0.0
  3
*D1
  1

  0
LINE
  5
11A4
330
1E9
100
AcDbEntity
  8
BEM
 62
     0
370
    -2
100
AcDbLine
 10
91.87807287023042
 20
160.8566671444258
 30
0.0
 11
91.87807287023042
 21
128.8048166325484
 31
0.0
  0
LINE
  5
11A5
330
1E9
100
AcDbEntity
  8
BEM
 62
     0
370
    -2
100
AcDbLine
 10
224.8780728702309
 20
160.8566671444262
 30
0.0
 11
224.8780728702309
 21
128.8048166325484
 31
0.0
  0
LINE
  5
11A6
330
1E9
100
AcDbEntity
  8
BEM
 62
     0
370
    -2
100
AcDbLine
 10
98.87807287023044
 20
130.8048166325484
 30
0.0
 11
217.8780728702309
 21
130.8048166325484
 31
0.0
  0
SOLID
  5
11A7
330
1E9
100
AcDbEntity
  8
BEM
 62
     0
100
AcDbTrace
 10
98.87807287023044
 20
131.9714832992151
 30
0.0
 11
98.87807287023044
 21
129.6381499658818
 31
0.0
 12
91.87807287023042
 22
130.8048166325484
 32
0.0
 13
91.87807287023042
 23
130.8048166325484
 33
0.0
  0
SOLID
  5
11A8
330
1E9
100
AcDbEntity
  8
BEM
 62
     0
100
AcDbTrace
 10
217.8780728702309
 20
131.9714832992151
 30
0.0
 11
217.8780728702309
 21
129.6381499658818
 31
0.0
 12
224.8780728702309
 22
130.8048166325484
 32
0.0
 13
224.8780728702309
 23
130.8048166325484
 33
0.0
  0
MTEXT
  5
11A9
330
1E9
100
AcDbEntity
  8
BEM
 62
     1
100
AcDbMText
 10
158.3780728702306
 20
137.3048166325484
 30
0.0
 40
7.0
 41
0.0
 71
     5
 72
     1
  1
\A1;%%c133
 73
     1
 44
1.0
  0
POINT
  5
11AA
330
1E9
100
AcDbEntity
  8
DEFPOINTS
 62
     0
100
AcDbPoint
 10
91.87807287023042
 20
162.8566671444258
 30
0.0
  0
POINT
  5
11AB
330
1E9
100
AcDbEntity
  8
DEFPOINTS
 62
     0
100
AcDbPoint
 10
224.8780728702309
 20
162.8566671444262
 30
0.0
  0
POINT
  5
11AC
330
1E9
100
AcDbEntity
  8
DEFPOINTS
 62
     0
100
AcDbPoint
 10
224.8780728702309
 20
130.8048166325484
 30
0.0
  0
ENDBLK
  5
1F4
330
1E9
100
AcDbEntity
  8
0
100
AcDbBlockEnd
  0
BLOCK
  5
10C6
330
10BC
100
AcDbEntity
  8
0
100
AcDbBlockBegin
  2
*D5
 70
     1
 10
0.0
 20
0.0
 30
0.0
  3
*D5
  1

  0
LINE
  5
1250
330
10BC
100
AcDbEntity
  8
BEM
 62
     0
370
    -2
100
AcDbLine
 10
156.3780728702303
 20
378.8555827950168
 30
0.0
 11
70.08183984007843
 21
378.8555827950168
 31
0.0
  0
LINE
  5
1251
330
10BC
100
AcDbEntity
  8
BEM
 62
     0
370
    -2
100
AcDbLine
 10
90.75295950548957
 20
152.8566671444257
 30
0.0
 11
70.08183984007837
 21
152.8566671444257
 31
0.0
  0
LINE
  5
1252
330
10BC
100
AcDbEntity
  8
BEM
 62
     0
370
    -2
100
AcDbLine
 10
72.08183984007843
 20
371.8555827950168
 30
0.0
 11
72.08183984007837
 21
159.8566671444257
 31
0.0
  0
SOLID
  5
1253
330
10BC
100
AcDbEntity
  8
BEM
 62
     0
100
AcDbTrace
 10
70.91517317341176
 20
371.8555827950168
 30
0.0
 11
73.2485065067451
 21
371.8555827950168
 31
0.0
 12
72.08183984007843
 22
378.8555827950168
 32
0.0
 13
72.08183984007843
 23
378.8555827950168
 33
0.0
  0
SOLID
  5
1254
330
10BC
100
AcDbEntity
  8
BEM
 62
     0
100
AcDbTrace
 10
70.9151731734117
 20
159.8566671444257
 30
0.0
 11
73.24850650674505
 21
159.8566671444257
 31
0.0
 12
72.08183984007837
 22
152.8566671444257
 32
0.0
 13
72.08183984007837
 23
152.8566671444257
 33
0.0
  0
MTEXT
  5
1255
330
10BC
100
AcDbEntity
  8
BEM
 62
     1
100
AcDbMText
 10
65.58183984007836
 20
265.8561249697212
 30
0.0
 40
7.0
 41
0.0
 71
     5
 72
     1
  1
\A1;226
 11
0.0000000000000001
 21
1.0
 31
0.0
 73
     1
 44
1.0
  0
POINT
  5
1256
330
10BC
100
AcDbEntity
  8
DEFPOINTS
 62
     0
100
AcDbPoint
 10
158.3780728702303
 20
378.8555827950168
 30
0.0
  0
POINT
  5
1257
330
10BC
100
AcDbEntity
  8
DEFPOINTS
 62
     0
100
AcDbPoint
 10
92.75295950548956
 20
152.8566671444257
 30
0.0
  0
POINT
  5
1258
330
10BC
100
AcDbEntity
  8
DEFPOINTS
 62
     0
100
AcDbPoint
 10
72.08183984007837
 20
152.8566671444257
 30
0.0
  0
ENDBLK
  5
10C7
330
10BC
100
AcDbEntity
  8
0
100
AcDbBlockEnd
  0
BLOCK
  5
110C
330
1102
100
AcDbEntity
  8
0
100
AcDbBlockBegin
  2
*D6
 70
     1
 10
0.0
 20
0.0
 30
0.0
  3
*D6
  1

  0
LINE
  5
1247
330
1102
100
AcDbEntity
  8
BEM
 62
     0
370
    -2
100
AcDbLine
 10
157.6940325835789
 20
380.7349680365886
 30
0.0
 11
124.3487641981681
 21
472.350339971159
 31
0.0
  0
LINE
  5
1248
330
1102
100
AcDbEntity
  8
BEM
 62
     0
370
    -2
100
AcDbLine
 10
345.5560696822803
 20
525.3648871464437
 30
0.0
 11
336.7182775406452
 21
549.6465214934196
 31
0.0
  0
LINE
  5
1249
330
1102
100
AcDbEntity
  8
BEM
 62
     0
370
    -2
100
AcDbLine
 10
131.6106528303208
 20
472.8650957328668
 30
0.0
 11
330.8244694817952
 21
545.3729952485682
 31
0.0
  0
SOLID
  5
124A
330
1102
100
AcDbEntity
  8
BEM
 62
     0
100
AcDbTrace
 10
131.2116293297742
 20
473.9614037904503
 30
0.0
 11
132.0096763308674
 21
471.7687876752831
 31
0.0
 12
125.0328044848195
 22
470.4709547295871
 32
0.0
 13
125.0328044848195
 23
470.4709547295871
 33
0.0
  0
SOLID
  5
124B
330
1102
100
AcDbEntity
  8
BEM
 62
     0
100
AcDbTrace
 10
330.4254459812486
 20
546.4693033061516
 30
0.0
 11
331.2234929823418
 21
544.2766871909846
 31
0.0
 12
337.4023178272965
 22
547.7671362518479
 32
0.0
 13
337.4023178272965
 23
547.7671362518479
 33
0.0
  0
MTEXT
  5
124C
330
1102
100
AcDbEntity
  8
BEM
 62
     1
100
AcDbMText
 10
228.9944302244411
 20
515.2270475258258
 30
0.0
 40
7.0
 41
0.0
 71
     5
 72
     1
  1
\A1;226
 11
0.9396926207859085
 21
0.3420201433256686
 31
0.0
 73
     1
 44
1.0
  0
POINT
  5
124D
330
1102
100
AcDbEntity
  8
DEFPOINTS
 62
     0
100
AcDbPoint
 10
158.3780728702303
 20
378.8555827950168
 30
0.0
  0
POINT
  5
124E
330
1102
100
AcDbEntity
  8
DEFPOINTS
 62
     0
100
AcDbPoint
 10
346.2401099689316
 20
523.4855019048718
 30
0.0
  0
POINT
  5
124F
330
1102
100
AcDbEntity
  8
DEFPOINTS
 62
     0
100
AcDbPoint
 10
337.4023178272965
 20
547.7671362518479
 30
0.0
  0
ENDBLK
  5
110D
330
1102
100
AcDbEntity
  8
0
100
AcDbBlockEnd
  0
BLOCK
  5
121E
330
1213
100
AcDbEntity
  8
0
100
AcDbBlockBegin
  2
*D8
 70
     1
 10
0.0
 20
0.0
 30
0.0
  3
*D8
  1

  0
LINE
  5
1221
330
1213
100
AcDbEntity
  8
BEM
 62
     0
370
    -2
100
AcDbLine
 10
158.3780728702302
 20
380.8555827950168
 30
0.0
 11
158.3780728702302
 21
423.1123547494791
 31
0.0
  0
ARC
  5
1222
330
1213
100
AcDbEntity
  8
BEM
 62
     0
370
    -2
100
AcDbCircle
 10
158.3780728702302
 20
378.8555827950168
 30
0.0
 40
42.2567719544624
100
AcDbArc
 50
29.50215639199852
 51
80.49784360800153
  0
SOLID
  5
1223
330
1213
100
AcDbEntity
  8
BEM
 62
     0
100
AcDbTrace
 10
196.2152030431599
 20
400.15365336056
 30
0.0
 11
194.0962206874694
 21
399.1767407643077
 31
0.0
 12
198.0864496540715
 22
393.3082499953621
 32
0.0
 13
198.0864496540715
 23
393.3082499953621
 33
0.0
  0
SOLID
  5
1224
330
1213
100
AcDbEntity
  8
BEM
 62
     0
100
AcDbTrace
 10
165.2573890240182
 20
419.369908088217
 30
0.0
 11
165.4506519328714
 21
421.695223957622
 31
0.0
 12
158.3780728702302
 22
421.1123547494791
 32
0.0
 13
158.3780728702302
 23
421.1123547494791
 33
0.0
  0
MTEXT
  5
1225
330
1213
100
AcDbEntity
  8
BEM
 62
     1
100
AcDbMText
 10
186.3438083758514
 20
418.7947922144467
 30
0.0
 40
7.0
 41
0.0
 71
     5
 72
     1
  1
\A1;70°
 11
0.819152044288992
 21
-0.573576436351046
 31
0.0
 73
     1
 44
1.0
  0
POINT
  5
1226
330
1213
100
AcDbEntity
  8
DEFPOINTS
 62
     0
100
AcDbPoint
 10
189.1145349678694
 20
407.8539391920926
 30
0.0
  0
POINT
  5
1227
330
1213
100
AcDbEntity
  8
DEFPOINTS
 62
     0
100
AcDbPoint
 10
158.3780728702302
 20
378.8555827950168
 30
0.0
  0
POINT
  5
1228
330
1213
100
AcDbEntity
  8
DEFPOINTS
 62
     0
100
AcDbPoint
 10
375.4460493166369
 20
457.8618650339057
 30
0.0
  0
POINT
  5
1229
330
1213
100
AcDbEntity
  8
DEFPOINTS
 62
     0
100
AcDbPoint
 10
158.3780728702302
 20
378.8555827950168
 30
0.0
  0
POINT
  5
122A
330
1213
100
AcDbEntity
  8
DEFPOINTS
 62
     0
100
AcDbPoint
 10
158.3780728702304
 20
147.8566671444261
 30
0.0
  0
ENDBLK
  5
121F
330
1213
100
AcDbEntity
  8
0
100
AcDbBlockEnd
  0
ENDSEC
  0
SECTION
  2
ENTITIES
  0
TEXT
  5
134
330
1E
100
AcDbEntity
  8
TEXT
100
AcDbText
 10
204.4216048581257
 20
63.0896391972351
 30
0.0
 40
4.0
  1
Koeh
 41
0.8
  7
GREEKS
 72
     1
 11
209.6787477152686
 21
63.0896391972351
 31
0.0
100
AcDbText
  0
INSERT
  5
135
330
1E
100
AcDbEntity
  8
STEMPEL
100
AcDbBlockReference
  2
LOGO
 10
150.9955485457794
 20
45.02105276448322
 30
0.0
 41
2.0
 42
2.0
 43
2.0
  0
LINE
  5
136
330
1E
100
AcDbEntity
  8
HILF
100
AcDbLine
 10
420.0
 20
0.0
 30
0.0
 11
0.0
 21
0.0
 31
0.0
  0
LINE
  5
137
330
1E
100
AcDbEntity
  8
HILF
100
AcDbLine
 10
419.9999999999999
 20
594.0000000000002
 30
0.0
 11
0.0
 21
594.0
 31
0.0
  0
LINE
  5
138
330
1E
100
AcDbEntity
  8
STEMPEL
100
AcDbLine
 10
410.0
 20
584.0
 30
0.0
 11
39.99999999999989
 21
584.0
 31
0.0
  0
LINE
  5
139
330
1E
100
AcDbEntity
  8
STEMPEL
100
AcDbLine
 10
410.0
 20
10.0
 30
0.0
 11
39.99999999999989
 21
10.0
 31
0.0
  0
LINE
  5
13A
330
1E
100
AcDbEntity
  8
STEMPEL
100
AcDbLine
 10
49.99999999999989
 20
10.0
 30
0.0
 11
410.0
 21
10.0
 31
0.0
  0
TEXT
  5
13B
330
1E
100
AcDbEntity
  8
TEXT
100
AcDbText
 10
202.4626584226295
 20
73.30961091915225
 30
0.0
 40
4.0
  1
Name
 41
0.8
  7
GREEKS
100
AcDbText
  0
TEXT
  5
13C
330
1E
100
AcDbEntity
  8
TEXT
100
AcDbText
 10
196.5498279101549
 20
102.6506227776589
 30
0.0
 40
5.0
  1
Zul. Abw.
 41
0.8
  7
GREEKS
 72
     4
 11
209.9783993387263
 21
105.1506227776589
 31
0.0
100
AcDbText
  0
LINE
  5
13D
330
1E
100
AcDbEntity
  8
HILF
100
AcDbLine
 10
146.0000000000001
 20
49.99999999999997
 30
0.0
 11
230.0
 21
49.99999999999997
 31
0.0
  0
LINE
  5
13E
330
1E
100
AcDbEntity
  8
HILF
100
AcDbLine
 10
146.0000000000001
 20
59.99999999999998
 30
0.0
 11
230.0
 21
59.99999999999998
 31
0.0
  0
LINE
  5
13F
330
1E
100
AcDbEntity
  8
HILF
100
AcDbLine
 10
146.0000000000001
 20
69.99999999999994
 30
0.0
 11
230.0
 21
69.99999999999994
 31
0.0
  0
LINE
  5
140
330
1E
100
AcDbEntity
  8
STEMPEL
100
AcDbLine
 10
410.0
 20
80.0
 30
0.0
 11
146.0000000000001
 21
79.99999999999994
 31
0.0
  0
LINE
  5
141
330
1E
100
AcDbEntity
  8
STEMPEL
100
AcDbLine
 10
410.0
 20
40.0
 30
0.0
 11
146.0000000000001
 21
39.99999999999997
 31
0.0
  0
LINE
  5
142
330
1E
100
AcDbEntity
  8
STEMPEL
100
AcDbLine
 10
410.0
 20
110.0
 30
0.0
 11
39.99999999999997
 21
110.0
 31
0.0
  0
LINE
  5
143
330
1E
100
AcDbEntity
  8
MITTEL
100
AcDbLine
 10
158.3780728702303
 20
378.8555827950168
 30
0.0
 11
158.3780728702304
 21
147.8566671444261
 31
0.0
  0
LINE
  5
144
330
1E
100
AcDbEntity
  8
HILF
100
AcDbLine
 10
0.0
 20
0.0
 30
0.0
 11
-0.0000000000001137
 21
594.0
 31
0.0
  0
LINE
  5
145
330
1E
100
AcDbEntity
  8
STEMPEL
100
AcDbLine
 10
40.0
 20
10.0
 30
0.0
 11
39.99999999999989
 21
584.0
 31
0.0
  0
LINE
  5
148
330
1E
100
AcDbEntity
  8
HILF
100
AcDbLine
 10
40.00000000000008
 20
39.99999999999997
 30
0.0
 11
146.0000000000001
 21
39.99999999999997
 31
0.0
  0
LINE
  5
149
330
1E
100
AcDbEntity
  8
HILF
100
AcDbLine
 10
40.00000000000008
 20
49.99999999999997
 30
0.0
 11
146.0000000000001
 21
49.99999999999997
 31
0.0
  0
LINE
  5
14A
330
1E
100
AcDbEntity
  8
HILF
100
AcDbLine
 10
40.00000000000008
 20
59.99999999999998
 30
0.0
 11
146.0000000000001
 21
59.99999999999998
 31
0.0
  0
LINE
  5
14B
330
1E
100
AcDbEntity
  8
HILF
100
AcDbLine
 10
40.00000000000008
 20
69.99999999999994
 30
0.0
 11
146.0000000000001
 21
69.99999999999994
 31
0.0
  0
LINE
  5
14C
330
1E
100
AcDbEntity
  8
HILF
100
AcDbLine
 10
40.00000000000008
 20
79.99999999999994
 30
0.0
 11
146.0000000000001
 21
79.99999999999994
 31
0.0
  0
LINE
  5
14D
330
1E
100
AcDbEntity
  8
HILF
100
AcDbLine
 10
40.00000000000008
 20
90.00000000000005
 30
0.0
 11
146.0000000000001
 21
90.00000000000005
 31
0.0
  0
LINE
  5
14E
330
1E
100
AcDbEntity
  8
HILF
100
AcDbLine
 10
40.00000000000008
 20
100.0
 30
0.0
 11
146.0000000000001
 21
100.0
 31
0.0
  0
LINE
  5
14F
330
1E
100
AcDbEntity
  8
STEMPEL
100
AcDbLine
 10
145.9999999999999
 20
29.99999999999997
 30
0.0
 11
39.99999999999997
 21
29.99999999999997
 31
0.0
  0
TEXT
  5
150
330
1E
100
AcDbEntity
  8
TEXT
100
AcDbText
 10
48.26641107045756
 20
13.65465846027192
 30
0.0
 40
4.0
  1
Index
 50
90.0
 41
0.8
  7
GREEKS
100
AcDbText
  0
LINE
  5
151
330
1E
100
AcDbEntity
  8
VOLL
100
AcDbLine
 10
54.00000000000009
 20
110.0
 30
0.0
 11
53.99999999999998
 21
9.999999999999971
 31
0.0
  0
LINE
  5
152
330
1E
100
AcDbEntity
  8
HILF
100
AcDbLine
 10
31.08767135713856
 20
297.0
 30
0.0
 11
0.0000000000001137
 21
297.0
 31
0.0
  0
LINE
  5
154
330
1E
100
AcDbEntity
  8
VOLL
100
AcDbLine
 10
124.0000000000001
 20
109.9999999999999
 30
0.0
 11
124.0
 21
9.999999999999971
 31
0.0
  0
LINE
  5
155
330
1E
100
AcDbEntity
  8
VOLL
100
AcDbLine
 10
104.0000000000001
 20
109.9999999999999
 30
0.0
 11
104.0
 21
9.999999999999971
 31
0.0
  0
LINE
  5
157
330
1E
100
AcDbEntity
  8
STEMPEL
100
AcDbLine
 10
146.0000000000001
 20
109.9999999999999
 30
0.0
 11
146.0
 21
9.999999999999971
 31
0.0
  0
TEXT
  5
159
330
1E
100
AcDbEntity
  8
TEXT
100
AcDbText
 10
172.331167315365
 20
73.31880501229926
 30
0.0
 40
4.0
  1
Tag
 41
0.8
  7
GREEKS
100
AcDbText
  0
TEXT
  5
15A
330
1E
100
AcDbEntity
  8
TEXT
100
AcDbText
 10
147.5836127167615
 20
63.62990369617964
 30
0.0
 40
4.0
  1
Gez.
 41
0.8
  7
GREEKS
100
AcDbText
  0
LINE
  5
15B
330
1E
100
AcDbEntity
  8
VOLL
100
AcDbLine
 10
164.0000000000001
 20
79.99999999999994
 30
0.0
 11
164.0000000000001
 21
39.99999999999997
 31
0.0
  0
TEXT
  5
15C
330
1E
100
AcDbEntity
  8
TEXT
100
AcDbText
 10
147.6006777387303
 20
43.52946389649807
 30
0.0
 40
4.0
  1
Norm.
 41
0.8
  7
GREEKS
100
AcDbText
  0
TEXT
  5
15D
330
1E
100
AcDbEntity
  8
TEXT
100
AcDbText
 10
147.5515086571672
 20
53.68926291428377
 30
0.0
 40
4.0
  1
Gepr.
 41
0.8
  7
GREEKS
100
AcDbText
  0
TEXT
  5
15E
330
1E
100
AcDbEntity
  8
TEXT
 62
     1
100
AcDbText
 10
160.5006306481887
 20
88.14901428913959
 30
0.0
 40
7.0
  1
1:2
 41
0.8
  7
GREEKS
100
AcDbText
  0
TEXT
  5
160
330
1E
100
AcDbEntity
  8
TEXT
100
AcDbText
 10
148.622109822104
 20
73.14025471151666
 30
0.0
 40
4.0
  1
2011
 41
0.8
  7
GREEKS
100
AcDbText
  0
LINE
  5
161
330
1E
100
AcDbEntity
  8
VOLL
100
AcDbLine
 10
190.0000000000001
 20
109.9999999999998
 30
0.0
 11
190.0
 21
39.99999999999997
 31
0.0
  0
LINE
  5
186
330
1E
100
AcDbEntity
  8
HILF
100
AcDbLine
 10
420.0
 20
-0.0000000000001137
 30
0.0
 11
419.9999999999999
 21
594.0
 31
0.0
  0
LINE
  5
187
330
1E
100
AcDbEntity
  8
STEMPEL
100
AcDbLine
 10
410.0
 20
10.0
 30
0.0
 11
410.0
 21
584.0
 31
0.0
  0
TEXT
  5
188
330
1E
100
AcDbEntity
  8
TEXT
100
AcDbText
 10
337.2400861497006
 20
52.07416177878602
 30
0.0
 40
5.0
  1
ersetzt durch:
 41
0.8
  7
GREEKS
100
AcDbText
  0
TEXT
  5
18A
330
1E
100
AcDbEntity
  8
TEXT
100
AcDbText
 10
336.178754957634
 20
102.3132034537136
 30
0.0
 40
5.0
  1
Zeichnungs Nr.
 41
0.8
  7
GREEKS
100
AcDbText
  0
LINE
  5
18B
330
1E
100
AcDbEntity
  8
HILF
100
AcDbLine
 10
233.4909699289885
 20
14.89398258028314
 30
0.0
 11
404.8588839326728
 21
14.89398258028314
 31
0.0
  0
LINE
  5
18C
330
1E
100
AcDbEntity
  8
HILF
100
AcDbLine
 10
336.7238616296993
 20
83.77983636955827
 30
0.0
 11
404.8588839326728
 21
83.77983636955827
 31
0.0
  0
LINE
  5
18D
330
1E
100
AcDbEntity
  8
VOLL
100
AcDbLine
 10
332.0
 20
60.0
 30
0.0
 11
410.0
 21
60.0
 31
0.0
  0
TEXT
  5
18E
330
1E
100
AcDbEntity
  8
TEXT
 62
     1
100
AcDbText
 10
234.9283864320014
 20
87.41748789253779
 30
0.0
 40
7.0
  1
Bogen DN125 70°
 41
0.8
  7
GREEKS
100
AcDbText
  0
LINE
  5
18F
330
1E
100
AcDbEntity
  8
HILF
100
AcDbLine
 10
234.7736801096948
 20
49.99999999999997
 30
0.0
 11
324.835391655631
 21
49.99999999999997
 31
0.0
  0
LINE
  5
190
330
1E
100
AcDbEntity
  8
HILF
100
AcDbLine
 10
234.7736801096948
 20
59.99999999999998
 30
0.0
 11
324.835391655631
 21
59.99999999999998
 31
0.0
  0
LINE
  5
191
330
1E
100
AcDbEntity
  8
HILF
100
AcDbLine
 10
234.7736801096948
 20
69.99999999999994
 30
0.0
 11
324.835391655631
 21
69.99999999999994
 31
0.0
  0
LINE
  5
192
330
1E
100
AcDbEntity
  8
HILF
100
AcDbLine
 10
234.7736801096948
 20
84.03758247564139
 30
0.0
 11
324.8353916556311
 21
84.03758247564139
 31
0.0
  0
LINE
  5
193
330
1E
100
AcDbEntity
  8
STEMPEL
100
AcDbLine
 10
230.0
 20
110.0
 30
0.0
 11
230.0
 21
9.999999999999971
 31
0.0
  0
TEXT
  5
194
330
1E
100
AcDbEntity
  8
TEXT
100
AcDbText
 10
235.1296391125315
 20
71.50334417585288
 30
0.0
 40
5.0
  1
dünnwandig
 41
0.8
  7
GREEKS
100
AcDbText
  0
TEXT
  5
195
330
1E
100
AcDbEntity
  8
TEXT
100
AcDbText
 10
234.9837501577827
 20
42.62974153022633
 30
0.0
 40
4.0
  1
5310125W.DWG
 41
0.8
  7
GREEKS
100
AcDbText
  0
TEXT
  5
196
330
1E
100
AcDbEntity
  8
TEXT
100
AcDbText
 10
234.742238391136
 20
30.84560570193057
 30
0.0
 40
5.0
  1
Bauvorhaben
 41
0.8
  7
GREEKS
100
AcDbText
  0
TEXT
  5
197
330
1E
100
AcDbEntity
  8
TEXT
100
AcDbText
 10
234.877940380901
 20
102.5489328011779
 30
0.0
 40
5.0
  1
Benennung
 41
0.8
  7
GREEKS
100
AcDbText
  0
LINE
  5
198
330
1E
100
AcDbEntity
  8
STEMPEL
100
AcDbLine
 10
332.0
 20
109.9999999999997
 30
0.0
 11
332.0
 21
40.0
 31
0.0
  0
TEXT
  5
19A
330
1E
100
AcDbEntity
  8
TEXT
 62
     1
100
AcDbText
 10
350.6081141208214
 20
88.14901428913959
 30
0.0
 40
7.0
  1
5310125W
 41
0.8
  7
GREEKS
 72
     1
 11
370.874780787488
 21
88.14901428913959
 31
0.0
100
AcDbText
  0
LINE
  5
1D4
330
1E
100
AcDbEntity
  8
STEMPEL
100
AcDbLine
 10
224.0031862349713
 20
152.8566671444261
 30
0.0
 11
92.75295950548954
 21
152.8566671444257
 31
0.0
  0
LINE
  5
1D6
330
1E
100
AcDbEntity
  8
HILF
100
AcDbLine
 10
223.3780728702305
 20
162.8566671444262
 30
0.0
 11
93.3780728702303
 21
162.8566671444261
 31
0.0
  0
LINE
  5
1D7
330
1E
100
AcDbEntity
  8
STEMPEL
100
AcDbLine
 10
91.87807287023042
 20
162.8566671444256
 30
0.0
 11
92.75295950548954
 21
152.8566671444257
 31
0.0
  0
LINE
  5
1D8
330
1E
100
AcDbEntity
  8
STEMPEL
100
AcDbLine
 10
224.8780728702304
 20
162.8566671444266
 30
0.0
 11
224.0031862349713
 21
152.8566671444261
 31
0.0
  0
DIMENSION
  5
1E8
330
1E
100
AcDbEntity
  8
BEM
100
AcDbDimension
  2
*D1
 10
224.8780728702309
 20
130.8048166325484
 30
0.0
 11
158.3780728702306
 21
137.3048166325484
 31
0.0
 70
    32
  1
%%c<>
 71
     5
 42
133.0000000000004
  3
Standard
100
AcDbAlignedDimension
 13
91.87807287023042
 23
162.8566671444258
 33
0.0
 14
224.8780728702309
 24
162.8566671444262
 34
0.0
100
AcDbRotatedDimension
1001
ACAD
1000
DSTYLE
1002
{
1070
    40
1040
2.0
1070
    41
1040
3.5
1070
    42
1040
1.0
1070
    43
1040
7.0
1070
    44
1040
1.0
1070
    73
1070
     0
1070
    74
1070
     0
1070
    77
1070
     1
1070
    78
1070
     8
1070
    79
1070
     2
1070
   140
1040
3.5
1070
   141
1040
1.5
1070
   146
1040
0.5142857142857144
1070
   147
1040
1.5
1070
   172
1070
     1
1070
   178
1070
     1
1070
   179
1070
     2
1070
   271
1070
     2
1070
   272
1070
     2
1070
   284
1070
     8
1070
   285
1070
     8
1070
   286
1070
     8
1002
}
  0
TEXT
  5
212
330
1E
100
AcDbEntity
  8
TEXT
100
AcDbText
 10
235.1296391125315
 20
51.50334417585292
 30
0.0
 40
5.0
  1
EDV-Art.Nr. 5.310.125C
 41
0.8
  7
GREEKS
100
AcDbText
  0
TEXT
  5
255
330
1E
100
AcDbEntity
  8
TEXT
 62
     1
100
AcDbText
 10
297.9974873842989
 20
131.2276367653921
 30
0.0
 40
7.0
  1
Werkstoff: 1.4404
 41
0.8
  7
GREEKS
100
AcDbText
  0
LINE
  5
952
102
{ACAD_REACTORS
330
11F3
102
}
330
1E
100
AcDbEntity
  8
STEMPEL
100
AcDbLine
 10
91.87807287023048
 20
330.5393773759385
 30
0.0
 11
91.87807287023039
 21
162.8566671444259
 31
0.0
  0
LINE
  5
953
102
{ACAD_REACTORS
330
11F3
102
}
330
1E
100
AcDbEntity
  8
STEMPEL
100
AcDbLine
 10
224.8780728702304
 20
288.6046384550335
 30
0.0
 11
224.8780728702304
 21
162.8566671444263
 31
0.0
  0
LINE
  5
9FA
330
1E
100
AcDbEntity
  8
STEMPEL
100
AcDbLine
 10
395.2550624564832
 20
388.8180267296829
 30
0.0
 11
346.2401099689316
 21
523.4855019048718
 31
0.0
  0
TEXT
  5
9FB
330
1E
100
AcDbEntity
  8
TEXT
 62
     1
100
AcDbText
 10
329.3836038957548
 20
453.9433747243488
 30
0.0
 40
7.0
  1
DN125
 50
19.99999999999993
 41
0.8
  7
GREEKS
100
AcDbText
  0
LINE
  5
9FC
330
1E
100
AcDbEntity
  8
HILF
100
AcDbLine
 10
327.6585845777685
 20
367.6630536158321
 30
0.0
 11
280.8600491146922
 21
496.2409730641804
 31
0.0
  0
LINE
  5
9FD
330
1E
100
AcDbEntity
  8
HILF
100
AcDbLine
 10
320.255145712657
 20
368.1404830239826
 30
0.0
 11
275.4955716201615
 21
491.1164021475202
 31
0.0
  0
LINE
  5
9FE
330
1E
100
AcDbEntity
  8
HILF
100
AcDbLine
 10
348.9191860630715
 20
374.2520908538359
 30
0.0
 11
301.3819662362276
 21
504.8595289117397
 31
0.0
  0
LINE
  5
A00
330
1E
100
AcDbEntity
  8
STEMPEL
100
AcDbLine
 10
272.1898718559394
 20
491.0475118037509
 30
0.0
 11
181.0361150357574
 21
457.8702575796652
 31
0.0
  0
ARC
  5
A01
330
1E
100
AcDbEntity
  8
STEMPEL
100
AcDbCircle
 10
342.232605910019
 20
494.7253377903035
 30
0.0
 40
29.0
100
AcDbArc
 50
85.00000000000692
 51
109.9999999999999
  0
LINE
  5
A02
330
1E
100
AcDbEntity
  8
STEMPEL
100
AcDbLine
 10
296.8314572065947
 20
504.2730264864235
 30
0.0
 11
284.1110517704102
 21
499.6431775398544
 31
0.0
  0
ARC
  5
A03
330
1E
100
AcDbEntity
  8
STEMPEL
100
AcDbCircle
 10
289.9253942069464
 20
483.6684029864938
 30
0.0
 40
17.0
100
AcDbArc
 50
109.9999999999999
 51
141.586338096528
  0
ARC
  5
A04
330
1E
100
AcDbEntity
  8
STEMPEL
100
AcDbCircle
 10
268.7696704226827
 20
500.4444380116103
 30
0.0
 40
10.0
100
AcDbArc
 50
290.0
 51
321.586338096528
  0
ARC
  5
A05
330
1E
100
AcDbEntity
  8
STEMPEL
100
AcDbCircle
 10
324.2782536864406
 20
488.1904880053897
 30
0.0
 40
29.0
100
AcDbArc
 50
109.9999999999999
 51
135.1711477430577
  0
ARC
  5
A06
330
1E
100
AcDbEntity
  8
STEMPEL
100
AcDbCircle
 10
290.333074483407
 20
522.1271862813556
 30
0.0
 40
19.0
100
AcDbArc
 50
290.0
 51
315.2271443659079
  0
LINE
  5
A07
330
1E
100
AcDbEntity
  8
STEMPEL
100
AcDbLine
 10
332.3140217535747
 20
521.9764237930949
 30
0.0
 11
314.3596695299959
 21
515.4415740081809
 31
0.0
  0
LINE
  5
A08
330
1E
100
AcDbEntity
  8
STEMPEL
100
AcDbLine
 10
346.2401099689317
 20
523.4855019048718
 30
0.0
 11
344.7601224497011
 21
523.6149840349639
 31
0.0
  0
POINT
  5
A09
330
1E
100
AcDbEntity
  8
STEMPEL
100
AcDbPoint
 10
346.8061761799107
 20
521.930247772291
 30
0.0
  0
LINE
  5
A0A
330
1E
100
AcDbEntity
  8
MITTEL
100
AcDbLine
 10
375.4460493166368
 20
457.8618650339056
 30
0.0
 11
158.3780728702303
 21
378.8555827950168
 31
0.0
  0
LINE
  5
A0B
330
1E
100
AcDbEntity
  8
STEMPEL
100
AcDbLine
 10
317.6785509182533
 20
366.0683932392254
 30
0.0
 11
265.9305588166293
 21
347.2336644311918
 31
0.0
  0
ARC
  5
A0C
330
1E
100
AcDbEntity
  8
STEMPEL
100
AcDbCircle
 10
373.6984590959802
 20
408.2736166779999
 30
0.0
 40
29.0
100
AcDbArc
 50
290.0
 51
314.999999999993
  0
LINE
  5
A0D
330
1E
100
AcDbEntity
  8
STEMPEL
100
AcDbLine
 10
345.0562974155139
 20
371.7763669556104
 30
0.0
 11
332.3358919793293
 21
367.1465180090412
 31
0.0
  0
ARC
  5
A0E
330
1E
100
AcDbEntity
  8
STEMPEL
100
AcDbCircle
 10
321.0987523515098
 20
356.6714670313662
 30
0.0
 40
10.0
100
AcDbArc
 50
78.41366190347199
 51
109.9999999999999
  0
ARC
  5
A0F
330
1E
100
AcDbEntity
  8
STEMPEL
100
AcDbCircle
 10
326.5215495427931
 20
383.1212925624017
 30
0.0
 40
17.0
100
AcDbArc
 50
258.4136619034719
 51
290.0
  0
ARC
  5
A10
330
1E
100
AcDbEntity
  8
STEMPEL
100
AcDbCircle
 10
355.744106872402
 20
401.738766893086
 30
0.0
 40
29.0
100
AcDbArc
 50
264.8288522569422
 51
290.0
  0
ARC
  5
A11
330
1E
100
AcDbEntity
  8
STEMPEL
100
AcDbCircle
 10
351.5546801387018
 20
353.922207160678
 30
0.0
 40
19.0
100
AcDbArc
 50
84.77285563409203
 51
109.9999999999999
  0
LINE
  5
A12
330
1E
100
AcDbEntity
  8
STEMPEL
100
AcDbLine
 10
383.6170432524247
 20
381.0225306752086
 30
0.0
 11
365.6626910288461
 21
374.4876808902948
 31
0.0
  0
LINE
  5
A13
330
1E
100
AcDbEntity
  8
STEMPEL
100
AcDbLine
 10
395.255062456483
 20
388.818026729683
 30
0.0
 11
394.2045557503903
 21
387.7675200235902
 31
0.0
  0
TEXT
  5
F7B
330
1E
100
AcDbEntity
  8
TEXT
100
AcDbText
 10
41.85509950977674
 20
111.6719999999999
 30
0.0
 40
5.0
  1
Erstellt mit AUTOCAD 2004
 41
0.8
  7
GREEKS
100
AcDbText
  0
TEXT
  5
F7C
330
1E
100
AcDbEntity
  8
TEXT
100
AcDbText
 10
153.5163572150377
 20
102.4620895087088
 30
0.0
 40
5.0
  1
Maßstab
 41
0.8
  7
GREEKS
100
AcDbText
  0
TEXT
  5
F7D
330
1E
100
AcDbEntity
  8
TEXT
100
AcDbText
 10
192.6882715247924
 20
89.7791437153694
 30
0.0
 40
4.0
  1
DIN EN1124-3
 41
0.8
  7
GREEKS
 72
     1
 11
209.6787477152686
 21
89.7791437153694
 31
0.0
100
AcDbText
  0
TEXT
  5
F7E
330
1E
100
AcDbEntity
  8
TEXT
100
AcDbText
 10
67.65811831396264
 20
18.34829198486668
 30
0.0
 40
4.0
  1
Änderung
 41
0.8
  7
GREEKS
 72
     1
 11
78.40097545681979
 21
18.34829198486668
 31
0.0
100
AcDbText
  0
TEXT
  5
F7F
330
1E
100
AcDbEntity
  8
TEXT
100
AcDbText
 10
110.462610504336
 20
18.6715626933981
 30
0.0
 40
4.0
  1
Tag
 41
0.8
  7
GREEKS
 72
     1
 11
114.1959438376693
 21
18.6715626933981
 31
0.0
100
AcDbText
  0
TEXT
  5
F80
330
1E
100
AcDbEntity
  8
TEXT
100
AcDbText
 10
128.9002860979178
 20
18.59324216966408
 30
0.0
 40
4.0
  1
Name
 41
0.8
  7
GREEKS
 72
     1
 11
135.2240956217273
 21
18.59324216966408
 31
0.0
100
AcDbText
  0
TEXT
  5
F81
330
1E
100
AcDbEntity
  8
BEM
100
AcDbText
 10
416.5811541437436
 20
12.14804815338303
 30
0.0
 40
4.0
  1
Diese Zeichnung ist urheberrechtlich geschützt und bleibt unser Eigentum. Sie darf weder ganz noch teilweise vervielfältigt und nicht an Dritte weitergegeben werden.
 50
90.0
 41
0.8
  7
GREEKS
100
AcDbText
  0
TEXT
  5
F82
330
1E
100
AcDbEntity
  8
TEXT
100
AcDbText
 10
336.7238616296993
 20
73.1811823709997
 30
0.0
 40
5.0
  1
Ersatz für:
 41
0.8
  7
GREEKS
100
AcDbText
  0
TEXT
  5
1004
330
1E
100
AcDbEntity
  8
TEXT
100
AcDbText
 10
170.398997108236
 20
63.10765040825732
 30
0.0
 40
4.0
  1
08.04.
 41
0.8
  7
GREEKS
 72
     1
 11
177.4085209177598
 21
63.10765040825732
 31
0.0
100
AcDbText
  0
LINE
  5
10A0
330
1E
100
AcDbEntity
  8
MITTEL
100
AcDbLine
 10
223.4833369261933
 20
402.5519610054285
 30
0.0
 11
158.3780728702303
 21
309.5720079154859
 31
0.0
  0
LINE
  5
10A1
102
{ACAD_REACTORS
330
11F3
102
}
330
1E
100
AcDbEntity
  8
STEMPEL
100
AcDbLine
 10
181.0361150357574
 20
457.8702575796652
 30
0.0
 11
91.87807287023048
 21
330.5393773759385
 31
0.0
  0
LINE
  5
10A2
102
{ACAD_REACTORS
330
11F3
102
}
330
1E
100
AcDbEntity
  8
STEMPEL
100
AcDbLine
 10
265.9305588166293
 20
347.2336644311918
 30
0.0
 11
224.8780728702304
 21
288.6046384550335
 31
0.0
  0
LINE
  5
10A6
330
1E
100
AcDbEntity
  8
STEMPEL
100
AcDbLine
 10
265.9305588166293
 20
347.2336644311918
 30
0.0
 11
181.0361150357574
 21
457.8702575796652
 31
0.0
  0
LINE
  5
10A8
330
1E
100
AcDbEntity
  8
STEMPEL
100
AcDbLine
 10
224.8780728702304
 20
288.6046384550335
 30
0.0
 11
91.87807287023048
 21
330.5393773759385
 31
0.0
  0
DIMENSION
  5
10BB
330
1E
100
AcDbEntity
  8
BEM
100
AcDbDimension
  2
*D5
 10
72.08183984007837
 20
152.8566671444257
 30
0.0
 11
65.58183984007836
 21
265.8561249697212
 31
0.0
 70
    32
 71
     5
 42
225.9989156505911
  3
Standard
100
AcDbAlignedDimension
 13
158.3780728702303
 23
378.8555827950168
 33
0.0
 14
92.75295950548956
 24
152.8566671444257
 34
0.0
 50
90.0
100
AcDbRotatedDimension
1001
ACAD
1000
DSTYLE
1002
{
1070
    40
1040
2.0
1070
    41
1040
3.5
1070
    42
1040
1.0
1070
    43
1040
7.0
1070
    44
1040
1.0
1070
    73
1070
     0
1070
    74
1070
     0
1070
    77
1070
     1
1070
    78
1070
     8
1070
    79
1070
     2
1070
   140
1040
3.5
1070
   141
1040
1.5
1070
   146
1040
0.5142857142857144
1070
   147
1040
1.5
1070
   172
1070
     1
1070
   178
1070
     1
1070
   179
1070
     2
1070
   271
1070
     2
1070
   272
1070
     2
1070
   284
1070
     8
1070
   285
1070
     8
1070
   286
1070
     8
1002
}
  0
DIMENSION
  5
1101
330
1E
100
AcDbEntity
  8
BEM
100
AcDbDimension
  2
*D6
 10
337.4023178272965
 20
547.7671362518479
 30
0.0
 11
228.9944302244411
 21
515.2270475258258
 31
0.0
 70
    32
 71
     5
 42
225.9989156505907
 51
340.0
  3
Standard
100
AcDbAlignedDimension
 13
158.3780728702303
 23
378.8555827950168
 33
0.0
 14
346.2401099689316
 24
523.4855019048719
 34
0.0
 50
20.00000000000009
100
AcDbRotatedDimension
1001
ACAD
1000
DSTYLE
1002
{
1070
    40
1040
2.0
1070
    41
1040
3.5
1070
    42
1040
1.0
1070
    43
1040
7.0
1070
    44
1040
1.0
1070
    73
1070
     0
1070
    74
1070
     0
1070
    77
1070
     1
1070
    78
1070
     8
1070
    79
1070
     2
1070
   140
1040
3.5
1070
   141
1040
1.5
1070
   146
1040
0.5142857142857144
1070
   147
1040
1.5
1070
   172
1070
     1
1070
   178
1070
     1
1070
   179
1070
     2
1070
   271
1070
     2
1070
   272
1070
     2
1070
   284
1070
     8
1070
   285
1070
     8
1070
   286
1070
     8
1002
}
  0
ARC
  5
11C8
330
1E
100
AcDbEntity
  8
SCHRAFF
100
AcDbCircle
 10
91.87807287023048
 20
330.5393773759385
 30
0.0
 40
5.0
100
AcDbArc
 50
305.6301023541556
 51
19.36989764584428
  0
ARC
  5
11C9
102
{ACAD_REACTORS
330
11F3
102
}
330
1E
100
AcDbEntity
  8
SCHRAFF
100
AcDbCircle
 10
93.27633310628305
 20
330.0985076169734
 30
0.0
 40
3.044770775033986
100
AcDbArc
 50
82.33764704257975
 51
242.6623529574209
  0
ARC
  5
11CA
102
{ACAD_REACTORS
330
11F3
102
}
330
1E
100
AcDbEntity
  8
SCHRAFF
100
AcDbCircle
 10
223.7261914412022
 20
288.9678252745384
 30
0.0
 40
3.693010584540453
100
AcDbArc
 50
288.1742838713875
 51
36.82571612861242
  0
ARC
  5
11CB
330
1E
100
AcDbEntity
  8
SCHRAFF
100
AcDbCircle
 10
96.64665762397161
 20
329.0358483784171
 30
0.0
 40
5.0
100
AcDbArc
 50
305.6301023541556
 51
19.36989764584428
  0
ARC
  5
11CC
330
1E
100
AcDbEntity
  8
SCHRAFF
100
AcDbCircle
 10
101.4152423777127
 20
327.5323193808958
 30
0.0
 40
5.0
100
AcDbArc
 50
305.6301023541556
 51
19.36989764584428
  0
ARC
  5
11CD
330
1E
100
AcDbEntity
  8
SCHRAFF
100
AcDbCircle
 10
106.1838271314539
 20
326.0287903833744
 30
0.0
 40
5.0
100
AcDbArc
 50
305.6301023541556
 51
19.36989764584428
  0
ARC
  5
11CE
330
1E
100
AcDbEntity
  8
SCHRAFF
100
AcDbCircle
 10
110.952411885195
 20
324.525261385853
 30
0.0
 40
5.0
100
AcDbArc
 50
305.6301023541556
 51
19.36989764584428
  0
ARC
  5
11CF
330
1E
100
AcDbEntity
  8
SCHRAFF
100
AcDbCircle
 10
115.7209966389361
 20
323.0217323883317
 30
0.0
 40
5.0
100
AcDbArc
 50
305.6301023541556
 51
19.36989764584428
  0
ARC
  5
11D0
330
1E
100
AcDbEntity
  8
SCHRAFF
100
AcDbCircle
 10
120.4895813926773
 20
321.5182033908103
 30
0.0
 40
5.0
100
AcDbArc
 50
305.6301023541556
 51
19.36989764584428
  0
ARC
  5
11D1
330
1E
100
AcDbEntity
  8
SCHRAFF
100
AcDbCircle
 10
125.2581661464184
 20
320.0146743932889
 30
0.0
 40
5.0
100
AcDbArc
 50
305.6301023541556
 51
19.36989764584428
  0
ARC
  5
11D2
330
1E
100
AcDbEntity
  8
SCHRAFF
100
AcDbCircle
 10
130.0267509001595
 20
318.5111453957675
 30
0.0
 40
5.0
100
AcDbArc
 50
305.6301023541556
 51
19.36989764584428
  0
ARC
  5
11D3
330
1E
100
AcDbEntity
  8
SCHRAFF
100
AcDbCircle
 10
134.7953356539006
 20
317.0076163982462
 30
0.0
 40
5.0
100
AcDbArc
 50
305.6301023541556
 51
19.36989764584428
  0
ARC
  5
11D4
330
1E
100
AcDbEntity
  8
SCHRAFF
100
AcDbCircle
 10
139.5639204076418
 20
315.5040874007248
 30
0.0
 40
5.0
100
AcDbArc
 50
305.6301023541556
 51
19.36989764584428
  0
ARC
  5
11D5
330
1E
100
AcDbEntity
  8
SCHRAFF
100
AcDbCircle
 10
144.3325051613829
 20
314.0005584032034
 30
0.0
 40
5.0
100
AcDbArc
 50
305.6301023541556
 51
19.36989764584428
  0
ARC
  5
11D6
330
1E
100
AcDbEntity
  8
SCHRAFF
100
AcDbCircle
 10
149.101089915124
 20
312.497029405682
 30
0.0
 40
5.0
100
AcDbArc
 50
305.6301023541556
 51
19.36989764584428
  0
ARC
  5
11D7
330
1E
100
AcDbEntity
  8
SCHRAFF
100
AcDbCircle
 10
153.8696746688651
 20
310.9935004081607
 30
0.0
 40
5.0
100
AcDbArc
 50
305.6301023541556
 51
19.36989764584428
  0
ARC
  5
11DA
330
1E
100
AcDbEntity
  8
SCHRAFF
100
AcDbCircle
 10
158.6382594226062
 20
309.4899714106393
 30
0.0
 40
5.0
100
AcDbArc
 50
305.6301023541556
 51
19.36989764584428
  0
ARC
  5
11DB
330
1E
100
AcDbEntity
  8
SCHRAFF
100
AcDbCircle
 10
163.4068441763474
 20
307.9864424131179
 30
0.0
 40
5.0
100
AcDbArc
 50
305.6301023541556
 51
19.36989764584428
  0
ARC
  5
11DC
330
1E
100
AcDbEntity
  8
SCHRAFF
100
AcDbCircle
 10
168.1754289300885
 20
306.4829134155966
 30
0.0
 40
5.0
100
AcDbArc
 50
305.6301023541556
 51
19.36989764584428
  0
ARC
  5
11DD
330
1E
100
AcDbEntity
  8
SCHRAFF
100
AcDbCircle
 10
172.9440136838296
 20
304.9793844180751
 30
0.0
 40
5.0
100
AcDbArc
 50
305.6301023541556
 51
19.36989764584428
  0
ARC
  5
11DE
330
1E
100
AcDbEntity
  8
SCHRAFF
100
AcDbCircle
 10
177.7125984375708
 20
303.4758554205538
 30
0.0
 40
5.0
100
AcDbArc
 50
305.6301023541556
 51
19.36989764584428
  0
ARC
  5
11DF
330
1E
100
AcDbEntity
  8
SCHRAFF
100
AcDbCircle
 10
182.4811831913119
 20
301.9723264230325
 30
0.0
 40
5.0
100
AcDbArc
 50
305.6301023541556
 51
19.36989764584428
  0
ARC
  5
11E0
330
1E
100
AcDbEntity
  8
SCHRAFF
100
AcDbCircle
 10
187.249767945053
 20
300.4687974255111
 30
0.0
 40
5.0
100
AcDbArc
 50
305.6301023541556
 51
19.36989764584428
  0
ARC
  5
11E1
330
1E
100
AcDbEntity
  8
SCHRAFF
100
AcDbCircle
 10
192.0183526987941
 20
298.9652684279897
 30
0.0
 40
5.0
100
AcDbArc
 50
305.6301023541556
 51
19.36989764584428
  0
ARC
  5
11E2
330
1E
100
AcDbEntity
  8
SCHRAFF
100
AcDbCircle
 10
196.7869374525353
 20
297.4617394304683
 30
0.0
 40
5.0
100
AcDbArc
 50
305.6301023541556
 51
19.36989764584428
  0
ARC
  5
11E3
330
1E
100
AcDbEntity
  8
SCHRAFF
100
AcDbCircle
 10
201.5555222062764
 20
295.958210432947
 30
0.0
 40
5.0
100
AcDbArc
 50
305.6301023541556
 51
19.36989764584428
  0
ARC
  5
11E4
330
1E
100
AcDbEntity
  8
SCHRAFF
100
AcDbCircle
 10
206.3241069600175
 20
294.4546814354256
 30
0.0
 40
5.0
100
AcDbArc
 50
305.6301023541556
 51
19.36989764584428
  0
ARC
  5
11E5
330
1E
100
AcDbEntity
  8
SCHRAFF
100
AcDbCircle
 10
211.0926917137586
 20
292.9511524379042
 30
0.0
 40
5.0
100
AcDbArc
 50
305.6301023541556
 51
19.36989764584428
  0
ARC
  5
11E6
330
1E
100
AcDbEntity
  8
SCHRAFF
100
AcDbCircle
 10
215.8612764674998
 20
291.4476234403829
 30
0.0
 40
5.0
100
AcDbArc
 50
305.6301023541556
 51
19.36989764584428
  0
HATCH
  5
11F3
330
1E
100
AcDbEntity
  8
SCHRAFF
100
AcDbHatch
 10
0.0
 20
0.0
 30
0.0
210
0.0
220
0.0
230
1.0
  2
_USER
 70
     0
 71
     1
 91
        2
 92
        7
 72
     1
 73
     1
 93
        3
 10
91.8780728702305
 20
330.5393773759385
 42
0.0
 10
93.68230766725609
 20
333.1160917050054
 42
0.8415168532145015
 10
91.87807287023048
 20
327.393790000516
 42
0.0
 97
        3
330
10A1
330
11C9
330
952
 92
        7
 72
     1
 73
     1
 93
        3
 10
226.6823076672561
 20
291.1813527841005
 42
0.0
 10
224.8780728702305
 20
288.6046384550336
 42
0.0
 10
224.8780728702305
 20
285.4590510796111
 42
0.5131109969528323
 97
        3
330
10A2
330
953
330
11CA
 75
     0
 76
     0
 52
0.0
 41
0.1
 77
     0
 78
     1
 53
0.0
 43
0.0
 44
0.0
 45
0.0
 46
0.1
 79
     0
 47
0.1961084246681091
 98
        2
 10
91.63135705404329
 20
330.4212126817922
 10
226.2428958098703
 20
288.4540099430162
  0
HATCH
  5
11F4
330
1E
100
AcDbEntity
  8
SCHRAFF
100
AcDbHatch
 10
0.0
 20
0.0
 30
0.0
210
0.0
220
0.0
230
1.0
  2
_USER
 70
     0
 71
     0
 91
        2
 92
        7
 72
     1
 73
     1
 93
        3
 10
181.0361150357573
 20
457.8702575796651
 42
0.0
 10
179.2318802387318
 20
455.2935432505982
 42
-0.8415168532145015
 10
183.9920002804792
 20
458.9461118246505
 42
0.0
 97
        0
 92
        7
 72
     1
 73
     1
 93
        3
 10
264.1263240196037
 20
344.6569501021248
 42
0.0
 10
265.9305588166293
 20
347.2336644311917
 42
0.0
 10
268.8864440613512
 20
348.3095186761772
 42
-0.5131109969528323
 97
        0
 75
     0
 76
     0
 52
0.0
 41
0.1
 77
     0
 78
     1
 53
290.0
 43
460.217377183533
 44
657.2585298927464
 45
-0.0939692620785909
 46
-0.0342020143325669
 79
     0
 47
0.1961084246681091
 98
        2
 10
181.062771748071
 20
458.1425093171954
 10
266.5389002552818
 20
346.002668371402
  0
ARC
  5
11F5
330
1E
100
AcDbEntity
  8
SCHRAFF
100
AcDbCircle
 10
254.087486516804
 20
362.6678567447171
 30
0.0
 40
5.0
100
AcDbArc
 50
270.6301023541556
 51
344.3698976458444
  0
ARC
  5
11F6
330
1E
100
AcDbEntity
  8
SCHRAFF
100
AcDbCircle
 10
251.0436793717603
 20
366.6346234461733
 30
0.0
 40
5.0
100
AcDbArc
 50
270.6301023541556
 51
344.3698976458444
  0
ARC
  5
11F7
330
1E
100
AcDbEntity
  8
SCHRAFF
100
AcDbCircle
 10
247.9998722267167
 20
370.6013901476294
 30
0.0
 40
5.0
100
AcDbArc
 50
270.6301023541556
 51
344.3698976458444
  0
ARC
  5
11F8
330
1E
100
AcDbEntity
  8
SCHRAFF
100
AcDbCircle
 10
244.9560650816732
 20
374.5681568490856
 30
0.0
 40
5.0
100
AcDbArc
 50
270.6301023541556
 51
344.3698976458444
  0
ARC
  5
11F9
330
1E
100
AcDbEntity
  8
SCHRAFF
100
AcDbCircle
 10
241.9122579366295
 20
378.5349235505418
 30
0.0
 40
5.0
100
AcDbArc
 50
270.6301023541556
 51
344.3698976458444
  0
ARC
  5
11FA
330
1E
100
AcDbEntity
  8
SCHRAFF
100
AcDbCircle
 10
211.4741864861935
 20
418.2025905651035
 30
0.0
 40
5.0
100
AcDbArc
 50
270.6301023541556
 51
344.3698976458444
  0
ARC
  5
11FB
330
1E
100
AcDbEntity
  8
SCHRAFF
100
AcDbCircle
 10
190.1675364708882
 20
445.9699574752966
 30
0.0
 40
5.0
100
AcDbArc
 50
270.6301023541556
 51
344.3698976458444
  0
ARC
  5
11FC
330
1E
100
AcDbEntity
  8
SCHRAFF
100
AcDbCircle
 10
181.0361150357574
 20
457.8702575796651
 30
0.0
 40
5.0
100
AcDbArc
 50
270.6301023541556
 51
344.3698976458444
  0
ARC
  5
11FD
330
1E
100
AcDbEntity
  8
SCHRAFF
100
AcDbCircle
 10
181.9286302613258
 20
456.7071090920574
 30
0.0
 40
3.044770775033986
100
AcDbArc
 50
47.3376470425791
 51
207.6623529574202
  0
ARC
  5
11FE
330
1E
100
AcDbEntity
  8
SCHRAFF
100
AcDbCircle
 10
184.079922180801
 20
453.903490878209
 30
0.0
 40
5.0
100
AcDbArc
 50
270.6301023541556
 51
344.3698976458444
  0
ARC
  5
11FF
330
1E
100
AcDbEntity
  8
SCHRAFF
100
AcDbCircle
 10
187.1237293258445
 20
449.9367241767528
 30
0.0
 40
5.0
100
AcDbArc
 50
270.6301023541556
 51
344.3698976458444
  0
ARC
  5
1200
330
1E
100
AcDbEntity
  8
SCHRAFF
100
AcDbCircle
 10
199.298957906019
 20
434.0696573709281
 30
0.0
 40
5.0
100
AcDbArc
 50
270.6301023541556
 51
344.3698976458444
  0
ARC
  5
1201
330
1E
100
AcDbEntity
  8
SCHRAFF
100
AcDbCircle
 10
196.2551507609754
 20
438.0364240723842
 30
0.0
 40
5.0
100
AcDbArc
 50
270.6301023541556
 51
344.3698976458444
  0
ARC
  5
1202
330
1E
100
AcDbEntity
  8
SCHRAFF
100
AcDbCircle
 10
193.2113436159319
 20
442.0031907738405
 30
0.0
 40
5.0
100
AcDbArc
 50
270.6301023541556
 51
344.3698976458444
  0
ARC
  5
1203
330
1E
100
AcDbEntity
  8
SCHRAFF
100
AcDbCircle
 10
202.3427650510627
 20
430.1028906694719
 30
0.0
 40
5.0
100
AcDbArc
 50
270.6301023541556
 51
344.3698976458444
  0
ARC
  5
1204
330
1E
100
AcDbEntity
  8
SCHRAFF
100
AcDbCircle
 10
205.3865721961062
 20
426.1361239680158
 30
0.0
 40
5.0
100
AcDbArc
 50
270.6301023541556
 51
344.3698976458444
  0
ARC
  5
1205
330
1E
100
AcDbEntity
  8
SCHRAFF
100
AcDbCircle
 10
208.4303793411498
 20
422.1693572665596
 30
0.0
 40
5.0
100
AcDbArc
 50
270.6301023541556
 51
344.3698976458444
  0
ARC
  5
1206
330
1E
100
AcDbEntity
  8
SCHRAFF
100
AcDbCircle
 10
232.7808365014988
 20
390.4352236549104
 30
0.0
 40
5.0
100
AcDbArc
 50
270.6301023541556
 51
344.3698976458444
  0
ARC
  5
1207
330
1E
100
AcDbEntity
  8
SCHRAFF
100
AcDbCircle
 10
217.5618007762807
 20
410.2690571621911
 30
0.0
 40
5.0
100
AcDbArc
 50
270.6301023541556
 51
344.3698976458444
  0
ARC
  5
1208
330
1E
100
AcDbEntity
  8
SCHRAFF
100
AcDbCircle
 10
214.5179936312371
 20
414.2358238636473
 30
0.0
 40
5.0
100
AcDbArc
 50
270.6301023541556
 51
344.3698976458444
  0
ARC
  5
1209
330
1E
100
AcDbEntity
  8
SCHRAFF
100
AcDbCircle
 10
220.6056079213243
 20
406.302290460735
 30
0.0
 40
5.0
100
AcDbArc
 50
270.6301023541556
 51
344.3698976458444
  0
ARC
  5
120A
330
1E
100
AcDbEntity
  8
SCHRAFF
100
AcDbCircle
 10
226.6932222114115
 20
398.3687570578227
 30
0.0
 40
5.0
100
AcDbArc
 50
270.6301023541556
 51
344.3698976458444
  0
ARC
  5
120B
330
1E
100
AcDbEntity
  8
SCHRAFF
100
AcDbCircle
 10
223.6494150663679
 20
402.3355237592788
 30
0.0
 40
5.0
100
AcDbArc
 50
270.6301023541556
 51
344.3698976458444
  0
ARC
  5
120C
330
1E
100
AcDbEntity
  8
SCHRAFF
100
AcDbCircle
 10
229.737029356455
 20
394.4019903563665
 30
0.0
 40
5.0
100
AcDbArc
 50
270.6301023541556
 51
344.3698976458444
  0
ARC
  5
120D
330
1E
100
AcDbEntity
  8
SCHRAFF
100
AcDbCircle
 10
238.8684507915859
 20
382.501690251998
 30
0.0
 40
5.0
100
AcDbArc
 50
270.6301023541556
 51
344.3698976458444
  0
ARC
  5
120E
330
1E
100
AcDbEntity
  8
SCHRAFF
100
AcDbCircle
 10
235.8246436465423
 20
386.4684569534542
 30
0.0
 40
5.0
100
AcDbArc
 50
270.6301023541556
 51
344.3698976458444
  0
ARC
  5
120F
330
1E
100
AcDbEntity
  8
SCHRAFF
100
AcDbCircle
 10
265.1953081909235
 20
348.1918617020089
 30
0.0
 40
3.693010584540453
100
AcDbArc
 50
253.1742838713876
 51
1.825716128612483
  0
ARC
  5
1210
330
1E
100
AcDbEntity
  8
SCHRAFF
100
AcDbCircle
 10
257.1312936618475
 20
358.701090043261
 30
0.0
 40
5.0
100
AcDbArc
 50
270.6301023541556
 51
344.3698976458444
  0
ARC
  5
1211
330
1E
100
AcDbEntity
  8
SCHRAFF
100
AcDbCircle
 10
260.1751008068911
 20
354.7343233418049
 30
0.0
 40
5.0
100
AcDbArc
 50
270.6301023541556
 51
344.3698976458444
  0
DIMENSION
  5
1212
330
1E
100
AcDbEntity
  8
BEM
100
AcDbDimension
  2
*D8
 10
158.3780728702304
 20
147.8566671444261
 30
0.0
 11
186.3438083758514
 21
418.7947922144466
 31
0.0
 70
    34
 71
     5
 42
1.221730476396031
  3
Standard
100
AcDb2LineAngularDimension
 13
375.4460493166368
 23
457.8618650339056
 33
0.0
 14
158.3780728702303
 24
378.8555827950168
 34
0.0
 15
158.3780728702303
 25
378.8555827950168
 35
0.0
 16
189.1145349678694
 26
407.8539391920926
 36
0.0
1001
ACAD
1000
DSTYLE
1002
{
1070
    40
1040
2.0
1070
    41
1040
3.5
1070
    42
1040
1.0
1070
    43
1040
7.0
1070
    44
1040
1.0
1070
    73
1070
     0
1070
    74
1070
     0
1070
    77
1070
     1
1070
    78
1070
     8
1070
    79
1070
     2
1070
   140
1040
3.5
1070
   141
1040
1.5
1070
   146
1040
0.5142857142857144
1070
   147
1040
1.5
1070
   172
1070
     1
1070
   178
1070
     1
1070
   179
1070
     2
1070
   271
1070
     2
1070
   272
1070
     2
1070
   284
1070
     8
1070
   285
1070
     8
1070
   286
1070
     8
1002
}
  0
ENDSEC
  0
SECTION
  2
OBJECTS
  0
DICTIONARY
  5
C
330
0
100
AcDbDictionary
281
     1
  3
ACAD_COLOR
350
F6D
  3
ACAD_GROUP
350
D
  3
ACAD_LAYOUT
350
19
  3
ACAD_MATERIAL
350
F6C
  3
ACAD_MLINESTYLE
350
16
  3
ACAD_PLOTSETTINGS
350
18
  3
ACAD_PLOTSTYLENAME
350
E
  3
AcDbVariableDictionary
350
246
  0
DICTIONARY
  5
F6D
102
{ACAD_REACTORS
330
C
102
}
330
C
100
AcDbDictionary
281
     1
  0
DICTIONARY
  5
D
102
{ACAD_REACTORS
330
C
102
}
330
C
100
AcDbDictionary
281
     1
  0
DICTIONARY
  5
19
102
{ACAD_REACTORS
330
C
102
}
330
C
100
AcDbDictionary
281
     1
  3
Layout1
350
1D
  3
Model
350
21
  0
DICTIONARY
  5
F6C
102
{ACAD_REACTORS
330
C
102
}
330
C
100
AcDbDictionary
281
     1
  0
DICTIONARY
  5
16
102
{ACAD_REACTORS
330
C
102
}
330
C
100
AcDbDictionary
281
     1
  3
Standard
350
17
  0
DICTIONARY
  5
18
102
{ACAD_REACTORS
330
C
102
}
330
C
100
AcDbDictionary
281
     1
  0
ACDBDICTIONARYWDFLT
  5
E
102
{ACAD_REACTORS
330
C
102
}
330
C
100
AcDbDictionary
281
     1
  3
Normal
350
F
100
AcDbDictionaryWithDefault
340
F
  0
DICTIONARY
  5
246
102
{ACAD_REACTORS
330
C
102
}
330
C
100
AcDbDictionary
281
     1
  3
DIMASSOC
350
FE9
  3
PROJECTNAME
350
FEA
  3
SORTENTS
350
247
  0
LAYOUT
  5
1D
102
{ACAD_REACTORS
330
19
102
}
330
19
100
AcDbPlotSettings
  1

  2
Tektronix Phaser 740
  4

  6

 40
0.0
 41
0.0
 42
0.0
 43
0.0
 44
0.0
 45
0.0
 46
0.0
 47
0.0
 48
0.0
 49
0.0
140
0.0
141
0.0
142
1.0
143
1.0
 70
   688
 72
     0
 73
     0
 74
     5
  7
monochrome.ctb
 75
    16
147
1.0
 76
     0
 77
     2
 78
   300
148
0.0
149
0.0
100
AcDbLayout
  1
Layout1
 70
     0
 71
     1
 10
0.0
 20
0.0
 11
12.0
 21
9.0
 12
0.0
 22
0.0
 32
0.0
 14
1.000000000000000E+20
 24
1.000000000000000E+20
 34
1.000000000000000E+20
 15
-1.000000000000000E+20
 25
-1.000000000000000E+20
 35
-1.000000000000000E+20
146
0.0
 13
0.0
 23
0.0
 33
0.0
 16
1.0
 26
0.0
 36
0.0
 17
0.0
 27
1.0
 37
0.0
 76
     0
330
1A
  0
LAYOUT
  5
21
102
{ACAD_REACTORS
330
19
102
}
330
19
100
AcDbPlotSettings
  1

  2
Tektronix Phaser 740
  4
A4
  6

 40
5.873749732971191
 41
6.085414409637451
 42
5.577407836914062
 43
5.662078857421875
 44
209.9733276367187
 45
296.9683227539062
 46
0.0
 47
0.0
 48
0.0
 49
0.0
140
0.0
141
0.0
142
1.0
143
1.0
 70
 11952
 72
     0
 73
     1
 74
     0
  7
monochrome.ctb
 75
     0
147
1.0
 76
     0
 77
     2
 78
   300
148
1150.120678237584
149
45.30495740799864
100
AcDbLayout
  1
Model
 70
     1
 71
     0
 10
0.0
 20
0.0
 11
12.0
 21
9.0
 12
0.0
 22
0.0
 32
0.0
 14
0.0
 24
0.0
 34
0.0
 15
0.0
 25
0.0
 35
0.0
146
0.0
 13
0.0
 23
0.0
 33
0.0
 16
1.0
 26
0.0
 36
0.0
 17
0.0
 27
1.0
 37
0.0
 76
     0
330
1E
  0
MLINESTYLE
  5
17
102
{ACAD_REACTORS
330
16
102
}
330
16
100
AcDbMlineStyle
  2
STANDARD
 70
     0
  3

 62
   256
 51
90.0
 52
90.0
 71
     2
 49
0.5
 62
   256
  6
BYLAYER
 49
-0.5
 62
   256
  6
BYLAYER
  0
ACDBPLACEHOLDER
  5
F
102
{ACAD_REACTORS
330
E
102
}
330
E
  0
DICTIONARYVAR
  5
FE9
102
{ACAD_REACTORS
330
246
102
}
330
246
100
DictionaryVariables
280
     0
  1
1
  0
DICTIONARYVAR
  5
FEA
102
{ACAD_REACTORS
330
246
102
}
330
246
100
DictionaryVariables
280
     0
  1

  0
DICTIONARYVAR
  5
247
102
{ACAD_REACTORS
330
246
102
}
330
246
100
DictionaryVariables
280
     0
  1
96
  0
ENDSEC
  0
EOF
