  0
SECTION
  2
HEADER
  9
$ACADVER
  1
AC1018
  9
$ACADMAINTVER
 70
     2
  9
$DWGCODEPAGE
  3
ANSI_1252
  9
$INSBASE
 10
0.0
 20
0.0
 30
0.0
  9
$EXTMIN
 10
-0.0298833957432407
 20
-0.0377883985895551
 30
-0.0000000000000023
  9
$EXTMAX
 10
420.0162770935492
 20
594.0363186253305
 30
0.000000000000013
  9
$LIMMIN
 10
0.0
 20
0.0
  9
$LIMMAX
 10
419.9999999999999
 20
594.0
  9
$ORTHOMODE
 70
     0
  9
$REGENMODE
 70
     1
  9
$FILLMODE
 70
     1
  9
$QTEXTMODE
 70
     0
  9
$MIRRTEXT
 70
     1
  9
$LTSCALE
 40
20.0
  9
$ATTMODE
 70
     1
  9
$TEXTSIZE
 40
3.5
  9
$TRACEWID
 40
0.5
  9
$TEXTSTYLE
  7
STANDARD
  9
$CLAYER
  8
SCHRAFF
  9
$CELTYPE
  6
ByLayer
  9
$CECOLOR
 62
   256
  9
$CELTSCALE
 40
1.0
  9
$DISPSILH
 70
     0
  9
$DIMSCALE
 40
2.0
  9
$DIMASZ
 40
3.5
  9
$DIMEXO
 40
1.0
  9
$DIMDLI
 40
7.0
  9
$DIMRND
 40
0.0
  9
$DIMDLE
 40
0.0
  9
$DIMEXE
 40
1.0
  9
$DIMTP
 40
0.0
  9
$DIMTM
 40
0.0
  9
$DIMTXT
 40
3.5
  9
$DIMCEN
 40
1.5
  9
$DIMTSZ
 40
0.0
  9
$DIMTOL
 70
     0
  9
$DIMLIM
 70
     0
  9
$DIMTIH
 70
     0
  9
$DIMTOH
 70
     0
  9
$DIMSE1
 70
     0
  9
$DIMSE2
 70
     0
  9
$DIMTAD
 70
     1
  9
$DIMZIN
 70
     8
  9
$DIMBLK
  1

  9
$DIMASO
 70
     1
  9
$DIMSHO
 70
     0
  9
$DIMPOST
  1

  9
$DIMAPOST
  1

  9
$DIMALT
 70
     0
  9
$DIMALTD
 70
     2
  9
$DIMALTF
 40
25.4
  9
$DIMLFAC
 40
1.0
  9
$DIMTOFL
 70
     1
  9
$DIMTVP
 40
0.0
  9
$DIMTIX
 70
     0
  9
$DIMSOXD
 70
     0
  9
$DIMSAH
 70
     0
  9
$DIMBLK1
  1

  9
$DIMBLK2
  1

  9
$DIMSTYLE
  2
Standard
  9
$DIMCLRD
 70
     0
  9
$DIMCLRE
 70
     0
  9
$DIMCLRT
 70
     1
  9
$DIMTFAC
 40
0.5142857142857144
  9
$DIMGAP
 40
1.5
  9
$DIMJUST
 70
     0
  9
$DIMSD1
 70
     0
  9
$DIMSD2
 70
     0
  9
$DIMTOLJ
 70
     1
  9
$DIMTZIN
 70
     8
  9
$DIMALTZ
 70
     8
  9
$DIMALTTZ
 70
     8
  9
$DIMUPT
 70
     0
  9
$DIMDEC
 70
     2
  9
$DIMTDEC
 70
     2
  9
$DIMALTU
 70
     2
  9
$DIMALTTD
 70
     2
  9
$DIMTXSTY
  7
STANDARD
  9
$DIMAUNIT
 70
     0
  9
$DIMADEC
 70
     2
  9
$DIMALTRND
 40
0.0
  9
$DIMAZIN
 70
     2
  9
$DIMDSEP
 70
    46
  9
$DIMATFIT
 70
     3
  9
$DIMFRAC
 70
     0
  9
$DIMLDRBLK
  1

  9
$DIMLUNIT
 70
     2
  9
$DIMLWD
 70
    -2
  9
$DIMLWE
 70
    -2
  9
$DIMTMOVE
 70
     0
  9
$LUNITS
 70
     2
  9
$LUPREC
 70
     2
  9
$SKETCHINC
 40
1.0
  9
$FILLETRAD
 40
0.0
  9
$AUNITS
 70
     1
  9
$AUPREC
 70
     3
  9
$MENU
  1
ACAD
  9
$ELEVATION
 40
0.0
  9
$PELEVATION
 40
0.0
  9
$THICKNESS
 40
0.0
  9
$LIMCHECK
 70
     0
  9
$CHAMFERA
 40
0.0
  9
$CHAMFERB
 40
0.0
  9
$CHAMFERC
 40
0.0
  9
$CHAMFERD
 40
0.0
  9
$SKPOLY
 70
     0
  9
$TDCREATE
 40
2452040.637099653
  9
$TDUCREATE
 40
2452040.553766320
  9
$TDUPDATE
 40
2455660.600929132
  9
$TDUUPDATE
 40
2455660.517595799
  9
$TDINDWG
 40
0.4291615625
  9
$TDUSRTIMER
 40
0.4291615625
  9
$USRTIMER
 70
     1
  9
$ANGBASE
 50
0.0
  9
$ANGDIR
 70
     0
  9
$PDMODE
 70
     0
  9
$PDSIZE
 40
0.0
  9
$PLINEWID
 40
0.0
  9
$SPLFRAME
 70
     0
  9
$SPLINETYPE
 70
     6
  9
$SPLINESEGS
 70
     8
  9
$HANDSEED
  5
1BFD
  9
$SURFTAB1
 70
     6
  9
$SURFTAB2
 70
     6
  9
$SURFTYPE
 70
     6
  9
$SURFU
 70
     6
  9
$SURFV
 70
     6
  9
$UCSBASE
  2

  9
$UCSNAME
  2

  9
$UCSORG
 10
0.0
 20
0.0
 30
0.0
  9
$UCSXDIR
 10
1.0
 20
0.0
 30
0.0
  9
$UCSYDIR
 10
0.0
 20
1.0
 30
0.0
  9
$UCSORTHOREF
  2

  9
$UCSORTHOVIEW
 70
     0
  9
$UCSORGTOP
 10
0.0
 20
0.0
 30
0.0
  9
$UCSORGBOTTOM
 10
0.0
 20
0.0
 30
0.0
  9
$UCSORGLEFT
 10
0.0
 20
0.0
 30
0.0
  9
$UCSORGRIGHT
 10
0.0
 20
0.0
 30
0.0
  9
$UCSORGFRONT
 10
0.0
 20
0.0
 30
0.0
  9
$UCSORGBACK
 10
0.0
 20
0.0
 30
0.0
  9
$PUCSBASE
  2

  9
$PUCSNAME
  2

  9
$PUCSORG
 10
0.0
 20
0.0
 30
0.0
  9
$PUCSXDIR
 10
1.0
 20
0.0
 30
0.0
  9
$PUCSYDIR
 10
0.0
 20
1.0
 30
0.0
  9
$PUCSORTHOREF
  2

  9
$PUCSORTHOVIEW
 70
     0
  9
$PUCSORGTOP
 10
0.0
 20
0.0
 30
0.0
  9
$PUCSORGBOTTOM
 10
0.0
 20
0.0
 30
0.0
  9
$PUCSORGLEFT
 10
0.0
 20
0.0
 30
0.0
  9
$PUCSORGRIGHT
 10
0.0
 20
0.0
 30
0.0
  9
$PUCSORGFRONT
 10
0.0
 20
0.0
 30
0.0
  9
$PUCSORGBACK
 10
0.0
 20
0.0
 30
0.0
  9
$USERI1
 70
     0
  9
$USERI2
 70
     0
  9
$USERI3
 70
     0
  9
$USERI4
 70
     0
  9
$USERI5
 70
     0
  9
$USERR1
 40
0.0
  9
$USERR2
 40
0.0
  9
$USERR3
 40
0.0
  9
$USERR4
 40
0.0
  9
$USERR5
 40
0.0
  9
$WORLDVIEW
 70
     1
  9
$SHADEDGE
 70
     3
  9
$SHADEDIF
 70
    70
  9
$TILEMODE
 70
     1
  9
$MAXACTVP
 70
    16
  9
$PINSBASE
 10
0.0
 20
0.0
 30
0.0
  9
$PLIMCHECK
 70
     0
  9
$PEXTMIN
 10
1.000000000000000E+20
 20
1.000000000000000E+20
 30
1.000000000000000E+20
  9
$PEXTMAX
 10
-1.000000000000000E+20
 20
-1.000000000000000E+20
 30
-1.000000000000000E+20
  9
$PLIMMIN
 10
0.0
 20
0.0
  9
$PLIMMAX
 10
12.0
 20
9.0
  9
$UNITMODE
 70
     0
  9
$VISRETAIN
 70
     0
  9
$PLINEGEN
 70
     0
  9
$PSLTSCALE
 70
     0
  9
$TREEDEPTH
 70
  3020
  9
$CMLSTYLE
  2
Standard
  9
$CMLJUST
 70
     0
  9
$CMLSCALE
 40
1.0
  9
$PROXYGRAPHICS
 70
     1
  9
$MEASUREMENT
 70
     0
  9
$CELWEIGHT
370
    -1
  9
$ENDCAPS
280
     0
  9
$JOINSTYLE
280
     0
  9
$LWDISPLAY
290
     0
  9
$INSUNITS
 70
     0
  9
$HYPERLINKBASE
  1

  9
$STYLESHEET
  1
monochrome 1.ctb
  9
$XEDIT
290
     1
  9
$CEPSNTYPE
380
     0
  9
$PSTYLEMODE
290
     1
  9
$FINGERPRINTGUID
  2
{7AADB5C8-6110-11D8-B72B-000102183313}
  9
$VERSIONGUID
  2
{61C1B43B-3BB7-4265-9964-F7F1FF755BEA}
  9
$EXTNAMES
290
     1
  9
$PSVPSCALE
 40
0.0
  9
$OLESTARTUP
290
     0
  9
$SORTENTS
280
    96
  9
$INDEXCTL
280
     0
  9
$HIDETEXT
280
     0
  9
$XCLIPFRAME
290
     0
  9
$HALOGAP
280
     0
  9
$OBSCOLOR
 70
   257
  9
$OBSLTYPE
280
     0
  9
$INTERSECTIONDISPLAY
280
     0
  9
$INTERSECTIONCOLOR
 70
   257
  9
$DIMASSOC
280
     1
  9
$PROJECTNAME
  1

  0
ENDSEC
  0
SECTION
  2
CLASSES
  0
CLASS
  1
ACDBDICTIONARYWDFLT
  2
AcDbDictionaryWithDefault
  3
ObjectDBX Classes
 90
        0
 91
        1
280
     0
281
     0
  0
CLASS
  1
DICTIONARYVAR
  2
AcDbDictionaryVar
  3
ObjectDBX Classes
 90
        0
 91
        3
280
     0
281
     0
  0
ENDSEC
  0
SECTION
  2
TABLES
  0
TABLE
  2
VPORT
  5
8
330
0
100
AcDbSymbolTable
 70
     3
  0
VPORT
  5
1BFC
330
8
100
AcDbSymbolTableRecord
100
AcDbViewportTableRecord
  2
*Active
 70
     0
 10
0.0
 20
0.0
 11
1.0
 21
1.0
 12
210.0
 22
297.0
 13
0.0
 23
0.0
 14
1.0
 24
1.0
 15
10.0
 25
10.0
 16
0.0
 26
0.0
 36
1.0
 17
0.0
 27
0.0
 37
0.0
 40
594.0
 41
1.334231805929919
 42
50.0
 43
0.0
 44
0.0
 50
0.0
 51
0.0
 71
     0
 72
  1500
 73
     1
 74
     0
 75
     0
 76
     0
 77
     0
 78
     0
281
     0
 65
     1
110
0.0
120
0.0
130
0.0
111
1.0
121
0.0
131
0.0
112
0.0
122
1.0
132
0.0
 79
     0
146
0.0
  0
ENDTAB
  0
TABLE
  2
LTYPE
  5
5
330
0
100
AcDbSymbolTable
 70
     2
  0
LTYPE
  5
13
330
5
100
AcDbSymbolTableRecord
100
AcDbLinetypeTableRecord
  2
ByBlock
 70
     0
  3

 72
    65
 73
     0
 40
0.0
  0
LTYPE
  5
14
330
5
100
AcDbSymbolTableRecord
100
AcDbLinetypeTableRecord
  2
ByLayer
 70
     0
  3

 72
    65
 73
     0
 40
0.0
  0
LTYPE
  5
15
330
5
100
AcDbSymbolTableRecord
100
AcDbLinetypeTableRecord
  2
Continuous
 70
     0
  3
Solid line
 72
    65
 73
     0
 40
0.0
  0
LTYPE
  5
35
330
5
100
AcDbSymbolTableRecord
100
AcDbLinetypeTableRecord
  2
STRICHPUNKT
 70
     0
  3
__ . __ . __ . __ . __ . __ . __ . __ . __ . __
 72
    65
 73
     4
 40
1.0
 49
0.5
 74
     0
 49
-0.25
 74
     0
 49
0.0
 74
     0
 49
-0.25
 74
     0
  0
ENDTAB
  0
TABLE
  2
LAYER
  5
2
330
0
100
AcDbSymbolTable
 70
     9
  0
LAYER
  5
10
330
2
100
AcDbSymbolTableRecord
100
AcDbLayerTableRecord
  2
0
 70
     0
 62
     7
  6
Continuous
370
    -3
390
F
  0
LAYER
  5
38
330
2
100
AcDbSymbolTableRecord
100
AcDbLayerTableRecord
  2
VOLL
 70
     0
 62
     1
  6
Continuous
370
    -3
390
F
  0
LAYER
  5
39
330
2
100
AcDbSymbolTableRecord
100
AcDbLayerTableRecord
  2
HILF
 70
     0
 62
     2
  6
Continuous
370
    -3
390
F
  0
LAYER
  5
3A
330
2
100
AcDbSymbolTableRecord
100
AcDbLayerTableRecord
  2
MITTEL
 70
     0
 62
     2
  6
STRICHPUNKT
370
    -3
390
F
  0
LAYER
  5
3B
330
2
100
AcDbSymbolTableRecord
100
AcDbLayerTableRecord
  2
BEM
 70
     0
 62
     7
  6
Continuous
370
    -3
390
F
  0
LAYER
  5
3C
330
2
100
AcDbSymbolTableRecord
100
AcDbLayerTableRecord
  2
STEMPEL
 70
     0
 62
     3
  6
Continuous
370
    -3
390
F
  0
LAYER
  5
3D
330
2
100
AcDbSymbolTableRecord
100
AcDbLayerTableRecord
  2
TEXT
 70
     0
 62
     7
  6
Continuous
370
    -3
390
F
  0
LAYER
  5
3E
330
2
100
AcDbSymbolTableRecord
100
AcDbLayerTableRecord
  2
DEFPOINTS
 70
     0
 62
     7
  6
Continuous
290
     0
370
    -3
390
F
  0
LAYER
  5
3F
330
2
100
AcDbSymbolTableRecord
100
AcDbLayerTableRecord
  2
SCHRAFF
 70
     0
 62
     7
  6
Continuous
370
    -3
390
F
  0
ENDTAB
  0
TABLE
  2
STYLE
  5
3
330
0
100
AcDbSymbolTable
 70
     2
  0
STYLE
  5
11
330
3
100
AcDbSymbolTableRecord
100
AcDbTextStyleTableRecord
  2
STANDARD
 70
     0
 40
0.0
 41
0.8
 50
0.0
 71
     0
 42
3.5
  3
simplex.shx
  4

  0
STYLE
  5
34
330
3
100
AcDbSymbolTableRecord
100
AcDbTextStyleTableRecord
  2
GREEKS
 70
     0
 40
0.0
 41
0.8
 50
0.0
 71
     0
 42
2.5
  3
SIMPLEX.shx
  4

  0
ENDTAB
  0
TABLE
  2
VIEW
  5
6
330
0
100
AcDbSymbolTable
 70
     0
  0
ENDTAB
  0
TABLE
  2
UCS
  5
7
330
0
100
AcDbSymbolTable
 70
     0
  0
ENDTAB
  0
TABLE
  2
APPID
  5
9
330
0
100
AcDbSymbolTable
 70
     2
  0
APPID
  5
12
330
9
100
AcDbSymbolTableRecord
100
AcDbRegAppTableRecord
  2
ACAD
 70
     0
  0
APPID
  5
DDB
330
9
100
AcDbSymbolTableRecord
100
AcDbRegAppTableRecord
  2
AVE_RENDER
 70
     0
  0
ENDTAB
  0
TABLE
  2
DIMSTYLE
  5
A
330
0
100
AcDbSymbolTable
 70
     1
100
AcDbDimStyleTable
 71
     1
340
1CB
  0
DIMSTYLE
105
1CB
102
{ACAD_REACTORS
330
17DE
330
183F
330
184C
330
1B5A
102
}
330
A
100
AcDbSymbolTableRecord
100
AcDbDimStyleTableRecord
  2
Standard
 70
     0
340
11
  0
ENDTAB
  0
TABLE
  2
BLOCK_RECORD
  5
1
330
0
100
AcDbSymbolTable
 70
     9
  0
BLOCK_RECORD
  5
1E
330
1
100
AcDbSymbolTableRecord
100
AcDbBlockTableRecord
  2
*Model_Space
340
21
  0
BLOCK_RECORD
  5
1A
330
1
100
AcDbSymbolTableRecord
100
AcDbBlockTableRecord
  2
*Paper_Space
340
1D
  0
BLOCK_RECORD
  5
22
330
1
100
AcDbSymbolTableRecord
100
AcDbBlockTableRecord
  2
LOGO
340
0
102
{BLKREFS
331
135
102
}
  0
BLOCK_RECORD
  5
17FF
330
1
100
AcDbSymbolTableRecord
100
AcDbBlockTableRecord
  2
*D1
340
0
  0
BLOCK_RECORD
  5
1840
330
1
100
AcDbSymbolTableRecord
100
AcDbBlockTableRecord
  2
*D3
340
0
  0
BLOCK_RECORD
  5
184D
330
1
100
AcDbSymbolTableRecord
100
AcDbBlockTableRecord
  2
*D4
340
0
  0
BLOCK_RECORD
  5
1B5B
330
1
100
AcDbSymbolTableRecord
100
AcDbBlockTableRecord
  2
*D7
340
0
  0
ENDTAB
  0
ENDSEC
  0
SECTION
  2
BLOCKS
  0
BLOCK
  5
43
330
1E
100
AcDbEntity
  8
0
100
AcDbBlockBegin
  2
*Model_Space
 70
     0
 10
0.0
 20
0.0
 30
0.0
  3
*Model_Space
  1

  0
ENDBLK
  5
44
330
1E
100
AcDbEntity
  8
0
100
AcDbBlockEnd
  0
BLOCK
  5
41
330
1A
100
AcDbEntity
 67
     1
  8
0
100
AcDbBlockBegin
  2
*Paper_Space
 70
     0
 10
0.0
 20
0.0
 30
0.0
  3
*Paper_Space
  1

  0
ENDBLK
  5
42
330
1A
100
AcDbEntity
 67
     1
  8
0
100
AcDbBlockEnd
  0
BLOCK
  5
45
330
22
100
AcDbEntity
  8
0
100
AcDbBlockBegin
  2
LOGO
 70
     0
 10
0.0
 20
0.0
 30
0.0
  3
LOGO
  1

  0
ARC
  5
46
330
22
100
AcDbEntity
  8
0
100
AcDbCircle
 10
11.59973089678112
 20
-9.271599258481501
 30
0.0
 40
4.5
100
AcDbArc
 50
270.0
 51
231.0575587310159
  0
LINE
  5
47
330
22
100
AcDbEntity
  8
0
100
AcDbLine
 10
3.599730896781125
 20
-4.771599258481529
 30
0.0
 11
3.599730896781153
 21
-11.77159925848133
 31
0.0
  0
LINE
  5
48
330
22
100
AcDbEntity
  8
0
100
AcDbLine
 10
2.599730896781125
 20
-4.771599258481529
 30
0.0
 11
2.599730896781153
 21
-11.77159925848133
 31
0.0
  0
CIRCLE
  5
49
330
22
100
AcDbEntity
  8
0
100
AcDbCircle
 10
11.59973089678112
 20
-9.271599258481501
 30
0.0
 40
3.5
  0
ARC
  5
4A
330
22
100
AcDbEntity
  8
0
100
AcDbCircle
 10
31.59973089678115
 20
-9.271599258481472
 30
0.0
 40
4.5
100
AcDbArc
 50
270.0
 51
231.0575587310182
  0
LINE
  5
4B
330
22
100
AcDbEntity
  8
0
100
AcDbLine
 10
17.59973089678112
 20
-4.771599258481472
 30
0.0
 11
17.59973089678115
 21
-13.77159925848147
 31
0.0
  0
ARC
  5
4C
330
22
100
AcDbEntity
  8
0
100
AcDbCircle
 10
22.59973089678116
 20
-7.271599258481472
 30
0.0
 40
2.5
100
AcDbArc
 50
293.1161887722295
 51
90.0
  0
CIRCLE
  5
4D
330
22
100
AcDbEntity
  8
0
100
AcDbCircle
 10
31.59973089678115
 20
-9.271599258481472
 30
0.0
 40
3.5
  0
ARC
  5
4E
330
22
100
AcDbEntity
  8
0
100
AcDbCircle
 10
4.599730896781153
 20
-11.77159925848133
 30
0.0
 40
1.0
100
AcDbArc
 50
180.0
 51
270.0
  0
ARC
  5
4F
330
22
100
AcDbEntity
  8
0
100
AcDbCircle
 10
4.599730896781153
 20
-11.77159925848133
 30
0.0
 40
2.0
100
AcDbArc
 50
179.9999999999992
 51
270.0
  0
LINE
  5
50
330
22
100
AcDbEntity
  8
0
100
AcDbLine
 10
11.59973089678115
 20
-13.77159925848144
 30
0.0
 11
4.599730896781153
 21
-13.77159925848147
 31
0.0
  0
LINE
  5
51
330
22
100
AcDbEntity
  8
0
100
AcDbLine
 10
8.771303772034769
 20
-12.77159925848136
 30
0.0
 11
4.599730896781153
 21
-12.77159925848133
 31
0.0
  0
LINE
  5
52
330
22
100
AcDbEntity
  8
0
100
AcDbLine
 10
31.59973089678115
 20
-13.77159925848147
 30
0.0
 11
23.6715276665056
 21
-13.77159925848144
 31
0.0
  0
LINE
  5
53
330
22
100
AcDbEntity
  8
0
100
AcDbLine
 10
23.56565672307022
 20
-9.51278021337896
 30
0.0
 11
24.4388546544846
 21
-12.77159925848144
 31
0.0
  0
LINE
  5
54
330
22
100
AcDbEntity
  8
0
100
AcDbLine
 10
22.59973089678116
 20
-9.771599258481472
 30
0.0
 11
18.59973089678112
 21
-9.771599258481472
 31
0.0
  0
LINE
  5
55
330
22
100
AcDbEntity
  8
0
100
AcDbLine
 10
18.59973089678115
 20
-13.77159925848144
 30
0.0
 11
17.59973089678115
 21
-13.77159925848144
 31
0.0
  0
LINE
  5
56
330
22
100
AcDbEntity
  8
0
100
AcDbLine
 10
18.59973089678115
 20
-9.771599258481472
 30
0.0
 11
18.59973089678115
 21
-13.77159925848144
 31
0.0
  0
LINE
  5
57
330
22
100
AcDbEntity
  8
0
100
AcDbLine
 10
22.59973089678116
 20
-9.771599258481472
 30
0.0
 11
23.67152766650562
 21
-13.77159925848147
 31
0.0
  0
ARC
  5
58
330
22
100
AcDbEntity
  8
0
100
AcDbCircle
 10
22.59973089678116
 20
-7.271599258481472
 30
0.0
 40
2.5
100
AcDbArc
 50
270.0
 51
270.0000000000007
  0
LINE
  5
59
330
22
100
AcDbEntity
  8
0
100
AcDbLine
 10
28.77130377203494
 20
-12.77159925848147
 30
0.0
 11
24.43885465448463
 21
-12.77159925848144
 31
0.0
  0
LINE
  5
5A
330
22
100
AcDbEntity
  8
0
100
AcDbLine
 10
3.599730896781125
 20
-4.771599258481472
 30
0.0
 11
2.599730896781125
 21
-4.771599258481472
 31
0.0
  0
LINE
  5
5B
330
22
100
AcDbEntity
  8
0
100
AcDbLine
 10
22.59973089678116
 20
-8.771599258481472
 30
0.0
 11
18.59973089678115
 21
-8.771599258481472
 31
0.0
  0
LINE
  5
5C
330
22
100
AcDbEntity
  8
0
100
AcDbLine
 10
22.59973089678116
 20
-5.771599258481472
 30
0.0
 11
18.59973089678115
 21
-5.771599258481472
 31
0.0
  0
LINE
  5
5D
330
22
100
AcDbEntity
  8
0
100
AcDbLine
 10
22.59973089678116
 20
-4.771599258481472
 30
0.0
 11
17.59973089678115
 21
-4.771599258481472
 31
0.0
  0
LINE
  5
5E
330
22
100
AcDbEntity
  8
0
100
AcDbLine
 10
18.59973089678115
 20
-5.771599258481472
 30
0.0
 11
18.59973089678115
 21
-8.771599258481472
 31
0.0
  0
ARC
  5
5F
330
22
100
AcDbEntity
  8
0
100
AcDbCircle
 10
22.59973089678116
 20
-7.271599258481472
 30
0.0
 40
1.5
100
AcDbArc
 50
270.0
 51
90.0
  0
ENDBLK
  5
60
330
22
100
AcDbEntity
  8
0
100
AcDbBlockEnd
  0
BLOCK
  5
1809
330
17FF
100
AcDbEntity
  8
0
100
AcDbBlockBegin
  2
*D1
 70
     1
 10
0.0
 20
0.0
 30
0.0
  3
*D1
  1

  0
LINE
  5
1B24
330
17FF
100
AcDbEntity
  8
BEM
 62
     0
370
    -2
100
AcDbLine
 10
123.0461341637222
 20
219.4957441329776
 30
0.0
 11
123.0461341637222
 21
190.4058548799003
 31
0.0
  0
LINE
  5
1B25
330
17FF
100
AcDbEntity
  8
BEM
 62
     0
370
    -2
100
AcDbLine
 10
224.6461341637221
 20
219.4957441329771
 30
0.0
 11
224.6461341637221
 21
190.4058548799003
 31
0.0
  0
LINE
  5
1B26
330
17FF
100
AcDbEntity
  8
BEM
 62
     0
370
    -2
100
AcDbLine
 10
130.0461341637222
 20
192.4058548799003
 30
0.0
 11
217.6461341637221
 21
192.4058548799003
 31
0.0
  0
SOLID
  5
1B27
330
17FF
100
AcDbEntity
  8
BEM
 62
     0
100
AcDbTrace
 10
130.0461341637222
 20
193.572521546567
 30
0.0
 11
130.0461341637222
 21
191.2391882132337
 31
0.0
 12
123.0461341637222
 22
192.4058548799003
 32
0.0
 13
123.0461341637222
 23
192.4058548799003
 33
0.0
  0
SOLID
  5
1B28
330
17FF
100
AcDbEntity
  8
BEM
 62
     0
100
AcDbTrace
 10
217.6461341637221
 20
193.572521546567
 30
0.0
 11
217.6461341637221
 21
191.2391882132337
 31
0.0
 12
224.6461341637221
 22
192.4058548799003
 32
0.0
 13
224.6461341637221
 23
192.4058548799003
 33
0.0
  0
MTEXT
  5
1B29
330
17FF
100
AcDbEntity
  8
BEM
 62
     1
100
AcDbMText
 10
173.8461341637221
 20
198.9058548799003
 30
0.0
 40
7.0
 41
0.0
 71
     5
 72
     1
  1
\A1;%%c101.6
 73
     1
 44
1.0
  0
POINT
  5
1B2A
330
17FF
100
AcDbEntity
  8
DEFPOINTS
 62
     0
100
AcDbPoint
 10
123.0461341637222
 20
221.4957441329776
 30
0.0
  0
POINT
  5
1B2B
330
17FF
100
AcDbEntity
  8
DEFPOINTS
 62
     0
100
AcDbPoint
 10
224.6461341637221
 20
221.4957441329771
 30
0.0
  0
POINT
  5
1B2C
330
17FF
100
AcDbEntity
  8
DEFPOINTS
 62
     0
100
AcDbPoint
 10
224.6461341637221
 20
192.4058548799003
 30
0.0
  0
ENDBLK
  5
180A
330
17FF
100
AcDbEntity
  8
0
100
AcDbBlockEnd
  0
BLOCK
  5
184A
330
1840
100
AcDbEntity
  8
0
100
AcDbBlockBegin
  2
*D3
 70
     1
 10
0.0
 20
0.0
 30
0.0
  3
*D3
  1

  0
LINE
  5
1BF2
330
1840
100
AcDbEntity
  8
BEM
 62
     0
370
    -2
100
AcDbLine
 10
121.7460434719295
 20
213.4957441329776
 30
0.0
 11
101.9432132542778
 21
213.4957441329776
 31
0.0
  0
LINE
  5
1BF3
330
1840
100
AcDbEntity
  8
BEM
 62
     0
370
    -2
100
AcDbLine
 10
171.8461341637221
 20
404.4968284601429
 30
0.0
 11
101.9432132542779
 21
404.496828460143
 31
0.0
  0
LINE
  5
1BF4
330
1840
100
AcDbEntity
  8
BEM
 62
     0
370
    -2
100
AcDbLine
 10
103.9432132542778
 20
220.4957441329776
 30
0.0
 11
103.9432132542779
 21
397.496828460143
 31
0.0
  0
SOLID
  5
1BF5
330
1840
100
AcDbEntity
  8
BEM
 62
     0
100
AcDbTrace
 10
102.7765465876111
 20
220.4957441329776
 30
0.0
 11
105.1098799209445
 21
220.4957441329776
 31
0.0
 12
103.9432132542778
 22
213.4957441329776
 32
0.0
 13
103.9432132542778
 23
213.4957441329776
 33
0.0
  0
SOLID
  5
1BF6
330
1840
100
AcDbEntity
  8
BEM
 62
     0
100
AcDbTrace
 10
102.7765465876112
 20
397.496828460143
 30
0.0
 11
105.1098799209445
 21
397.496828460143
 31
0.0
 12
103.9432132542779
 22
404.496828460143
 32
0.0
 13
103.9432132542779
 23
404.496828460143
 33
0.0
  0
MTEXT
  5
1BF7
330
1840
100
AcDbEntity
  8
BEM
 62
     1
100
AcDbMText
 10
97.44321325427783
 20
308.9962862965604
 30
0.0
 40
7.0
 41
0.0
 71
     5
 72
     1
  1
\A1;191
 11
0.0000000000000001
 21
1.0
 31
0.0
 73
     1
 44
1.0
  0
POINT
  5
1BF8
330
1840
100
AcDbEntity
  8
DEFPOINTS
 62
     0
100
AcDbPoint
 10
123.7460434719295
 20
213.4957441329776
 30
0.0
  0
POINT
  5
1BF9
330
1840
100
AcDbEntity
  8
DEFPOINTS
 62
     0
100
AcDbPoint
 10
173.8461341637221
 20
404.4968284601429
 30
0.0
  0
POINT
  5
1BFA
330
1840
100
AcDbEntity
  8
DEFPOINTS
 62
     0
100
AcDbPoint
 10
103.9432132542779
 20
404.496828460143
 30
0.0
  0
ENDBLK
  5
184B
330
1840
100
AcDbEntity
  8
0
100
AcDbBlockEnd
  0
BLOCK
  5
1857
330
184D
100
AcDbEntity
  8
0
100
AcDbBlockBegin
  2
*D4
 70
     1
 10
0.0
 20
0.0
 30
0.0
  3
*D4
  1

  0
LINE
  5
1BE9
330
184D
100
AcDbEntity
  8
BEM
 62
     0
370
    -2
100
AcDbLine
 10
173.1620938770707
 20
406.3762137017148
 30
0.0
 11
148.1993609604992
 21
474.960758717871
 31
0.0
  0
LINE
  5
1BEA
330
184D
100
AcDbEntity
  8
BEM
 62
     0
370
    -2
100
AcDbLine
 10
333.9496565934039
 20
523.0658266011339
 30
0.0
 11
327.681670464844
 21
540.2869769548069
 31
0.0
  0
LINE
  5
1BEB
330
184D
100
AcDbEntity
  8
BEM
 62
     0
370
    -2
100
AcDbLine
 10
155.4612495926519
 20
475.4755144795788
 30
0.0
 11
321.787862405994
 21
536.0134507099553
 31
0.0
  0
SOLID
  5
1BEC
330
184D
100
AcDbEntity
  8
BEM
 62
     0
100
AcDbTrace
 10
155.0622260921053
 20
476.5718225371625
 30
0.0
 11
155.8602730931985
 21
474.3792064219952
 31
0.0
 12
148.8834012471506
 22
473.0813734762992
 32
0.0
 13
148.8834012471506
 23
473.0813734762992
 33
0.0
  0
SOLID
  5
1BED
330
184D
100
AcDbEntity
  8
BEM
 62
     0
100
AcDbTrace
 10
321.3888389054474
 20
537.1097587675389
 30
0.0
 11
322.1868859065406
 21
534.9171426523717
 31
0.0
 12
328.3657107514953
 22
538.407591713235
 32
0.0
 13
328.3657107514953
 23
538.407591713235
 33
0.0
  0
MTEXT
  5
1BEE
330
184D
100
AcDbEntity
  8
BEM
 62
     1
100
AcDbMText
 10
236.4014250677061
 20
511.8524846298756
 30
0.0
 40
7.0
 41
0.0
 71
     5
 72
     1
  1
\A1;191
 11
0.9396926207859074
 21
0.3420201433256711
 31
0.0
 73
     1
 44
1.0
  0
POINT
  5
1BEF
330
184D
100
AcDbEntity
  8
DEFPOINTS
 62
     0
100
AcDbPoint
 10
173.846134163722
 20
404.4968284601428
 30
0.0
  0
POINT
  5
1BF0
330
184D
100
AcDbEntity
  8
DEFPOINTS
 62
     0
100
AcDbPoint
 10
334.6336968800553
 20
521.1864413595619
 30
0.0
  0
POINT
  5
1BF1
330
184D
100
AcDbEntity
  8
DEFPOINTS
 62
     0
100
AcDbPoint
 10
328.3657107514954
 20
538.407591713235
 30
0.0
  0
ENDBLK
  5
1858
330
184D
100
AcDbEntity
  8
0
100
AcDbBlockEnd
  0
BLOCK
  5
1B66
330
1B5B
100
AcDbEntity
  8
0
100
AcDbBlockBegin
  2
*D7
 70
     1
 10
0.0
 20
0.0
 30
0.0
  3
*D7
  1

  0
LINE
  5
1B72
330
1B5B
100
AcDbEntity
  8
BEM
 62
     0
370
    -2
100
AcDbLine
 10
173.8461341637221
 20
406.4968284601429
 30
0.0
 11
173.8461341637221
 21
437.8691080491837
 31
0.0
  0
ARC
  5
1B73
330
1B5B
100
AcDbEntity
  8
BEM
 62
     0
370
    -2
100
AcDbCircle
 10
173.8461341637221
 20
404.496828460143
 30
0.0
 40
31.37227958904074
100
AcDbArc
 50
32.81089985819237
 51
77.18910014180758
  0
SOLID
  5
1B74
330
1B5B
100
AcDbEntity
  8
BEM
 62
     0
100
AcDbTrace
 10
201.2583388614669
 20
422.0153067008593
 30
0.0
 11
199.1684434481691
 21
420.9776258222065
 31
0.0
 12
203.326433790776
 22
415.2267800216395
 32
0.0
 13
203.326433790776
 23
415.2267800216395
 33
0.0
  0
SOLID
  5
1B75
330
1B5B
100
AcDbEntity
  8
BEM
 62
     0
100
AcDbTrace
 10
180.6722779787176
 20
433.9287803118906
 30
0.0
 11
180.9325927143265
 21
436.2475473728239
 31
0.0
 12
173.8461341637221
 22
435.8691080491837
 32
0.0
 13
173.8461341637221
 23
435.8691080491837
 33
0.0
  0
MTEXT
  5
1B76
330
1B5B
100
AcDbEntity
  8
BEM
 62
     1
100
AcDbMText
 10
195.5687813268945
 20
435.5199837073899
 30
0.0
 40
7.0
 41
0.0
 71
     5
 72
     1
  1
\A1;70°
 11
0.8191520442889917
 21
-0.5735764363510463
 31
0.0
 73
     1
 44
1.0
  0
POINT
  5
1B77
330
1B5B
100
AcDbEntity
  8
DEFPOINTS
 62
     0
100
AcDbPoint
 10
196.6655034128505
 20
426.0257929890021
 30
0.0
  0
POINT
  5
1B78
330
1B5B
100
AcDbEntity
  8
DEFPOINTS
 62
     0
100
AcDbPoint
 10
173.8461341637221
 20
404.496828460143
 30
0.0
  0
POINT
  5
1B79
330
1B5B
100
AcDbEntity
  8
DEFPOINTS
 62
     0
100
AcDbPoint
 10
358.0269067719959
 20
471.5331474137065
 30
0.0
  0
POINT
  5
1B7A
330
1B5B
100
AcDbEntity
  8
DEFPOINTS
 62
     0
100
AcDbPoint
 10
173.8461341637221
 20
404.496828460143
 30
0.0
  0
POINT
  5
1B7B
330
1B5B
100
AcDbEntity
  8
DEFPOINTS
 62
     0
100
AcDbPoint
 10
173.8461341637221
 20
208.4957441329776
 30
0.0
  0
ENDBLK
  5
1B67
330
1B5B
100
AcDbEntity
  8
0
100
AcDbBlockEnd
  0
ENDSEC
  0
SECTION
  2
ENTITIES
  0
TEXT
  5
134
330
1E
100
AcDbEntity
  8
TEXT
100
AcDbText
 10
204.4216048581257
 20
63.0896391972351
 30
0.0
 40
4.0
  1
Koeh
 41
0.8
  7
GREEKS
 72
     1
 11
209.6787477152686
 21
63.0896391972351
 31
0.0
100
AcDbText
  0
INSERT
  5
135
330
1E
100
AcDbEntity
  8
STEMPEL
100
AcDbBlockReference
  2
LOGO
 10
150.9955485457794
 20
45.02105276448322
 30
0.0
 41
2.0
 42
2.0
 43
2.0
  0
LINE
  5
136
330
1E
100
AcDbEntity
  8
HILF
100
AcDbLine
 10
420.0
 20
0.0
 30
0.0
 11
0.0
 21
0.0
 31
0.0
  0
LINE
  5
137
330
1E
100
AcDbEntity
  8
HILF
100
AcDbLine
 10
419.9999999999999
 20
594.0000000000002
 30
0.0
 11
0.0
 21
594.0
 31
0.0
  0
LINE
  5
138
330
1E
100
AcDbEntity
  8
STEMPEL
100
AcDbLine
 10
410.0
 20
584.0
 30
0.0
 11
39.99999999999989
 21
584.0
 31
0.0
  0
LINE
  5
139
330
1E
100
AcDbEntity
  8
STEMPEL
100
AcDbLine
 10
410.0
 20
10.0
 30
0.0
 11
39.99999999999989
 21
10.0
 31
0.0
  0
LINE
  5
13A
330
1E
100
AcDbEntity
  8
STEMPEL
100
AcDbLine
 10
49.99999999999989
 20
10.0
 30
0.0
 11
410.0
 21
10.0
 31
0.0
  0
TEXT
  5
13B
330
1E
100
AcDbEntity
  8
TEXT
100
AcDbText
 10
202.4626584226295
 20
73.30961091915225
 30
0.0
 40
4.0
  1
Name
 41
0.8
  7
GREEKS
100
AcDbText
  0
TEXT
  5
13C
330
1E
100
AcDbEntity
  8
TEXT
100
AcDbText
 10
196.5498279101549
 20
102.6506227776589
 30
0.0
 40
5.0
  1
Zul. Abw.
 41
0.8
  7
GREEKS
 72
     4
 11
209.9783993387263
 21
105.1506227776589
 31
0.0
100
AcDbText
  0
LINE
  5
13D
330
1E
100
AcDbEntity
  8
HILF
100
AcDbLine
 10
146.0000000000001
 20
49.99999999999997
 30
0.0
 11
230.0
 21
49.99999999999997
 31
0.0
  0
LINE
  5
13E
330
1E
100
AcDbEntity
  8
HILF
100
AcDbLine
 10
146.0000000000001
 20
59.99999999999997
 30
0.0
 11
230.0
 21
59.99999999999997
 31
0.0
  0
LINE
  5
13F
330
1E
100
AcDbEntity
  8
HILF
100
AcDbLine
 10
146.0000000000001
 20
69.99999999999994
 30
0.0
 11
230.0
 21
69.99999999999994
 31
0.0
  0
LINE
  5
140
330
1E
100
AcDbEntity
  8
STEMPEL
100
AcDbLine
 10
410.0
 20
80.0
 30
0.0
 11
146.0000000000001
 21
79.99999999999994
 31
0.0
  0
LINE
  5
141
330
1E
100
AcDbEntity
  8
STEMPEL
100
AcDbLine
 10
410.0
 20
40.0
 30
0.0
 11
146.0000000000001
 21
39.99999999999997
 31
0.0
  0
LINE
  5
142
330
1E
100
AcDbEntity
  8
STEMPEL
100
AcDbLine
 10
410.0
 20
110.0
 30
0.0
 11
39.99999999999997
 21
110.0
 31
0.0
  0
LINE
  5
144
330
1E
100
AcDbEntity
  8
HILF
100
AcDbLine
 10
0.0
 20
0.0
 30
0.0
 11
-0.0000000000001137
 21
594.0
 31
0.0
  0
LINE
  5
145
330
1E
100
AcDbEntity
  8
STEMPEL
100
AcDbLine
 10
40.0
 20
10.0
 30
0.0
 11
39.99999999999989
 21
584.0
 31
0.0
  0
LINE
  5
148
330
1E
100
AcDbEntity
  8
HILF
100
AcDbLine
 10
40.00000000000008
 20
39.99999999999997
 30
0.0
 11
146.0000000000001
 21
39.99999999999997
 31
0.0
  0
LINE
  5
149
330
1E
100
AcDbEntity
  8
HILF
100
AcDbLine
 10
40.00000000000008
 20
49.99999999999997
 30
0.0
 11
146.0000000000001
 21
49.99999999999997
 31
0.0
  0
LINE
  5
14A
330
1E
100
AcDbEntity
  8
HILF
100
AcDbLine
 10
40.00000000000008
 20
59.99999999999997
 30
0.0
 11
146.0000000000001
 21
59.99999999999997
 31
0.0
  0
LINE
  5
14B
330
1E
100
AcDbEntity
  8
HILF
100
AcDbLine
 10
40.00000000000008
 20
69.99999999999994
 30
0.0
 11
146.0000000000001
 21
69.99999999999994
 31
0.0
  0
LINE
  5
14C
330
1E
100
AcDbEntity
  8
HILF
100
AcDbLine
 10
40.00000000000008
 20
79.99999999999994
 30
0.0
 11
146.0000000000001
 21
79.99999999999994
 31
0.0
  0
LINE
  5
14D
330
1E
100
AcDbEntity
  8
HILF
100
AcDbLine
 10
40.00000000000008
 20
90.00000000000005
 30
0.0
 11
146.0000000000001
 21
90.00000000000005
 31
0.0
  0
LINE
  5
14E
330
1E
100
AcDbEntity
  8
HILF
100
AcDbLine
 10
40.00000000000008
 20
100.0
 30
0.0
 11
146.0000000000001
 21
100.0
 31
0.0
  0
LINE
  5
14F
330
1E
100
AcDbEntity
  8
STEMPEL
100
AcDbLine
 10
145.9999999999999
 20
29.99999999999997
 30
0.0
 11
39.99999999999997
 21
29.99999999999997
 31
0.0
  0
TEXT
  5
150
330
1E
100
AcDbEntity
  8
TEXT
100
AcDbText
 10
48.26641107045756
 20
13.65465846027192
 30
0.0
 40
4.0
  1
Index
 50
90.0
 41
0.8
  7
GREEKS
100
AcDbText
  0
LINE
  5
151
330
1E
100
AcDbEntity
  8
VOLL
100
AcDbLine
 10
54.00000000000009
 20
110.0
 30
0.0
 11
53.99999999999997
 21
9.999999999999971
 31
0.0
  0
LINE
  5
152
330
1E
100
AcDbEntity
  8
HILF
100
AcDbLine
 10
31.08767135713856
 20
297.0
 30
0.0
 11
0.0000000000001137
 21
297.0
 31
0.0
  0
LINE
  5
154
330
1E
100
AcDbEntity
  8
VOLL
100
AcDbLine
 10
124.0000000000001
 20
109.9999999999999
 30
0.0
 11
124.0
 21
9.999999999999971
 31
0.0
  0
LINE
  5
155
330
1E
100
AcDbEntity
  8
VOLL
100
AcDbLine
 10
104.0000000000001
 20
109.9999999999999
 30
0.0
 11
104.0
 21
9.999999999999971
 31
0.0
  0
LINE
  5
157
330
1E
100
AcDbEntity
  8
STEMPEL
100
AcDbLine
 10
146.0000000000001
 20
109.9999999999999
 30
0.0
 11
146.0
 21
9.999999999999971
 31
0.0
  0
TEXT
  5
159
330
1E
100
AcDbEntity
  8
TEXT
100
AcDbText
 10
172.331167315365
 20
73.31880501229926
 30
0.0
 40
4.0
  1
Tag
 41
0.8
  7
GREEKS
100
AcDbText
  0
TEXT
  5
15A
330
1E
100
AcDbEntity
  8
TEXT
100
AcDbText
 10
147.5836127167615
 20
63.62990369617964
 30
0.0
 40
4.0
  1
Gez.
 41
0.8
  7
GREEKS
100
AcDbText
  0
LINE
  5
15B
330
1E
100
AcDbEntity
  8
VOLL
100
AcDbLine
 10
164.0000000000001
 20
79.99999999999994
 30
0.0
 11
164.0000000000001
 21
39.99999999999997
 31
0.0
  0
TEXT
  5
15C
330
1E
100
AcDbEntity
  8
TEXT
100
AcDbText
 10
147.6006777387303
 20
43.52946389649807
 30
0.0
 40
4.0
  1
Norm.
 41
0.8
  7
GREEKS
100
AcDbText
  0
TEXT
  5
15D
330
1E
100
AcDbEntity
  8
TEXT
100
AcDbText
 10
147.5515086571672
 20
53.68926291428377
 30
0.0
 40
4.0
  1
Gepr.
 41
0.8
  7
GREEKS
100
AcDbText
  0
TEXT
  5
15E
330
1E
100
AcDbEntity
  8
TEXT
 62
     1
100
AcDbText
 10
160.5006306481887
 20
88.14901428913959
 30
0.0
 40
7.0
  1
1:2
 41
0.8
  7
GREEKS
100
AcDbText
  0
TEXT
  5
160
330
1E
100
AcDbEntity
  8
TEXT
100
AcDbText
 10
148.622109822104
 20
73.14025471151666
 30
0.0
 40
4.0
  1
2011
 41
0.8
  7
GREEKS
100
AcDbText
  0
LINE
  5
161
330
1E
100
AcDbEntity
  8
VOLL
100
AcDbLine
 10
190.0000000000001
 20
109.9999999999998
 30
0.0
 11
190.0
 21
39.99999999999997
 31
0.0
  0
LINE
  5
186
330
1E
100
AcDbEntity
  8
HILF
100
AcDbLine
 10
420.0
 20
-0.0000000000001137
 30
0.0
 11
419.9999999999999
 21
594.0
 31
0.0
  0
LINE
  5
187
330
1E
100
AcDbEntity
  8
STEMPEL
100
AcDbLine
 10
410.0
 20
10.0
 30
0.0
 11
410.0
 21
584.0
 31
0.0
  0
TEXT
  5
188
330
1E
100
AcDbEntity
  8
TEXT
100
AcDbText
 10
337.2400861497006
 20
52.07416177878602
 30
0.0
 40
5.0
  1
ersetzt durch:
 41
0.8
  7
GREEKS
100
AcDbText
  0
TEXT
  5
18A
330
1E
100
AcDbEntity
  8
TEXT
100
AcDbText
 10
336.178754957634
 20
102.3132034537136
 30
0.0
 40
5.0
  1
Zeichnungs Nr.
 41
0.8
  7
GREEKS
100
AcDbText
  0
LINE
  5
18B
330
1E
100
AcDbEntity
  8
HILF
100
AcDbLine
 10
233.4909699289885
 20
14.89398258028314
 30
0.0
 11
404.8588839326728
 21
14.89398258028314
 31
0.0
  0
LINE
  5
18C
330
1E
100
AcDbEntity
  8
HILF
100
AcDbLine
 10
336.7238616296993
 20
83.77983636955827
 30
0.0
 11
404.8588839326728
 21
83.77983636955827
 31
0.0
  0
LINE
  5
18D
330
1E
100
AcDbEntity
  8
VOLL
100
AcDbLine
 10
332.0
 20
60.0
 30
0.0
 11
410.0
 21
60.0
 31
0.0
  0
TEXT
  5
18E
330
1E
100
AcDbEntity
  8
TEXT
 62
     1
100
AcDbText
 10
234.9283864320014
 20
87.41748789253779
 30
0.0
 40
7.0
  1
Bogen DN100 70°
 41
0.8
  7
GREEKS
100
AcDbText
  0
LINE
  5
18F
330
1E
100
AcDbEntity
  8
HILF
100
AcDbLine
 10
234.7736801096947
 20
49.99999999999997
 30
0.0
 11
324.835391655631
 21
49.99999999999997
 31
0.0
  0
LINE
  5
190
330
1E
100
AcDbEntity
  8
HILF
100
AcDbLine
 10
234.7736801096947
 20
59.99999999999997
 30
0.0
 11
324.835391655631
 21
59.99999999999997
 31
0.0
  0
LINE
  5
191
330
1E
100
AcDbEntity
  8
HILF
100
AcDbLine
 10
234.7736801096947
 20
69.99999999999994
 30
0.0
 11
324.835391655631
 21
69.99999999999994
 31
0.0
  0
LINE
  5
192
330
1E
100
AcDbEntity
  8
HILF
100
AcDbLine
 10
234.7736801096947
 20
84.03758247564139
 30
0.0
 11
324.8353916556311
 21
84.03758247564139
 31
0.0
  0
LINE
  5
193
330
1E
100
AcDbEntity
  8
STEMPEL
100
AcDbLine
 10
230.0
 20
110.0
 30
0.0
 11
230.0
 21
9.999999999999971
 31
0.0
  0
TEXT
  5
194
330
1E
100
AcDbEntity
  8
TEXT
100
AcDbText
 10
235.1296391125315
 20
71.50334417585288
 30
0.0
 40
5.0
  1
dünnwandig
 41
0.8
  7
GREEKS
100
AcDbText
  0
TEXT
  5
195
330
1E
100
AcDbEntity
  8
TEXT
100
AcDbText
 10
234.9837501577827
 20
42.62974153022632
 30
0.0
 40
4.0
  1
5310100W.DWG
 41
0.8
  7
GREEKS
100
AcDbText
  0
TEXT
  5
196
330
1E
100
AcDbEntity
  8
TEXT
100
AcDbText
 10
234.742238391136
 20
30.84560570193057
 30
0.0
 40
5.0
  1
Bauvorhaben
 41
0.8
  7
GREEKS
100
AcDbText
  0
TEXT
  5
197
330
1E
100
AcDbEntity
  8
TEXT
100
AcDbText
 10
234.877940380901
 20
102.5489328011779
 30
0.0
 40
5.0
  1
Benennung
 41
0.8
  7
GREEKS
100
AcDbText
  0
LINE
  5
198
330
1E
100
AcDbEntity
  8
STEMPEL
100
AcDbLine
 10
332.0
 20
109.9999999999997
 30
0.0
 11
332.0
 21
40.0
 31
0.0
  0
TEXT
  5
19A
330
1E
100
AcDbEntity
  8
TEXT
 62
     1
100
AcDbText
 10
351.0325621778465
 20
88.14901428913959
 30
0.0
 40
7.0
  1
5310100W
 41
0.8
  7
GREEKS
 72
     1
 11
371.2992288445131
 21
88.14901428913959
 31
0.0
100
AcDbText
  0
TEXT
  5
212
330
1E
100
AcDbEntity
  8
TEXT
100
AcDbText
 10
235.1296391125315
 20
51.50334417585291
 30
0.0
 40
5.0
  1
EDV-Art.Nr. 5.310.100C
 41
0.8
  7
GREEKS
100
AcDbText
  0
TEXT
  5
E61
330
1E
100
AcDbEntity
  8
TEXT
 62
     1
100
AcDbText
 10
297.0573649355706
 20
132.2248663682012
 30
0.0
 40
7.0
  1
Werkstoff: 1.4404
 41
0.8
  7
GREEKS
100
AcDbText
  0
TEXT
  5
12CF
330
1E
100
AcDbEntity
  8
VOLL
100
AcDbText
 10
1383.918177163095
 20
253.7900361884587
 30
0.0
 40
1.8
  1

  7
GREEKS
100
AcDbText
  0
TEXT
  5
1574
330
1E
100
AcDbEntity
  8
BEM
100
AcDbText
 10
416.5811541437437
 20
12.14804815338303
 30
0.0
 40
4.0
  1
Diese Zeichnung ist urheberrechtlich geschützt und bleibt unser Eigentum. Sie darf weder ganz noch teilweise vervielfältigt und nicht an Dritte weitergegeben werden.
 50
90.0
 41
0.8
  7
GREEKS
100
AcDbText
  0
TEXT
  5
1575
330
1E
100
AcDbEntity
  8
TEXT
100
AcDbText
 10
336.7238616296993
 20
73.1811823709997
 30
0.0
 40
5.0
  1
Ersatz für:
 41
0.8
  7
GREEKS
100
AcDbText
  0
TEXT
  5
1576
330
1E
100
AcDbEntity
  8
TEXT
100
AcDbText
 10
192.6882715247924
 20
89.50150693558043
 30
0.0
 40
4.0
  1
DIN EN1124-3
 41
0.8
  7
GREEKS
 72
     1
 11
209.6787477152686
 21
89.50150693558043
 31
0.0
100
AcDbText
  0
TEXT
  5
1577
330
1E
100
AcDbEntity
  8
TEXT
100
AcDbText
 10
153.5163572150377
 20
102.4620895087088
 30
0.0
 40
5.0
  1
Maßstab
 41
0.8
  7
GREEKS
100
AcDbText
  0
TEXT
  5
1578
330
1E
100
AcDbEntity
  8
TEXT
100
AcDbText
 10
41.85509950977674
 20
111.6719999999999
 30
0.0
 40
5.0
  1
Erstellt mit AUTOCAD 2004
 41
0.8
  7
GREEKS
100
AcDbText
  0
TEXT
  5
1579
330
1E
100
AcDbEntity
  8
TEXT
100
AcDbText
 10
129.3020371565846
 20
18.59324216966408
 30
0.0
 40
4.0
  1
Name
 41
0.8
  7
GREEKS
 72
     1
 11
135.6258466803941
 21
18.59324216966408
 31
0.0
100
AcDbText
  0
TEXT
  5
157A
330
1E
100
AcDbEntity
  8
TEXT
100
AcDbText
 10
110.2468354498985
 20
18.6715626933981
 30
0.0
 40
4.0
  1
Tag
 41
0.8
  7
GREEKS
 72
     1
 11
113.9801687832318
 21
18.6715626933981
 31
0.0
100
AcDbText
  0
TEXT
  5
157B
330
1E
100
AcDbEntity
  8
TEXT
100
AcDbText
 10
66.72469466776535
 20
18.67381894984132
 30
0.0
 40
4.0
  1
Änderung
 41
0.8
  7
GREEKS
 72
     1
 11
77.46755181062249
 21
18.67381894984132
 31
0.0
100
AcDbText
  0
LINE
  5
16B5
330
1E
100
AcDbEntity
  8
MITTEL
100
AcDbLine
 10
173.8461341637221
 20
404.4968284601429
 30
0.0
 11
173.8461341637221
 21
208.4957441329776
 31
0.0
  0
LINE
  5
1707
330
1E
100
AcDbEntity
  8
MITTEL
100
AcDbLine
 10
358.0269067719959
 20
471.5331474137065
 30
0.0
 11
173.8461341637221
 21
404.4968284601429
 31
0.0
  0
LINE
  5
17DB
102
{ACAD_REACTORS
330
1BD0
102
}
330
1E
100
AcDbEntity
  8
STEMPEL
100
AcDbLine
 10
224.6461341637218
 20
329.9735200868196
 30
0.0
 11
224.6461341637221
 21
221.4957441329771
 31
0.0
  0
LINE
  5
17DC
330
1E
100
AcDbEntity
  8
STEMPEL
100
AcDbLine
 10
223.9462248555146
 20
213.4957441329771
 30
0.0
 11
123.7460434719295
 21
213.4957441329776
 31
0.0
  0
LINE
  5
17DD
330
1E
100
AcDbEntity
  8
HILF
100
AcDbLine
 10
223.3913593667926
 20
221.4957441329771
 30
0.0
 11
124.3009089606512
 21
221.4957441329776
 31
0.0
  0
DIMENSION
  5
17DE
330
1E
100
AcDbEntity
  8
BEM
100
AcDbDimension
  2
*D1
 10
224.6461341637221
 20
192.4058548799003
 30
0.0
 11
173.8461341637221
 21
198.9058548799003
 31
0.0
 70
    32
  1
%%c<>
 71
     5
 42
101.5999999999999
  3
Standard
100
AcDbAlignedDimension
 13
123.0461341637222
 23
221.4957441329776
 33
0.0
 14
224.6461341637221
 24
221.4957441329771
 34
0.0
100
AcDbRotatedDimension
1001
ACAD
1000
DSTYLE
1002
{
1070
    40
1040
2.0
1070
    41
1040
3.5
1070
    42
1040
1.0
1070
    43
1040
7.0
1070
    44
1040
1.0
1070
    73
1070
     0
1070
    74
1070
     0
1070
    77
1070
     1
1070
    78
1070
     8
1070
    79
1070
     2
1070
   140
1040
3.5
1070
   141
1040
1.5
1070
   146
1040
0.5142857142857144
1070
   147
1040
1.5
1070
   172
1070
     1
1070
   178
1070
     1
1070
   179
1070
     2
1070
   271
1070
     2
1070
   272
1070
     2
1070
   284
1070
     8
1070
   285
1070
     8
1070
   286
1070
     8
1002
}
  0
LINE
  5
17DF
330
1E
100
AcDbEntity
  8
STEMPEL
100
AcDbLine
 10
224.6461341637221
 20
221.4957441329783
 30
0.0
 11
223.9462248555146
 21
213.4957441329771
 31
0.0
  0
LINE
  5
17FD
102
{ACAD_REACTORS
330
1BD0
102
}
330
1E
100
AcDbEntity
  8
STEMPEL
100
AcDbLine
 10
123.0461341637221
 20
362.007877036925
 30
0.0
 11
123.0461341637222
 21
221.4957441329776
 31
0.0
  0
LINE
  5
17FE
330
1E
100
AcDbEntity
  8
STEMPEL
100
AcDbLine
 10
123.0461341637222
 20
221.4957441329776
 30
0.0
 11
123.7460434719295
 21
213.4957441329776
 31
0.0
  0
TEXT
  5
1839
330
1E
100
AcDbEntity
  8
TEXT
 62
     1
100
AcDbText
 10
315.0709281506971
 20
472.5532588156567
 30
0.0
 40
7.0
  1
DN100
 50
19.99999999999969
 41
0.8
  7
GREEKS
100
AcDbText
  0
DIMENSION
  5
183F
330
1E
100
AcDbEntity
  8
BEM
100
AcDbDimension
  2
*D3
 10
103.9432132542779
 20
404.496828460143
 30
0.0
 11
97.44321325427783
 21
308.9962862965604
 31
0.0
 70
    32
 71
     5
 42
191.0010843271654
  3
Standard
100
AcDbAlignedDimension
 13
123.7460434719295
 23
213.4957441329776
 33
0.0
 14
173.8461341637221
 24
404.4968284601429
 34
0.0
 50
90.0
100
AcDbRotatedDimension
1001
ACAD
1000
DSTYLE
1002
{
1070
    40
1040
2.0
1070
    41
1040
3.5
1070
    42
1040
1.0
1070
    43
1040
7.0
1070
    44
1040
1.0
1070
    73
1070
     0
1070
    74
1070
     0
1070
    77
1070
     1
1070
    78
1070
     8
1070
    79
1070
     2
1070
   140
1040
3.5
1070
   141
1040
1.5
1070
   146
1040
0.5142857142857144
1070
   147
1040
1.5
1070
   172
1070
     1
1070
   178
1070
     1
1070
   179
1070
     2
1070
   271
1070
     2
1070
   272
1070
     2
1070
   284
1070
     8
1070
   285
1070
     8
1070
   286
1070
     8
1002
}
  0
DIMENSION
  5
184C
330
1E
100
AcDbEntity
  8
BEM
100
AcDbDimension
  2
*D4
 10
328.3657107514954
 20
538.407591713235
 30
0.0
 11
236.4014250677061
 21
511.8524846298755
 31
0.0
 70
    32
 71
     5
 42
191.001084327166
 51
314.9999999999999
  3
Standard
100
AcDbAlignedDimension
 13
173.8461341637221
 23
404.4968284601429
 33
0.0
 14
334.6336968800553
 24
521.1864413595621
 34
0.0
 50
20.00000000000011
100
AcDbRotatedDimension
1001
ACAD
1000
DSTYLE
1002
{
1070
    40
1040
2.0
1070
    41
1040
3.5
1070
    42
1040
1.0
1070
    43
1040
7.0
1070
    44
1040
1.0
1070
    73
1070
     0
1070
    74
1070
     0
1070
    77
1070
     1
1070
    78
1070
     8
1070
    79
1070
     2
1070
   140
1040
3.5
1070
   141
1040
1.5
1070
   146
1040
0.5142857142857144
1070
   147
1040
1.5
1070
   172
1070
     1
1070
   178
1070
     1
1070
   179
1070
     2
1070
   271
1070
     2
1070
   272
1070
     2
1070
   284
1070
     8
1070
   285
1070
     8
1070
   286
1070
     8
1002
}
  0
LINE
  5
1907
330
1E
100
AcDbEntity
  8
STEMPEL
100
AcDbLine
 10
361.670626596496
 20
411.2434599454749
 30
0.0
 11
344.2170680250405
 21
404.8908841434432
 31
0.0
  0
ARC
  5
1908
330
1E
100
AcDbEntity
  8
STEMPEL
100
AcDbCircle
 10
331.5027802254941
 20
390.8984974367264
 30
0.0
 40
12.8
100
AcDbArc
 50
83.11195238227535
 51
109.9999999999999
  0
ARC
  5
1909
330
1E
100
AcDbEntity
  8
STEMPEL
100
AcDbCircle
 10
303.3916020272679
 20
389.0738697249789
 30
0.0
 40
8.0
100
AcDbArc
 50
79.1404189093777
 51
109.9999999999999
  0
ARC
  5
190A
330
1E
100
AcDbEntity
  8
STEMPEL
100
AcDbCircle
 10
307.4916714751456
 20
410.8919684167203
 30
0.0
 40
14.2
100
AcDbArc
 50
259.3570682370605
 51
290.0
  0
LINE
  5
190B
102
{ACAD_REACTORS
330
1BDE
102
}
330
1E
100
AcDbEntity
  8
STEMPEL
100
AcDbLine
 10
300.5610795519367
 20
396.5570659763441
 30
0.0
 11
261.2497603996303
 21
382.2489159351659
 31
0.0
  0
LINE
  5
190C
330
1E
100
AcDbEntity
  8
STEMPEL
100
AcDbLine
 10
327.1249223909256
 20
402.9265629827859
 30
0.0
 11
312.3483575103703
 21
397.5483332015605
 31
0.0
  0
ARC
  5
190D
330
1E
100
AcDbEntity
  8
STEMPEL
100
AcDbCircle
 10
335.9401805565592
 20
427.6314455664621
 30
0.0
 40
24.2
100
AcDbArc
 50
263.1119523822754
 51
290.0
  0
ARC
  5
190E
330
1E
100
AcDbEntity
  8
STEMPEL
100
AcDbCircle
 10
353.3937391280148
 20
433.9840213684937
 30
0.0
 40
24.2
100
AcDbArc
 50
290.0
 51
320.2636519420999
  0
ARC
  5
1910
330
1E
100
AcDbEntity
  8
STEMPEL
100
AcDbCircle
 10
285.8772931058498
 20
516.2534930495667
 30
0.0
 40
12.8
100
AcDbArc
 50
290.0
 51
316.8880476177246
  0
ARC
  5
1911
330
1E
100
AcDbEntity
  8
STEMPEL
100
AcDbCircle
 10
312.8880228964091
 20
490.9667282074325
 30
0.0
 40
24.2
100
AcDbArc
 50
109.9999999999999
 51
136.8880476177245
  0
LINE
  5
1912
330
1E
100
AcDbEntity
  8
STEMPEL
100
AcDbLine
 10
322.0646939993837
 20
520.059865432483
 30
0.0
 11
304.6111354279282
 21
513.7072896304512
 31
0.0
  0
ARC
  5
1913
330
1E
100
AcDbEntity
  8
STEMPEL
100
AcDbCircle
 10
263.1700331721693
 20
499.5817219294015
 30
0.0
 40
8.0
100
AcDbArc
 50
290.0
 51
320.8595810906222
  0
ARC
  5
1914
330
1E
100
AcDbEntity
  8
STEMPEL
100
AcDbCircle
 10
280.3352720950875
 20
485.5035625071216
 30
0.0
 40
14.2
100
AcDbArc
 50
109.9999999999999
 51
140.6429317629395
  0
LINE
  5
1915
102
{ACAD_REACTORS
330
1BDE
102
}
330
1E
100
AcDbEntity
  8
STEMPEL
100
AcDbLine
 10
265.8118329900488
 20
492.0298362481922
 30
0.0
 11
196.3980650001075
 21
466.765290851594
 31
0.0
  0
LINE
  5
1916
330
1E
100
AcDbEntity
  8
STEMPEL
100
AcDbLine
 10
290.2551509404185
 20
504.2254275035069
 30
0.0
 11
275.478586059863
 21
498.8471977222814
 31
0.0
  0
ARC
  5
1917
330
1E
100
AcDbEntity
  8
STEMPEL
100
AcDbCircle
 10
330.3415814678648
 20
497.319304009464
 30
0.0
 40
24.2
100
AcDbArc
 50
79.73634805790009
 51
109.9999999999999
  0
LINE
  5
1919
330
1E
100
AcDbEntity
  8
STEMPEL
100
AcDbLine
 10
372.003398047686
 20
418.5140312297281
 30
0.0
 11
334.6336968800551
 21
521.1864413595621
 31
0.0
  0
LINE
  5
191A
330
1E
100
AcDbEntity
  8
HILF
100
AcDbLine
 10
302.3304819592316
 20
398.2124705041578
 30
0.0
 11
268.2313473912961
 21
491.8990727525052
 31
0.0
  0
LINE
  5
191B
330
1E
100
AcDbEntity
  8
HILF
100
AcDbLine
 10
308.2228624645079
 20
397.9125477926296
 30
0.0
 11
272.5523861312717
 21
495.9163760593869
 31
0.0
  0
LINE
  5
191C
330
1E
100
AcDbEntity
  8
HILF
100
AcDbLine
 10
329.6203958032855
 20
404.7713712877719
 30
0.0
 11
293.3526144015999
 21
504.4162817426199
 31
0.0
  0
TEXT
  5
1957
330
1E
100
AcDbEntity
  8
TEXT
100
AcDbText
 10
170.398997108236
 20
63.10765040825732
 30
0.0
 40
4.0
  1
08.04.
 41
0.8
  7
GREEKS
 72
     1
 11
177.4085209177598
 21
63.10765040825732
 31
0.0
100
AcDbText
  0
LINE
  5
1A23
330
1E
100
AcDbEntity
  8
MITTEL
100
AcDbLine
 10
228.8239126998687
 20
424.5071033933795
 30
0.0
 11
173.8461341637221
 21
345.9906985618725
 31
0.0
  0
LINE
  5
1A24
102
{ACAD_REACTORS
330
1BD0
330
1BDE
102
}
330
1E
100
AcDbEntity
  8
STEMPEL
100
AcDbLine
 10
196.3980650001075
 20
466.765290851594
 30
0.0
 11
123.0461341637221
 21
362.007877036925
 31
0.0
  0
LINE
  5
1A25
102
{ACAD_REACTORS
330
1BD0
330
1BDE
102
}
330
1E
100
AcDbEntity
  8
STEMPEL
100
AcDbLine
 10
261.2497603996303
 20
382.2489159351659
 30
0.0
 11
224.6461341637218
 21
329.9735200868196
 31
0.0
  0
LINE
  5
1A26
330
1E
100
AcDbEntity
  8
STEMPEL
100
AcDbLine
 10
196.3980650001075
 20
466.765290851594
 30
0.0
 11
261.2497603996303
 21
382.2489159351659
 31
0.0
  0
LINE
  5
1A28
330
1E
100
AcDbEntity
  8
STEMPEL
100
AcDbLine
 10
123.0461341637221
 20
362.007877036925
 30
0.0
 11
224.6461341637218
 21
329.9735200868196
 31
0.0
  0
DIMENSION
  5
1B5A
330
1E
100
AcDbEntity
  8
BEM
100
AcDbDimension
  2
*D7
 10
173.8461341637221
 20
208.4957441329776
 30
0.0
 11
195.5687813268946
 21
435.5199837073899
 31
0.0
 70
    34
 71
     5
 42
1.221730476396031
  3
Standard
100
AcDb2LineAngularDimension
 13
358.0269067719959
 23
471.5331474137065
 33
0.0
 14
173.8461341637221
 24
404.4968284601429
 34
0.0
 15
173.8461341637221
 25
404.4968284601429
 35
0.0
 16
196.6655034128505
 26
426.0257929890021
 36
0.0
1001
ACAD
1000
DSTYLE
1002
{
1070
    40
1040
2.0
1070
    41
1040
3.5
1070
    42
1040
1.0
1070
    43
1040
7.0
1070
    44
1040
1.0
1070
    73
1070
     0
1070
    74
1070
     0
1070
    77
1070
     1
1070
    78
1070
     8
1070
    79
1070
     2
1070
   140
1040
3.5
1070
   141
1040
1.5
1070
   146
1040
0.5142857142857144
1070
   147
1040
1.5
1070
   172
1070
     1
1070
   178
1070
     1
1070
   179
1070
     2
1070
   271
1070
     2
1070
   272
1070
     2
1070
   284
1070
     8
1070
   285
1070
     8
1070
   286
1070
     8
1002
}
  0
ARC
  5
1B95
330
1E
100
AcDbEntity
  8
SCHRAFF
100
AcDbCircle
 10
123.0461341637221
 20
362.007877036925
 30
0.0
 40
5.0
100
AcDbArc
 50
305.6301023541556
 51
19.36989764584356
  0
ARC
  5
1B96
330
1E
100
AcDbEntity
  8
SCHRAFF
100
AcDbCircle
 10
127.8147189174632
 20
360.5043480394036
 30
0.0
 40
5.0
100
AcDbArc
 50
305.6301023541556
 51
19.36989764584356
  0
ARC
  5
1B97
330
1E
100
AcDbEntity
  8
SCHRAFF
100
AcDbCircle
 10
132.5833036712044
 20
359.0008190418822
 30
0.0
 40
5.0
100
AcDbArc
 50
305.6301023541556
 51
19.36989764584356
  0
ARC
  5
1B98
330
1E
100
AcDbEntity
  8
SCHRAFF
100
AcDbCircle
 10
137.3518884249455
 20
357.4972900443607
 30
0.0
 40
5.0
100
AcDbArc
 50
305.6301023541556
 51
19.36989764584356
  0
ARC
  5
1B99
330
1E
100
AcDbEntity
  8
SCHRAFF
100
AcDbCircle
 10
142.1204731786866
 20
355.9937610468393
 30
0.0
 40
5.0
100
AcDbArc
 50
305.6301023541556
 51
19.36989764584356
  0
ARC
  5
1B9A
330
1E
100
AcDbEntity
  8
SCHRAFF
100
AcDbCircle
 10
146.8890579324278
 20
354.4902320493179
 30
0.0
 40
5.0
100
AcDbArc
 50
305.6301023541556
 51
19.36989764584356
  0
ARC
  5
1B9B
330
1E
100
AcDbEntity
  8
SCHRAFF
100
AcDbCircle
 10
151.6576426861689
 20
352.9867030517966
 30
0.0
 40
5.0
100
AcDbArc
 50
305.6301023541556
 51
19.36989764584356
  0
ARC
  5
1B9C
330
1E
100
AcDbEntity
  8
SCHRAFF
100
AcDbCircle
 10
156.42622743991
 20
351.4831740542752
 30
0.0
 40
5.0
100
AcDbArc
 50
305.6301023541556
 51
19.36989764584356
  0
ARC
  5
1B9D
330
1E
100
AcDbEntity
  8
SCHRAFF
100
AcDbCircle
 10
161.1948121936512
 20
349.9796450567538
 30
0.0
 40
5.0
100
AcDbArc
 50
305.6301023541556
 51
19.36989764584356
  0
ARC
  5
1B9E
330
1E
100
AcDbEntity
  8
SCHRAFF
100
AcDbCircle
 10
165.9633969473923
 20
348.4761160592324
 30
0.0
 40
5.0
100
AcDbArc
 50
305.6301023541556
 51
19.36989764584356
  0
ARC
  5
1B9F
330
1E
100
AcDbEntity
  8
SCHRAFF
100
AcDbCircle
 10
170.7319817011334
 20
346.9725870617109
 30
0.0
 40
5.0
100
AcDbArc
 50
305.6301023541556
 51
19.36989764584356
  0
ARC
  5
1BA0
330
1E
100
AcDbEntity
  8
SCHRAFF
100
AcDbCircle
 10
175.5005664548745
 20
345.4690580641895
 30
0.0
 40
5.0
100
AcDbArc
 50
305.6301023541556
 51
19.36989764584356
  0
ARC
  5
1BA1
330
1E
100
AcDbEntity
  8
SCHRAFF
100
AcDbCircle
 10
180.2691512086157
 20
343.9655290666682
 30
0.0
 40
5.0
100
AcDbArc
 50
305.6301023541556
 51
19.36989764584356
  0
ARC
  5
1BA2
330
1E
100
AcDbEntity
  8
SCHRAFF
100
AcDbCircle
 10
185.0377359623568
 20
342.4620000691468
 30
0.0
 40
5.0
100
AcDbArc
 50
305.6301023541556
 51
19.36989764584356
  0
ARC
  5
1BA3
330
1E
100
AcDbEntity
  8
SCHRAFF
100
AcDbCircle
 10
189.8063207160979
 20
340.9584710716254
 30
0.0
 40
5.0
100
AcDbArc
 50
305.6301023541556
 51
19.36989764584356
  0
ARC
  5
1BA4
330
1E
100
AcDbEntity
  8
SCHRAFF
100
AcDbCircle
 10
194.5749054698391
 20
339.4549420741039
 30
0.0
 40
5.0
100
AcDbArc
 50
305.6301023541556
 51
19.36989764584356
  0
ARC
  5
1BA5
330
1E
100
AcDbEntity
  8
SCHRAFF
100
AcDbCircle
 10
199.3434902235802
 20
337.9514130765826
 30
0.0
 40
5.0
100
AcDbArc
 50
305.6301023541556
 51
19.36989764584356
  0
ARC
  5
1BA6
330
1E
100
AcDbEntity
  8
SCHRAFF
100
AcDbCircle
 10
204.1120749773214
 20
336.4478840790612
 30
0.0
 40
5.0
100
AcDbArc
 50
305.6301023541556
 51
19.36989764584356
  0
ARC
  5
1BA7
330
1E
100
AcDbEntity
  8
SCHRAFF
100
AcDbCircle
 10
208.8806597310625
 20
334.9443550815398
 30
0.0
 40
5.0
100
AcDbArc
 50
305.6301023541556
 51
19.36989764584356
  0
ARC
  5
1BA8
330
1E
100
AcDbEntity
  8
SCHRAFF
100
AcDbCircle
 10
213.6492444848036
 20
333.4408260840183
 30
0.0
 40
5.0
100
AcDbArc
 50
305.6301023541556
 51
19.36989764584356
  0
ARC
  5
1BA9
330
1E
100
AcDbEntity
  8
SCHRAFF
100
AcDbCircle
 10
218.4178292385448
 20
331.937297086497
 30
0.0
 40
5.0
100
AcDbArc
 50
305.6301023541556
 51
19.36989764584356
  0
ARC
  5
1BAA
102
{ACAD_REACTORS
330
1BD0
102
}
330
1E
100
AcDbEntity
  8
SCHRAFF
100
AcDbCircle
 10
222.6425005889331
 20
330.6052633263077
 30
0.0
 40
4.275836067526616
100
AcDbArc
 50
297.9431058189967
 51
27.05689418100439
  0
ARC
  5
1BAC
102
{ACAD_REACTORS
330
1BD0
102
}
330
1E
100
AcDbEntity
  8
SCHRAFF
100
AcDbCircle
 10
124.568351326877
 20
361.5279238089715
 30
0.0
 40
3.069649898596793
100
AcDbArc
 50
84.72863724341118
 51
240.271362756588
  0
ARC
  5
1BAD
330
1E
100
AcDbEntity
  8
SCHRAFF
100
AcDbCircle
 10
196.3980650001081
 20
466.7652908515937
 30
0.0
 40
5.0
100
AcDbArc
 50
270.6301023541557
 51
344.3698976458437
  0
ARC
  5
1BAE
102
{ACAD_REACTORS
330
1BDE
102
}
330
1E
100
AcDbEntity
  8
SCHRAFF
100
AcDbCircle
 10
197.3697024390534
 20
465.4990282879576
 30
0.0
 40
3.069649898596793
100
AcDbArc
 50
49.7286372434113
 51
205.2713627565881
  0
ARC
  5
1BAF
330
1E
100
AcDbEntity
  8
SCHRAFF
100
AcDbCircle
 10
202.4856792901953
 20
458.8317574486813
 30
0.0
 40
5.0
100
AcDbArc
 50
270.6301023541557
 51
344.3698976458437
  0
ARC
  5
1BB0
330
1E
100
AcDbEntity
  8
SCHRAFF
100
AcDbCircle
 10
199.4418721451517
 20
462.7985241501375
 30
0.0
 40
5.0
100
AcDbArc
 50
270.6301023541557
 51
344.3698976458437
  0
ARC
  5
1BB1
330
1E
100
AcDbEntity
  8
SCHRAFF
100
AcDbCircle
 10
205.5294864352389
 20
454.8649907472251
 30
0.0
 40
5.0
100
AcDbArc
 50
270.6301023541557
 51
344.3698976458437
  0
ARC
  5
1BB2
330
1E
100
AcDbEntity
  8
SCHRAFF
100
AcDbCircle
 10
226.836136450544
 20
427.0976238370318
 30
0.0
 40
5.0
100
AcDbArc
 50
270.6301023541557
 51
344.3698976458437
  0
ARC
  5
1BB3
330
1E
100
AcDbEntity
  8
SCHRAFF
100
AcDbCircle
 10
217.7047150154132
 20
438.9979239414003
 30
0.0
 40
5.0
100
AcDbArc
 50
270.6301023541557
 51
344.3698976458437
  0
ARC
  5
1BB4
330
1E
100
AcDbEntity
  8
SCHRAFF
100
AcDbCircle
 10
211.6171007253261
 20
446.9314573443127
 30
0.0
 40
5.0
100
AcDbArc
 50
270.6301023541557
 51
344.3698976458437
  0
ARC
  5
1BB5
330
1E
100
AcDbEntity
  8
SCHRAFF
100
AcDbCircle
 10
208.5732935802825
 20
450.8982240457689
 30
0.0
 40
5.0
100
AcDbArc
 50
270.6301023541557
 51
344.3698976458437
  0
ARC
  5
1BB6
330
1E
100
AcDbEntity
  8
SCHRAFF
100
AcDbCircle
 10
214.6609078703697
 20
442.9646906428565
 30
0.0
 40
5.0
100
AcDbArc
 50
270.6301023541557
 51
344.3698976458437
  0
ARC
  5
1BB7
330
1E
100
AcDbEntity
  8
SCHRAFF
100
AcDbCircle
 10
223.7923293055004
 20
431.0643905384879
 30
0.0
 40
5.0
100
AcDbArc
 50
270.6301023541557
 51
344.3698976458437
  0
ARC
  5
1BB8
330
1E
100
AcDbEntity
  8
SCHRAFF
100
AcDbCircle
 10
220.7485221604568
 20
435.0311572399441
 30
0.0
 40
5.0
100
AcDbArc
 50
270.6301023541557
 51
344.3698976458437
  0
ARC
  5
1BB9
330
1E
100
AcDbEntity
  8
SCHRAFF
100
AcDbCircle
 10
235.9675578856748
 20
415.1973237326632
 30
0.0
 40
5.0
100
AcDbArc
 50
270.6301023541557
 51
344.3698976458437
  0
ARC
  5
1BBA
330
1E
100
AcDbEntity
  8
SCHRAFF
100
AcDbCircle
 10
232.9237507406311
 20
419.1640904341193
 30
0.0
 40
5.0
100
AcDbArc
 50
270.6301023541557
 51
344.3698976458437
  0
ARC
  5
1BBB
330
1E
100
AcDbEntity
  8
SCHRAFF
100
AcDbCircle
 10
229.8799435955876
 20
423.1308571355755
 30
0.0
 40
5.0
100
AcDbArc
 50
270.6301023541557
 51
344.3698976458437
  0
ARC
  5
1BBC
330
1E
100
AcDbEntity
  8
SCHRAFF
100
AcDbCircle
 10
239.0113650307183
 20
411.2305570312069
 30
0.0
 40
5.0
100
AcDbArc
 50
270.6301023541557
 51
344.3698976458437
  0
ARC
  5
1BBD
330
1E
100
AcDbEntity
  8
SCHRAFF
100
AcDbCircle
 10
242.0551721757619
 20
407.2637903297508
 30
0.0
 40
5.0
100
AcDbArc
 50
270.6301023541557
 51
344.3698976458437
  0
ARC
  5
1BBE
330
1E
100
AcDbEntity
  8
SCHRAFF
100
AcDbCircle
 10
245.0989793208055
 20
403.2970236282945
 30
0.0
 40
5.0
100
AcDbArc
 50
270.6301023541557
 51
344.3698976458437
  0
ARC
  5
1BBF
330
1E
100
AcDbEntity
  8
SCHRAFF
100
AcDbCircle
 10
248.1427864658491
 20
399.3302569268384
 30
0.0
 40
5.0
100
AcDbArc
 50
270.6301023541557
 51
344.3698976458437
  0
ARC
  5
1BC0
102
{ACAD_REACTORS
330
1BDE
102
}
330
1E
100
AcDbEntity
  8
SCHRAFF
100
AcDbCircle
 10
259.970832896831
 20
383.9156467068388
 30
0.0
 40
4.275836067526616
100
AcDbArc
 50
262.9431058189949
 51
352.0568941810026
  0
ARC
  5
1BC1
330
1E
100
AcDbEntity
  8
SCHRAFF
100
AcDbCircle
 10
254.2304007559363
 20
391.396723523926
 30
0.0
 40
5.0
100
AcDbArc
 50
270.6301023541557
 51
344.3698976458437
  0
ARC
  5
1BC2
330
1E
100
AcDbEntity
  8
SCHRAFF
100
AcDbCircle
 10
251.1865936108926
 20
395.3634902253821
 30
0.0
 40
5.0
100
AcDbArc
 50
270.6301023541557
 51
344.3698976458437
  0
ARC
  5
1BC3
330
1E
100
AcDbEntity
  8
SCHRAFF
100
AcDbCircle
 10
257.2742079009799
 20
387.4299568224698
 30
0.0
 40
5.0
100
AcDbArc
 50
270.6301023541557
 51
344.3698976458437
  0
HATCH
  5
1BD0
330
1E
100
AcDbEntity
  8
SCHRAFF
100
AcDbHatch
 10
0.0
 20
0.0
 30
0.0
210
0.0
220
0.0
230
1.0
  2
_USER
 70
     0
 71
     1
 91
        2
 92
        7
 72
     1
 73
     1
 93
        3
 10
123.0461341637221
 20
362.0078770369251
 42
0.0
 10
124.8503689607477
 20
364.5845913659919
 42
0.8064857449588638
 10
123.0461341637221
 20
358.8622896615027
 42
0.0
 97
        3
330
1A24
330
1BAC
330
17FD
 92
        7
 72
     1
 73
     1
 93
        3
 10
226.4503689607474
 20
332.5502344158866
 42
0.0
 10
224.6461341637218
 20
329.9735200868196
 42
0.0
 10
224.6461341637218
 20
326.827932711397
 42
0.4096905138712417
 97
        3
330
1A25
330
17DB
330
1BAA
 75
     0
 76
     0
 52
0.0
 41
0.1
 77
     0
 78
     1
 53
0.0
 43
0.0
 44
0.0
 45
0.0
 46
0.1
 79
     0
 47
0.3304513178385412
 98
        2
 10
122.3973238507146
 20
361.4038833819525
 10
225.5603321744243
 20
329.6805575129745
  0
HATCH
  5
1BDE
330
1E
100
AcDbEntity
  8
SCHRAFF
100
AcDbHatch
 10
0.0
 20
0.0
 30
0.0
210
0.0
220
0.0
230
1.0
  2
_USER
 70
     0
 71
     1
 91
        2
 92
        7
 72
     1
 73
     1
 93
        3
 10
264.2056456443525
 20
383.3247701801514
 42
0.0
 10
261.2497603996303
 20
382.2489159351657
 42
0.0
 10
259.4455256026046
 20
379.6722016060988
 42
0.4096905138712817
 97
        3
330
190B
330
1A25
330
1BC0
 92
        7
 72
     1
 73
     1
 93
        3
 10
199.3539502448293
 20
467.8411450965795
 42
0.8064857449587011
 10
194.5938302030821
 20
464.1885765225274
 42
0.0
 10
196.3980650001076
 20
466.7652908515941
 42
0.0
 97
        3
330
1BAE
330
1A24
330
1915
 75
     0
 76
     0
 52
0.0
 41
0.1
 77
     0
 78
     1
 53
0.0
 43
0.0
 44
0.0
 45
0.0
 46
0.1
 79
     0
 47
0.3304513178385412
 98
        2
 10
262.2625543021618
 20
381.5614143095263
 10
197.1243727560491
 20
467.4787573639434
  0
ENDSEC
  0
SECTION
  2
OBJECTS
  0
DICTIONARY
  5
C
330
0
100
AcDbDictionary
281
     1
  3
ACAD_COLOR
350
FE6
  3
ACAD_GROUP
350
D
  3
ACAD_LAYOUT
350
19
  3
ACAD_MATERIAL
350
FE5
  3
ACAD_MLINESTYLE
350
16
  3
ACAD_PLOTSETTINGS
350
18
  3
ACAD_PLOTSTYLENAME
350
E
  3
AcDbVariableDictionary
350
246
  0
DICTIONARY
  5
FE6
102
{ACAD_REACTORS
330
C
102
}
330
C
100
AcDbDictionary
281
     1
  0
DICTIONARY
  5
D
102
{ACAD_REACTORS
330
C
102
}
330
C
100
AcDbDictionary
281
     1
  0
DICTIONARY
  5
19
102
{ACAD_REACTORS
330
C
102
}
330
C
100
AcDbDictionary
281
     1
  3
Layout1
350
1D
  3
Model
350
21
  0
DICTIONARY
  5
FE5
102
{ACAD_REACTORS
330
C
102
}
330
C
100
AcDbDictionary
281
     1
  0
DICTIONARY
  5
16
102
{ACAD_REACTORS
330
C
102
}
330
C
100
AcDbDictionary
281
     1
  3
Standard
350
17
  0
DICTIONARY
  5
18
102
{ACAD_REACTORS
330
C
102
}
330
C
100
AcDbDictionary
281
     1
  0
ACDBDICTIONARYWDFLT
  5
E
102
{ACAD_REACTORS
330
C
102
}
330
C
100
AcDbDictionary
281
     1
  3
Normal
350
F
100
AcDbDictionaryWithDefault
340
F
  0
DICTIONARY
  5
246
102
{ACAD_REACTORS
330
C
102
}
330
C
100
AcDbDictionary
281
     1
  3
DIMASSOC
350
1595
  3
PROJECTNAME
350
1596
  3
SORTENTS
350
247
  0
LAYOUT
  5
1D
102
{ACAD_REACTORS
330
19
102
}
330
19
100
AcDbPlotSettings
  1

  2
Tektronix Phaser 740
  4

  6

 40
0.0
 41
0.0
 42
0.0
 43
0.0
 44
0.0
 45
0.0
 46
0.0
 47
0.0
 48
0.0
 49
0.0
140
0.0
141
0.0
142
1.0
143
1.0
 70
   688
 72
     0
 73
     0
 74
     5
  7
monochrome.ctb
 75
    16
147
1.0
 76
     0
 77
     2
 78
   300
148
0.0
149
0.0
100
AcDbLayout
  1
Layout1
 70
     0
 71
     1
 10
0.0
 20
0.0
 11
12.0
 21
9.0
 12
0.0
 22
0.0
 32
0.0
 14
1.000000000000000E+20
 24
1.000000000000000E+20
 34
1.000000000000000E+20
 15
-1.000000000000000E+20
 25
-1.000000000000000E+20
 35
-1.000000000000000E+20
146
0.0
 13
0.0
 23
0.0
 33
0.0
 16
1.0
 26
0.0
 36
0.0
 17
0.0
 27
1.0
 37
0.0
 76
     0
330
1A
  0
LAYOUT
  5
21
102
{ACAD_REACTORS
330
19
102
}
330
19
100
AcDbPlotSettings
  1

  2
Tektronix Phaser 740
  4
A4
  6

 40
5.873749732971191
 41
6.085414409637451
 42
5.577407836914062
 43
5.662078857421875
 44
209.9733276367187
 45
296.9683227539062
 46
0.0
 47
0.0
 48
0.0
 49
0.0
140
0.0
141
0.0
142
1.0
143
1.0
 70
 11952
 72
     0
 73
     1
 74
     0
  7
monochrome.ctb
 75
     0
147
1.0
 76
     0
 77
     2
 78
   300
148
1150.120678237584
149
45.30495740799864
100
AcDbLayout
  1
Model
 70
     1
 71
     0
 10
0.0
 20
0.0
 11
12.0
 21
9.0
 12
0.0
 22
0.0
 32
0.0
 14
0.0
 24
0.0
 34
0.0
 15
0.0
 25
0.0
 35
0.0
146
0.0
 13
0.0
 23
0.0
 33
0.0
 16
1.0
 26
0.0
 36
0.0
 17
0.0
 27
1.0
 37
0.0
 76
     0
330
1E
  0
MLINESTYLE
  5
17
102
{ACAD_REACTORS
330
16
102
}
330
16
100
AcDbMlineStyle
  2
STANDARD
 70
     0
  3

 62
   256
 51
90.0
 52
90.0
 71
     2
 49
0.5
 62
   256
  6
BYLAYER
 49
-0.5
 62
   256
  6
BYLAYER
  0
ACDBPLACEHOLDER
  5
F
102
{ACAD_REACTORS
330
E
102
}
330
E
  0
DICTIONARYVAR
  5
1595
102
{ACAD_REACTORS
330
246
102
}
330
246
100
DictionaryVariables
280
     0
  1
1
  0
DICTIONARYVAR
  5
1596
102
{ACAD_REACTORS
330
246
102
}
330
246
100
DictionaryVariables
280
     0
  1

  0
DICTIONARYVAR
  5
247
102
{ACAD_REACTORS
330
246
102
}
330
246
100
DictionaryVariables
280
     0
  1
96
  0
ENDSEC
  0
EOF
