  0
SECTION
  2
HEADER
  9
$ACADVER
  1
AC1018
  9
$ACADMAINTVER
 70
     2
  9
$DWGCODEPAGE
  3
ANSI_1252
  9
$INSBASE
 10
0.0
 20
0.0
 30
0.0
  9
$EXTMIN
 10
-0.0724876358267466
 20
-0.0452926703683261
 30
-0.0000000000000023
  9
$EXTMAX
 10
1050.043834316976
 20
1485.0453324345
 30
0.000000000000013
  9
$LIMMIN
 10
0.0
 20
0.0
  9
$LIMMAX
 10
1050.0
 20
1485.0
  9
$ORTHOMODE
 70
     1
  9
$REGENMODE
 70
     1
  9
$FILLMODE
 70
     1
  9
$QTEXTMODE
 70
     0
  9
$MIRRTEXT
 70
     1
  9
$LTSCALE
 40
50.0
  9
$ATTMODE
 70
     1
  9
$TEXTSIZE
 40
3.5
  9
$TRACEWID
 40
0.5
  9
$TEXTSTYLE
  7
STANDARD
  9
$CLAYER
  8
SCHRAFF
  9
$CELTYPE
  6
ByLayer
  9
$CECOLOR
 62
   256
  9
$CELTSCALE
 40
1.0
  9
$DISPSILH
 70
     0
  9
$DIMSCALE
 40
5.0
  9
$DIMASZ
 40
3.5
  9
$DIMEXO
 40
1.0
  9
$DIMDLI
 40
7.0
  9
$DIMRND
 40
0.0
  9
$DIMDLE
 40
0.0
  9
$DIMEXE
 40
1.0
  9
$DIMTP
 40
0.0
  9
$DIMTM
 40
0.0
  9
$DIMTXT
 40
3.5
  9
$DIMCEN
 40
1.5
  9
$DIMTSZ
 40
0.0
  9
$DIMTOL
 70
     0
  9
$DIMLIM
 70
     0
  9
$DIMTIH
 70
     0
  9
$DIMTOH
 70
     0
  9
$DIMSE1
 70
     0
  9
$DIMSE2
 70
     0
  9
$DIMTAD
 70
     1
  9
$DIMZIN
 70
     8
  9
$DIMBLK
  1

  9
$DIMASO
 70
     1
  9
$DIMSHO
 70
     0
  9
$DIMPOST
  1

  9
$DIMAPOST
  1

  9
$DIMALT
 70
     0
  9
$DIMALTD
 70
     2
  9
$DIMALTF
 40
25.4
  9
$DIMLFAC
 40
1.0
  9
$DIMTOFL
 70
     1
  9
$DIMTVP
 40
0.0
  9
$DIMTIX
 70
     0
  9
$DIMSOXD
 70
     0
  9
$DIMSAH
 70
     0
  9
$DIMBLK1
  1

  9
$DIMBLK2
  1

  9
$DIMSTYLE
  2
Standard
  9
$DIMCLRD
 70
     0
  9
$DIMCLRE
 70
     0
  9
$DIMCLRT
 70
     1
  9
$DIMTFAC
 40
0.5142857142857144
  9
$DIMGAP
 40
1.5
  9
$DIMJUST
 70
     0
  9
$DIMSD1
 70
     0
  9
$DIMSD2
 70
     0
  9
$DIMTOLJ
 70
     1
  9
$DIMTZIN
 70
     8
  9
$DIMALTZ
 70
     8
  9
$DIMALTTZ
 70
     8
  9
$DIMUPT
 70
     0
  9
$DIMDEC
 70
     2
  9
$DIMTDEC
 70
     2
  9
$DIMALTU
 70
     2
  9
$DIMALTTD
 70
     2
  9
$DIMTXSTY
  7
STANDARD
  9
$DIMAUNIT
 70
     0
  9
$DIMADEC
 70
     2
  9
$DIMALTRND
 40
0.0
  9
$DIMAZIN
 70
     2
  9
$DIMDSEP
 70
    46
  9
$DIMATFIT
 70
     3
  9
$DIMFRAC
 70
     0
  9
$DIMLDRBLK
  1

  9
$DIMLUNIT
 70
     2
  9
$DIMLWD
 70
    -2
  9
$DIMLWE
 70
    -2
  9
$DIMTMOVE
 70
     0
  9
$LUNITS
 70
     2
  9
$LUPREC
 70
     2
  9
$SKETCHINC
 40
1.0
  9
$FILLETRAD
 40
0.0
  9
$AUNITS
 70
     1
  9
$AUPREC
 70
     3
  9
$MENU
  1
ACAD
  9
$ELEVATION
 40
0.0
  9
$PELEVATION
 40
0.0
  9
$THICKNESS
 40
0.0
  9
$LIMCHECK
 70
     0
  9
$CHAMFERA
 40
0.0
  9
$CHAMFERB
 40
0.0
  9
$CHAMFERC
 40
0.0
  9
$CHAMFERD
 40
0.0
  9
$SKPOLY
 70
     0
  9
$TDCREATE
 40
2452040.637099653
  9
$TDUCREATE
 40
2452040.553766320
  9
$TDUPDATE
 40
2455660.589582720
  9
$TDUUPDATE
 40
2455660.506249386
  9
$TDINDWG
 40
0.2694172917
  9
$TDUSRTIMER
 40
0.2694172917
  9
$USRTIMER
 70
     1
  9
$ANGBASE
 50
0.0
  9
$ANGDIR
 70
     0
  9
$PDMODE
 70
     0
  9
$PDSIZE
 40
0.0
  9
$PLINEWID
 40
0.0
  9
$SPLFRAME
 70
     0
  9
$SPLINETYPE
 70
     6
  9
$SPLINESEGS
 70
     8
  9
$HANDSEED
  5
13BE
  9
$SURFTAB1
 70
     6
  9
$SURFTAB2
 70
     6
  9
$SURFTYPE
 70
     6
  9
$SURFU
 70
     6
  9
$SURFV
 70
     6
  9
$UCSBASE
  2

  9
$UCSNAME
  2

  9
$UCSORG
 10
0.0
 20
0.0
 30
0.0
  9
$UCSXDIR
 10
1.0
 20
0.0
 30
0.0
  9
$UCSYDIR
 10
0.0
 20
1.0
 30
0.0
  9
$UCSORTHOREF
  2

  9
$UCSORTHOVIEW
 70
     0
  9
$UCSORGTOP
 10
0.0
 20
0.0
 30
0.0
  9
$UCSORGBOTTOM
 10
0.0
 20
0.0
 30
0.0
  9
$UCSORGLEFT
 10
0.0
 20
0.0
 30
0.0
  9
$UCSORGRIGHT
 10
0.0
 20
0.0
 30
0.0
  9
$UCSORGFRONT
 10
0.0
 20
0.0
 30
0.0
  9
$UCSORGBACK
 10
0.0
 20
0.0
 30
0.0
  9
$PUCSBASE
  2

  9
$PUCSNAME
  2

  9
$PUCSORG
 10
0.0
 20
0.0
 30
0.0
  9
$PUCSXDIR
 10
1.0
 20
0.0
 30
0.0
  9
$PUCSYDIR
 10
0.0
 20
1.0
 30
0.0
  9
$PUCSORTHOREF
  2

  9
$PUCSORTHOVIEW
 70
     0
  9
$PUCSORGTOP
 10
0.0
 20
0.0
 30
0.0
  9
$PUCSORGBOTTOM
 10
0.0
 20
0.0
 30
0.0
  9
$PUCSORGLEFT
 10
0.0
 20
0.0
 30
0.0
  9
$PUCSORGRIGHT
 10
0.0
 20
0.0
 30
0.0
  9
$PUCSORGFRONT
 10
0.0
 20
0.0
 30
0.0
  9
$PUCSORGBACK
 10
0.0
 20
0.0
 30
0.0
  9
$USERI1
 70
     0
  9
$USERI2
 70
     0
  9
$USERI3
 70
     0
  9
$USERI4
 70
     0
  9
$USERI5
 70
     0
  9
$USERR1
 40
0.0
  9
$USERR2
 40
0.0
  9
$USERR3
 40
0.0
  9
$USERR4
 40
0.0
  9
$USERR5
 40
0.0
  9
$WORLDVIEW
 70
     1
  9
$SHADEDGE
 70
     3
  9
$SHADEDIF
 70
    70
  9
$TILEMODE
 70
     1
  9
$MAXACTVP
 70
    16
  9
$PINSBASE
 10
0.0
 20
0.0
 30
0.0
  9
$PLIMCHECK
 70
     0
  9
$PEXTMIN
 10
1.000000000000000E+20
 20
1.000000000000000E+20
 30
1.000000000000000E+20
  9
$PEXTMAX
 10
-1.000000000000000E+20
 20
-1.000000000000000E+20
 30
-1.000000000000000E+20
  9
$PLIMMIN
 10
0.0
 20
0.0
  9
$PLIMMAX
 10
12.0
 20
9.0
  9
$UNITMODE
 70
     0
  9
$VISRETAIN
 70
     0
  9
$PLINEGEN
 70
     0
  9
$PSLTSCALE
 70
     0
  9
$TREEDEPTH
 70
  3020
  9
$CMLSTYLE
  2
Standard
  9
$CMLJUST
 70
     0
  9
$CMLSCALE
 40
1.0
  9
$PROXYGRAPHICS
 70
     1
  9
$MEASUREMENT
 70
     0
  9
$CELWEIGHT
370
    -1
  9
$ENDCAPS
280
     0
  9
$JOINSTYLE
280
     0
  9
$LWDISPLAY
290
     0
  9
$INSUNITS
 70
     0
  9
$HYPERLINKBASE
  1

  9
$STYLESHEET
  1
monochrome 1.ctb
  9
$XEDIT
290
     1
  9
$CEPSNTYPE
380
     0
  9
$PSTYLEMODE
290
     1
  9
$FINGERPRINTGUID
  2
{7AADB5C8-6110-11D8-B72B-000102183313}
  9
$VERSIONGUID
  2
{2BD5A111-36E7-447A-B8D2-81EBCA3EBBE4}
  9
$EXTNAMES
290
     1
  9
$PSVPSCALE
 40
0.0
  9
$OLESTARTUP
290
     0
  9
$SORTENTS
280
    96
  9
$INDEXCTL
280
     0
  9
$HIDETEXT
280
     0
  9
$XCLIPFRAME
290
     0
  9
$HALOGAP
280
     0
  9
$OBSCOLOR
 70
   257
  9
$OBSLTYPE
280
     0
  9
$INTERSECTIONDISPLAY
280
     0
  9
$INTERSECTIONCOLOR
 70
   257
  9
$DIMASSOC
280
     1
  9
$PROJECTNAME
  1

  0
ENDSEC
  0
SECTION
  2
CLASSES
  0
CLASS
  1
ACDBDICTIONARYWDFLT
  2
AcDbDictionaryWithDefault
  3
ObjectDBX Classes
 90
        0
 91
        1
280
     0
281
     0
  0
CLASS
  1
DICTIONARYVAR
  2
AcDbDictionaryVar
  3
ObjectDBX Classes
 90
        0
 91
        3
280
     0
281
     0
  0
ENDSEC
  0
SECTION
  2
TABLES
  0
TABLE
  2
VPORT
  5
8
330
0
100
AcDbSymbolTable
 70
     3
  0
VPORT
  5
13BD
330
8
100
AcDbSymbolTableRecord
100
AcDbViewportTableRecord
  2
*Active
 70
     0
 10
0.0
 20
0.0
 11
1.0
 21
1.0
 12
524.9999999999998
 22
742.4999999999999
 13
0.0
 23
0.0
 14
1.0
 24
1.0
 15
10.0
 25
10.0
 16
0.0
 26
0.0
 36
1.0
 17
0.0
 27
0.0
 37
0.0
 40
1485.0
 41
1.334231805929919
 42
50.0
 43
0.0
 44
0.0
 50
0.0
 51
0.0
 71
     0
 72
  1500
 73
     1
 74
     0
 75
     0
 76
     0
 77
     0
 78
     0
281
     0
 65
     1
110
0.0
120
0.0
130
0.0
111
1.0
121
0.0
131
0.0
112
0.0
122
1.0
132
0.0
 79
     0
146
0.0
  0
ENDTAB
  0
TABLE
  2
LTYPE
  5
5
330
0
100
AcDbSymbolTable
 70
     2
  0
LTYPE
  5
13
330
5
100
AcDbSymbolTableRecord
100
AcDbLinetypeTableRecord
  2
ByBlock
 70
     0
  3

 72
    65
 73
     0
 40
0.0
  0
LTYPE
  5
14
330
5
100
AcDbSymbolTableRecord
100
AcDbLinetypeTableRecord
  2
ByLayer
 70
     0
  3

 72
    65
 73
     0
 40
0.0
  0
LTYPE
  5
15
330
5
100
AcDbSymbolTableRecord
100
AcDbLinetypeTableRecord
  2
Continuous
 70
     0
  3
Solid line
 72
    65
 73
     0
 40
0.0
  0
LTYPE
  5
35
330
5
100
AcDbSymbolTableRecord
100
AcDbLinetypeTableRecord
  2
STRICHPUNKT
 70
     0
  3
__ . __ . __ . __ . __ . __ . __ . __ . __ . __
 72
    65
 73
     4
 40
1.0
 49
0.5
 74
     0
 49
-0.25
 74
     0
 49
0.0
 74
     0
 49
-0.25
 74
     0
  0
ENDTAB
  0
TABLE
  2
LAYER
  5
2
330
0
100
AcDbSymbolTable
 70
     9
  0
LAYER
  5
10
330
2
100
AcDbSymbolTableRecord
100
AcDbLayerTableRecord
  2
0
 70
     0
 62
     7
  6
Continuous
370
    -3
390
F
  0
LAYER
  5
38
330
2
100
AcDbSymbolTableRecord
100
AcDbLayerTableRecord
  2
VOLL
 70
     0
 62
     1
  6
Continuous
370
    -3
390
F
  0
LAYER
  5
39
330
2
100
AcDbSymbolTableRecord
100
AcDbLayerTableRecord
  2
HILF
 70
     0
 62
     2
  6
Continuous
370
    -3
390
F
  0
LAYER
  5
3A
330
2
100
AcDbSymbolTableRecord
100
AcDbLayerTableRecord
  2
MITTEL
 70
     0
 62
     2
  6
STRICHPUNKT
370
    -3
390
F
  0
LAYER
  5
3B
330
2
100
AcDbSymbolTableRecord
100
AcDbLayerTableRecord
  2
BEM
 70
     0
 62
     7
  6
Continuous
370
    -3
390
F
  0
LAYER
  5
3C
330
2
100
AcDbSymbolTableRecord
100
AcDbLayerTableRecord
  2
STEMPEL
 70
     0
 62
     3
  6
Continuous
370
    -3
390
F
  0
LAYER
  5
3D
330
2
100
AcDbSymbolTableRecord
100
AcDbLayerTableRecord
  2
TEXT
 70
     0
 62
     7
  6
Continuous
370
    -3
390
F
  0
LAYER
  5
3E
330
2
100
AcDbSymbolTableRecord
100
AcDbLayerTableRecord
  2
DEFPOINTS
 70
     0
 62
     7
  6
Continuous
290
     0
370
    -3
390
F
  0
LAYER
  5
3F
330
2
100
AcDbSymbolTableRecord
100
AcDbLayerTableRecord
  2
SCHRAFF
 70
     0
 62
     7
  6
Continuous
370
    -3
390
F
  0
ENDTAB
  0
TABLE
  2
STYLE
  5
3
330
0
100
AcDbSymbolTable
 70
     2
  0
STYLE
  5
11
330
3
100
AcDbSymbolTableRecord
100
AcDbTextStyleTableRecord
  2
STANDARD
 70
     0
 40
0.0
 41
0.8
 50
0.0
 71
     0
 42
3.5
  3
simplex.shx
  4

  0
STYLE
  5
34
330
3
100
AcDbSymbolTableRecord
100
AcDbTextStyleTableRecord
  2
GREEKS
 70
     0
 40
0.0
 41
0.8
 50
0.0
 71
     0
 42
2.5
  3
SIMPLEX.shx
  4

  0
ENDTAB
  0
TABLE
  2
VIEW
  5
6
330
0
100
AcDbSymbolTable
 70
     0
  0
ENDTAB
  0
TABLE
  2
UCS
  5
7
330
0
100
AcDbSymbolTable
 70
     0
  0
ENDTAB
  0
TABLE
  2
APPID
  5
9
330
0
100
AcDbSymbolTable
 70
     1
  0
APPID
  5
12
330
9
100
AcDbSymbolTableRecord
100
AcDbRegAppTableRecord
  2
ACAD
 70
     0
  0
ENDTAB
  0
TABLE
  2
DIMSTYLE
  5
A
330
0
100
AcDbSymbolTable
 70
     1
100
AcDbDimStyleTable
 71
     1
340
1CB
  0
DIMSTYLE
105
1CB
102
{ACAD_REACTORS
330
107C
330
1256
330
12EB
330
1377
102
}
330
A
100
AcDbSymbolTableRecord
100
AcDbDimStyleTableRecord
  2
Standard
 70
     0
340
11
  0
ENDTAB
  0
TABLE
  2
BLOCK_RECORD
  5
1
330
0
100
AcDbSymbolTable
 70
     9
  0
BLOCK_RECORD
  5
1E
330
1
100
AcDbSymbolTableRecord
100
AcDbBlockTableRecord
  2
*Model_Space
340
21
  0
BLOCK_RECORD
  5
1A
330
1
100
AcDbSymbolTableRecord
100
AcDbBlockTableRecord
  2
*Paper_Space
340
1D
  0
BLOCK_RECORD
  5
22
330
1
100
AcDbSymbolTableRecord
100
AcDbBlockTableRecord
  2
LOGO
340
0
102
{BLKREFS
331
135
102
}
  0
BLOCK_RECORD
  5
1093
330
1
100
AcDbSymbolTableRecord
100
AcDbBlockTableRecord
  2
*D1
340
0
  0
BLOCK_RECORD
  5
1257
330
1
100
AcDbSymbolTableRecord
100
AcDbBlockTableRecord
  2
*D3
340
0
  0
BLOCK_RECORD
  5
12EC
330
1
100
AcDbSymbolTableRecord
100
AcDbBlockTableRecord
  2
*D7
340
0
  0
BLOCK_RECORD
  5
1378
330
1
100
AcDbSymbolTableRecord
100
AcDbBlockTableRecord
  2
*D8
340
0
  0
ENDTAB
  0
ENDSEC
  0
SECTION
  2
BLOCKS
  0
BLOCK
  5
43
330
1E
100
AcDbEntity
  8
0
100
AcDbBlockBegin
  2
*Model_Space
 70
     0
 10
0.0
 20
0.0
 30
0.0
  3
*Model_Space
  1

  0
ENDBLK
  5
44
330
1E
100
AcDbEntity
  8
0
100
AcDbBlockEnd
  0
BLOCK
  5
41
330
1A
100
AcDbEntity
 67
     1
  8
0
100
AcDbBlockBegin
  2
*Paper_Space
 70
     0
 10
0.0
 20
0.0
 30
0.0
  3
*Paper_Space
  1

  0
ENDBLK
  5
42
330
1A
100
AcDbEntity
 67
     1
  8
0
100
AcDbBlockEnd
  0
BLOCK
  5
45
330
22
100
AcDbEntity
  8
0
100
AcDbBlockBegin
  2
LOGO
 70
     0
 10
0.0
 20
0.0
 30
0.0
  3
LOGO
  1

  0
ARC
  5
46
330
22
100
AcDbEntity
  8
0
100
AcDbCircle
 10
11.59973089678112
 20
-9.271599258481501
 30
0.0
 40
4.5
100
AcDbArc
 50
270.0
 51
231.0575587310159
  0
LINE
  5
47
330
22
100
AcDbEntity
  8
0
100
AcDbLine
 10
3.599730896781125
 20
-4.771599258481529
 30
0.0
 11
3.599730896781153
 21
-11.77159925848133
 31
0.0
  0
LINE
  5
48
330
22
100
AcDbEntity
  8
0
100
AcDbLine
 10
2.599730896781125
 20
-4.771599258481529
 30
0.0
 11
2.599730896781153
 21
-11.77159925848133
 31
0.0
  0
CIRCLE
  5
49
330
22
100
AcDbEntity
  8
0
100
AcDbCircle
 10
11.59973089678112
 20
-9.271599258481501
 30
0.0
 40
3.5
  0
ARC
  5
4A
330
22
100
AcDbEntity
  8
0
100
AcDbCircle
 10
31.59973089678115
 20
-9.271599258481472
 30
0.0
 40
4.5
100
AcDbArc
 50
270.0
 51
231.0575587310182
  0
LINE
  5
4B
330
22
100
AcDbEntity
  8
0
100
AcDbLine
 10
17.59973089678112
 20
-4.771599258481472
 30
0.0
 11
17.59973089678115
 21
-13.77159925848147
 31
0.0
  0
ARC
  5
4C
330
22
100
AcDbEntity
  8
0
100
AcDbCircle
 10
22.59973089678116
 20
-7.271599258481472
 30
0.0
 40
2.5
100
AcDbArc
 50
293.1161887722295
 51
90.0
  0
CIRCLE
  5
4D
330
22
100
AcDbEntity
  8
0
100
AcDbCircle
 10
31.59973089678115
 20
-9.271599258481472
 30
0.0
 40
3.5
  0
ARC
  5
4E
330
22
100
AcDbEntity
  8
0
100
AcDbCircle
 10
4.599730896781153
 20
-11.77159925848133
 30
0.0
 40
1.0
100
AcDbArc
 50
180.0
 51
270.0
  0
ARC
  5
4F
330
22
100
AcDbEntity
  8
0
100
AcDbCircle
 10
4.599730896781153
 20
-11.77159925848133
 30
0.0
 40
2.0
100
AcDbArc
 50
179.9999999999992
 51
270.0
  0
LINE
  5
50
330
22
100
AcDbEntity
  8
0
100
AcDbLine
 10
11.59973089678115
 20
-13.77159925848144
 30
0.0
 11
4.599730896781153
 21
-13.77159925848147
 31
0.0
  0
LINE
  5
51
330
22
100
AcDbEntity
  8
0
100
AcDbLine
 10
8.771303772034769
 20
-12.77159925848136
 30
0.0
 11
4.599730896781153
 21
-12.77159925848133
 31
0.0
  0
LINE
  5
52
330
22
100
AcDbEntity
  8
0
100
AcDbLine
 10
31.59973089678115
 20
-13.77159925848147
 30
0.0
 11
23.6715276665056
 21
-13.77159925848144
 31
0.0
  0
LINE
  5
53
330
22
100
AcDbEntity
  8
0
100
AcDbLine
 10
23.56565672307022
 20
-9.51278021337896
 30
0.0
 11
24.4388546544846
 21
-12.77159925848144
 31
0.0
  0
LINE
  5
54
330
22
100
AcDbEntity
  8
0
100
AcDbLine
 10
22.59973089678116
 20
-9.771599258481472
 30
0.0
 11
18.59973089678112
 21
-9.771599258481472
 31
0.0
  0
LINE
  5
55
330
22
100
AcDbEntity
  8
0
100
AcDbLine
 10
18.59973089678115
 20
-13.77159925848144
 30
0.0
 11
17.59973089678115
 21
-13.77159925848144
 31
0.0
  0
LINE
  5
56
330
22
100
AcDbEntity
  8
0
100
AcDbLine
 10
18.59973089678115
 20
-9.771599258481472
 30
0.0
 11
18.59973089678115
 21
-13.77159925848144
 31
0.0
  0
LINE
  5
57
330
22
100
AcDbEntity
  8
0
100
AcDbLine
 10
22.59973089678116
 20
-9.771599258481472
 30
0.0
 11
23.67152766650562
 21
-13.77159925848147
 31
0.0
  0
ARC
  5
58
330
22
100
AcDbEntity
  8
0
100
AcDbCircle
 10
22.59973089678116
 20
-7.271599258481472
 30
0.0
 40
2.5
100
AcDbArc
 50
270.0
 51
270.0000000000007
  0
LINE
  5
59
330
22
100
AcDbEntity
  8
0
100
AcDbLine
 10
28.77130377203494
 20
-12.77159925848147
 30
0.0
 11
24.43885465448463
 21
-12.77159925848144
 31
0.0
  0
LINE
  5
5A
330
22
100
AcDbEntity
  8
0
100
AcDbLine
 10
3.599730896781125
 20
-4.771599258481472
 30
0.0
 11
2.599730896781125
 21
-4.771599258481472
 31
0.0
  0
LINE
  5
5B
330
22
100
AcDbEntity
  8
0
100
AcDbLine
 10
22.59973089678116
 20
-8.771599258481472
 30
0.0
 11
18.59973089678115
 21
-8.771599258481472
 31
0.0
  0
LINE
  5
5C
330
22
100
AcDbEntity
  8
0
100
AcDbLine
 10
22.59973089678116
 20
-5.771599258481472
 30
0.0
 11
18.59973089678115
 21
-5.771599258481472
 31
0.0
  0
LINE
  5
5D
330
22
100
AcDbEntity
  8
0
100
AcDbLine
 10
22.59973089678116
 20
-4.771599258481472
 30
0.0
 11
17.59973089678115
 21
-4.771599258481472
 31
0.0
  0
LINE
  5
5E
330
22
100
AcDbEntity
  8
0
100
AcDbLine
 10
18.59973089678115
 20
-5.771599258481472
 30
0.0
 11
18.59973089678115
 21
-8.771599258481472
 31
0.0
  0
ARC
  5
5F
330
22
100
AcDbEntity
  8
0
100
AcDbCircle
 10
22.59973089678116
 20
-7.271599258481472
 30
0.0
 40
1.5
100
AcDbArc
 50
270.0
 51
90.0
  0
ENDBLK
  5
60
330
22
100
AcDbEntity
  8
0
100
AcDbBlockEnd
  0
BLOCK
  5
109D
330
1093
100
AcDbEntity
  8
0
100
AcDbBlockBegin
  2
*D1
 70
     1
 10
0.0
 20
0.0
 30
0.0
  3
*D1
  1

  0
LINE
  5
11EC
330
1093
100
AcDbEntity
  8
BEM
 62
     0
370
    -2
100
AcDbLine
 10
414.9247625504519
 20
646.730966284241
 30
0.0
 11
414.9247625504519
 21
593.5889844968981
 31
0.0
  0
LINE
  5
11ED
330
1093
100
AcDbEntity
  8
BEM
 62
     0
370
    -2
100
AcDbLine
 10
573.9247625504519
 20
646.73096628424
 30
0.0
 11
573.9247625504519
 21
593.5889844968981
 31
0.0
  0
LINE
  5
11EE
330
1093
100
AcDbEntity
  8
BEM
 62
     0
370
    -2
100
AcDbLine
 10
432.4247625504519
 20
598.5889844968981
 30
0.0
 11
556.424762550452
 21
598.5889844968981
 31
0.0
  0
SOLID
  5
11EF
330
1093
100
AcDbEntity
  8
BEM
 62
     0
100
AcDbTrace
 10
432.4247625504519
 20
601.5056511635647
 30
0.0
 11
432.4247625504519
 21
595.6723178302314
 31
0.0
 12
414.9247625504519
 22
598.5889844968981
 32
0.0
 13
414.9247625504519
 23
598.5889844968981
 33
0.0
  0
SOLID
  5
11F0
330
1093
100
AcDbEntity
  8
BEM
 62
     0
100
AcDbTrace
 10
556.424762550452
 20
601.5056511635647
 30
0.0
 11
556.424762550452
 21
595.6723178302314
 31
0.0
 12
573.9247625504519
 22
598.5889844968981
 32
0.0
 13
573.9247625504519
 23
598.5889844968981
 33
0.0
  0
MTEXT
  5
11F1
330
1093
100
AcDbEntity
  8
BEM
 62
     1
100
AcDbMText
 10
494.4247625504519
 20
614.838984496898
 30
0.0
 40
17.5
 41
0.0
 71
     5
 72
     1
  1
\A1;%%c159
 73
     1
 44
1.0
  0
POINT
  5
11F2
330
1093
100
AcDbEntity
  8
DEFPOINTS
 62
     0
100
AcDbPoint
 10
414.9247625504519
 20
651.730966284241
 30
0.0
  0
POINT
  5
11F3
330
1093
100
AcDbEntity
  8
DEFPOINTS
 62
     0
100
AcDbPoint
 10
573.9247625504519
 20
651.73096628424
 30
0.0
  0
POINT
  5
11F4
330
1093
100
AcDbEntity
  8
DEFPOINTS
 62
     0
100
AcDbPoint
 10
573.9247625504519
 20
598.5889844968981
 30
0.0
  0
ENDBLK
  5
109E
330
1093
100
AcDbEntity
  8
0
100
AcDbBlockEnd
  0
BLOCK
  5
1261
330
1257
100
AcDbEntity
  8
0
100
AcDbBlockBegin
  2
*D3
 70
     1
 10
0.0
 20
0.0
 30
0.0
  3
*D3
  1

  0
LINE
  5
13B3
330
1257
100
AcDbEntity
  8
BEM
 62
     0
370
    -2
100
AcDbLine
 10
410.799649185711
 20
641.7309662842405
 30
0.0
 11
367.1164673746452
 21
641.7309662842405
 31
0.0
  0
LINE
  5
13B4
330
1257
100
AcDbEntity
  8
BEM
 62
     0
370
    -2
100
AcDbLine
 10
489.4247625504516
 20
962.7309662842405
 30
0.0
 11
367.1164673746452
 21
962.7309662842405
 31
0.0
  0
LINE
  5
13B5
330
1257
100
AcDbEntity
  8
BEM
 62
     0
370
    -2
100
AcDbLine
 10
372.1164673746452
 20
659.2309662842405
 30
0.0
 11
372.1164673746453
 21
945.2309662842406
 31
0.0
  0
SOLID
  5
13B6
330
1257
100
AcDbEntity
  8
BEM
 62
     0
100
AcDbTrace
 10
369.1998007079785
 20
659.2309662842405
 30
0.0
 11
375.0331340413119
 21
659.2309662842405
 31
0.0
 12
372.1164673746452
 22
641.7309662842405
 32
0.0
 13
372.1164673746452
 23
641.7309662842405
 33
0.0
  0
SOLID
  5
13B7
330
1257
100
AcDbEntity
  8
BEM
 62
     0
100
AcDbTrace
 10
369.1998007079785
 20
945.2309662842406
 30
0.0
 11
375.0331340413119
 21
945.2309662842406
 31
0.0
 12
372.1164673746453
 22
962.7309662842405
 32
0.0
 13
372.1164673746453
 23
962.7309662842405
 33
0.0
  0
MTEXT
  5
13B8
330
1257
100
AcDbEntity
  8
BEM
 62
     1
100
AcDbMText
 10
355.8664673746451
 20
802.2309662842406
 30
0.0
 40
17.5
 41
0.0
 71
     5
 72
     1
  1
\A1;321
 11
0.0000000000000001
 21
1.0
 31
0.0
 73
     1
 44
1.0
  0
POINT
  5
13B9
330
1257
100
AcDbEntity
  8
DEFPOINTS
 62
     0
100
AcDbPoint
 10
415.799649185711
 20
641.7309662842405
 30
0.0
  0
POINT
  5
13BA
330
1257
100
AcDbEntity
  8
DEFPOINTS
 62
     0
100
AcDbPoint
 10
494.4247625504516
 20
962.7309662842405
 30
0.0
  0
POINT
  5
13BB
330
1257
100
AcDbEntity
  8
DEFPOINTS
 62
     0
100
AcDbPoint
 10
372.1164673746453
 20
962.7309662842405
 30
0.0
  0
ENDBLK
  5
1262
330
1257
100
AcDbEntity
  8
0
100
AcDbBlockEnd
  0
BLOCK
  5
12F7
330
12EC
100
AcDbEntity
  8
0
100
AcDbBlockBegin
  2
*D7
 70
     1
 10
0.0
 20
0.0
 30
0.0
  3
*D7
  1

  0
LINE
  5
130C
330
12EC
100
AcDbEntity
  8
BEM
 62
     0
370
    -2
100
AcDbLine
 10
494.4247625504515
 20
967.7309662842406
 30
0.0
 11
494.4247625504515
 21
1114.127934071353
 31
0.0
  0
ARC
  5
130D
330
12EC
100
AcDbEntity
  8
BEM
 62
     0
370
    -2
100
AcDbCircle
 10
494.4247625504516
 20
962.7309662842405
 30
0.0
 40
146.3969677871121
100
AcDbArc
 50
9.853107004582225
 51
83.14689299541781
  0
SOLID
  5
130E
330
12EC
100
AcDbEntity
  8
BEM
 62
     0
100
AcDbTrace
 10
641.5606712941034
 20
988.1092852326188
 30
0.0
 11
635.7639937372407
 21
987.4563632774512
 31
0.0
 12
640.6210983811757
 22
970.3927915844465
 32
0.0
 13
640.6210983811757
 23
970.3927915844465
 33
0.0
  0
SOLID
  5
130F
330
12EC
100
AcDbEntity
  8
BEM
 62
     0
100
AcDbTrace
 10
511.7191504276003
 20
1105.170524261999
 30
0.0
 11
512.0678029129504
 21
1110.993428968607
 31
0.0
 12
494.4247625504515
 22
1109.127934071352
 32
0.0
 13
494.4247625504515
 23
1109.127934071352
 33
0.0
  0
MTEXT
  5
1310
330
12EC
100
AcDbEntity
  8
BEM
 62
     1
100
AcDbMText
 10
606.3995559672812
 20
1080.695714279564
 30
0.0
 40
17.5
 41
0.0
 71
     5
 72
     1
  1
\A1;87°
 11
0.7252809542058434
 21
-0.6884530030919044
 31
0.0
 73
     1
 44
1.0
  0
POINT
  5
1311
330
12EC
100
AcDbEntity
  8
DEFPOINTS
 62
     0
100
AcDbPoint
 10
565.3994209085366
 20
1090.7726393763
 30
0.0
  0
POINT
  5
1312
330
12EC
100
AcDbEntity
  8
DEFPOINTS
 62
     0
100
AcDbPoint
 10
494.4247625504516
 20
962.7309662842405
 30
0.0
  0
POINT
  5
1313
330
12EC
100
AcDbEntity
  8
DEFPOINTS
 62
     0
100
AcDbPoint
 10
819.9779908804426
 20
979.7924880194404
 30
0.0
  0
POINT
  5
1314
330
12EC
100
AcDbEntity
  8
DEFPOINTS
 62
     0
100
AcDbPoint
 10
494.4247625504516
 20
962.7309662842405
 30
0.0
  0
POINT
  5
1315
330
12EC
100
AcDbEntity
  8
DEFPOINTS
 62
     0
100
AcDbPoint
 10
494.4247625504516
 20
636.7309662842408
 30
0.0
  0
ENDBLK
  5
12F8
330
12EC
100
AcDbEntity
  8
0
100
AcDbBlockEnd
  0
BLOCK
  5
1382
330
1378
100
AcDbEntity
  8
0
100
AcDbBlockBegin
  2
*D8
 70
     1
 10
0.0
 20
0.0
 30
0.0
  3
*D8
  1

  0
LINE
  5
1379
330
1378
100
AcDbEntity
  8
SCHRAFF
 62
     0
370
    -2
100
AcDbLine
 10
494.1630827692369
 20
967.7241139580134
 30
0.0
 11
485.2607795686514
 21
1137.590178163983
 31
0.0
  0
LINE
  5
137A
330
1378
100
AcDbEntity
  8
SCHRAFF
 62
     0
370
    -2
100
AcDbLine
 10
810.2403235933186
 20
1070.06163549819
 30
0.0
 11
805.8208602248699
 21
1154.390020117969
 31
0.0
  0
LINE
  5
137B
330
1378
100
AcDbEntity
  8
SCHRAFF
 62
     0
370
    -2
100
AcDbLine
 10
502.9984762080712
 20
1133.512909724462
 30
0.0
 11
788.6065231478795
 21
1148.480993209944
 31
0.0
  0
SOLID
  5
137C
330
1378
100
AcDbEntity
  8
SCHRAFF
 62
     0
100
AcDbTrace
 10
502.8458296690293
 20
1136.42557920083
 30
0.0
 11
503.1511227471131
 21
1130.600240248095
 31
0.0
 12
485.5224593498661
 22
1132.59703049021
 32
0.0
 13
485.5224593498661
 23
1132.59703049021
 33
0.0
  0
SOLID
  5
137D
330
1378
100
AcDbEntity
  8
SCHRAFF
 62
     0
100
AcDbTrace
 10
788.4538766088376
 20
1151.393662686312
 30
0.0
 11
788.7591696869215
 21
1145.568323733576
 31
0.0
 12
806.0825400060846
 22
1149.396872444196
 32
0.0
 13
806.0825400060846
 23
1149.396872444196
 33
0.0
  0
MTEXT
  5
137E
330
1378
100
AcDbEntity
  8
SCHRAFF
 62
     1
100
AcDbMText
 10
644.9520403890275
 20
1157.224681406965
 30
0.0
 40
17.5
 41
0.0
 71
     5
 72
     1
  1
\A1;321
 11
0.9986295347545739
 21
0.0523359562429444
 31
0.0
 73
     1
 44
1.0
  0
POINT
  5
137F
330
1378
100
AcDbEntity
  8
DEFPOINTS
 62
     0
100
AcDbPoint
 10
494.4247625504516
 20
962.7309662842405
 30
0.0
  0
POINT
  5
1380
330
1378
100
AcDbEntity
  8
DEFPOINTS
 62
     0
100
AcDbPoint
 10
810.5020033745333
 20
1065.068487824418
 30
0.0
  0
POINT
  5
1381
330
1378
100
AcDbEntity
  8
DEFPOINTS
 62
     0
100
AcDbPoint
 10
806.0825400060846
 20
1149.396872444196
 30
0.0
  0
ENDBLK
  5
1383
330
1378
100
AcDbEntity
  8
0
100
AcDbBlockEnd
  0
ENDSEC
  0
SECTION
  2
ENTITIES
  0
TEXT
  5
134
330
1E
100
AcDbEntity
  8
TEXT
100
AcDbText
 10
511.0540121453142
 20
157.7240979930877
 30
0.0
 40
10.0
  1
Koeh
 41
0.8
  7
GREEKS
 72
     1
 11
524.1968692881714
 21
157.7240979930877
 31
0.0
100
AcDbText
  0
INSERT
  5
135
330
1E
100
AcDbEntity
  8
STEMPEL
100
AcDbBlockReference
  2
LOGO
 10
377.4888713644485
 20
112.552631911208
 30
0.0
 41
5.0
 42
5.0
 43
5.0
  0
LINE
  5
136
330
1E
100
AcDbEntity
  8
HILF
100
AcDbLine
 10
1050.0
 20
0.0
 30
0.0
 11
0.0
 21
0.0
 31
0.0
  0
LINE
  5
137
330
1E
100
AcDbEntity
  8
HILF
100
AcDbLine
 10
1050.0
 20
1485.0
 30
0.0
 11
0.0
 21
1485.0
 31
0.0
  0
LINE
  5
138
330
1E
100
AcDbEntity
  8
STEMPEL
100
AcDbLine
 10
1025.0
 20
1460.0
 30
0.0
 11
99.99999999999971
 21
1460.0
 31
0.0
  0
LINE
  5
139
330
1E
100
AcDbEntity
  8
STEMPEL
100
AcDbLine
 10
1025.0
 20
25.0
 30
0.0
 11
99.99999999999971
 21
25.0
 31
0.0
  0
LINE
  5
13A
330
1E
100
AcDbEntity
  8
STEMPEL
100
AcDbLine
 10
124.9999999999997
 20
25.0
 30
0.0
 11
1025.0
 21
25.0
 31
0.0
  0
TEXT
  5
13B
330
1E
100
AcDbEntity
  8
TEXT
100
AcDbText
 10
506.1566460565737
 20
183.2740272978806
 30
0.0
 40
10.0
  1
Name
 41
0.8
  7
GREEKS
100
AcDbText
  0
TEXT
  5
13C
330
1E
100
AcDbEntity
  8
TEXT
100
AcDbText
 10
491.3745697753872
 20
256.6265569441474
 30
0.0
 40
12.5
  1
Zul. Abw.
 41
0.8
  7
GREEKS
 72
     4
 11
524.9459983468158
 21
262.8765569441474
 31
0.0
100
AcDbText
  0
LINE
  5
13D
330
1E
100
AcDbEntity
  8
HILF
100
AcDbLine
 10
365.0000000000003
 20
124.9999999999999
 30
0.0
 11
575.0
 21
124.9999999999999
 31
0.0
  0
LINE
  5
13E
330
1E
100
AcDbEntity
  8
HILF
100
AcDbLine
 10
365.0000000000003
 20
149.9999999999999
 30
0.0
 11
575.0
 21
149.9999999999999
 31
0.0
  0
LINE
  5
13F
330
1E
100
AcDbEntity
  8
HILF
100
AcDbLine
 10
365.0000000000003
 20
174.9999999999998
 30
0.0
 11
575.0
 21
174.9999999999998
 31
0.0
  0
LINE
  5
140
330
1E
100
AcDbEntity
  8
STEMPEL
100
AcDbLine
 10
1025.0
 20
200.0
 30
0.0
 11
365.0000000000003
 21
199.9999999999998
 31
0.0
  0
LINE
  5
141
330
1E
100
AcDbEntity
  8
STEMPEL
100
AcDbLine
 10
1025.0
 20
100.0
 30
0.0
 11
365.0000000000003
 21
99.99999999999992
 31
0.0
  0
LINE
  5
142
330
1E
100
AcDbEntity
  8
STEMPEL
100
AcDbLine
 10
1025.0
 20
275.0000000000001
 30
0.0
 11
99.99999999999992
 21
275.0
 31
0.0
  0
LINE
  5
144
330
1E
100
AcDbEntity
  8
HILF
100
AcDbLine
 10
0.0
 20
0.0
 30
0.0
 11
-0.0000000000002842
 21
1485.0
 31
0.0
  0
LINE
  5
145
330
1E
100
AcDbEntity
  8
STEMPEL
100
AcDbLine
 10
100.0
 20
25.0
 30
0.0
 11
99.99999999999971
 21
1460.0
 31
0.0
  0
LINE
  5
148
330
1E
100
AcDbEntity
  8
HILF
100
AcDbLine
 10
100.0000000000002
 20
99.99999999999992
 30
0.0
 11
365.0000000000003
 21
99.99999999999992
 31
0.0
  0
LINE
  5
149
330
1E
100
AcDbEntity
  8
HILF
100
AcDbLine
 10
100.0000000000002
 20
124.9999999999999
 30
0.0
 11
365.0000000000003
 21
124.9999999999999
 31
0.0
  0
LINE
  5
14A
330
1E
100
AcDbEntity
  8
HILF
100
AcDbLine
 10
100.0000000000002
 20
149.9999999999999
 30
0.0
 11
365.0000000000003
 21
149.9999999999999
 31
0.0
  0
LINE
  5
14B
330
1E
100
AcDbEntity
  8
HILF
100
AcDbLine
 10
100.0000000000002
 20
174.9999999999998
 30
0.0
 11
365.0000000000003
 21
174.9999999999998
 31
0.0
  0
LINE
  5
14C
330
1E
100
AcDbEntity
  8
HILF
100
AcDbLine
 10
100.0000000000002
 20
199.9999999999998
 30
0.0
 11
365.0000000000003
 21
199.9999999999998
 31
0.0
  0
LINE
  5
14D
330
1E
100
AcDbEntity
  8
HILF
100
AcDbLine
 10
100.0000000000002
 20
225.0000000000001
 30
0.0
 11
365.0000000000003
 21
225.0000000000001
 31
0.0
  0
LINE
  5
14E
330
1E
100
AcDbEntity
  8
HILF
100
AcDbLine
 10
100.0000000000002
 20
250.0000000000001
 30
0.0
 11
365.0000000000003
 21
250.0000000000001
 31
0.0
  0
LINE
  5
14F
330
1E
100
AcDbEntity
  8
STEMPEL
100
AcDbLine
 10
364.9999999999997
 20
74.99999999999992
 30
0.0
 11
99.99999999999992
 21
74.99999999999992
 31
0.0
  0
TEXT
  5
150
330
1E
100
AcDbEntity
  8
TEXT
100
AcDbText
 10
120.6660276761439
 20
34.13664615067979
 30
0.0
 40
10.0
  1
Index
 50
90.0
 41
0.8
  7
GREEKS
100
AcDbText
  0
LINE
  5
151
330
1E
100
AcDbEntity
  8
VOLL
100
AcDbLine
 10
135.0000000000002
 20
275.0000000000001
 30
0.0
 11
134.9999999999999
 21
24.99999999999993
 31
0.0
  0
LINE
  5
152
330
1E
100
AcDbEntity
  8
HILF
100
AcDbLine
 10
77.7191783928464
 20
742.5000000000001
 30
0.0
 11
0.0000000000002842
 21
742.5000000000001
 31
0.0
  0
LINE
  5
154
330
1E
100
AcDbEntity
  8
VOLL
100
AcDbLine
 10
310.0000000000003
 20
274.9999999999999
 30
0.0
 11
310.0
 21
24.99999999999993
 31
0.0
  0
LINE
  5
155
330
1E
100
AcDbEntity
  8
VOLL
100
AcDbLine
 10
260.0000000000003
 20
274.9999999999999
 30
0.0
 11
260.0
 21
24.99999999999993
 31
0.0
  0
LINE
  5
157
330
1E
100
AcDbEntity
  8
STEMPEL
100
AcDbLine
 10
365.0000000000003
 20
274.9999999999999
 30
0.0
 11
365.0
 21
24.99999999999993
 31
0.0
  0
TEXT
  5
159
330
1E
100
AcDbEntity
  8
TEXT
100
AcDbText
 10
430.8279182884127
 20
183.2970125307481
 30
0.0
 40
10.0
  1
Tag
 41
0.8
  7
GREEKS
100
AcDbText
  0
TEXT
  5
15A
330
1E
100
AcDbEntity
  8
TEXT
100
AcDbText
 10
368.9590317919039
 20
159.0747592404491
 30
0.0
 40
10.0
  1
Gez.
 41
0.8
  7
GREEKS
100
AcDbText
  0
LINE
  5
15B
330
1E
100
AcDbEntity
  8
VOLL
100
AcDbLine
 10
410.0000000000003
 20
199.9999999999998
 30
0.0
 11
410.0000000000003
 21
99.99999999999992
 31
0.0
  0
TEXT
  5
15C
330
1E
100
AcDbEntity
  8
TEXT
100
AcDbText
 10
369.0016943468259
 20
108.8236597412452
 30
0.0
 40
10.0
  1
Norm.
 41
0.8
  7
GREEKS
100
AcDbText
  0
TEXT
  5
15D
330
1E
100
AcDbEntity
  8
TEXT
100
AcDbText
 10
368.8787716429181
 20
134.2231572857094
 30
0.0
 40
10.0
  1
Gepr.
 41
0.8
  7
GREEKS
100
AcDbText
  0
TEXT
  5
15E
330
1E
100
AcDbEntity
  8
TEXT
 62
     1
100
AcDbText
 10
401.2515766204717
 20
220.372535722849
 30
0.0
 40
17.5
  1
1:5
 41
0.8
  7
GREEKS
100
AcDbText
  0
TEXT
  5
160
330
1E
100
AcDbEntity
  8
TEXT
100
AcDbText
 10
371.55527455526
 20
182.8506367787916
 30
0.0
 40
10.0
  1
2011
 41
0.8
  7
GREEKS
100
AcDbText
  0
LINE
  5
161
330
1E
100
AcDbEntity
  8
VOLL
100
AcDbLine
 10
475.0000000000002
 20
274.9999999999996
 30
0.0
 11
475.0
 21
99.99999999999992
 31
0.0
  0
LINE
  5
186
330
1E
100
AcDbEntity
  8
HILF
100
AcDbLine
 10
1050.0
 20
-0.0000000000002842
 30
0.0
 11
1050.0
 21
1485.0
 31
0.0
  0
LINE
  5
187
330
1E
100
AcDbEntity
  8
STEMPEL
100
AcDbLine
 10
1025.0
 20
25.0
 30
0.0
 11
1025.0
 21
1460.0
 31
0.0
  0
TEXT
  5
188
330
1E
100
AcDbEntity
  8
TEXT
100
AcDbText
 10
843.1002153742515
 20
130.185404446965
 30
0.0
 40
12.5
  1
ersetzt durch:
 41
0.8
  7
GREEKS
100
AcDbText
  0
TEXT
  5
18A
330
1E
100
AcDbEntity
  8
TEXT
100
AcDbText
 10
840.4468873940851
 20
255.7830086342841
 30
0.0
 40
12.5
  1
Zeichnungs Nr.
 41
0.8
  7
GREEKS
100
AcDbText
  0
LINE
  5
18B
330
1E
100
AcDbEntity
  8
HILF
100
AcDbLine
 10
583.7274248224712
 20
37.23495645070784
 30
0.0
 11
1012.147209831682
 21
37.23495645070784
 31
0.0
  0
LINE
  5
18C
330
1E
100
AcDbEntity
  8
HILF
100
AcDbLine
 10
841.8096540742482
 20
209.4495909238957
 30
0.0
 11
1012.147209831682
 21
209.4495909238957
 31
0.0
  0
LINE
  5
18D
330
1E
100
AcDbEntity
  8
VOLL
100
AcDbLine
 10
830.0
 20
150.0
 30
0.0
 11
1025.0
 21
150.0
 31
0.0
  0
TEXT
  5
18E
330
1E
100
AcDbEntity
  8
TEXT
 62
     1
100
AcDbText
 10
587.3209660800035
 20
218.5437197313445
 30
0.0
 40
17.5
  1
Bogen DN150 87°
 41
0.8
  7
GREEKS
100
AcDbText
  0
LINE
  5
18F
330
1E
100
AcDbEntity
  8
HILF
100
AcDbLine
 10
586.9342002742369
 20
124.9999999999999
 30
0.0
 11
812.0884791390775
 21
124.9999999999999
 31
0.0
  0
LINE
  5
190
330
1E
100
AcDbEntity
  8
HILF
100
AcDbLine
 10
586.9342002742369
 20
149.9999999999999
 30
0.0
 11
812.0884791390775
 21
149.9999999999999
 31
0.0
  0
LINE
  5
191
330
1E
100
AcDbEntity
  8
HILF
100
AcDbLine
 10
586.9342002742369
 20
174.9999999999998
 30
0.0
 11
812.0884791390775
 21
174.9999999999998
 31
0.0
  0
LINE
  5
192
330
1E
100
AcDbEntity
  8
HILF
100
AcDbLine
 10
586.9342002742369
 20
210.0939561891034
 30
0.0
 11
812.0884791390777
 21
210.0939561891034
 31
0.0
  0
LINE
  5
193
330
1E
100
AcDbEntity
  8
STEMPEL
100
AcDbLine
 10
575.0
 20
275.0000000000001
 30
0.0
 11
575.0
 21
24.99999999999993
 31
0.0
  0
TEXT
  5
195
330
1E
100
AcDbEntity
  8
TEXT
100
AcDbText
 10
587.4593753944567
 20
106.5743538255658
 30
0.0
 40
10.0
  1
5300150W.DWG
 41
0.8
  7
GREEKS
100
AcDbText
  0
TEXT
  5
196
330
1E
100
AcDbEntity
  8
TEXT
100
AcDbText
 10
586.8555959778399
 20
77.11401425482641
 30
0.0
 40
12.5
  1
Bauvorhaben
 41
0.8
  7
GREEKS
100
AcDbText
  0
TEXT
  5
197
330
1E
100
AcDbEntity
  8
TEXT
100
AcDbText
 10
587.1948509522525
 20
256.3723320029449
 30
0.0
 40
12.5
  1
Benennung
 41
0.8
  7
GREEKS
100
AcDbText
  0
LINE
  5
198
330
1E
100
AcDbEntity
  8
STEMPEL
100
AcDbLine
 10
830.0
 20
274.9999999999994
 30
0.0
 11
830.0
 21
100.0
 31
0.0
  0
TEXT
  5
19A
330
1E
100
AcDbEntity
  8
TEXT
 62
     1
100
AcDbText
 10
873.3727043824819
 20
220.372535722849
 30
0.0
 40
17.5
  1
5300150W
 41
0.8
  7
GREEKS
 72
     1
 11
925.372704382482
 21
220.372535722849
 31
0.0
100
AcDbText
  0
TEXT
  5
212
330
1E
100
AcDbEntity
  8
TEXT
100
AcDbText
 10
587.8240977813288
 20
128.7583604396323
 30
0.0
 40
12.5
  1
EDV-Art.Nr. 5.300.150C
 41
0.8
  7
GREEKS
100
AcDbText
  0
LINE
  5
EFF
102
{ACAD_REACTORS
330
133C
102
}
330
1E
100
AcDbEntity
  8
STEMPEL
100
AcDbLine
 10
573.9247625504516
 20
812.2125978992391
 30
0.0
 11
573.9247625504515
 21
651.7309662842396
 31
0.0
  0
LINE
  5
F3D
102
{ACAD_REACTORS
330
1333
102
}
330
1E
100
AcDbEntity
  8
STEMPEL
100
AcDbLine
 10
414.9247625504518
 20
875.6471657090605
 30
0.0
 11
414.9247625504519
 21
651.730966284241
 31
0.0
  0
LINE
  5
107B
330
1E
100
AcDbEntity
  8
STEMPEL
100
AcDbLine
 10
573.0498759151925
 20
641.7309662842406
 30
0.0
 11
415.799649185711
 21
641.7309662842405
 31
0.0
  0
DIMENSION
  5
107C
330
1E
100
AcDbEntity
  8
BEM
100
AcDbDimension
  2
*D1
 10
573.9247625504519
 20
598.5889844968981
 30
0.0
 11
494.4247625504519
 21
614.838984496898
 31
0.0
 70
    32
  1
%%c<>
 71
     5
 42
159.0000000000001
  3
Standard
100
AcDbAlignedDimension
 13
414.9247625504519
 23
651.730966284241
 33
0.0
 14
573.9247625504519
 24
651.73096628424
 34
0.0
100
AcDbRotatedDimension
1001
ACAD
1000
DSTYLE
1002
{
1070
    40
1040
5.0
1070
    41
1040
3.5
1070
    42
1040
1.0
1070
    43
1040
7.0
1070
    44
1040
1.0
1070
    73
1070
     0
1070
    74
1070
     0
1070
    77
1070
     1
1070
    78
1070
     8
1070
    79
1070
     2
1070
   140
1040
3.5
1070
   141
1040
1.5
1070
   146
1040
0.5142857142857144
1070
   147
1040
1.5
1070
   172
1070
     1
1070
   178
1070
     1
1070
   179
1070
     2
1070
   271
1070
     2
1070
   272
1070
     2
1070
   284
1070
     8
1070
   285
1070
     8
1070
   286
1070
     8
1002
}
  0
LINE
  5
107D
330
1E
100
AcDbEntity
  8
HILF
100
AcDbLine
 10
572.4247625504515
 20
651.73096628424
 30
0.0
 11
416.4247625504518
 21
651.7309662842413
 31
0.0
  0
LINE
  5
107F
330
1E
100
AcDbEntity
  8
STEMPEL
100
AcDbLine
 10
414.9247625504519
 20
651.730966284241
 30
0.0
 11
415.799649185711
 21
641.730966284241
 31
0.0
  0
LINE
  5
1084
330
1E
100
AcDbEntity
  8
STEMPEL
100
AcDbLine
 10
573.9247625504515
 20
651.7309662842405
 30
0.0
 11
573.0498759151924
 21
641.73096628424
 31
0.0
  0
LINE
  5
1086
330
1E
100
AcDbEntity
  8
MITTEL
100
AcDbLine
 10
494.4247625504516
 20
962.7309662842405
 30
0.0
 11
494.4247625504516
 21
636.7309662842408
 31
0.0
  0
TEXT
  5
1179
330
1E
100
AcDbEntity
  8
TEXT
 62
     1
100
AcDbText
 10
742.6434123389265
 20
330.562165920503
 30
0.0
 40
17.5
  1
Werkstoff: 1.4404
 41
0.8
  7
GREEKS
100
AcDbText
  0
LINE
  5
1207
330
1E
100
AcDbEntity
  8
STEMPEL
100
AcDbLine
 10
733.5840633483377
 20
895.6556726271081
 30
0.0
 11
648.897559264097
 21
891.2174410128088
 31
0.0
  0
LINE
  5
1209
330
1E
100
AcDbEntity
  8
STEMPEL
100
AcDbLine
 10
725.2626463057096
 20
1054.437768653085
 30
0.0
 11
577.2285092821894
 21
1046.679628273601
 31
0.0
  0
LINE
  5
120A
330
1E
100
AcDbEntity
  8
MITTEL
100
AcDbLine
 10
819.9779908804426
 20
979.7924880194402
 30
0.0
 11
494.4247625504516
 21
962.7309662842405
 31
0.0
  0
LINE
  5
120B
330
1E
100
AcDbEntity
  8
HILF
100
AcDbLine
 10
767.8179768169622
 20
894.3415953571509
 30
0.0
 11
759.171664336756
 21
1059.323065636776
 31
0.0
  0
LINE
  5
120C
330
1E
100
AcDbEntity
  8
HILF
100
AcDbLine
 10
743.5942505743656
 20
894.2627744751803
 30
0.0
 11
735.0723991754208
 21
1056.869385850953
 31
0.0
  0
LINE
  5
120D
330
1E
100
AcDbEntity
  8
HILF
100
AcDbLine
 10
736.6538936271236
 20
896.8838985306344
 30
0.0
 11
728.4440442992678
 21
1053.537155741104
 31
0.0
  0
LINE
  5
120E
330
1E
100
AcDbEntity
  8
STEMPEL
100
AcDbLine
 10
819.4676830388067
 20
893.9931286520335
 30
0.0
 11
810.5020033745333
 21
1065.068487824418
 31
0.0
  0
TEXT
  5
120F
330
1E
100
AcDbEntity
  8
TEXT
 62
     1
100
AcDbText
 10
657.8068817293425
 20
998.5079978156575
 30
0.0
 40
17.5
  1
DN150
 50
2.999999999999989
 41
0.8
  7
GREEKS
100
AcDbText
  0
ARC
  5
1210
330
1E
100
AcDbEntity
  8
STEMPEL
100
AcDbCircle
 10
753.1978389781349
 20
1078.933354022843
 30
0.0
 40
19.0
100
AcDbArc
 50
273.0
 51
300.9064081148548
  0
ARC
  5
1211
330
1E
100
AcDbEntity
  8
STEMPEL
100
AcDbCircle
 10
724.73928674328
 20
1064.424064000631
 30
0.0
 40
10.0
100
AcDbArc
 50
273.0
 51
304.5863380965278
  0
ARC
  5
1212
330
1E
100
AcDbEntity
  8
STEMPEL
100
AcDbCircle
 10
740.0657680552304
 20
1042.195726892461
 30
0.0
 40
17.0
100
AcDbArc
 50
93.0
 51
124.5863380965277
  0
LINE
  5
1213
330
1E
100
AcDbEntity
  8
STEMPEL
100
AcDbLine
 10
754.1922221467504
 20
1059.959392862506
 30
0.0
 11
739.1760567991004
 21
1059.172428983289
 31
0.0
  0
LINE
  5
1214
330
1E
100
AcDbEntity
  8
STEMPEL
100
AcDbLine
 10
794.5393011007882
 20
1068.082127747032
 30
0.0
 11
778.2821102803283
 21
1067.230124478751
 31
0.0
  0
ARC
  5
1215
330
1E
100
AcDbEntity
  8
STEMPEL
100
AcDbCircle
 10
780.1212545172306
 20
1033.281825207007
 30
0.0
 40
34.0
100
AcDbArc
 50
93.0
 51
120.3202406357857
  0
LINE
  5
1216
330
1E
100
AcDbEntity
  8
STEMPEL
100
AcDbLine
 10
810.5020033745333
 20
1065.068487824418
 30
0.0
 11
809.0553477891893
 21
1065.652974620648
 31
0.0
  0
ARC
  5
1217
330
1E
100
AcDbEntity
  8
STEMPEL
100
AcDbCircle
 10
796.3187236130485
 20
1034.128723565377
 30
0.0
 40
34.0
100
AcDbArc
 50
68.00000000000739
 51
93.0
  0
ARC
  5
1218
330
1E
100
AcDbEntity
  8
STEMPEL
100
AcDbCircle
 10
763.9267100079384
 20
874.2142993981556
 30
0.0
 40
19.0
100
AcDbArc
 50
65.84565715161867
 51
93.0
  0
ARC
  5
1219
330
1E
100
AcDbEntity
  8
STEMPEL
100
AcDbCircle
 10
734.107422910767
 20
885.6693772795622
 30
0.0
 40
10.0
100
AcDbArc
 50
61.41366190347203
 51
93.0
  0
ARC
  5
121A
330
1E
100
AcDbEntity
  8
STEMPEL
100
AcDbCircle
 10
747.026450235542
 20
909.3779987701029
 30
0.0
 40
17.0
100
AcDbArc
 50
241.4136619034723
 51
273.0
  0
LINE
  5
121B
330
1E
100
AcDbEntity
  8
STEMPEL
100
AcDbLine
 10
762.9323268393221
 20
893.1882605584924
 30
0.0
 11
747.9161614916719
 21
892.4012966792751
 31
0.0
  0
ARC
  5
121C
330
1E
100
AcDbEntity
  8
STEMPEL
100
AcDbCircle
 10
802.1280147560151
 20
923.2808452076191
 30
0.0
 40
34.0
100
AcDbArc
 50
273.0
 51
297.9999999999927
  0
ARC
  5
121D
330
1E
100
AcDbEntity
  8
STEMPEL
100
AcDbCircle
 10
785.930752106729
 20
922.4300076147583
 30
0.0
 40
34.0
100
AcDbArc
 50
245.2594896725498
 51
273.0
  0
LINE
  5
121E
330
1E
100
AcDbEntity
  8
STEMPEL
100
AcDbLine
 10
803.9074372682751
 20
889.3274410259639
 30
0.0
 11
787.650246447815
 21
888.4754377576831
 31
0.0
  0
LINE
  5
121F
330
1E
100
AcDbEntity
  8
STEMPEL
100
AcDbLine
 10
819.4676830388067
 20
893.9931286520335
 30
0.0
 11
818.0900478907352
 21
893.2606270504159
 31
0.0
  0
DIMENSION
  5
1256
330
1E
100
AcDbEntity
  8
BEM
100
AcDbDimension
  2
*D3
 10
372.1164673746453
 20
962.7309662842405
 30
0.0
 11
355.8664673746451
 21
802.2309662842406
 31
0.0
 70
    32
 71
     5
 42
321.0000000000001
  3
Standard
100
AcDbAlignedDimension
 13
415.799649185711
 23
641.7309662842405
 33
0.0
 14
494.4247625504516
 24
962.7309662842405
 34
0.0
 50
90.0
100
AcDbRotatedDimension
1001
ACAD
1000
DSTYLE
1002
{
1070
    40
1040
5.0
1070
    41
1040
3.5
1070
    42
1040
1.0
1070
    43
1040
7.0
1070
    44
1040
1.0
1070
    73
1070
     0
1070
    74
1070
     0
1070
    77
1070
     1
1070
    78
1070
     8
1070
    79
1070
     2
1070
   140
1040
3.5
1070
   141
1040
1.5
1070
   146
1040
0.5142857142857144
1070
   147
1040
1.5
1070
   172
1070
     1
1070
   178
1070
     1
1070
   179
1070
     2
1070
   271
1070
     2
1070
   272
1070
     2
1070
   284
1070
     8
1070
   285
1070
     8
1070
   286
1070
     8
1002
}
  0
LINE
  5
126C
330
1E
100
AcDbEntity
  8
MITTEL
100
AcDbLine
 10
607.9482305736561
 20
963.5586561599719
 30
0.0
 11
494.4247625504515
 21
843.9298818041498
 31
0.0
  0
LINE
  5
126D
102
{ACAD_REACTORS
330
1333
102
}
330
1E
100
AcDbEntity
  8
STEMPEL
100
AcDbLine
 10
577.2285092821895
 20
1046.679628273601
 30
0.0
 11
414.9247625504517
 21
875.6471657090605
 31
0.0
  0
LINE
  5
126E
102
{ACAD_REACTORS
330
133C
102
}
330
1E
100
AcDbEntity
  8
STEMPEL
100
AcDbLine
 10
648.897559264097
 20
891.2174410128088
 30
0.0
 11
573.9247625504516
 21
812.2125978992391
 31
0.0
  0
LINE
  5
126F
330
1E
100
AcDbEntity
  8
STEMPEL
100
AcDbLine
 10
577.2285092821893
 20
1046.679628273601
 30
0.0
 11
648.897559264097
 21
891.2174410128088
 31
0.0
  0
LINE
  5
1271
330
1E
100
AcDbEntity
  8
STEMPEL
100
AcDbLine
 10
414.9247625504518
 20
875.6471657090605
 30
0.0
 11
573.9247625504516
 21
812.2125978992391
 31
0.0
  0
DIMENSION
  5
12EB
330
1E
100
AcDbEntity
  8
BEM
100
AcDbDimension
  2
*D7
 10
494.4247625504516
 20
636.7309662842408
 30
0.0
 11
595.2121946670376
 21
1068.909898773719
 31
0.0
 70
   162
 71
     5
 42
1.518436449235066
  3
Standard
100
AcDb2LineAngularDimension
 13
819.9779908804426
 23
979.7924880194402
 33
0.0
 14
494.4247625504516
 24
962.7309662842405
 34
0.0
 15
494.4247625504516
 25
962.7309662842405
 35
0.0
 16
565.3994209085366
 26
1090.7726393763
 36
0.0
1001
ACAD
1000
DSTYLE
1002
{
1070
    40
1040
5.0
1070
    41
1040
3.5
1070
    42
1040
1.0
1070
    43
1040
7.0
1070
    44
1040
1.0
1070
    73
1070
     0
1070
    74
1070
     0
1070
    77
1070
     1
1070
    78
1070
     8
1070
    79
1070
     2
1070
   140
1040
3.5
1070
   141
1040
1.5
1070
   146
1040
0.5142857142857144
1070
   147
1040
1.5
1070
   172
1070
     1
1070
   178
1070
     1
1070
   179
1070
     2
1070
   271
1070
     2
1070
   272
1070
     2
1070
   284
1070
     8
1070
   285
1070
     8
1070
   286
1070
     8
1002
}
  0
ARC
  5
131A
330
1E
100
AcDbEntity
  8
SCHRAFF
100
AcDbCircle
 10
564.8817659023498
 20
815.820387736208
 30
0.0
 40
5.020102187669301
100
AcDbArc
 50
285.4247268191774
 51
31.07527318082067
  0
ARC
  5
131E
330
1E
100
AcDbEntity
  8
SCHRAFF
100
AcDbCircle
 10
555.5936703736305
 20
819.5259621113063
 30
0.0
 40
5.020102187669301
100
AcDbArc
 50
285.4247268191774
 51
31.07527318082067
  0
ARC
  5
131F
330
1E
100
AcDbEntity
  8
SCHRAFF
100
AcDbCircle
 10
546.3055748449112
 20
823.2315364864048
 30
0.0
 40
5.020102187669301
100
AcDbArc
 50
285.4247268191774
 51
31.07527318082067
  0
ARC
  5
1320
330
1E
100
AcDbEntity
  8
SCHRAFF
100
AcDbCircle
 10
537.0174793161919
 20
826.9371108615032
 30
0.0
 40
5.020102187669301
100
AcDbArc
 50
285.4247268191774
 51
31.07527318082067
  0
ARC
  5
1321
330
1E
100
AcDbEntity
  8
SCHRAFF
100
AcDbCircle
 10
527.7293837874725
 20
830.6426852366016
 30
0.0
 40
5.020102187669301
100
AcDbArc
 50
285.4247268191774
 51
31.07527318082067
  0
ARC
  5
1322
330
1E
100
AcDbEntity
  8
SCHRAFF
100
AcDbCircle
 10
518.4412882587532
 20
834.3482596116999
 30
0.0
 40
5.020102187669301
100
AcDbArc
 50
285.4247268191774
 51
31.07527318082067
  0
ARC
  5
1323
330
1E
100
AcDbEntity
  8
SCHRAFF
100
AcDbCircle
 10
472.0008106151567
 20
852.8761314871919
 30
0.0
 40
5.020102187669301
100
AcDbArc
 50
285.4247268191774
 51
31.07527318082067
  0
ARC
  5
1324
330
1E
100
AcDbEntity
  8
SCHRAFF
100
AcDbCircle
 10
481.288906143876
 20
849.1705571120935
 30
0.0
 40
5.020102187669301
100
AcDbArc
 50
285.4247268191774
 51
31.07527318082067
  0
ARC
  5
1325
330
1E
100
AcDbEntity
  8
SCHRAFF
100
AcDbCircle
 10
490.5770016725954
 20
845.4649827369951
 30
0.0
 40
5.020102187669301
100
AcDbArc
 50
285.4247268191774
 51
31.07527318082067
  0
ARC
  5
1326
330
1E
100
AcDbEntity
  8
SCHRAFF
100
AcDbCircle
 10
499.8650972013146
 20
841.7594083618968
 30
0.0
 40
5.020102187669301
100
AcDbArc
 50
285.4247268191774
 51
31.07527318082067
  0
ARC
  5
1327
330
1E
100
AcDbEntity
  8
SCHRAFF
100
AcDbCircle
 10
509.153192730034
 20
838.0538339867984
 30
0.0
 40
5.020102187669301
100
AcDbArc
 50
285.4247268191774
 51
31.07527318082067
  0
ARC
  5
1328
330
1E
100
AcDbEntity
  8
SCHRAFF
100
AcDbCircle
 10
416.2722374428409
 20
875.1095777377823
 30
0.0
 40
5.020102187669301
100
AcDbArc
 50
285.4247268191774
 51
31.07527318082067
  0
ARC
  5
132A
330
1E
100
AcDbEntity
  8
SCHRAFF
100
AcDbCircle
 10
425.5603329715603
 20
871.404003362684
 30
0.0
 40
5.020102187669301
100
AcDbArc
 50
285.4247268191774
 51
31.07527318082067
  0
ARC
  5
132B
330
1E
100
AcDbEntity
  8
SCHRAFF
100
AcDbCircle
 10
453.4246195577181
 20
860.2872802373887
 30
0.0
 40
5.020102187669301
100
AcDbArc
 50
285.4247268191774
 51
31.07527318082067
  0
ARC
  5
132C
330
1E
100
AcDbEntity
  8
SCHRAFF
100
AcDbCircle
 10
444.1365240289989
 20
863.9928546124872
 30
0.0
 40
5.020102187669301
100
AcDbArc
 50
285.4247268191774
 51
31.07527318082067
  0
ARC
  5
132D
330
1E
100
AcDbEntity
  8
SCHRAFF
100
AcDbCircle
 10
434.8484285002796
 20
867.6984289875857
 30
0.0
 40
5.020102187669301
100
AcDbArc
 50
285.4247268191774
 51
31.07527318082067
  0
ARC
  5
132E
330
1E
100
AcDbEntity
  8
SCHRAFF
100
AcDbCircle
 10
462.7127150864374
 20
856.5817058622904
 30
0.0
 40
5.020102187669301
100
AcDbArc
 50
285.4247268191774
 51
31.07527318082067
  0
ARC
  5
132F
102
{ACAD_REACTORS
330
1333
102
}
330
1E
100
AcDbEntity
  8
SCHRAFF
100
AcDbCircle
 10
417.508501948346
 20
874.6163582119624
 30
0.0
 40
4.172103384699802
100
AcDbArc
 50
84.76426117762935
 51
231.7357388223693
  0
HATCH
  5
1333
330
1E
100
AcDbEntity
  8
SCHRAFF
100
AcDbHatch
 10
0.0
 20
0.0
 30
0.0
210
0.0
220
0.0
230
1.0
  2
_USER
 70
     0
 71
     1
 91
        1
 92
        7
 72
     1
 73
     1
 93
        3
 10
414.9247625504518
 20
875.6471657090607
 42
0.0
 10
417.8892220505303
 20
878.7710542124438
 42
0.7465415872520884
 10
414.9247625504518
 20
871.3405777894687
 42
0.0
 97
        3
330
126D
330
132F
330
F3D
 75
     0
 76
     0
 52
0.0
 41
0.1
 77
     0
 78
     1
 53
0.0
 43
0.0
 44
0.0
 45
0.0
 46
0.1
 79
     0
 47
0.0759265290980567
 98
        1
 10
413.7255899702368
 20
874.2343267087621
  0
ARC
  5
1334
102
{ACAD_REACTORS
330
133C
102
}
330
1E
100
AcDbEntity
  8
SCHRAFF
100
AcDbCircle
 10
571.5216224028153
 20
813.1713536014512
 30
0.0
 40
5.787825673329885
100
AcDbArc
 50
294.5322921412492
 51
21.96770785875348
  0
HATCH
  5
133C
330
1E
100
AcDbEntity
  8
SCHRAFF
100
AcDbHatch
 10
0.0
 20
0.0
 30
0.0
210
0.0
220
0.0
230
1.0
  2
_USER
 70
     0
 71
     1
 91
        1
 92
        7
 72
     1
 73
     1
 93
        3
 10
576.8892220505303
 20
815.3364864026224
 42
0.0
 10
573.9247625504515
 20
812.2125978992391
 42
0.0
 10
573.9247625504515
 20
807.9060099796469
 42
0.4011634768026893
 97
        3
330
126E
330
EFF
330
1334
 75
     0
 76
     0
 52
0.0
 41
0.1
 77
     0
 78
     1
 53
0.0
 43
0.0
 44
0.0
 45
0.0
 46
0.1
 79
     0
 47
0.211287531181862
 98
        1
 10
575.8715597651153
 20
810.4113375217789
  0
HATCH
  5
133E
330
1E
100
AcDbEntity
  8
SCHRAFF
100
AcDbHatch
 10
0.0
 20
0.0
 30
0.0
210
0.0
220
0.0
230
1.0
  2
_USER
 70
     0
 71
     0
 91
        1
 92
        7
 72
     1
 73
     1
 93
        3
 10
577.2285092821897
 20
1046.679628273601
 42
0.0
 10
574.2640497821111
 20
1043.555739770217
 42
-0.7465415872520884
 10
581.5291951727115
 20
1046.905017670517
 42
0.0
 97
        0
 75
     0
 76
     0
 52
0.0
 41
0.1
 77
     0
 78
     1
 53
272.9999999999999
 43
1429.960146766436
 44
1506.863582606317
 45
-0.0998629534754574
 46
-0.0052335956242943
 79
     0
 47
0.0759265290980567
 98
        1
 10
578.576652192055
 20
1047.951099709569
  0
ARC
  5
133F
330
1E
100
AcDbEntity
  8
SCHRAFF
100
AcDbCircle
 10
578.3931265655097
 20
1044.153378096817
 30
0.0
 40
4.172103384699802
100
AcDbArc
 50
41.26426117763063
 51
188.2357388223706
  0
ARC
  5
1340
330
1E
100
AcDbEntity
  8
SCHRAFF
100
AcDbCircle
 10
582.0224792702176
 20
1036.280703491011
 30
0.0
 40
5.020102187669301
100
AcDbArc
 50
241.9247268191793
 51
347.5752731808225
  0
ARC
  5
1341
330
1E
100
AcDbEntity
  8
SCHRAFF
100
AcDbCircle
 10
577.8358818948435
 20
1045.362135229262
 30
0.0
 40
5.020102187669301
100
AcDbArc
 50
241.9247268191793
 51
347.5752731808225
  0
ARC
  5
1342
330
1E
100
AcDbEntity
  8
SCHRAFF
100
AcDbCircle
 10
586.209076645592
 20
1027.19927175276
 30
0.0
 40
5.020102187669301
100
AcDbArc
 50
241.9247268191793
 51
347.5752731808225
  0
ARC
  5
1343
330
1E
100
AcDbEntity
  8
SCHRAFF
100
AcDbCircle
 10
598.7688687717151
 20
999.9549765380079
 30
0.0
 40
5.020102187669301
100
AcDbArc
 50
241.9247268191793
 51
347.5752731808225
  0
ARC
  5
1344
330
1E
100
AcDbEntity
  8
SCHRAFF
100
AcDbCircle
 10
590.3956740209663
 20
1018.11784001451
 30
0.0
 40
5.020102187669301
100
AcDbArc
 50
241.9247268191793
 51
347.5752731808225
  0
ARC
  5
1345
330
1E
100
AcDbEntity
  8
SCHRAFF
100
AcDbCircle
 10
594.5822713963407
 20
1009.036408276259
 30
0.0
 40
5.020102187669301
100
AcDbArc
 50
241.9247268191793
 51
347.5752731808225
  0
ARC
  5
1346
330
1E
100
AcDbEntity
  8
SCHRAFF
100
AcDbCircle
 10
607.1420635224638
 20
981.7921130615063
 30
0.0
 40
5.020102187669301
100
AcDbArc
 50
241.9247268191793
 51
347.5752731808225
  0
ARC
  5
1347
330
1E
100
AcDbEntity
  8
SCHRAFF
100
AcDbCircle
 10
602.9554661470894
 20
990.8735447997571
 30
0.0
 40
5.020102187669301
100
AcDbArc
 50
241.9247268191793
 51
347.5752731808225
  0
ARC
  5
1348
330
1E
100
AcDbEntity
  8
SCHRAFF
100
AcDbCircle
 10
611.3286608978379
 20
972.7106813232554
 30
0.0
 40
5.020102187669301
100
AcDbArc
 50
241.9247268191793
 51
347.5752731808225
  0
ARC
  5
1349
330
1E
100
AcDbEntity
  8
SCHRAFF
100
AcDbCircle
 10
623.888453023961
 20
945.4663861085027
 30
0.0
 40
5.020102187669301
100
AcDbArc
 50
241.9247268191793
 51
347.5752731808225
  0
ARC
  5
134A
330
1E
100
AcDbEntity
  8
SCHRAFF
100
AcDbCircle
 10
619.7018556485867
 20
954.5478178467535
 30
0.0
 40
5.020102187669301
100
AcDbArc
 50
241.9247268191793
 51
347.5752731808225
  0
ARC
  5
134B
330
1E
100
AcDbEntity
  8
SCHRAFF
100
AcDbCircle
 10
615.5152582732123
 20
963.6292495850044
 30
0.0
 40
5.020102187669301
100
AcDbArc
 50
241.9247268191793
 51
347.5752731808225
  0
ARC
  5
134C
330
1E
100
AcDbEntity
  8
SCHRAFF
100
AcDbCircle
 10
628.0750503993353
 20
936.3849543702519
 30
0.0
 40
5.020102187669301
100
AcDbArc
 50
241.9247268191793
 51
347.5752731808225
  0
ARC
  5
134D
330
1E
100
AcDbEntity
  8
SCHRAFF
100
AcDbCircle
 10
632.2616477747096
 20
927.3035226320009
 30
0.0
 40
5.020102187669301
100
AcDbArc
 50
241.9247268191793
 51
347.5752731808225
  0
ARC
  5
134E
330
1E
100
AcDbEntity
  8
SCHRAFF
100
AcDbCircle
 10
636.448245150084
 20
918.22209089375
 30
0.0
 40
5.020102187669301
100
AcDbArc
 50
241.9247268191793
 51
347.5752731808225
  0
ARC
  5
134F
330
1E
100
AcDbEntity
  8
SCHRAFF
100
AcDbCircle
 10
644.8214399008326
 20
900.0592274172484
 30
0.0
 40
5.020102187669301
100
AcDbArc
 50
241.9247268191793
 51
347.5752731808225
  0
ARC
  5
1350
330
1E
100
AcDbEntity
  8
SCHRAFF
100
AcDbCircle
 10
640.6348425254583
 20
909.1406591554992
 30
0.0
 40
5.020102187669301
100
AcDbArc
 50
241.9247268191793
 51
347.5752731808225
  0
HATCH
  5
1351
330
1E
100
AcDbEntity
  8
SCHRAFF
100
AcDbHatch
 10
0.0
 20
0.0
 30
0.0
210
0.0
220
0.0
230
1.0
  2
_USER
 70
     0
 71
     0
 91
        1
 92
        7
 72
     1
 73
     1
 93
        3
 10
645.9330997640185
 20
888.0935525094255
 42
0.0
 10
648.8975592640971
 20
891.2174410128088
 42
0.0
 10
653.1982451546192
 20
891.4428304097249
 42
-0.4011634768026893
 97
        0
 75
     0
 76
     0
 52
0.0
 41
0.1
 77
     0
 78
     1
 53
272.9999999999999
 43
1429.960146766436
 44
1506.863582606317
 45
-0.0998629534754574
 46
-0.0052335956242943
 79
     0
 47
0.211287531181862
 98
        1
 10
650.7982385706526
 20
889.3675825003645
  0
ARC
  5
1352
330
1E
100
AcDbEntity
  8
SCHRAFF
100
AcDbCircle
 10
647.8143468656416
 20
893.567110343914
 30
0.0
 40
5.787825673329885
100
AcDbArc
 50
251.0322921412465
 51
338.4677078587508
  0
TEXT
  5
136E
330
1E
100
AcDbEntity
  8
TEXT
100
AcDbText
 10
104.6377487744416
 20
279.1799999999999
 30
0.0
 40
12.5
  1
Erstellt mit AUTOCAD 2004
 41
0.8
  7
GREEKS
100
AcDbText
  0
TEXT
  5
136F
330
1E
100
AcDbEntity
  8
TEXT
100
AcDbText
 10
383.7908930375943
 20
256.1552237717722
 30
0.0
 40
12.5
  1
Maßstab
 41
0.8
  7
GREEKS
100
AcDbText
  0
TEXT
  5
1370
330
1E
100
AcDbEntity
  8
TEXT
100
AcDbText
 10
481.7206788119809
 20
224.4478592884235
 30
0.0
 40
10.0
  1
DIN EN1124-3
 41
0.8
  7
GREEKS
 72
     1
 11
524.1968692881714
 21
224.4478592884235
 31
0.0
100
AcDbText
  0
TEXT
  5
1371
330
1E
100
AcDbEntity
  8
TEXT
100
AcDbText
 10
841.809654074248
 20
182.9529559274993
 30
0.0
 40
12.5
  1
Ersatz für:
 41
0.8
  7
GREEKS
100
AcDbText
  0
TEXT
  5
1372
330
1E
100
AcDbEntity
  8
TEXT
100
AcDbText
 10
587.8240977813288
 20
178.7583604396322
 30
0.0
 40
12.5
  1
dünnwandig 45°
 41
0.8
  7
GREEKS
100
AcDbText
  0
TEXT
  5
1373
330
1E
100
AcDbEntity
  8
BEM
100
AcDbText
 10
1041.452885359359
 20
30.37012038345759
 30
0.0
 40
10.0
  1
Diese Zeichnung ist urheberrechtlich geschützt und bleibt unser Eigentum. Sie darf weder ganz noch teilweise vervielfältigt und nicht an Dritte weitergegeben werden.
 50
90.0
 41
0.8
  7
GREEKS
100
AcDbText
  0
TEXT
  5
1374
330
1E
100
AcDbEntity
  8
TEXT
100
AcDbText
 10
322.2507152447943
 20
46.48310542416021
 30
0.0
 40
10.0
  1
Name
 41
0.8
  7
GREEKS
 72
     1
 11
338.0602390543181
 21
46.48310542416021
 31
0.0
100
AcDbText
  0
TEXT
  5
1375
330
1E
100
AcDbEntity
  8
TEXT
100
AcDbText
 10
276.15652626084
 20
46.67890673349527
 30
0.0
 40
10.0
  1
Tag
 41
0.8
  7
GREEKS
 72
     1
 11
285.4898595941734
 21
46.67890673349527
 31
0.0
100
AcDbText
  0
TEXT
  5
1376
330
1E
100
AcDbEntity
  8
TEXT
100
AcDbText
 10
169.1452957849062
 20
45.8707299621667
 30
0.0
 40
10.0
  1
Änderung
 41
0.8
  7
GREEKS
 72
     1
 11
196.0024386420491
 21
45.8707299621667
 31
0.0
100
AcDbText
  0
DIMENSION
  5
1377
330
1E
100
AcDbEntity
  8
SCHRAFF
100
AcDbDimension
  2
*D8
 10
806.0825400060846
 20
1149.396872444196
 30
0.0
 11
644.9520403890275
 21
1157.224681406965
 31
0.0
 70
    32
 71
     5
 42
321.0000000000002
 51
357.0
  3
Standard
100
AcDbAlignedDimension
 13
494.4247625504516
 23
962.7309662842405
 33
0.0
 14
810.5020033745333
 24
1065.068487824418
 34
0.0
 50
2.999999999999998
100
AcDbRotatedDimension
1001
ACAD
1000
DSTYLE
1002
{
1070
    40
1040
5.0
1070
    41
1040
3.5
1070
    42
1040
1.0
1070
    43
1040
7.0
1070
    44
1040
1.0
1070
    73
1070
     0
1070
    74
1070
     0
1070
    77
1070
     1
1070
    78
1070
     8
1070
    79
1070
     2
1070
   140
1040
3.5
1070
   141
1040
1.5
1070
   146
1040
0.5142857142857144
1070
   147
1040
1.5
1070
   172
1070
     1
1070
   178
1070
     1
1070
   179
1070
     2
1070
   271
1070
     2
1070
   272
1070
     2
1070
   284
1070
     8
1070
   285
1070
     8
1070
   286
1070
     8
1002
}
  0
TEXT
  5
13A8
330
1E
100
AcDbEntity
  8
TEXT
100
AcDbText
 10
425.9974927705902
 20
157.7691260206433
 30
0.0
 40
10.0
  1
08.04.
 41
0.8
  7
GREEKS
 72
     1
 11
443.5213022943996
 21
157.7691260206433
 31
0.0
100
AcDbText
  0
ENDSEC
  0
SECTION
  2
OBJECTS
  0
DICTIONARY
  5
C
330
0
100
AcDbDictionary
281
     1
  3
ACAD_COLOR
350
135F
  3
ACAD_GROUP
350
D
  3
ACAD_LAYOUT
350
19
  3
ACAD_MATERIAL
350
135E
  3
ACAD_MLINESTYLE
350
16
  3
ACAD_PLOTSETTINGS
350
18
  3
ACAD_PLOTSTYLENAME
350
E
  3
AcDbVariableDictionary
350
246
  0
DICTIONARY
  5
135F
102
{ACAD_REACTORS
330
C
102
}
330
C
100
AcDbDictionary
281
     1
  0
DICTIONARY
  5
D
102
{ACAD_REACTORS
330
C
102
}
330
C
100
AcDbDictionary
281
     1
  0
DICTIONARY
  5
19
102
{ACAD_REACTORS
330
C
102
}
330
C
100
AcDbDictionary
281
     1
  3
Layout1
350
1D
  3
Model
350
21
  0
DICTIONARY
  5
135E
102
{ACAD_REACTORS
330
C
102
}
330
C
100
AcDbDictionary
281
     1
  0
DICTIONARY
  5
16
102
{ACAD_REACTORS
330
C
102
}
330
C
100
AcDbDictionary
281
     1
  3
Standard
350
17
  0
DICTIONARY
  5
18
102
{ACAD_REACTORS
330
C
102
}
330
C
100
AcDbDictionary
281
     1
  0
ACDBDICTIONARYWDFLT
  5
E
102
{ACAD_REACTORS
330
C
102
}
330
C
100
AcDbDictionary
281
     1
  3
Normal
350
F
100
AcDbDictionaryWithDefault
340
F
  0
DICTIONARY
  5
246
102
{ACAD_REACTORS
330
C
102
}
330
C
100
AcDbDictionary
281
     1
  3
DIMASSOC
350
138C
  3
PROJECTNAME
350
138D
  3
SORTENTS
350
247
  0
LAYOUT
  5
1D
102
{ACAD_REACTORS
330
19
102
}
330
19
100
AcDbPlotSettings
  1

  2
Tektronix Phaser 740
  4

  6

 40
0.0
 41
0.0
 42
0.0
 43
0.0
 44
0.0
 45
0.0
 46
0.0
 47
0.0
 48
0.0
 49
0.0
140
0.0
141
0.0
142
1.0
143
1.0
 70
   688
 72
     0
 73
     0
 74
     5
  7
monochrome.ctb
 75
    16
147
1.0
 76
     0
 77
     2
 78
   300
148
0.0
149
0.0
100
AcDbLayout
  1
Layout1
 70
     0
 71
     1
 10
0.0
 20
0.0
 11
12.0
 21
9.0
 12
0.0
 22
0.0
 32
0.0
 14
1.000000000000000E+20
 24
1.000000000000000E+20
 34
1.000000000000000E+20
 15
-1.000000000000000E+20
 25
-1.000000000000000E+20
 35
-1.000000000000000E+20
146
0.0
 13
0.0
 23
0.0
 33
0.0
 16
1.0
 26
0.0
 36
0.0
 17
0.0
 27
1.0
 37
0.0
 76
     0
330
1A
  0
LAYOUT
  5
21
102
{ACAD_REACTORS
330
19
102
}
330
19
100
AcDbPlotSettings
  1

  2
Tektronix Phaser 740
  4
A4
  6

 40
5.873749732971191
 41
6.085414409637451
 42
5.577407836914062
 43
5.662078857421875
 44
209.9733276367187
 45
296.9683227539062
 46
0.0
 47
0.0
 48
0.0
 49
0.0
140
0.0
141
0.0
142
1.0
143
1.0
 70
 11952
 72
     0
 73
     1
 74
     0
  7
monochrome.ctb
 75
     0
147
1.0
 76
     0
 77
     2
 78
   300
148
1150.120678237584
149
45.30495740799864
100
AcDbLayout
  1
Model
 70
     1
 71
     0
 10
0.0
 20
0.0
 11
12.0
 21
9.0
 12
0.0
 22
0.0
 32
0.0
 14
0.0
 24
0.0
 34
0.0
 15
0.0
 25
0.0
 35
0.0
146
0.0
 13
0.0
 23
0.0
 33
0.0
 16
1.0
 26
0.0
 36
0.0
 17
0.0
 27
1.0
 37
0.0
 76
     0
330
1E
  0
MLINESTYLE
  5
17
102
{ACAD_REACTORS
330
16
102
}
330
16
100
AcDbMlineStyle
  2
STANDARD
 70
     0
  3

 62
   256
 51
90.0
 52
90.0
 71
     2
 49
0.5
 62
   256
  6
BYLAYER
 49
-0.5
 62
   256
  6
BYLAYER
  0
ACDBPLACEHOLDER
  5
F
102
{ACAD_REACTORS
330
E
102
}
330
E
  0
DICTIONARYVAR
  5
138C
102
{ACAD_REACTORS
330
246
102
}
330
246
100
DictionaryVariables
280
     0
  1
1
  0
DICTIONARYVAR
  5
138D
102
{ACAD_REACTORS
330
246
102
}
330
246
100
DictionaryVariables
280
     0
  1

  0
DICTIONARYVAR
  5
247
102
{ACAD_REACTORS
330
246
102
}
330
246
100
DictionaryVariables
280
     0
  1
96
  0
ENDSEC
  0
EOF
