  0
SECTION
  2
HEADER
  9
$ACADVER
  1
AC1018
  9
$ACADMAINTVER
 70
     2
  9
$DWGCODEPAGE
  3
ANSI_1252
  9
$INSBASE
 10
0.0
 20
0.0
 30
0.0
  9
$EXTMIN
 10
-0.029408855408974
 20
-0.0424640430499039
 30
-0.0000000000000023
  9
$EXTMAX
 10
420.0243854744336
 20
594.0048064657971
 30
0.0000000000000129
  9
$LIMMIN
 10
0.0
 20
0.0
  9
$LIMMAX
 10
419.9999999999999
 20
594.0
  9
$ORTHOMODE
 70
     0
  9
$REGENMODE
 70
     1
  9
$FILLMODE
 70
     1
  9
$QTEXTMODE
 70
     0
  9
$MIRRTEXT
 70
     1
  9
$LTSCALE
 40
20.0
  9
$ATTMODE
 70
     1
  9
$TEXTSIZE
 40
3.5
  9
$TRACEWID
 40
0.5
  9
$TEXTSTYLE
  7
STANDARD
  9
$CLAYER
  8
BEM
  9
$CELTYPE
  6
ByLayer
  9
$CECOLOR
 62
   256
  9
$CELTSCALE
 40
1.0
  9
$DISPSILH
 70
     0
  9
$DIMSCALE
 40
2.0
  9
$DIMASZ
 40
3.5
  9
$DIMEXO
 40
1.0
  9
$DIMDLI
 40
7.0
  9
$DIMRND
 40
0.0
  9
$DIMDLE
 40
0.0
  9
$DIMEXE
 40
1.0
  9
$DIMTP
 40
0.0
  9
$DIMTM
 40
0.0
  9
$DIMTXT
 40
3.5
  9
$DIMCEN
 40
1.5
  9
$DIMTSZ
 40
0.0
  9
$DIMTOL
 70
     0
  9
$DIMLIM
 70
     0
  9
$DIMTIH
 70
     0
  9
$DIMTOH
 70
     0
  9
$DIMSE1
 70
     0
  9
$DIMSE2
 70
     0
  9
$DIMTAD
 70
     1
  9
$DIMZIN
 70
     8
  9
$DIMBLK
  1

  9
$DIMASO
 70
     1
  9
$DIMSHO
 70
     0
  9
$DIMPOST
  1

  9
$DIMAPOST
  1

  9
$DIMALT
 70
     0
  9
$DIMALTD
 70
     2
  9
$DIMALTF
 40
25.4
  9
$DIMLFAC
 40
1.0
  9
$DIMTOFL
 70
     1
  9
$DIMTVP
 40
0.0
  9
$DIMTIX
 70
     0
  9
$DIMSOXD
 70
     0
  9
$DIMSAH
 70
     0
  9
$DIMBLK1
  1

  9
$DIMBLK2
  1

  9
$DIMSTYLE
  2
Standard
  9
$DIMCLRD
 70
     0
  9
$DIMCLRE
 70
     0
  9
$DIMCLRT
 70
     1
  9
$DIMTFAC
 40
0.5
  9
$DIMGAP
 40
1.5
  9
$DIMJUST
 70
     0
  9
$DIMSD1
 70
     0
  9
$DIMSD2
 70
     0
  9
$DIMTOLJ
 70
     1
  9
$DIMTZIN
 70
     8
  9
$DIMALTZ
 70
     8
  9
$DIMALTTZ
 70
     8
  9
$DIMUPT
 70
     0
  9
$DIMDEC
 70
     2
  9
$DIMTDEC
 70
     2
  9
$DIMALTU
 70
     2
  9
$DIMALTTD
 70
     2
  9
$DIMTXSTY
  7
STANDARD
  9
$DIMAUNIT
 70
     0
  9
$DIMADEC
 70
     2
  9
$DIMALTRND
 40
0.0
  9
$DIMAZIN
 70
     2
  9
$DIMDSEP
 70
    46
  9
$DIMATFIT
 70
     3
  9
$DIMFRAC
 70
     0
  9
$DIMLDRBLK
  1

  9
$DIMLUNIT
 70
     2
  9
$DIMLWD
 70
    -2
  9
$DIMLWE
 70
    -2
  9
$DIMTMOVE
 70
     0
  9
$LUNITS
 70
     2
  9
$LUPREC
 70
     2
  9
$SKETCHINC
 40
1.0
  9
$FILLETRAD
 40
0.0
  9
$AUNITS
 70
     1
  9
$AUPREC
 70
     3
  9
$MENU
  1
ACAD
  9
$ELEVATION
 40
0.0
  9
$PELEVATION
 40
0.0
  9
$THICKNESS
 40
0.0
  9
$LIMCHECK
 70
     0
  9
$CHAMFERA
 40
0.0
  9
$CHAMFERB
 40
0.0
  9
$CHAMFERC
 40
0.0
  9
$CHAMFERD
 40
0.0
  9
$SKPOLY
 70
     0
  9
$TDCREATE
 40
2452040.637099653
  9
$TDUCREATE
 40
2452040.553766320
  9
$TDUPDATE
 40
2455660.413453831
  9
$TDUUPDATE
 40
2455660.330120498
  9
$TDINDWG
 40
0.5341916435
  9
$TDUSRTIMER
 40
0.5341916435
  9
$USRTIMER
 70
     1
  9
$ANGBASE
 50
0.0
  9
$ANGDIR
 70
     0
  9
$PDMODE
 70
     0
  9
$PDSIZE
 40
0.0
  9
$PLINEWID
 40
0.0
  9
$SPLFRAME
 70
     0
  9
$SPLINETYPE
 70
     6
  9
$SPLINESEGS
 70
     8
  9
$HANDSEED
  5
22E3
  9
$SURFTAB1
 70
     6
  9
$SURFTAB2
 70
     6
  9
$SURFTYPE
 70
     6
  9
$SURFU
 70
     6
  9
$SURFV
 70
     6
  9
$UCSBASE
  2

  9
$UCSNAME
  2

  9
$UCSORG
 10
0.0
 20
0.0
 30
0.0
  9
$UCSXDIR
 10
1.0
 20
0.0
 30
0.0
  9
$UCSYDIR
 10
0.0
 20
1.0
 30
0.0
  9
$UCSORTHOREF
  2

  9
$UCSORTHOVIEW
 70
     0
  9
$UCSORGTOP
 10
0.0
 20
0.0
 30
0.0
  9
$UCSORGBOTTOM
 10
0.0
 20
0.0
 30
0.0
  9
$UCSORGLEFT
 10
0.0
 20
0.0
 30
0.0
  9
$UCSORGRIGHT
 10
0.0
 20
0.0
 30
0.0
  9
$UCSORGFRONT
 10
0.0
 20
0.0
 30
0.0
  9
$UCSORGBACK
 10
0.0
 20
0.0
 30
0.0
  9
$PUCSBASE
  2

  9
$PUCSNAME
  2

  9
$PUCSORG
 10
0.0
 20
0.0
 30
0.0
  9
$PUCSXDIR
 10
1.0
 20
0.0
 30
0.0
  9
$PUCSYDIR
 10
0.0
 20
1.0
 30
0.0
  9
$PUCSORTHOREF
  2

  9
$PUCSORTHOVIEW
 70
     0
  9
$PUCSORGTOP
 10
0.0
 20
0.0
 30
0.0
  9
$PUCSORGBOTTOM
 10
0.0
 20
0.0
 30
0.0
  9
$PUCSORGLEFT
 10
0.0
 20
0.0
 30
0.0
  9
$PUCSORGRIGHT
 10
0.0
 20
0.0
 30
0.0
  9
$PUCSORGFRONT
 10
0.0
 20
0.0
 30
0.0
  9
$PUCSORGBACK
 10
0.0
 20
0.0
 30
0.0
  9
$USERI1
 70
     0
  9
$USERI2
 70
     0
  9
$USERI3
 70
     0
  9
$USERI4
 70
     0
  9
$USERI5
 70
     0
  9
$USERR1
 40
0.0
  9
$USERR2
 40
0.0
  9
$USERR3
 40
0.0
  9
$USERR4
 40
0.0
  9
$USERR5
 40
0.0
  9
$WORLDVIEW
 70
     1
  9
$SHADEDGE
 70
     3
  9
$SHADEDIF
 70
    70
  9
$TILEMODE
 70
     1
  9
$MAXACTVP
 70
    16
  9
$PINSBASE
 10
0.0
 20
0.0
 30
0.0
  9
$PLIMCHECK
 70
     0
  9
$PEXTMIN
 10
1.000000000000000E+20
 20
1.000000000000000E+20
 30
1.000000000000000E+20
  9
$PEXTMAX
 10
-1.000000000000000E+20
 20
-1.000000000000000E+20
 30
-1.000000000000000E+20
  9
$PLIMMIN
 10
0.0
 20
0.0
  9
$PLIMMAX
 10
12.0
 20
9.0
  9
$UNITMODE
 70
     0
  9
$VISRETAIN
 70
     0
  9
$PLINEGEN
 70
     0
  9
$PSLTSCALE
 70
     0
  9
$TREEDEPTH
 70
  3020
  9
$CMLSTYLE
  2
Standard
  9
$CMLJUST
 70
     0
  9
$CMLSCALE
 40
1.0
  9
$PROXYGRAPHICS
 70
     1
  9
$MEASUREMENT
 70
     0
  9
$CELWEIGHT
370
    -1
  9
$ENDCAPS
280
     0
  9
$JOINSTYLE
280
     0
  9
$LWDISPLAY
290
     0
  9
$INSUNITS
 70
     0
  9
$HYPERLINKBASE
  1

  9
$STYLESHEET
  1
monochrome 1.ctb
  9
$XEDIT
290
     1
  9
$CEPSNTYPE
380
     0
  9
$PSTYLEMODE
290
     1
  9
$FINGERPRINTGUID
  2
{7AADB5C8-6110-11D8-B72B-000102183313}
  9
$VERSIONGUID
  2
{32E12FC3-3572-4F55-9A7D-1A37D1257ADC}
  9
$EXTNAMES
290
     1
  9
$PSVPSCALE
 40
0.0
  9
$OLESTARTUP
290
     0
  9
$SORTENTS
280
    96
  9
$INDEXCTL
280
     0
  9
$HIDETEXT
280
     0
  9
$XCLIPFRAME
290
     0
  9
$HALOGAP
280
     0
  9
$OBSCOLOR
 70
   257
  9
$OBSLTYPE
280
     0
  9
$INTERSECTIONDISPLAY
280
     0
  9
$INTERSECTIONCOLOR
 70
   257
  9
$DIMASSOC
280
     1
  9
$PROJECTNAME
  1

  0
ENDSEC
  0
SECTION
  2
CLASSES
  0
CLASS
  1
ACDBDICTIONARYWDFLT
  2
AcDbDictionaryWithDefault
  3
ObjectDBX Classes
 90
        0
 91
        1
280
     0
281
     0
  0
CLASS
  1
DICTIONARYVAR
  2
AcDbDictionaryVar
  3
ObjectDBX Classes
 90
        0
 91
        3
280
     0
281
     0
  0
ENDSEC
  0
SECTION
  2
TABLES
  0
TABLE
  2
VPORT
  5
8
330
0
100
AcDbSymbolTable
 70
     3
  0
VPORT
  5
22E2
330
8
100
AcDbSymbolTableRecord
100
AcDbViewportTableRecord
  2
*Active
 70
     0
 10
0.0
 20
0.0
 11
1.0
 21
1.0
 12
210.0
 22
297.0
 13
0.0
 23
0.0
 14
1.0
 24
1.0
 15
10.0
 25
10.0
 16
0.0
 26
0.0
 36
1.0
 17
0.0
 27
0.0
 37
0.0
 40
594.0
 41
1.334231805929919
 42
50.0
 43
0.0
 44
0.0
 50
0.0
 51
0.0
 71
     0
 72
  1500
 73
     1
 74
     0
 75
     0
 76
     0
 77
     0
 78
     0
281
     0
 65
     1
110
0.0
120
0.0
130
0.0
111
1.0
121
0.0
131
0.0
112
0.0
122
1.0
132
0.0
 79
     0
146
0.0
  0
ENDTAB
  0
TABLE
  2
LTYPE
  5
5
330
0
100
AcDbSymbolTable
 70
     2
  0
LTYPE
  5
13
330
5
100
AcDbSymbolTableRecord
100
AcDbLinetypeTableRecord
  2
ByBlock
 70
     0
  3

 72
    65
 73
     0
 40
0.0
  0
LTYPE
  5
14
330
5
100
AcDbSymbolTableRecord
100
AcDbLinetypeTableRecord
  2
ByLayer
 70
     0
  3

 72
    65
 73
     0
 40
0.0
  0
LTYPE
  5
15
330
5
100
AcDbSymbolTableRecord
100
AcDbLinetypeTableRecord
  2
Continuous
 70
     0
  3
Solid line
 72
    65
 73
     0
 40
0.0
  0
LTYPE
  5
35
330
5
100
AcDbSymbolTableRecord
100
AcDbLinetypeTableRecord
  2
STRICHPUNKT
 70
     0
  3
__ . __ . __ . __ . __ . __ . __ . __ . __ . __
 72
    65
 73
     4
 40
1.0
 49
0.5
 74
     0
 49
-0.25
 74
     0
 49
0.0
 74
     0
 49
-0.25
 74
     0
  0
ENDTAB
  0
TABLE
  2
LAYER
  5
2
330
0
100
AcDbSymbolTable
 70
     9
  0
LAYER
  5
10
330
2
100
AcDbSymbolTableRecord
100
AcDbLayerTableRecord
  2
0
 70
     0
 62
     7
  6
Continuous
370
    -3
390
F
  0
LAYER
  5
38
330
2
100
AcDbSymbolTableRecord
100
AcDbLayerTableRecord
  2
VOLL
 70
     0
 62
     1
  6
Continuous
370
    -3
390
F
  0
LAYER
  5
39
330
2
100
AcDbSymbolTableRecord
100
AcDbLayerTableRecord
  2
HILF
 70
     0
 62
     2
  6
Continuous
370
    -3
390
F
  0
LAYER
  5
3A
330
2
100
AcDbSymbolTableRecord
100
AcDbLayerTableRecord
  2
MITTEL
 70
     0
 62
     2
  6
STRICHPUNKT
370
    -3
390
F
  0
LAYER
  5
3B
330
2
100
AcDbSymbolTableRecord
100
AcDbLayerTableRecord
  2
BEM
 70
     0
 62
     7
  6
Continuous
370
    -3
390
F
  0
LAYER
  5
3C
330
2
100
AcDbSymbolTableRecord
100
AcDbLayerTableRecord
  2
STEMPEL
 70
     0
 62
     3
  6
Continuous
370
    -3
390
F
  0
LAYER
  5
3D
330
2
100
AcDbSymbolTableRecord
100
AcDbLayerTableRecord
  2
TEXT
 70
     0
 62
     7
  6
Continuous
370
    -3
390
F
  0
LAYER
  5
3E
330
2
100
AcDbSymbolTableRecord
100
AcDbLayerTableRecord
  2
DEFPOINTS
 70
     0
 62
     7
  6
Continuous
290
     0
370
    -3
390
F
  0
LAYER
  5
3F
330
2
100
AcDbSymbolTableRecord
100
AcDbLayerTableRecord
  2
SCHRAFF
 70
     0
 62
     7
  6
Continuous
370
    -3
390
F
  0
ENDTAB
  0
TABLE
  2
STYLE
  5
3
330
0
100
AcDbSymbolTable
 70
     2
  0
STYLE
  5
11
330
3
100
AcDbSymbolTableRecord
100
AcDbTextStyleTableRecord
  2
STANDARD
 70
     0
 40
0.0
 41
0.8
 50
0.0
 71
     0
 42
3.5
  3
simplex.shx
  4

  0
STYLE
  5
34
330
3
100
AcDbSymbolTableRecord
100
AcDbTextStyleTableRecord
  2
GREEKS
 70
     0
 40
0.0
 41
0.8
 50
0.0
 71
     0
 42
2.5
  3
SIMPLEX.shx
  4

  0
ENDTAB
  0
TABLE
  2
VIEW
  5
6
330
0
100
AcDbSymbolTable
 70
     0
  0
ENDTAB
  0
TABLE
  2
UCS
  5
7
330
0
100
AcDbSymbolTable
 70
     0
  0
ENDTAB
  0
TABLE
  2
APPID
  5
9
330
0
100
AcDbSymbolTable
 70
     1
  0
APPID
  5
12
330
9
100
AcDbSymbolTableRecord
100
AcDbRegAppTableRecord
  2
ACAD
 70
     0
  0
ENDTAB
  0
TABLE
  2
DIMSTYLE
  5
A
330
0
100
AcDbSymbolTable
 70
     1
100
AcDbDimStyleTable
 71
     1
340
1CB
  0
DIMSTYLE
105
1CB
102
{ACAD_REACTORS
330
12CA
330
13FA
330
18E4
330
18FA
330
225C
330
227B
102
}
330
A
100
AcDbSymbolTableRecord
100
AcDbDimStyleTableRecord
  2
Standard
 70
     0
340
11
  0
ENDTAB
  0
TABLE
  2
BLOCK_RECORD
  5
1
330
0
100
AcDbSymbolTable
 70
     9
  0
BLOCK_RECORD
  5
1E
330
1
100
AcDbSymbolTableRecord
100
AcDbBlockTableRecord
  2
*Model_Space
340
21
  0
BLOCK_RECORD
  5
1A
330
1
100
AcDbSymbolTableRecord
100
AcDbBlockTableRecord
  2
*Paper_Space
340
1D
  0
BLOCK_RECORD
  5
22
330
1
100
AcDbSymbolTableRecord
100
AcDbBlockTableRecord
  2
LOGO
340
0
102
{BLKREFS
331
135
102
}
  0
BLOCK_RECORD
  5
12E9
330
1
100
AcDbSymbolTableRecord
100
AcDbBlockTableRecord
  2
*D1
340
0
  0
BLOCK_RECORD
  5
13FB
330
1
100
AcDbSymbolTableRecord
100
AcDbBlockTableRecord
  2
*D2
340
0
  0
BLOCK_RECORD
  5
18E5
330
1
100
AcDbSymbolTableRecord
100
AcDbBlockTableRecord
  2
*D4
340
0
  0
BLOCK_RECORD
  5
18FB
330
1
100
AcDbSymbolTableRecord
100
AcDbBlockTableRecord
  2
*D5
340
0
  0
BLOCK_RECORD
  5
225D
330
1
100
AcDbSymbolTableRecord
100
AcDbBlockTableRecord
  2
*D7
340
0
  0
BLOCK_RECORD
  5
227C
330
1
100
AcDbSymbolTableRecord
100
AcDbBlockTableRecord
  2
*D8
340
0
  0
ENDTAB
  0
ENDSEC
  0
SECTION
  2
BLOCKS
  0
BLOCK
  5
43
330
1E
100
AcDbEntity
  8
0
100
AcDbBlockBegin
  2
*Model_Space
 70
     0
 10
0.0
 20
0.0
 30
0.0
  3
*Model_Space
  1

  0
ENDBLK
  5
44
330
1E
100
AcDbEntity
  8
0
100
AcDbBlockEnd
  0
BLOCK
  5
41
330
1A
100
AcDbEntity
 67
     1
  8
0
100
AcDbBlockBegin
  2
*Paper_Space
 70
     0
 10
0.0
 20
0.0
 30
0.0
  3
*Paper_Space
  1

  0
ENDBLK
  5
42
330
1A
100
AcDbEntity
 67
     1
  8
0
100
AcDbBlockEnd
  0
BLOCK
  5
45
330
22
100
AcDbEntity
  8
0
100
AcDbBlockBegin
  2
LOGO
 70
     0
 10
0.0
 20
0.0
 30
0.0
  3
LOGO
  1

  0
ARC
  5
46
330
22
100
AcDbEntity
  8
0
100
AcDbCircle
 10
11.59973089678112
 20
-9.271599258481501
 30
0.0
 40
4.5
100
AcDbArc
 50
270.0
 51
231.0575587310159
  0
LINE
  5
47
330
22
100
AcDbEntity
  8
0
100
AcDbLine
 10
3.599730896781125
 20
-4.771599258481529
 30
0.0
 11
3.599730896781153
 21
-11.77159925848133
 31
0.0
  0
LINE
  5
48
330
22
100
AcDbEntity
  8
0
100
AcDbLine
 10
2.599730896781125
 20
-4.771599258481529
 30
0.0
 11
2.599730896781153
 21
-11.77159925848133
 31
0.0
  0
CIRCLE
  5
49
330
22
100
AcDbEntity
  8
0
100
AcDbCircle
 10
11.59973089678112
 20
-9.271599258481501
 30
0.0
 40
3.5
  0
ARC
  5
4A
330
22
100
AcDbEntity
  8
0
100
AcDbCircle
 10
31.59973089678115
 20
-9.271599258481472
 30
0.0
 40
4.5
100
AcDbArc
 50
270.0
 51
231.0575587310182
  0
LINE
  5
4B
330
22
100
AcDbEntity
  8
0
100
AcDbLine
 10
17.59973089678112
 20
-4.771599258481472
 30
0.0
 11
17.59973089678115
 21
-13.77159925848147
 31
0.0
  0
ARC
  5
4C
330
22
100
AcDbEntity
  8
0
100
AcDbCircle
 10
22.59973089678116
 20
-7.271599258481472
 30
0.0
 40
2.5
100
AcDbArc
 50
293.1161887722295
 51
90.0
  0
CIRCLE
  5
4D
330
22
100
AcDbEntity
  8
0
100
AcDbCircle
 10
31.59973089678115
 20
-9.271599258481472
 30
0.0
 40
3.5
  0
ARC
  5
4E
330
22
100
AcDbEntity
  8
0
100
AcDbCircle
 10
4.599730896781153
 20
-11.77159925848133
 30
0.0
 40
1.0
100
AcDbArc
 50
180.0
 51
270.0
  0
ARC
  5
4F
330
22
100
AcDbEntity
  8
0
100
AcDbCircle
 10
4.599730896781153
 20
-11.77159925848133
 30
0.0
 40
2.0
100
AcDbArc
 50
179.9999999999992
 51
270.0
  0
LINE
  5
50
330
22
100
AcDbEntity
  8
0
100
AcDbLine
 10
11.59973089678115
 20
-13.77159925848144
 30
0.0
 11
4.599730896781153
 21
-13.77159925848147
 31
0.0
  0
LINE
  5
51
330
22
100
AcDbEntity
  8
0
100
AcDbLine
 10
8.771303772034769
 20
-12.77159925848136
 30
0.0
 11
4.599730896781153
 21
-12.77159925848133
 31
0.0
  0
LINE
  5
52
330
22
100
AcDbEntity
  8
0
100
AcDbLine
 10
31.59973089678115
 20
-13.77159925848147
 30
0.0
 11
23.6715276665056
 21
-13.77159925848144
 31
0.0
  0
LINE
  5
53
330
22
100
AcDbEntity
  8
0
100
AcDbLine
 10
23.56565672307022
 20
-9.51278021337896
 30
0.0
 11
24.4388546544846
 21
-12.77159925848144
 31
0.0
  0
LINE
  5
54
330
22
100
AcDbEntity
  8
0
100
AcDbLine
 10
22.59973089678116
 20
-9.771599258481472
 30
0.0
 11
18.59973089678112
 21
-9.771599258481472
 31
0.0
  0
LINE
  5
55
330
22
100
AcDbEntity
  8
0
100
AcDbLine
 10
18.59973089678115
 20
-13.77159925848144
 30
0.0
 11
17.59973089678115
 21
-13.77159925848144
 31
0.0
  0
LINE
  5
56
330
22
100
AcDbEntity
  8
0
100
AcDbLine
 10
18.59973089678115
 20
-9.771599258481472
 30
0.0
 11
18.59973089678115
 21
-13.77159925848144
 31
0.0
  0
LINE
  5
57
330
22
100
AcDbEntity
  8
0
100
AcDbLine
 10
22.59973089678116
 20
-9.771599258481472
 30
0.0
 11
23.67152766650562
 21
-13.77159925848147
 31
0.0
  0
ARC
  5
58
330
22
100
AcDbEntity
  8
0
100
AcDbCircle
 10
22.59973089678116
 20
-7.271599258481472
 30
0.0
 40
2.5
100
AcDbArc
 50
270.0
 51
270.0000000000007
  0
LINE
  5
59
330
22
100
AcDbEntity
  8
0
100
AcDbLine
 10
28.77130377203494
 20
-12.77159925848147
 30
0.0
 11
24.43885465448463
 21
-12.77159925848144
 31
0.0
  0
LINE
  5
5A
330
22
100
AcDbEntity
  8
0
100
AcDbLine
 10
3.599730896781125
 20
-4.771599258481472
 30
0.0
 11
2.599730896781125
 21
-4.771599258481472
 31
0.0
  0
LINE
  5
5B
330
22
100
AcDbEntity
  8
0
100
AcDbLine
 10
22.59973089678116
 20
-8.771599258481472
 30
0.0
 11
18.59973089678115
 21
-8.771599258481472
 31
0.0
  0
LINE
  5
5C
330
22
100
AcDbEntity
  8
0
100
AcDbLine
 10
22.59973089678116
 20
-5.771599258481472
 30
0.0
 11
18.59973089678115
 21
-5.771599258481472
 31
0.0
  0
LINE
  5
5D
330
22
100
AcDbEntity
  8
0
100
AcDbLine
 10
22.59973089678116
 20
-4.771599258481472
 30
0.0
 11
17.59973089678115
 21
-4.771599258481472
 31
0.0
  0
LINE
  5
5E
330
22
100
AcDbEntity
  8
0
100
AcDbLine
 10
18.59973089678115
 20
-5.771599258481472
 30
0.0
 11
18.59973089678115
 21
-8.771599258481472
 31
0.0
  0
ARC
  5
5F
330
22
100
AcDbEntity
  8
0
100
AcDbCircle
 10
22.59973089678116
 20
-7.271599258481472
 30
0.0
 40
1.5
100
AcDbArc
 50
270.0
 51
90.0
  0
ENDBLK
  5
60
330
22
100
AcDbEntity
  8
0
100
AcDbBlockEnd
  0
BLOCK
  5
12F3
330
12E9
100
AcDbEntity
  8
0
100
AcDbBlockBegin
  2
*D1
 70
     1
 10
0.0
 20
0.0
 30
0.0
  3
*D1
  1

  0
LINE
  5
22D8
330
12E9
100
AcDbEntity
  8
BEM
 62
     0
370
    -2
100
AcDbLine
 10
154.699193183691
 20
242.5110540581965
 30
0.0
 11
122.9663309295382
 21
242.5110540581965
 31
0.0
  0
LINE
  5
22D9
330
12E9
100
AcDbEntity
  8
BEM
 62
     0
370
    -2
100
AcDbLine
 10
151.4598360780851
 20
487.5143469625266
 30
0.0
 11
122.9663309295382
 21
487.5143469625267
 31
0.0
  0
LINE
  5
22DA
330
12E9
100
AcDbEntity
  8
BEM
 62
     0
370
    -2
100
AcDbLine
 10
124.9663309295382
 20
249.5110540581965
 30
0.0
 11
124.9663309295382
 21
480.5143469625266
 31
0.0
  0
SOLID
  5
22DB
330
12E9
100
AcDbEntity
  8
BEM
 62
     0
100
AcDbTrace
 10
123.7996642628715
 20
249.5110540581965
 30
0.0
 11
126.1329975962048
 21
249.5110540581965
 31
0.0
 12
124.9663309295382
 22
242.5110540581965
 32
0.0
 13
124.9663309295382
 23
242.5110540581965
 33
0.0
  0
SOLID
  5
22DC
330
12E9
100
AcDbEntity
  8
BEM
 62
     0
100
AcDbTrace
 10
123.7996642628715
 20
480.5143469625266
 30
0.0
 11
126.1329975962049
 21
480.5143469625266
 31
0.0
 12
124.9663309295382
 22
487.5143469625267
 32
0.0
 13
124.9663309295382
 23
487.5143469625267
 33
0.0
  0
MTEXT
  5
22DD
330
12E9
100
AcDbEntity
  8
BEM
 62
     1
100
AcDbMText
 10
118.4663309295381
 20
365.0127005103616
 30
0.0
 40
7.0
 41
0.0
 71
     5
 72
     1
  1
\A1;245
 11
0.0000000000000001
 21
1.0
 31
0.0
 73
     1
 44
1.0
  0
POINT
  5
22DE
330
12E9
100
AcDbEntity
  8
DEFPOINTS
 62
     0
100
AcDbPoint
 10
156.699193183691
 20
242.5110540581965
 30
0.0
  0
POINT
  5
22DF
330
12E9
100
AcDbEntity
  8
DEFPOINTS
 62
     0
100
AcDbPoint
 10
153.4598360780851
 20
487.5143469625266
 30
0.0
  0
POINT
  5
22E0
330
12E9
100
AcDbEntity
  8
DEFPOINTS
 62
     0
100
AcDbPoint
 10
124.9663309295382
 20
487.5143469625267
 30
0.0
  0
ENDBLK
  5
12F4
330
12E9
100
AcDbEntity
  8
0
100
AcDbBlockEnd
  0
BLOCK
  5
1405
330
13FB
100
AcDbEntity
  8
0
100
AcDbBlockBegin
  2
*D2
 70
     1
 10
0.0
 20
0.0
 30
0.0
  3
*D2
  1

  0
LINE
  5
22CF
330
13FB
100
AcDbEntity
  8
BEM
 62
     0
370
    -2
100
AcDbLine
 10
154.699193183691
 20
242.5110540581965
 30
0.0
 11
138.406321020561
 21
242.5110540581965
 31
0.0
  0
LINE
  5
22D0
330
13FB
100
AcDbEntity
  8
BEM
 62
     0
370
    -2
100
AcDbLine
 10
198.7117498660614
 20
314.5110540581966
 30
0.0
 11
138.406321020561
 21
314.5110540581966
 31
0.0
  0
LINE
  5
22D1
330
13FB
100
AcDbEntity
  8
BEM
 62
     0
370
    -2
100
AcDbLine
 10
140.406321020561
 20
249.5110540581965
 30
0.0
 11
140.406321020561
 21
307.5110540581966
 31
0.0
  0
SOLID
  5
22D2
330
13FB
100
AcDbEntity
  8
BEM
 62
     0
100
AcDbTrace
 10
139.2396543538944
 20
249.5110540581965
 30
0.0
 11
141.5729876872277
 21
249.5110540581965
 31
0.0
 12
140.406321020561
 22
242.5110540581965
 32
0.0
 13
140.406321020561
 23
242.5110540581965
 33
0.0
  0
SOLID
  5
22D3
330
13FB
100
AcDbEntity
  8
BEM
 62
     0
100
AcDbTrace
 10
139.2396543538944
 20
307.5110540581966
 30
0.0
 11
141.5729876872277
 21
307.5110540581966
 31
0.0
 12
140.406321020561
 22
314.5110540581966
 32
0.0
 13
140.406321020561
 23
314.5110540581966
 33
0.0
  0
MTEXT
  5
22D4
330
13FB
100
AcDbEntity
  8
BEM
 62
     1
100
AcDbMText
 10
133.906321020561
 20
278.5110540581966
 30
0.0
 40
7.0
 41
0.0
 71
     5
 72
     1
  1
\A1;72
 11
0.0000000000000001
 21
1.0
 31
0.0
 73
     1
 44
1.0
  0
POINT
  5
22D5
330
13FB
100
AcDbEntity
  8
DEFPOINTS
 62
     0
100
AcDbPoint
 10
156.699193183691
 20
242.5110540581965
 30
0.0
  0
POINT
  5
22D6
330
13FB
100
AcDbEntity
  8
DEFPOINTS
 62
     0
100
AcDbPoint
 10
200.7117498660614
 20
314.5110540581966
 30
0.0
  0
POINT
  5
22D7
330
13FB
100
AcDbEntity
  8
DEFPOINTS
 62
     0
100
AcDbPoint
 10
140.406321020561
 20
314.5110540581966
 30
0.0
  0
ENDBLK
  5
1406
330
13FB
100
AcDbEntity
  8
0
100
AcDbBlockEnd
  0
BLOCK
  5
18EF
330
18E5
100
AcDbEntity
  8
0
100
AcDbBlockBegin
  2
*D4
 70
     1
 10
0.0
 20
0.0
 30
0.0
  3
*D4
  1

  0
LINE
  5
21DB
330
18E5
100
AcDbEntity
  8
BEM
 62
     0
370
    -2
100
AcDbLine
 10
156.2617498660614
 20
245.5110540581965
 30
0.0
 11
156.2617498660614
 21
219.8201687736846
 31
0.0
  0
LINE
  5
21DC
330
18E5
100
AcDbEntity
  8
BEM
 62
     0
370
    -2
100
AcDbLine
 10
245.1617498660614
 20
245.5110540581995
 30
0.0
 11
245.1617498660614
 21
219.8201687736846
 31
0.0
  0
LINE
  5
21DD
330
18E5
100
AcDbEntity
  8
BEM
 62
     0
370
    -2
100
AcDbLine
 10
163.2617498660614
 20
221.8201687736846
 30
0.0
 11
238.1617498660614
 21
221.8201687736846
 31
0.0
  0
SOLID
  5
21DE
330
18E5
100
AcDbEntity
  8
BEM
 62
     0
100
AcDbTrace
 10
163.2617498660614
 20
222.9868354403512
 30
0.0
 11
163.2617498660614
 21
220.6535021070179
 31
0.0
 12
156.2617498660614
 22
221.8201687736846
 32
0.0
 13
156.2617498660614
 23
221.8201687736846
 33
0.0
  0
SOLID
  5
21DF
330
18E5
100
AcDbEntity
  8
BEM
 62
     0
100
AcDbTrace
 10
238.1617498660614
 20
222.9868354403512
 30
0.0
 11
238.1617498660614
 21
220.6535021070179
 31
0.0
 12
245.1617498660614
 22
221.8201687736846
 32
0.0
 13
245.1617498660614
 23
221.8201687736846
 33
0.0
  0
MTEXT
  5
21E0
330
18E5
100
AcDbEntity
  8
BEM
 62
     1
100
AcDbMText
 10
200.7117498660615
 20
228.3201687736846
 30
0.0
 40
7.0
 41
0.0
 71
     5
 72
     1
  1
\A1;%%c88.9
 73
     1
 44
1.0
  0
POINT
  5
21E1
330
18E5
100
AcDbEntity
  8
DEFPOINTS
 62
     0
100
AcDbPoint
 10
156.2617498660614
 20
247.5110540581965
 30
0.0
  0
POINT
  5
21E2
330
18E5
100
AcDbEntity
  8
DEFPOINTS
 62
     0
100
AcDbPoint
 10
245.1617498660614
 20
247.5110540581995
 30
0.0
  0
POINT
  5
21E3
330
18E5
100
AcDbEntity
  8
DEFPOINTS
 62
     0
100
AcDbPoint
 10
245.1617498660614
 20
221.8201687736846
 30
0.0
  0
ENDBLK
  5
18F0
330
18E5
100
AcDbEntity
  8
0
100
AcDbBlockEnd
  0
BLOCK
  5
1905
330
18FB
100
AcDbEntity
  8
0
100
AcDbBlockBegin
  2
*D5
 70
     1
 10
0.0
 20
0.0
 30
0.0
  3
*D5
  1

  0
LINE
  5
22C6
330
18FB
100
AcDbEntity
  8
BEM
 62
     0
370
    -2
100
AcDbLine
 10
202.1259634284344
 20
313.0968404958234
 30
0.0
 11
233.8574598961215
 21
281.3653440281359
 31
0.0
  0
LINE
  5
22C7
330
18FB
100
AcDbEntity
  8
BEM
 62
     0
370
    -2
100
AcDbLine
 10
332.2458036453796
 20
402.1801024467083
 30
0.0
 11
343.4590109800374
 21
390.9668951120504
 31
0.0
  0
LINE
  5
22C8
330
18FB
100
AcDbEntity
  8
BEM
 62
     0
370
    -2
100
AcDbLine
 10
237.3929938020543
 20
287.7293050588148
 30
0.0
 11
337.0950499493584
 21
387.4313612061177
 31
0.0
  0
SOLID
  5
22C9
330
18FB
100
AcDbEntity
  8
BEM
 62
     0
100
AcDbTrace
 10
236.56803589067
 20
288.5542629701991
 30
0.0
 11
238.2179517134386
 21
286.9043471474305
 31
0.0
 12
232.4432463337485
 22
282.779557590509
 32
0.0
 13
232.4432463337485
 23
282.779557590509
 33
0.0
  0
SOLID
  5
22CA
330
18FB
100
AcDbEntity
  8
BEM
 62
     0
100
AcDbTrace
 10
336.2700920379741
 20
388.2563191175021
 30
0.0
 11
337.9200078607427
 21
386.6064032947335
 31
0.0
 12
342.0447974176643
 22
392.3811086744235
 32
0.0
 13
342.0447974176643
 23
392.3811086744235
 33
0.0
  0
MTEXT
  5
22CB
330
18FB
100
AcDbEntity
  8
BEM
 62
     1
100
AcDbMText
 10
282.6478277979939
 20
342.1765272101788
 30
0.0
 40
7.0
 41
0.0
 71
     5
 72
     1
  1
\A1;155
 11
0.7071067811865519
 21
0.7071067811865433
 31
0.0
 73
     1
 44
1.0
  0
POINT
  5
22CC
330
18FB
100
AcDbEntity
  8
DEFPOINTS
 62
     0
100
AcDbPoint
 10
200.7117498660614
 20
314.5110540581965
 30
0.0
  0
POINT
  5
22CD
330
18FB
100
AcDbEntity
  8
DEFPOINTS
 62
     0
100
AcDbPoint
 10
330.8315900830066
 20
403.5943160090813
 30
0.0
  0
POINT
  5
22CE
330
18FB
100
AcDbEntity
  8
DEFPOINTS
 62
     0
100
AcDbPoint
 10
342.0447974176644
 20
392.3811086744235
 30
0.0
  0
ENDBLK
  5
1906
330
18FB
100
AcDbEntity
  8
0
100
AcDbBlockEnd
  0
BLOCK
  5
2269
330
225D
100
AcDbEntity
  8
0
100
AcDbBlockBegin
  2
*D7
 70
     1
 10
0.0
 20
0.0
 30
0.0
  3
*D7
  1

  0
LINE
  5
225E
330
225D
100
AcDbEntity
  8
BEM
 62
     0
370
    -2
100
AcDbLine
 10
315.2630484182822
 20
429.0623526104172
 30
0.0
 11
341.3503764210277
 21
455.1496806131626
 31
0.0
  0
LINE
  5
225F
330
225D
100
AcDbEntity
  8
BEM
 62
     0
370
    -2
100
AcDbLine
 10
200.7117498660615
 20
494.5143469625265
 30
0.0
 11
200.7117498660616
 21
513.4041071257546
 31
0.0
  0
ARC
  5
2260
330
225D
100
AcDbEntity
  8
BEM
 62
     0
370
    -2
100
AcDbCircle
 10
200.7117498660615
 20
314.5110540581965
 30
0.0
 40
196.8930530675581
100
AcDbArc
 50
47.03710377698864
 51
87.96289622301129
  0
SOLID
  5
2261
330
225D
100
AcDbEntity
  8
BEM
 62
     0
100
AcDbTrace
 10
335.7093730363208
 20
459.4359371111377
 30
0.0
 11
334.0890470611989
 21
457.7569528411727
 31
0.0
 12
339.9361628586546
 22
453.7354670507895
 32
0.0
 13
339.9361628586546
 23
453.7354670507895
 33
0.0
  0
SOLID
  5
2262
330
225D
100
AcDbEntity
  8
BEM
 62
     0
100
AcDbTrace
 10
207.6899049696509
 20
510.1131917678159
 30
0.0
 11
207.7313826477072
 21
512.4461564153551
 31
0.0
 12
200.7117498660616
 22
511.4041071257546
 32
0.0
 13
200.7117498660616
 23
511.4041071257546
 33
0.0
  0
MTEXT
  5
2263
330
225D
100
AcDbEntity
  8
BEM
 62
     1
100
AcDbMText
 10
278.5469015331695
 20
502.4217328422953
 30
0.0
 40
7.0
 41
0.0
 71
     5
 72
     1
  1
\A1;45°
 11
0.9238795325112864
 21
-0.3826834323650904
 31
0.0
 73
     1
 44
1.0
  0
POINT
  5
2264
330
225D
100
AcDbEntity
  8
DEFPOINTS
 62
     0
100
AcDbPoint
 10
299.1582763998406
 20
485.0254398433793
 30
0.0
  0
POINT
  5
2265
330
225D
100
AcDbEntity
  8
DEFPOINTS
 62
     0
100
AcDbPoint
 10
200.7117498660615
 20
492.5143469625265
 30
0.0
  0
POINT
  5
2266
330
225D
100
AcDbEntity
  8
DEFPOINTS
 62
     0
100
AcDbPoint
 10
313.8488348559091
 20
427.6481390480441
 30
0.0
  0
POINT
  5
2267
330
225D
100
AcDbEntity
  8
DEFPOINTS
 62
     0
100
AcDbPoint
 10
200.7117498660615
 20
314.5110540581965
 30
0.0
  0
POINT
  5
2268
330
225D
100
AcDbEntity
  8
DEFPOINTS
 62
     0
100
AcDbPoint
 10
200.7117498660614
 20
237.5110540581967
 30
0.0
  0
ENDBLK
  5
226A
330
225D
100
AcDbEntity
  8
0
100
AcDbBlockEnd
  0
BLOCK
  5
2286
330
227C
100
AcDbEntity
  8
0
100
AcDbBlockBegin
  2
*D8
 70
     1
 10
0.0
 20
0.0
 30
0.0
  3
*D8
  1

  0
LINE
  5
2289
330
227C
100
AcDbEntity
  8
BEM
 62
     0
370
    -2
100
AcDbLine
 10
243.7475363036883
 20
395.0234998987104
 30
0.0
 11
197.1126976921463
 21
348.3886612871686
 31
0.0
  0
LINE
  5
228A
330
227C
100
AcDbEntity
  8
BEM
 62
     0
370
    -2
100
AcDbLine
 10
243.7475363036881
 20
320.0701810929368
 30
0.0
 11
234.5893570950331
 21
310.9120018842818
 31
0.0
  0
LINE
  5
228B
330
227C
100
AcDbEntity
  8
BEM
 62
     0
370
    -2
100
AcDbLine
 10
203.4766587228252
 20
344.8531273812359
 30
0.0
 11
231.0538231891003
 21
317.2759629149607
 31
0.0
  0
SOLID
  5
228C
330
227C
100
AcDbEntity
  8
BEM
 62
     0
100
AcDbTrace
 10
204.3016166342096
 20
345.6780852926201
 30
0.0
 11
202.651700811441
 21
344.0281694698516
 31
0.0
 12
198.5269112545194
 22
349.8028748495418
 32
0.0
 13
198.5269112545194
 23
349.8028748495418
 33
0.0
  0
SOLID
  5
228D
330
227C
100
AcDbEntity
  8
BEM
 62
     0
100
AcDbTrace
 10
231.8787811004847
 20
318.100920826345
 30
0.0
 11
230.2288652777161
 21
316.4510050035764
 31
0.0
 12
236.0035706574062
 22
312.3262154466549
 32
0.0
 13
236.0035706574062
 23
312.3262154466549
 33
0.0
  0
MTEXT
  5
228E
330
227C
100
AcDbEntity
  8
BEM
 62
     1
100
AcDbMText
 10
221.8614350336755
 20
335.6607392258108
 30
0.0
 40
7.0
 41
0.0
 71
     5
 72
     1
  1
\A1;%%c53
 11
0.7071067811865463
 21
-0.7071067811865488
 31
0.0
 73
     1
 44
1.0
  0
POINT
  5
228F
330
227C
100
AcDbEntity
  8
DEFPOINTS
 62
     0
100
AcDbPoint
 10
245.1617498660614
 20
396.4377134610836
 30
0.0
  0
POINT
  5
2290
330
227C
100
AcDbEntity
  8
DEFPOINTS
 62
     0
100
AcDbPoint
 10
245.1617498660612
 20
321.4843946553099
 30
0.0
  0
POINT
  5
2291
330
227C
100
AcDbEntity
  8
DEFPOINTS
 62
     0
100
AcDbPoint
 10
236.0035706574062
 20
312.3262154466549
 30
0.0
  0
ENDBLK
  5
2287
330
227C
100
AcDbEntity
  8
0
100
AcDbBlockEnd
  0
ENDSEC
  0
SECTION
  2
ENTITIES
  0
TEXT
  5
134
330
1E
100
AcDbEntity
  8
TEXT
100
AcDbText
 10
204.4216048581257
 20
63.0896391972351
 30
0.0
 40
4.0
  1
Koeh
 41
0.8
  7
GREEKS
 72
     1
 11
209.6787477152686
 21
63.0896391972351
 31
0.0
100
AcDbText
  0
INSERT
  5
135
330
1E
100
AcDbEntity
  8
STEMPEL
100
AcDbBlockReference
  2
LOGO
 10
150.9955485457794
 20
45.02105276448322
 30
0.0
 41
2.0
 42
2.0
 43
2.0
  0
LINE
  5
136
330
1E
100
AcDbEntity
  8
HILF
100
AcDbLine
 10
420.0
 20
0.0
 30
0.0
 11
0.0
 21
0.0
 31
0.0
  0
LINE
  5
137
330
1E
100
AcDbEntity
  8
HILF
100
AcDbLine
 10
419.9999999999999
 20
594.0000000000002
 30
0.0
 11
0.0
 21
594.0
 31
0.0
  0
LINE
  5
138
330
1E
100
AcDbEntity
  8
STEMPEL
100
AcDbLine
 10
410.0
 20
584.0
 30
0.0
 11
39.99999999999989
 21
584.0
 31
0.0
  0
LINE
  5
139
330
1E
100
AcDbEntity
  8
STEMPEL
100
AcDbLine
 10
410.0
 20
10.0
 30
0.0
 11
39.99999999999989
 21
10.0
 31
0.0
  0
LINE
  5
13A
330
1E
100
AcDbEntity
  8
STEMPEL
100
AcDbLine
 10
49.99999999999989
 20
10.0
 30
0.0
 11
410.0
 21
10.0
 31
0.0
  0
TEXT
  5
13B
330
1E
100
AcDbEntity
  8
TEXT
100
AcDbText
 10
202.4626584226295
 20
73.30961091915225
 30
0.0
 40
4.0
  1
Name
 41
0.8
  7
GREEKS
100
AcDbText
  0
TEXT
  5
13C
330
1E
100
AcDbEntity
  8
TEXT
100
AcDbText
 10
196.5498279101549
 20
102.6506227776589
 30
0.0
 40
5.0
  1
Zul. Abw.
 41
0.8
  7
GREEKS
 72
     4
 11
209.9783993387263
 21
105.1506227776589
 31
0.0
100
AcDbText
  0
LINE
  5
13D
330
1E
100
AcDbEntity
  8
HILF
100
AcDbLine
 10
146.0000000000001
 20
49.99999999999997
 30
0.0
 11
230.0
 21
49.99999999999997
 31
0.0
  0
LINE
  5
13E
330
1E
100
AcDbEntity
  8
HILF
100
AcDbLine
 10
146.0000000000001
 20
59.99999999999997
 30
0.0
 11
230.0
 21
59.99999999999997
 31
0.0
  0
LINE
  5
13F
330
1E
100
AcDbEntity
  8
HILF
100
AcDbLine
 10
146.0000000000001
 20
69.99999999999994
 30
0.0
 11
230.0
 21
69.99999999999994
 31
0.0
  0
LINE
  5
140
330
1E
100
AcDbEntity
  8
STEMPEL
100
AcDbLine
 10
410.0
 20
80.0
 30
0.0
 11
146.0000000000001
 21
79.99999999999994
 31
0.0
  0
LINE
  5
141
330
1E
100
AcDbEntity
  8
STEMPEL
100
AcDbLine
 10
410.0
 20
40.0
 30
0.0
 11
146.0000000000001
 21
39.99999999999997
 31
0.0
  0
LINE
  5
142
330
1E
100
AcDbEntity
  8
STEMPEL
100
AcDbLine
 10
410.0
 20
110.0
 30
0.0
 11
39.99999999999997
 21
110.0
 31
0.0
  0
LINE
  5
144
330
1E
100
AcDbEntity
  8
HILF
100
AcDbLine
 10
0.0
 20
0.0
 30
0.0
 11
-0.0000000000001137
 21
594.0
 31
0.0
  0
LINE
  5
145
330
1E
100
AcDbEntity
  8
STEMPEL
100
AcDbLine
 10
40.0
 20
10.0
 30
0.0
 11
39.99999999999989
 21
584.0
 31
0.0
  0
TEXT
  5
146
330
1E
100
AcDbEntity
  8
TEXT
100
AcDbText
 10
41.85509950977674
 20
111.6719999999999
 30
0.0
 40
5.0
  1
Erstellt mit AUTOCAD 2004
 41
0.8
  7
GREEKS
100
AcDbText
  0
TEXT
  5
147
330
1E
100
AcDbEntity
  8
TEXT
100
AcDbText
 10
67.82662250653562
 20
18.67381894984132
 30
0.0
 40
4.0
  1
Änderung
 41
0.8
  7
GREEKS
 72
     1
 11
78.56947964939277
 21
18.67381894984132
 31
0.0
100
AcDbText
  0
LINE
  5
148
330
1E
100
AcDbEntity
  8
HILF
100
AcDbLine
 10
40.00000000000008
 20
39.99999999999997
 30
0.0
 11
146.0000000000001
 21
39.99999999999997
 31
0.0
  0
LINE
  5
149
330
1E
100
AcDbEntity
  8
HILF
100
AcDbLine
 10
40.00000000000008
 20
49.99999999999997
 30
0.0
 11
146.0000000000001
 21
49.99999999999997
 31
0.0
  0
LINE
  5
14A
330
1E
100
AcDbEntity
  8
HILF
100
AcDbLine
 10
40.00000000000008
 20
59.99999999999997
 30
0.0
 11
146.0000000000001
 21
59.99999999999997
 31
0.0
  0
LINE
  5
14B
330
1E
100
AcDbEntity
  8
HILF
100
AcDbLine
 10
40.00000000000008
 20
69.99999999999994
 30
0.0
 11
146.0000000000001
 21
69.99999999999994
 31
0.0
  0
LINE
  5
14C
330
1E
100
AcDbEntity
  8
HILF
100
AcDbLine
 10
40.00000000000008
 20
79.99999999999994
 30
0.0
 11
146.0000000000001
 21
79.99999999999994
 31
0.0
  0
LINE
  5
14D
330
1E
100
AcDbEntity
  8
HILF
100
AcDbLine
 10
40.00000000000008
 20
90.00000000000005
 30
0.0
 11
146.0000000000001
 21
90.00000000000005
 31
0.0
  0
LINE
  5
14E
330
1E
100
AcDbEntity
  8
HILF
100
AcDbLine
 10
40.00000000000008
 20
100.0
 30
0.0
 11
146.0000000000001
 21
100.0
 31
0.0
  0
LINE
  5
14F
330
1E
100
AcDbEntity
  8
STEMPEL
100
AcDbLine
 10
145.9999999999999
 20
29.99999999999997
 30
0.0
 11
39.99999999999997
 21
29.99999999999997
 31
0.0
  0
TEXT
  5
150
330
1E
100
AcDbEntity
  8
TEXT
100
AcDbText
 10
48.26641107045756
 20
13.65465846027192
 30
0.0
 40
4.0
  1
Index
 50
90.0
 41
0.8
  7
GREEKS
100
AcDbText
  0
LINE
  5
151
330
1E
100
AcDbEntity
  8
VOLL
100
AcDbLine
 10
54.00000000000009
 20
110.0
 30
0.0
 11
53.99999999999997
 21
9.999999999999971
 31
0.0
  0
LINE
  5
152
330
1E
100
AcDbEntity
  8
HILF
100
AcDbLine
 10
31.08767135713856
 20
297.0
 30
0.0
 11
0.0000000000001137
 21
297.0
 31
0.0
  0
TEXT
  5
153
330
1E
100
AcDbEntity
  8
TEXT
100
AcDbText
 10
110.1314052170812
 20
18.6715626933981
 30
0.0
 40
4.0
  1
Tag
 41
0.8
  7
GREEKS
 72
     1
 11
113.8647385504146
 21
18.6715626933981
 31
0.0
100
AcDbText
  0
LINE
  5
154
330
1E
100
AcDbEntity
  8
VOLL
100
AcDbLine
 10
124.0000000000001
 20
109.9999999999999
 30
0.0
 11
124.0
 21
9.999999999999971
 31
0.0
  0
LINE
  5
155
330
1E
100
AcDbEntity
  8
VOLL
100
AcDbLine
 10
104.0000000000001
 20
109.9999999999999
 30
0.0
 11
104.0
 21
9.999999999999971
 31
0.0
  0
TEXT
  5
156
330
1E
100
AcDbEntity
  8
TEXT
100
AcDbText
 10
128.5727686473826
 20
18.59324216966408
 30
0.0
 40
4.0
  1
Name
 41
0.8
  7
GREEKS
 72
     1
 11
134.8965781711921
 21
18.59324216966408
 31
0.0
100
AcDbText
  0
LINE
  5
157
330
1E
100
AcDbEntity
  8
STEMPEL
100
AcDbLine
 10
146.0000000000001
 20
109.9999999999999
 30
0.0
 11
146.0
 21
9.999999999999971
 31
0.0
  0
TEXT
  5
159
330
1E
100
AcDbEntity
  8
TEXT
100
AcDbText
 10
172.331167315365
 20
73.31880501229926
 30
0.0
 40
4.0
  1
Tag
 41
0.8
  7
GREEKS
100
AcDbText
  0
TEXT
  5
15A
330
1E
100
AcDbEntity
  8
TEXT
100
AcDbText
 10
147.5836127167615
 20
63.62990369617964
 30
0.0
 40
4.0
  1
Gez.
 41
0.8
  7
GREEKS
100
AcDbText
  0
LINE
  5
15B
330
1E
100
AcDbEntity
  8
VOLL
100
AcDbLine
 10
164.0000000000001
 20
79.99999999999994
 30
0.0
 11
164.0000000000001
 21
39.99999999999997
 31
0.0
  0
TEXT
  5
15C
330
1E
100
AcDbEntity
  8
TEXT
100
AcDbText
 10
147.6006777387303
 20
43.52946389649807
 30
0.0
 40
4.0
  1
Norm.
 41
0.8
  7
GREEKS
100
AcDbText
  0
TEXT
  5
15D
330
1E
100
AcDbEntity
  8
TEXT
100
AcDbText
 10
147.5515086571672
 20
53.68926291428377
 30
0.0
 40
4.0
  1
Gepr.
 41
0.8
  7
GREEKS
100
AcDbText
  0
TEXT
  5
15E
330
1E
100
AcDbEntity
  8
TEXT
 62
     1
100
AcDbText
 10
160.5006306481887
 20
88.14901428913959
 30
0.0
 40
7.0
  1
1:2
 41
0.8
  7
GREEKS
100
AcDbText
  0
TEXT
  5
15F
330
1E
100
AcDbEntity
  8
TEXT
100
AcDbText
 10
153.5163572150377
 20
102.4620895087088
 30
0.0
 40
5.0
  1
Maßstab
 41
0.8
  7
GREEKS
100
AcDbText
  0
TEXT
  5
160
330
1E
100
AcDbEntity
  8
TEXT
100
AcDbText
 10
148.622109822104
 20
73.14025471151666
 30
0.0
 40
4.0
  1
2011
 41
0.8
  7
GREEKS
100
AcDbText
  0
LINE
  5
161
330
1E
100
AcDbEntity
  8
VOLL
100
AcDbLine
 10
190.0000000000001
 20
109.9999999999998
 30
0.0
 11
190.0
 21
39.99999999999997
 31
0.0
  0
LINE
  5
186
330
1E
100
AcDbEntity
  8
HILF
100
AcDbLine
 10
420.0
 20
-0.0000000000001137
 30
0.0
 11
419.9999999999999
 21
594.0
 31
0.0
  0
LINE
  5
187
330
1E
100
AcDbEntity
  8
STEMPEL
100
AcDbLine
 10
410.0
 20
10.0
 30
0.0
 11
410.0
 21
584.0
 31
0.0
  0
TEXT
  5
188
330
1E
100
AcDbEntity
  8
TEXT
100
AcDbText
 10
337.2400861497006
 20
52.07416177878602
 30
0.0
 40
5.0
  1
ersetzt durch:
 41
0.8
  7
GREEKS
100
AcDbText
  0
TEXT
  5
189
330
1E
100
AcDbEntity
  8
TEXT
100
AcDbText
 10
336.7238616296993
 20
73.1811823709997
 30
0.0
 40
5.0
  1
Ersatz für:
 41
0.8
  7
GREEKS
100
AcDbText
  0
TEXT
  5
18A
330
1E
100
AcDbEntity
  8
TEXT
100
AcDbText
 10
336.178754957634
 20
102.3132034537136
 30
0.0
 40
5.0
  1
Zeichnungs Nr.
 41
0.8
  7
GREEKS
100
AcDbText
  0
LINE
  5
18B
330
1E
100
AcDbEntity
  8
HILF
100
AcDbLine
 10
233.4909699289885
 20
14.89398258028314
 30
0.0
 11
404.8588839326728
 21
14.89398258028314
 31
0.0
  0
LINE
  5
18C
330
1E
100
AcDbEntity
  8
HILF
100
AcDbLine
 10
336.7238616296993
 20
83.77983636955827
 30
0.0
 11
404.8588839326728
 21
83.77983636955827
 31
0.0
  0
LINE
  5
18D
330
1E
100
AcDbEntity
  8
VOLL
100
AcDbLine
 10
332.0
 20
60.0
 30
0.0
 11
410.0
 21
60.0
 31
0.0
  0
TEXT
  5
18E
330
1E
100
AcDbEntity
  8
TEXT
 62
     1
100
AcDbText
 10
234.9283864320014
 20
87.41748789253779
 30
0.0
 40
7.0
  1
Red.-Abzweig DN80/50
 41
0.7
  7
GREEKS
100
AcDbText
  0
LINE
  5
18F
330
1E
100
AcDbEntity
  8
HILF
100
AcDbLine
 10
234.7736801096947
 20
49.99999999999997
 30
0.0
 11
324.835391655631
 21
49.99999999999997
 31
0.0
  0
LINE
  5
190
330
1E
100
AcDbEntity
  8
HILF
100
AcDbLine
 10
234.7736801096947
 20
59.99999999999997
 30
0.0
 11
324.835391655631
 21
59.99999999999997
 31
0.0
  0
LINE
  5
191
330
1E
100
AcDbEntity
  8
HILF
100
AcDbLine
 10
234.7736801096947
 20
69.99999999999994
 30
0.0
 11
324.835391655631
 21
69.99999999999994
 31
0.0
  0
LINE
  5
192
330
1E
100
AcDbEntity
  8
HILF
100
AcDbLine
 10
234.7736801096947
 20
84.03758247564139
 30
0.0
 11
324.8353916556311
 21
84.03758247564139
 31
0.0
  0
LINE
  5
193
330
1E
100
AcDbEntity
  8
STEMPEL
100
AcDbLine
 10
230.0
 20
110.0
 30
0.0
 11
230.0
 21
9.999999999999971
 31
0.0
  0
TEXT
  5
194
330
1E
100
AcDbEntity
  8
TEXT
100
AcDbText
 10
235.1296391125315
 20
71.50334417585288
 30
0.0
 40
5.0
  1
dünnwandig 45° 
 41
0.8
  7
GREEKS
100
AcDbText
  0
TEXT
  5
195
330
1E
100
AcDbEntity
  8
TEXT
100
AcDbText
 10
234.9837501577827
 20
42.62974153022632
 30
0.0
 40
4.0
  1
5250MB0W.DWG
 41
0.8
  7
GREEKS
100
AcDbText
  0
TEXT
  5
196
330
1E
100
AcDbEntity
  8
TEXT
100
AcDbText
 10
234.742238391136
 20
30.84560570193057
 30
0.0
 40
5.0
  1
Bauvorhaben
 41
0.8
  7
GREEKS
100
AcDbText
  0
TEXT
  5
197
330
1E
100
AcDbEntity
  8
TEXT
100
AcDbText
 10
234.877940380901
 20
102.5489328011779
 30
0.0
 40
5.0
  1
Benennung
 41
0.8
  7
GREEKS
100
AcDbText
  0
LINE
  5
198
330
1E
100
AcDbEntity
  8
STEMPEL
100
AcDbLine
 10
332.0
 20
109.9999999999997
 30
0.0
 11
332.0
 21
40.0
 31
0.0
  0
TEXT
  5
19A
330
1E
100
AcDbEntity
  8
TEXT
 62
     1
100
AcDbText
 10
348.7916439635661
 20
88.65493242500656
 30
0.0
 40
7.0
  1
5250MB0W
 41
0.8
  7
GREEKS
 72
     1
 11
370.7916439635661
 21
88.65493242500656
 31
0.0
100
AcDbText
  0
TEXT
  5
212
330
1E
100
AcDbEntity
  8
TEXT
100
AcDbText
 10
235.1296391125315
 20
51.50334417585291
 30
0.0
 40
5.0
  1
EDV-Art.Nr. 5.250.MB0C
 41
0.8
  7
GREEKS
100
AcDbText
  0
TEXT
  5
255
330
1E
100
AcDbEntity
  8
TEXT
 62
     1
100
AcDbText
 10
297.0573649355706
 20
132.2248663682012
 30
0.0
 40
7.0
  1
Werkstoff: 1.4404
 41
0.8
  7
GREEKS
100
AcDbText
  0
LINE
  5
1283
330
1E
100
AcDbEntity
  8
STEMPEL
100
AcDbLine
 10
247.963663654038
 20
487.5143469625266
 30
0.0
 11
153.4598360780851
 21
487.5143469625266
 31
0.0
  0
LINE
  5
1293
330
1E
100
AcDbEntity
  8
MITTEL
100
AcDbLine
 10
200.7117498660615
 20
492.5143469625265
 30
0.0
 11
200.7117498660614
 21
237.5110540581967
 31
0.0
  0
LINE
  5
12C7
330
1E
100
AcDbEntity
  8
STEMPEL
100
AcDbLine
 10
244.7243065484316
 20
242.5110540581967
 30
0.0
 11
156.699193183691
 21
242.5110540581965
 31
0.0
  0
DIMENSION
  5
12CA
330
1E
100
AcDbEntity
  8
BEM
100
AcDbDimension
  2
*D1
 10
124.9663309295382
 20
487.5143469625267
 30
0.0
 11
118.4663309295381
 21
365.0127005103616
 31
0.0
 70
    32
 71
     5
 42
245.0032929043302
  3
Standard
100
AcDbAlignedDimension
 13
156.699193183691
 23
242.5110540581965
 33
0.0
 14
153.4598360780851
 24
487.5143469625266
 34
0.0
 50
90.0
100
AcDbRotatedDimension
1001
ACAD
1000
DSTYLE
1002
{
1070
    40
1040
2.0
1070
    41
1040
3.5
1070
    42
1040
1.0
1070
    43
1040
7.0
1070
    44
1040
1.0
1070
    73
1070
     0
1070
    74
1070
     0
1070
    77
1070
     1
1070
    78
1070
     8
1070
    79
1070
     2
1070
   140
1040
3.5
1070
   141
1040
1.5
1070
   146
1040
0.5
1070
   147
1040
1.5
1070
   172
1070
     1
1070
   178
1070
     1
1070
   179
1070
     2
1070
   271
1070
     2
1070
   272
1070
     2
1070
   284
1070
     8
1070
   285
1070
     8
1070
   286
1070
     8
1002
}
  0
LINE
  5
13C9
330
1E
100
AcDbEntity
  8
MITTEL
100
AcDbLine
 10
313.8488348559091
 20
427.6481390480441
 30
0.0
 11
228.0872261573932
 21
341.8865303495283
 31
0.0
  0
TEXT
  5
13CA
330
1E
100
AcDbEntity
  8
TEXT
 62
     1
100
AcDbText
 10
258.6166242382427
 20
379.3867112954442
 30
0.0
 40
7.0
  1
DN50
 50
44.99999999999992
 41
0.8
  7
GREEKS
100
AcDbText
  0
DIMENSION
  5
13FA
330
1E
100
AcDbEntity
  8
BEM
100
AcDbDimension
  2
*D2
 10
140.406321020561
 20
314.5110540581966
 30
0.0
 11
133.906321020561
 21
278.5110540581966
 31
0.0
 70
    32
 71
     5
 42
72.00000000000011
  3
Standard
100
AcDbAlignedDimension
 13
156.699193183691
 23
242.5110540581965
 33
0.0
 14
200.7117498660614
 24
314.5110540581966
 34
0.0
 50
90.0
100
AcDbRotatedDimension
1001
ACAD
1000
DSTYLE
1002
{
1070
    40
1040
2.0
1070
    41
1040
3.5
1070
    42
1040
1.0
1070
    43
1040
7.0
1070
    44
1040
1.0
1070
    73
1070
     0
1070
    74
1070
     0
1070
    77
1070
     1
1070
    78
1070
     8
1070
    79
1070
     2
1070
   140
1040
3.5
1070
   141
1040
1.5
1070
   146
1040
0.5
1070
   147
1040
1.5
1070
   172
1070
     1
1070
   178
1070
     1
1070
   179
1070
     2
1070
   271
1070
     2
1070
   272
1070
     2
1070
   284
1070
     8
1070
   285
1070
     8
1070
   286
1070
     8
1002
}
  0
TEXT
  5
14B3
330
1E
100
AcDbEntity
  8
TEXT
 62
     1
100
AcDbText
 10
196.4306018870931
 20
396.3865249948041
 30
0.0
 40
7.0
  1
DN80
 50
89.99999999999996
 41
0.8
  7
GREEKS
100
AcDbText
  0
TEXT
  5
1630
330
1E
100
AcDbEntity
  8
VOLL
100
AcDbText
 10
530.1602023581097
 20
204.0789315492053
 30
0.0
 40
1.8
  1

  7
GREEKS
100
AcDbText
  0
ARC
  5
17AF
330
1E
100
AcDbEntity
  8
STEMPEL
100
AcDbCircle
 10
174.3617498660615
 20
475.3180360448761
 30
0.0
 40
24.2
100
AcDbArc
 50
149.7363480579014
 51
179.9999999999999
  0
ARC
  5
17B0
330
1E
100
AcDbEntity
  8
STEMPEL
100
AcDbCircle
 10
147.0617498660615
 20
422.6646047013337
 30
0.0
 40
9.200000000000001
100
AcDbArc
 50
0.0
 51
28.95502437185922
  0
ARC
  5
17B1
330
1E
100
AcDbEntity
  8
STEMPEL
100
AcDbCircle
 10
165.2617498660616
 20
432.7343614014728
 30
0.0
 40
11.6
100
AcDbArc
 50
179.9999999999999
 51
208.9550243718591
  0
ARC
  5
17B2
330
1E
100
AcDbEntity
  8
STEMPEL
100
AcDbCircle
 10
140.0617498660616
 20
451.7288189574525
 30
0.0
 40
13.6
100
AcDbArc
 50
0.0
 51
24.85050234022823
  0
LINE
  5
17B3
330
1E
100
AcDbEntity
  8
STEMPEL
100
AcDbLine
 10
153.6617498660616
 20
451.7288189574525
 30
0.0
 11
153.6617498660615
 21
432.7343614014729
 31
0.0
  0
ARC
  5
17B4
330
1E
100
AcDbEntity
  8
STEMPEL
100
AcDbCircle
 10
174.3617498660615
 20
467.6143469625266
 30
0.0
 40
24.2
100
AcDbArc
 50
179.9999999999999
 51
204.8505023402282
  0
LINE
  5
17B5
330
1E
100
AcDbEntity
  8
STEMPEL
100
AcDbLine
 10
150.1617498660615
 20
475.3180360448762
 30
0.0
 11
150.1617498660616
 21
467.6143469625267
 31
0.0
  0
LINE
  5
17B6
330
1E
100
AcDbEntity
  8
STEMPEL
100
AcDbLine
 10
156.2617498660615
 20
422.6646047013337
 30
0.0
 11
156.2617498660614
 21
247.5110540581965
 31
0.0
  0
ARC
  5
17B7
330
1E
100
AcDbEntity
  8
STEMPEL
100
AcDbCircle
 10
227.0617498660615
 20
475.3180360448761
 30
0.0
 40
24.2
100
AcDbArc
 50
0.0
 51
30.26365194209844
  0
ARC
  5
17B8
330
1E
100
AcDbEntity
  8
STEMPEL
100
AcDbCircle
 10
236.1617498660613
 20
432.7343614014728
 30
0.0
 40
11.6
100
AcDbArc
 50
331.0449756281407
 51
0.0
  0
LINE
  5
17B9
102
{ACAD_REACTORS
330
225B
102
}
330
1E
100
AcDbEntity
  8
STEMPEL
100
AcDbLine
 10
245.1617498660614
 20
422.6646047013337
 30
0.0
 11
245.1617498660615
 21
396.4377134610836
 31
0.0
  0
ARC
  5
17BA
330
1E
100
AcDbEntity
  8
STEMPEL
100
AcDbCircle
 10
254.3617498660615
 20
422.6646047013337
 30
0.0
 40
9.200000000000001
100
AcDbArc
 50
151.0449756281407
 51
179.9999999999999
  0
ARC
  5
17BB
330
1E
100
AcDbEntity
  8
STEMPEL
100
AcDbCircle
 10
261.3617498660615
 20
451.7288189574523
 30
0.0
 40
13.6
100
AcDbArc
 50
155.1494976597716
 51
179.9999999999999
  0
LINE
  5
17BC
330
1E
100
AcDbEntity
  8
STEMPEL
100
AcDbLine
 10
247.7617498660614
 20
451.7288189574524
 30
0.0
 11
247.7617498660614
 21
432.7343614014728
 31
0.0
  0
ARC
  5
17BD
330
1E
100
AcDbEntity
  8
STEMPEL
100
AcDbCircle
 10
227.0617498660615
 20
467.6143469625266
 30
0.0
 40
24.2
100
AcDbArc
 50
335.1494976597718
 51
0.0
  0
LINE
  5
17BE
330
1E
100
AcDbEntity
  8
STEMPEL
100
AcDbLine
 10
251.2617498660614
 20
475.3180360448761
 30
0.0
 11
251.2617498660614
 21
467.6143469625266
 31
0.0
  0
LINE
  5
17BF
330
1E
100
AcDbEntity
  8
HILF
100
AcDbLine
 10
246.8539231150613
 20
454.6550730412536
 30
0.0
 11
154.5695766170618
 21
454.6550730412538
 31
0.0
  0
LINE
  5
17C0
330
1E
100
AcDbEntity
  8
HILF
100
AcDbLine
 10
246.1492420437805
 20
429.8343614014728
 30
0.0
 11
155.2742576883425
 21
429.834361401473
 31
0.0
  0
LINE
  5
17C1
330
1E
100
AcDbEntity
  8
HILF
100
AcDbLine
 10
244.2192649634354
 20
424.9646047013336
 30
0.0
 11
157.2042347686877
 21
424.9646047013337
 31
0.0
  0
LINE
  5
17CB
330
1E
100
AcDbEntity
  8
HILF
100
AcDbLine
 10
243.9571660610092
 20
247.5110540581967
 30
0.0
 11
157.4663336711134
 21
247.5110540581965
 31
0.0
  0
LINE
  5
17CC
330
1E
100
AcDbEntity
  8
STEMPEL
100
AcDbLine
 10
156.2617498660614
 20
247.5110540581965
 30
0.0
 11
156.699193183691
 21
242.5110540581965
 31
0.0
  0
LINE
  5
17CF
330
1E
100
AcDbEntity
  8
STEMPEL
100
AcDbLine
 10
245.1617498660614
 20
247.5110540581995
 30
0.0
 11
244.7243065484316
 21
242.5110540581967
 31
0.0
  0
LINE
  5
17F6
102
{ACAD_REACTORS
330
224C
102
}
330
1E
100
AcDbEntity
  8
STEMPEL
100
AcDbLine
 10
245.1617498660614
 20
321.48439465531
 30
0.0
 11
245.1617498660614
 21
247.5110540581995
 31
0.0
  0
DIMENSION
  5
18E4
330
1E
100
AcDbEntity
  8
BEM
100
AcDbDimension
  2
*D4
 10
245.1617498660614
 20
221.8201687736846
 30
0.0
 11
200.7117498660615
 21
228.3201687736846
 31
0.0
 70
    32
  1
%%c<>
 71
     5
 42
88.89999999999998
  3
Standard
100
AcDbAlignedDimension
 13
156.2617498660614
 23
247.5110540581965
 33
0.0
 14
245.1617498660614
 24
247.5110540581995
 34
0.0
100
AcDbRotatedDimension
1001
ACAD
1000
DSTYLE
1002
{
1070
    40
1040
2.0
1070
    41
1040
3.5
1070
    42
1040
1.0
1070
    43
1040
7.0
1070
    44
1040
1.0
1070
    73
1070
     0
1070
    74
1070
     0
1070
    77
1070
     1
1070
    78
1070
     8
1070
    79
1070
     2
1070
   140
1040
3.5
1070
   141
1040
1.5
1070
   146
1040
0.5
1070
   147
1040
1.5
1070
   172
1070
     1
1070
   178
1070
     1
1070
   179
1070
     2
1070
   271
1070
     2
1070
   272
1070
     2
1070
   284
1070
     8
1070
   285
1070
     8
1070
   286
1070
     8
1002
}
  0
DIMENSION
  5
18FA
330
1E
100
AcDbEntity
  8
BEM
100
AcDbDimension
  2
*D5
 10
342.0447974176644
 20
392.3811086744235
 30
0.0
 11
282.6478277979939
 21
342.1765272101789
 31
0.0
 70
    32
 71
     5
 42
155.0000000000004
 51
357.0
  3
Standard
100
AcDbAlignedDimension
 13
200.7117498660614
 23
314.5110540581965
 33
0.0
 14
330.8315900830065
 24
403.5943160090813
 34
0.0
 50
44.99999999999966
100
AcDbRotatedDimension
1001
ACAD
1000
DSTYLE
1002
{
1070
    40
1040
2.0
1070
    41
1040
3.5
1070
    42
1040
1.0
1070
    43
1040
7.0
1070
    44
1040
1.0
1070
    73
1070
     0
1070
    74
1070
     0
1070
    77
1070
     1
1070
    78
1070
     8
1070
    79
1070
     2
1070
   140
1040
3.5
1070
   141
1040
1.5
1070
   146
1040
0.5
1070
   147
1040
1.5
1070
   172
1070
     1
1070
   178
1070
     1
1070
   179
1070
     2
1070
   271
1070
     2
1070
   272
1070
     2
1070
   284
1070
     8
1070
   285
1070
     8
1070
   286
1070
     8
1002
}
  0
TEXT
  5
1916
330
1E
100
AcDbEntity
  8
BEM
100
AcDbText
 10
416.5811541437437
 20
12.14804815338303
 30
0.0
 40
4.0
  1
Diese Zeichnung ist urheberrechtlich geschützt und bleibt unser Eigentum. Sie darf weder ganz noch teilweise vervielfältigt und nicht an Dritte weitergegeben werden.
 50
90.0
 41
0.8
  7
GREEKS
100
AcDbText
  0
TEXT
  5
1917
330
1E
100
AcDbEntity
  8
TEXT
100
AcDbText
 10
192.6882715247924
 20
89.06436657071457
 30
0.0
 40
4.0
  1
DIN EN1124-3
 41
0.8
  7
GREEKS
 72
     1
 11
209.6787477152686
 21
89.06436657071457
 31
0.0
100
AcDbText
  0
TEXT
  5
1E1F
330
1E
100
AcDbEntity
  8
VOLL
100
AcDbText
 10
524.1198370604965
 20
211.2748311206372
 30
0.0
 40
1.8
  1

  7
GREEKS
100
AcDbText
  0
LINE
  5
1E2B
330
1E
100
AcDbEntity
  8
STEMPEL
100
AcDbLine
 10
330.8315900830065
 20
403.5943160090813
 30
0.0
 11
289.7950118169463
 21
444.6308942751417
 31
0.0
  0
ARC
  5
1E2F
330
1E
100
AcDbEntity
  8
STEMPEL
100
AcDbCircle
 10
296.0677783590112
 20
426.6962239433862
 30
0.0
 40
19.0
100
AcDbArc
 50
109.2776135077998
 51
134.9999999999999
  0
LINE
  5
1E30
330
1E
100
AcDbEntity
  8
STEMPEL
100
AcDbLine
 10
282.6327495164668
 20
440.1312527859306
 30
0.0
 11
279.3858645544391
 21
436.8843678239029
 31
0.0
  0
LINE
  5
1E32
102
{ACAD_REACTORS
330
225B
102
}
330
1E
100
AcDbEntity
  8
STEMPEL
100
AcDbLine
 10
261.5154902230888
 20
412.791453818111
 30
0.0
 11
245.1617498660615
 21
396.4377134610836
 31
0.0
  0
ARC
  5
1E34
330
1E
100
AcDbEntity
  8
STEMPEL
100
AcDbCircle
 10
296.7099806935096
 20
419.5602516848324
 30
0.0
 40
24.5
100
AcDbArc
 50
134.9999999999999
 51
154.6048616874637
  0
LINE
  5
1E36
330
1E
100
AcDbEntity
  8
STEMPEL
100
AcDbLine
 10
272.6147253449398
 20
427.2848014896575
 30
0.0
 11
266.7119091240868
 21
421.3819852688045
 31
0.0
  0
ARC
  5
1E37
330
1E
100
AcDbEntity
  8
STEMPEL
100
AcDbCircle
 10
265.5436575330743
 20
434.3558693015227
 30
0.0
 40
10.0
100
AcDbArc
 50
315.0
 51
334.6048616874638
  0
ARC
  5
1E3B
330
1E
100
AcDbEntity
  8
STEMPEL
100
AcDbCircle
 10
274.8436371077322
 20
413.250257285159
 30
0.0
 40
11.5
100
AcDbArc
 50
134.9999999999999
 51
162.660449899301
  0
ARC
  5
1E3C
330
1E
100
AcDbEntity
  8
STEMPEL
100
AcDbCircle
 10
254.7979758018168
 20
419.5089682393832
 30
0.0
 40
9.5
100
AcDbArc
 50
315.0
 51
342.6604498993011
  0
ARC
  5
1E3E
330
1E
100
AcDbEntity
  8
STEMPEL
100
AcDbCircle
 10
305.7096640472483
 20
368.5972799939516
 30
0.0
 40
9.5
100
AcDbArc
 50
107.3395501006989
 51
134.9999999999999
  0
ARC
  5
1E3F
330
1E
100
AcDbEntity
  8
STEMPEL
100
AcDbCircle
 10
299.450953093024
 20
388.6429412998672
 30
0.0
 40
11.5
100
AcDbArc
 50
287.339550100699
 51
315.0
  0
ARC
  5
1E43
330
1E
100
AcDbEntity
  8
STEMPEL
100
AcDbCircle
 10
320.5565651093878
 20
379.3429617252094
 30
0.0
 40
10.0
100
AcDbArc
 50
115.3951383125362
 51
134.9999999999999
  0
LINE
  5
1E44
330
1E
100
AcDbEntity
  8
STEMPEL
100
AcDbLine
 10
313.4854972975221
 20
386.414029537075
 30
0.0
 11
307.5826810766691
 21
380.5112133162221
 31
0.0
  0
ARC
  5
1E46
330
1E
100
AcDbEntity
  8
STEMPEL
100
AcDbCircle
 10
305.7609474926973
 20
410.5092848856446
 30
0.0
 40
24.5
100
AcDbArc
 50
295.3951383125362
 51
315.0
  0
LINE
  5
1E48
102
{ACAD_REACTORS
330
224C
102
}
330
1E
100
AcDbEntity
  8
STEMPEL
100
AcDbLine
 10
298.9921496259758
 20
375.314794415224
 30
0.0
 11
245.1617498660613
 21
321.48439465531
 31
0.0
  0
LINE
  5
1E4A
330
1E
100
AcDbEntity
  8
STEMPEL
100
AcDbLine
 10
326.3319485937953
 20
396.4320537086018
 30
0.0
 11
323.0850636317677
 21
393.1851687465743
 31
0.0
  0
ARC
  5
1E4B
330
1E
100
AcDbEntity
  8
STEMPEL
100
AcDbCircle
 10
312.8969197512511
 20
409.8670825511463
 30
0.0
 40
19.0
100
AcDbArc
 50
315.0
 51
340.7223864922001
  0
LINE
  5
1F83
330
1E
100
AcDbEntity
  8
HILF
100
AcDbLine
 10
314.0759767090941
 20
388.2312671872185
 30
0.0
 11
274.4319629950834
 21
427.8752809012291
 31
0.0
  0
LINE
  5
1F84
330
1E
100
AcDbEntity
  8
HILF
100
AcDbLine
 10
265.7341400916423
 20
418.4720447294977
 30
0.0
 11
304.6727405373625
 21
379.5334442837776
 31
0.0
  0
LINE
  5
1F85
330
1E
100
AcDbEntity
  8
HILF
100
AcDbLine
 10
263.65266042668
 20
413.8658697824883
 30
0.0
 11
300.0665655903533
 21
377.4519646188151
 31
0.0
  0
ELLIPSE
  5
2209
330
1E
100
AcDbEntity
  8
STEMPEL
100
AcDbEllipse
 10
245.1617498660614
 20
350.197921390592
 30
0.0
 11
0.0
 21
-28.71352673528202
 31
0.0
210
0.0
220
0.0
230
1.0
 40
0.3051917916038043
 41
4.712388980384689
 42
6.283185307179586
  0
ELLIPSE
  5
220A
330
1E
100
AcDbEntity
  8
STEMPEL
100
AcDbEllipse
 10
245.1617498660614
 20
350.197921390592
 30
0.0
 11
0.0
 21
-46.23979207049161
 31
0.0
210
0.0
220
0.0
230
1.0
 40
0.1895149669843938
 41
3.141592653589793
 42
4.712388980384689
  0
ARC
  5
2227
330
1E
100
AcDbEntity
  8
SCHRAFF
100
AcDbCircle
 10
245.1617498660615
 20
396.4377134610836
 30
0.0
 40
5.0
100
AcDbArc
 50
192.0271849230292
 51
255.9949582109721
  0
ARC
  5
2229
330
1E
100
AcDbEntity
  8
SCHRAFF
100
AcDbCircle
 10
241.7478726755746
 20
392.784572000878
 30
0.0
 40
5.0
100
AcDbArc
 50
220.5313224585466
 51
280.6569455088493
  0
ARC
  5
222A
330
1E
100
AcDbEntity
  8
SCHRAFF
100
AcDbCircle
 10
240.1295724269586
 20
388.0537048176508
 30
0.0
 40
5.0
100
AcDbArc
 50
226.8974817063504
 51
286.9285043376657
  0
ARC
  5
222B
330
1E
100
AcDbEntity
  8
SCHRAFF
100
AcDbCircle
 10
239.0195878614863
 20
383.1784679757719
 30
0.0
 40
5.0
100
AcDbArc
 50
230.3295466189074
 51
290.3450532454914
  0
ARC
  5
222C
330
1E
100
AcDbEntity
  8
SCHRAFF
100
AcDbCircle
 10
238.1949896474396
 20
378.2469329423983
 30
0.0
 40
5.0
100
AcDbArc
 50
232.6776290217427
 51
292.6879123364876
  0
ARC
  5
222D
330
1E
100
AcDbEntity
  8
SCHRAFF
100
AcDbCircle
 10
237.569203325372
 20
373.2862483647303
 30
0.0
 40
5.0
100
AcDbArc
 50
234.4938464202911
 51
294.4971121196179
  0
ARC
  5
222E
330
1E
100
AcDbEntity
  8
SCHRAFF
100
AcDbCircle
 10
237.0987226255607
 20
368.3084327884856
 30
0.0
 40
5.0
100
AcDbArc
 50
236.0084273727008
 51
296.0152973916678
  0
ARC
  5
222F
330
1E
100
AcDbEntity
  8
SCHRAFF
100
AcDbCircle
 10
236.7588828730954
 20
363.3199952633035
 30
0.0
 40
5.0
100
AcDbArc
 50
237.3497542517423
 51
297.352583329803
  0
ARC
  5
2230
330
1E
100
AcDbEntity
  8
SCHRAFF
100
AcDbCircle
 10
236.5350318527387
 20
358.3250087046945
 30
0.0
 40
5.0
100
AcDbArc
 50
238.5865095562016
 51
298.5881136647066
  0
ARC
  5
2231
330
1E
100
AcDbEntity
  8
SCHRAFF
100
AcDbCircle
 10
236.418696629296
 20
353.3263622763314
 30
0.0
 40
5.0
100
AcDbArc
 50
239.8320288073409
 51
299.8401878214481
  0
ARC
  5
2232
330
1E
100
AcDbEntity
  8
SCHRAFF
100
AcDbCircle
 10
236.4172520237868
 20
348.32636248502
 30
0.0
 40
5.0
100
AcDbArc
 50
242.4786298124423
 51
302.4984639921255
  0
ARC
  5
2233
330
1E
100
AcDbEntity
  8
SCHRAFF
100
AcDbCircle
 10
236.6528375203526
 20
343.3319156213715
 30
0.0
 40
5.0
100
AcDbArc
 50
245.7768040922678
 51
305.8028524013711
  0
ARC
  5
2234
330
1E
100
AcDbEntity
  8
SCHRAFF
100
AcDbCircle
 10
237.1780802130079
 20
338.3595801425635
 30
0.0
 40
5.0
100
AcDbArc
 50
249.6734841938638
 51
309.7202335919325
  0
ARC
  5
2235
330
1E
100
AcDbEntity
  8
SCHRAFF
100
AcDbCircle
 10
238.0468377180191
 20
333.4356324989053
 30
0.0
 40
5.0
100
AcDbArc
 50
254.9532132701163
 51
315.0467605368232
  0
ARC
  5
2236
330
1E
100
AcDbEntity
  8
SCHRAFF
100
AcDbCircle
 10
239.3813564010248
 20
328.6170165269995
 30
0.0
 40
5.0
100
AcDbArc
 50
263.9444769197017
 51
324.3950342280398
  0
ARC
  5
2238
102
{ACAD_REACTORS
330
224C
102
}
330
1E
100
AcDbEntity
  8
SCHRAFF
100
AcDbCircle
 10
245.1617498660614
 20
321.48439465531
 30
0.0
 40
2.5
100
AcDbArc
 50
270.0
 51
44.99999999999907
  0
HATCH
  5
224C
330
1E
100
AcDbEntity
  8
SCHRAFF
100
AcDbHatch
 10
0.0
 20
0.0
 30
0.0
210
0.0
220
0.0
230
1.0
  2
_USER
 70
     0
 71
     1
 91
        1
 92
        7
 72
     1
 73
     1
 93
        4
 10
247.6617498660614
 20
321.48439465531
 42
0.1989123673796601
 10
246.9295168190277
 20
323.2521616082764
 42
0.0
 10
245.1617498660613
 20
321.48439465531
 42
0.0
 10
245.1617498660613
 20
318.98439465531
 42
0.4142135623730984
 97
        3
330
2238
330
1E48
330
17F6
 75
     0
 76
     0
 52
0.0
 41
0.1
 77
     0
 78
     1
 53
0.0
 43
0.0
 44
0.0
 45
0.0
 46
0.1
 79
     0
 47
0.1145076988603271
 98
        1
 10
245.5519067721134
 20
320.5041476934566
  0
ARC
  5
224E
102
{ACAD_REACTORS
330
225B
102
}
330
1E
100
AcDbEntity
  8
SCHRAFF
100
AcDbCircle
 10
245.1617498660614
 20
396.4377134610836
 30
0.0
 40
6.177006970742857
100
AcDbArc
 50
44.99999999999963
 51
89.99999999999948
  0
HATCH
  5
225B
330
1E
100
AcDbEntity
  8
SCHRAFF
100
AcDbHatch
 10
0.0
 20
0.0
 30
0.0
210
0.0
220
0.0
230
1.0
  2
_USER
 70
     0
 71
     1
 91
        1
 92
        7
 72
     1
 73
     1
 93
        3
 10
249.5295533825102
 20
400.8055169775324
 42
0.198912367379656
 10
245.1617498660615
 20
402.6147204318264
 42
0.0
 10
245.1617498660615
 20
396.4377134610836
 42
0.0
 97
        3
330
224E
330
17B9
330
1E32
 75
     0
 76
     0
 52
0.0
 41
0.1
 77
     0
 78
     1
 53
0.0
 43
0.0
 44
0.0
 45
0.0
 46
0.1
 79
     0
 47
0.1383634695723998
 98
        1
 10
245.8550973999781
 20
399.8842250752414
  0
DIMENSION
  5
225C
330
1E
100
AcDbEntity
  8
BEM
100
AcDbDimension
  2
*D7
 10
200.7117498660614
 20
237.5110540581967
 30
0.0
 11
278.5469015331695
 21
502.4217328422953
 31
0.0
 70
    34
 71
     5
 42
0.7853981633974483
  3
Standard
100
AcDb2LineAngularDimension
 13
313.8488348559091
 23
427.6481390480441
 33
0.0
 14
200.7117498660615
 24
314.5110540581965
 34
0.0
 15
200.7117498660615
 25
492.5143469625265
 35
0.0
 16
299.1582763998406
 26
485.0254398433793
 36
0.0
1001
ACAD
1000
DSTYLE
1002
{
1070
    40
1040
2.0
1070
    41
1040
3.5
1070
    42
1040
1.0
1070
    43
1040
7.0
1070
    44
1040
1.0
1070
    73
1070
     0
1070
    74
1070
     0
1070
    77
1070
     1
1070
    78
1070
     8
1070
    79
1070
     2
1070
   140
1040
3.5
1070
   141
1040
1.5
1070
   146
1040
0.5
1070
   147
1040
1.5
1070
   172
1070
     1
1070
   178
1070
     1
1070
   179
1070
     2
1070
   271
1070
     2
1070
   272
1070
     2
1070
   284
1070
     8
1070
   285
1070
     8
1070
   286
1070
     8
1002
}
  0
DIMENSION
  5
227B
330
1E
100
AcDbEntity
  8
BEM
100
AcDbDimension
  2
*D8
 10
236.0035706574062
 20
312.3262154466549
 30
0.0
 11
221.8614350336754
 21
335.6607392258109
 31
0.0
 70
    32
  1
%%c<>
 71
     5
 42
52.99999999999972
 51
45.00000000000009
  3
Standard
100
AcDbAlignedDimension
 13
245.1617498660614
 23
396.4377134610836
 33
0.0
 14
245.1617498660612
 24
321.4843946553099
 34
0.0
 50
314.9999999999999
100
AcDbRotatedDimension
1001
ACAD
1000
DSTYLE
1002
{
1070
    40
1040
2.0
1070
    41
1040
3.5
1070
    42
1040
1.0
1070
    43
1040
7.0
1070
    44
1040
1.0
1070
    73
1070
     0
1070
    74
1070
     0
1070
    77
1070
     1
1070
    78
1070
     8
1070
    79
1070
     2
1070
   140
1040
3.5
1070
   141
1040
1.5
1070
   146
1040
0.5
1070
   147
1040
1.5
1070
   172
1070
     1
1070
   178
1070
     1
1070
   179
1070
     2
1070
   271
1070
     2
1070
   272
1070
     2
1070
   284
1070
     8
1070
   285
1070
     8
1070
   286
1070
     8
1002
}
  0
LINE
  5
2288
330
1E
100
AcDbEntity
  8
MITTEL
100
AcDbLine
 10
214.239937787834
 20
328.0392419799691
 30
0.0
 11
200.7117498660615
 21
314.5110540581965
 31
0.0
  0
TEXT
  5
22BB
330
1E
100
AcDbEntity
  8
TEXT
100
AcDbText
 10
170.398997108236
 20
63.10765040825732
 30
0.0
 40
4.0
  1
08.04.
 41
0.8
  7
GREEKS
 72
     1
 11
177.4085209177598
 21
63.10765040825732
 31
0.0
100
AcDbText
  0
ENDSEC
  0
SECTION
  2
OBJECTS
  0
DICTIONARY
  5
C
330
0
100
AcDbDictionary
281
     1
  3
ACAD_COLOR
350
1470
  3
ACAD_GROUP
350
D
  3
ACAD_LAYOUT
350
19
  3
ACAD_MATERIAL
350
146F
  3
ACAD_MLINESTYLE
350
16
  3
ACAD_PLOTSETTINGS
350
18
  3
ACAD_PLOTSTYLENAME
350
E
  3
AcDbVariableDictionary
350
246
  0
DICTIONARY
  5
1470
102
{ACAD_REACTORS
330
C
102
}
330
C
100
AcDbDictionary
281
     1
  0
DICTIONARY
  5
D
102
{ACAD_REACTORS
330
C
102
}
330
C
100
AcDbDictionary
281
     1
  0
DICTIONARY
  5
19
102
{ACAD_REACTORS
330
C
102
}
330
C
100
AcDbDictionary
281
     1
  3
Layout1
350
1D
  3
Model
350
21
  0
DICTIONARY
  5
146F
102
{ACAD_REACTORS
330
C
102
}
330
C
100
AcDbDictionary
281
     1
  0
DICTIONARY
  5
16
102
{ACAD_REACTORS
330
C
102
}
330
C
100
AcDbDictionary
281
     1
  3
Standard
350
17
  0
DICTIONARY
  5
18
102
{ACAD_REACTORS
330
C
102
}
330
C
100
AcDbDictionary
281
     1
  0
ACDBDICTIONARYWDFLT
  5
E
102
{ACAD_REACTORS
330
C
102
}
330
C
100
AcDbDictionary
281
     1
  3
Normal
350
F
100
AcDbDictionaryWithDefault
340
F
  0
DICTIONARY
  5
246
102
{ACAD_REACTORS
330
C
102
}
330
C
100
AcDbDictionary
281
     1
  3
DIMASSOC
350
1CA9
  3
PROJECTNAME
350
1CAA
  3
SORTENTS
350
247
  0
LAYOUT
  5
1D
102
{ACAD_REACTORS
330
19
102
}
330
19
100
AcDbPlotSettings
  1

  2
Tektronix Phaser 740
  4

  6

 40
0.0
 41
0.0
 42
0.0
 43
0.0
 44
0.0
 45
0.0
 46
0.0
 47
0.0
 48
0.0
 49
0.0
140
0.0
141
0.0
142
1.0
143
1.0
 70
   688
 72
     0
 73
     0
 74
     5
  7
monochrome.ctb
 75
    16
147
1.0
 76
     0
 77
     2
 78
   300
148
0.0
149
0.0
100
AcDbLayout
  1
Layout1
 70
     0
 71
     1
 10
0.0
 20
0.0
 11
12.0
 21
9.0
 12
0.0
 22
0.0
 32
0.0
 14
1.000000000000000E+20
 24
1.000000000000000E+20
 34
1.000000000000000E+20
 15
-1.000000000000000E+20
 25
-1.000000000000000E+20
 35
-1.000000000000000E+20
146
0.0
 13
0.0
 23
0.0
 33
0.0
 16
1.0
 26
0.0
 36
0.0
 17
0.0
 27
1.0
 37
0.0
 76
     0
330
1A
  0
LAYOUT
  5
21
102
{ACAD_REACTORS
330
19
102
}
330
19
100
AcDbPlotSettings
  1

  2
Tektronix Phaser 740
  4
A4
  6

 40
5.873749732971191
 41
6.085414409637451
 42
5.577407836914062
 43
5.662078857421875
 44
209.9733276367187
 45
296.9683227539062
 46
0.0
 47
0.0
 48
0.0
 49
0.0
140
0.0
141
0.0
142
1.0
143
1.0
 70
 11952
 72
     0
 73
     1
 74
     0
  7
monochrome.ctb
 75
     0
147
1.0
 76
     0
 77
     2
 78
   300
148
1150.120678237584
149
45.30495740799864
100
AcDbLayout
  1
Model
 70
     1
 71
     0
 10
0.0
 20
0.0
 11
12.0
 21
9.0
 12
0.0
 22
0.0
 32
0.0
 14
0.0
 24
0.0
 34
0.0
 15
0.0
 25
0.0
 35
0.0
146
0.0
 13
0.0
 23
0.0
 33
0.0
 16
1.0
 26
0.0
 36
0.0
 17
0.0
 27
1.0
 37
0.0
 76
     0
330
1E
  0
MLINESTYLE
  5
17
102
{ACAD_REACTORS
330
16
102
}
330
16
100
AcDbMlineStyle
  2
STANDARD
 70
     0
  3

 62
   256
 51
90.0
 52
90.0
 71
     2
 49
0.5
 62
   256
  6
BYLAYER
 49
-0.5
 62
   256
  6
BYLAYER
  0
ACDBPLACEHOLDER
  5
F
102
{ACAD_REACTORS
330
E
102
}
330
E
  0
DICTIONARYVAR
  5
1CA9
102
{ACAD_REACTORS
330
246
102
}
330
246
100
DictionaryVariables
280
     0
  1
1
  0
DICTIONARYVAR
  5
1CAA
102
{ACAD_REACTORS
330
246
102
}
330
246
100
DictionaryVariables
280
     0
  1

  0
DICTIONARYVAR
  5
247
102
{ACAD_REACTORS
330
246
102
}
330
246
100
DictionaryVariables
280
     0
  1
96
  0
ENDSEC
  0
EOF
