  0
SECTION
  2
HEADER
  9
$ACADVER
  1
AC1018
  9
$ACADMAINTVER
 70
     2
  9
$DWGCODEPAGE
  3
ANSI_1252
  9
$INSBASE
 10
0.0
 20
0.0
 30
0.0
  9
$EXTMIN
 10
-0.0125465736637125
 20
-0.0634052425375558
 30
-0.0000000000000017
  9
$EXTMAX
 10
1050.049802473389
 20
1485.049855650433
 30
0.0000000000000135
  9
$LIMMIN
 10
0.0
 20
0.0
  9
$LIMMAX
 10
1050.0
 20
1485.0
  9
$ORTHOMODE
 70
     0
  9
$REGENMODE
 70
     1
  9
$FILLMODE
 70
     1
  9
$QTEXTMODE
 70
     0
  9
$MIRRTEXT
 70
     1
  9
$LTSCALE
 40
50.0
  9
$ATTMODE
 70
     1
  9
$TEXTSIZE
 40
3.5
  9
$TRACEWID
 40
0.5
  9
$TEXTSTYLE
  7
STANDARD
  9
$CLAYER
  8
BEM
  9
$CELTYPE
  6
ByLayer
  9
$CECOLOR
 62
   256
  9
$CELTSCALE
 40
1.0
  9
$DISPSILH
 70
     0
  9
$DIMSCALE
 40
5.0
  9
$DIMASZ
 40
3.5
  9
$DIMEXO
 40
1.0
  9
$DIMDLI
 40
7.0
  9
$DIMRND
 40
0.0
  9
$DIMDLE
 40
0.0
  9
$DIMEXE
 40
1.0
  9
$DIMTP
 40
0.0
  9
$DIMTM
 40
0.0
  9
$DIMTXT
 40
3.5
  9
$DIMCEN
 40
1.5
  9
$DIMTSZ
 40
0.0
  9
$DIMTOL
 70
     0
  9
$DIMLIM
 70
     0
  9
$DIMTIH
 70
     0
  9
$DIMTOH
 70
     0
  9
$DIMSE1
 70
     0
  9
$DIMSE2
 70
     0
  9
$DIMTAD
 70
     1
  9
$DIMZIN
 70
     8
  9
$DIMBLK
  1

  9
$DIMASO
 70
     1
  9
$DIMSHO
 70
     0
  9
$DIMPOST
  1

  9
$DIMAPOST
  1

  9
$DIMALT
 70
     0
  9
$DIMALTD
 70
     2
  9
$DIMALTF
 40
25.4
  9
$DIMLFAC
 40
1.0
  9
$DIMTOFL
 70
     1
  9
$DIMTVP
 40
0.0
  9
$DIMTIX
 70
     0
  9
$DIMSOXD
 70
     0
  9
$DIMSAH
 70
     0
  9
$DIMBLK1
  1

  9
$DIMBLK2
  1

  9
$DIMSTYLE
  2
Standard
  9
$DIMCLRD
 70
     0
  9
$DIMCLRE
 70
     0
  9
$DIMCLRT
 70
     1
  9
$DIMTFAC
 40
0.5142857142857144
  9
$DIMGAP
 40
1.5
  9
$DIMJUST
 70
     0
  9
$DIMSD1
 70
     0
  9
$DIMSD2
 70
     0
  9
$DIMTOLJ
 70
     1
  9
$DIMTZIN
 70
     8
  9
$DIMALTZ
 70
     8
  9
$DIMALTTZ
 70
     8
  9
$DIMUPT
 70
     0
  9
$DIMDEC
 70
     2
  9
$DIMTDEC
 70
     2
  9
$DIMALTU
 70
     2
  9
$DIMALTTD
 70
     2
  9
$DIMTXSTY
  7
STANDARD
  9
$DIMAUNIT
 70
     0
  9
$DIMADEC
 70
     2
  9
$DIMALTRND
 40
0.0
  9
$DIMAZIN
 70
     2
  9
$DIMDSEP
 70
    46
  9
$DIMATFIT
 70
     3
  9
$DIMFRAC
 70
     0
  9
$DIMLDRBLK
  1

  9
$DIMLUNIT
 70
     2
  9
$DIMLWD
 70
    -2
  9
$DIMLWE
 70
    -2
  9
$DIMTMOVE
 70
     0
  9
$LUNITS
 70
     2
  9
$LUPREC
 70
     2
  9
$SKETCHINC
 40
1.0
  9
$FILLETRAD
 40
0.0
  9
$AUNITS
 70
     1
  9
$AUPREC
 70
     3
  9
$MENU
  1
ACAD
  9
$ELEVATION
 40
0.0
  9
$PELEVATION
 40
0.0
  9
$THICKNESS
 40
0.0
  9
$LIMCHECK
 70
     0
  9
$CHAMFERA
 40
0.0
  9
$CHAMFERB
 40
0.0
  9
$CHAMFERC
 40
0.0
  9
$CHAMFERD
 40
0.0
  9
$SKPOLY
 70
     0
  9
$TDCREATE
 40
2452040.637099653
  9
$TDUCREATE
 40
2452040.553766320
  9
$TDUPDATE
 40
2455660.407282130
  9
$TDUUPDATE
 40
2455660.323948797
  9
$TDINDWG
 40
0.3345517940
  9
$TDUSRTIMER
 40
0.3345517940
  9
$USRTIMER
 70
     1
  9
$ANGBASE
 50
0.0
  9
$ANGDIR
 70
     0
  9
$PDMODE
 70
     0
  9
$PDSIZE
 40
0.0
  9
$PLINEWID
 40
0.0
  9
$SPLFRAME
 70
     0
  9
$SPLINETYPE
 70
     6
  9
$SPLINESEGS
 70
     8
  9
$HANDSEED
  5
1FD5
  9
$SURFTAB1
 70
     6
  9
$SURFTAB2
 70
     6
  9
$SURFTYPE
 70
     6
  9
$SURFU
 70
     6
  9
$SURFV
 70
     6
  9
$UCSBASE
  2

  9
$UCSNAME
  2

  9
$UCSORG
 10
0.0
 20
0.0
 30
0.0
  9
$UCSXDIR
 10
1.0
 20
0.0
 30
0.0
  9
$UCSYDIR
 10
0.0
 20
1.0
 30
0.0
  9
$UCSORTHOREF
  2

  9
$UCSORTHOVIEW
 70
     0
  9
$UCSORGTOP
 10
0.0
 20
0.0
 30
0.0
  9
$UCSORGBOTTOM
 10
0.0
 20
0.0
 30
0.0
  9
$UCSORGLEFT
 10
0.0
 20
0.0
 30
0.0
  9
$UCSORGRIGHT
 10
0.0
 20
0.0
 30
0.0
  9
$UCSORGFRONT
 10
0.0
 20
0.0
 30
0.0
  9
$UCSORGBACK
 10
0.0
 20
0.0
 30
0.0
  9
$PUCSBASE
  2

  9
$PUCSNAME
  2

  9
$PUCSORG
 10
0.0
 20
0.0
 30
0.0
  9
$PUCSXDIR
 10
1.0
 20
0.0
 30
0.0
  9
$PUCSYDIR
 10
0.0
 20
1.0
 30
0.0
  9
$PUCSORTHOREF
  2

  9
$PUCSORTHOVIEW
 70
     0
  9
$PUCSORGTOP
 10
0.0
 20
0.0
 30
0.0
  9
$PUCSORGBOTTOM
 10
0.0
 20
0.0
 30
0.0
  9
$PUCSORGLEFT
 10
0.0
 20
0.0
 30
0.0
  9
$PUCSORGRIGHT
 10
0.0
 20
0.0
 30
0.0
  9
$PUCSORGFRONT
 10
0.0
 20
0.0
 30
0.0
  9
$PUCSORGBACK
 10
0.0
 20
0.0
 30
0.0
  9
$USERI1
 70
     0
  9
$USERI2
 70
     0
  9
$USERI3
 70
     0
  9
$USERI4
 70
     0
  9
$USERI5
 70
     0
  9
$USERR1
 40
0.0
  9
$USERR2
 40
0.0
  9
$USERR3
 40
0.0
  9
$USERR4
 40
0.0
  9
$USERR5
 40
0.0
  9
$WORLDVIEW
 70
     1
  9
$SHADEDGE
 70
     3
  9
$SHADEDIF
 70
    70
  9
$TILEMODE
 70
     1
  9
$MAXACTVP
 70
    16
  9
$PINSBASE
 10
0.0
 20
0.0
 30
0.0
  9
$PLIMCHECK
 70
     0
  9
$PEXTMIN
 10
1.000000000000000E+20
 20
1.000000000000000E+20
 30
1.000000000000000E+20
  9
$PEXTMAX
 10
-1.000000000000000E+20
 20
-1.000000000000000E+20
 30
-1.000000000000000E+20
  9
$PLIMMIN
 10
0.0
 20
0.0
  9
$PLIMMAX
 10
12.0
 20
9.0
  9
$UNITMODE
 70
     0
  9
$VISRETAIN
 70
     0
  9
$PLINEGEN
 70
     0
  9
$PSLTSCALE
 70
     0
  9
$TREEDEPTH
 70
  3020
  9
$CMLSTYLE
  2
Standard
  9
$CMLJUST
 70
     0
  9
$CMLSCALE
 40
1.0
  9
$PROXYGRAPHICS
 70
     1
  9
$MEASUREMENT
 70
     0
  9
$CELWEIGHT
370
    -1
  9
$ENDCAPS
280
     0
  9
$JOINSTYLE
280
     0
  9
$LWDISPLAY
290
     0
  9
$INSUNITS
 70
     0
  9
$HYPERLINKBASE
  1

  9
$STYLESHEET
  1
monochrome 1.ctb
  9
$XEDIT
290
     1
  9
$CEPSNTYPE
380
     0
  9
$PSTYLEMODE
290
     1
  9
$FINGERPRINTGUID
  2
{7AADB5C8-6110-11D8-B72B-000102183313}
  9
$VERSIONGUID
  2
{C160EB0C-206A-49D3-A216-A84CF9EF5430}
  9
$EXTNAMES
290
     1
  9
$PSVPSCALE
 40
0.0
  9
$OLESTARTUP
290
     0
  9
$SORTENTS
280
    96
  9
$INDEXCTL
280
     0
  9
$HIDETEXT
280
     0
  9
$XCLIPFRAME
290
     0
  9
$HALOGAP
280
     0
  9
$OBSCOLOR
 70
   257
  9
$OBSLTYPE
280
     0
  9
$INTERSECTIONDISPLAY
280
     0
  9
$INTERSECTIONCOLOR
 70
   257
  9
$DIMASSOC
280
     1
  9
$PROJECTNAME
  1

  0
ENDSEC
  0
SECTION
  2
CLASSES
  0
CLASS
  1
ACDBDICTIONARYWDFLT
  2
AcDbDictionaryWithDefault
  3
ObjectDBX Classes
 90
        0
 91
        1
280
     0
281
     0
  0
CLASS
  1
DICTIONARYVAR
  2
AcDbDictionaryVar
  3
ObjectDBX Classes
 90
        0
 91
        3
280
     0
281
     0
  0
ENDSEC
  0
SECTION
  2
TABLES
  0
TABLE
  2
VPORT
  5
8
330
0
100
AcDbSymbolTable
 70
     3
  0
VPORT
  5
1FD4
330
8
100
AcDbSymbolTableRecord
100
AcDbViewportTableRecord
  2
*Active
 70
     0
 10
0.0
 20
0.0
 11
1.0
 21
1.0
 12
524.9999999999999
 22
742.5000000000002
 13
0.0
 23
0.0
 14
1.0
 24
1.0
 15
10.0
 25
10.0
 16
0.0
 26
0.0
 36
1.0
 17
0.0
 27
0.0
 37
0.0
 40
1485.0
 41
1.334231805929919
 42
50.0
 43
0.0
 44
0.0
 50
0.0
 51
0.0
 71
     0
 72
  1500
 73
     1
 74
     0
 75
     0
 76
     0
 77
     0
 78
     0
281
     0
 65
     1
110
0.0
120
0.0
130
0.0
111
1.0
121
0.0
131
0.0
112
0.0
122
1.0
132
0.0
 79
     0
146
0.0
  0
ENDTAB
  0
TABLE
  2
LTYPE
  5
5
330
0
100
AcDbSymbolTable
 70
     2
  0
LTYPE
  5
13
330
5
100
AcDbSymbolTableRecord
100
AcDbLinetypeTableRecord
  2
ByBlock
 70
     0
  3

 72
    65
 73
     0
 40
0.0
  0
LTYPE
  5
14
330
5
100
AcDbSymbolTableRecord
100
AcDbLinetypeTableRecord
  2
ByLayer
 70
     0
  3

 72
    65
 73
     0
 40
0.0
  0
LTYPE
  5
15
330
5
100
AcDbSymbolTableRecord
100
AcDbLinetypeTableRecord
  2
Continuous
 70
     0
  3
Solid line
 72
    65
 73
     0
 40
0.0
  0
LTYPE
  5
35
330
5
100
AcDbSymbolTableRecord
100
AcDbLinetypeTableRecord
  2
STRICHPUNKT
 70
     0
  3
__ . __ . __ . __ . __ . __ . __ . __ . __ . __
 72
    65
 73
     4
 40
1.0
 49
0.5
 74
     0
 49
-0.25
 74
     0
 49
0.0
 74
     0
 49
-0.25
 74
     0
  0
ENDTAB
  0
TABLE
  2
LAYER
  5
2
330
0
100
AcDbSymbolTable
 70
     9
  0
LAYER
  5
10
330
2
100
AcDbSymbolTableRecord
100
AcDbLayerTableRecord
  2
0
 70
     0
 62
     7
  6
Continuous
370
    -3
390
F
  0
LAYER
  5
38
330
2
100
AcDbSymbolTableRecord
100
AcDbLayerTableRecord
  2
VOLL
 70
     0
 62
     1
  6
Continuous
370
    -3
390
F
  0
LAYER
  5
39
330
2
100
AcDbSymbolTableRecord
100
AcDbLayerTableRecord
  2
HILF
 70
     0
 62
     2
  6
Continuous
370
    -3
390
F
  0
LAYER
  5
3A
330
2
100
AcDbSymbolTableRecord
100
AcDbLayerTableRecord
  2
MITTEL
 70
     0
 62
     2
  6
STRICHPUNKT
370
    -3
390
F
  0
LAYER
  5
3B
330
2
100
AcDbSymbolTableRecord
100
AcDbLayerTableRecord
  2
BEM
 70
     0
 62
     7
  6
Continuous
370
    -3
390
F
  0
LAYER
  5
3C
330
2
100
AcDbSymbolTableRecord
100
AcDbLayerTableRecord
  2
STEMPEL
 70
     0
 62
     3
  6
Continuous
370
    -3
390
F
  0
LAYER
  5
3D
330
2
100
AcDbSymbolTableRecord
100
AcDbLayerTableRecord
  2
TEXT
 70
     0
 62
     7
  6
Continuous
370
    -3
390
F
  0
LAYER
  5
3E
330
2
100
AcDbSymbolTableRecord
100
AcDbLayerTableRecord
  2
DEFPOINTS
 70
     0
 62
     7
  6
Continuous
290
     0
370
    -3
390
F
  0
LAYER
  5
3F
330
2
100
AcDbSymbolTableRecord
100
AcDbLayerTableRecord
  2
SCHRAFF
 70
     0
 62
     7
  6
Continuous
370
    -3
390
F
  0
ENDTAB
  0
TABLE
  2
STYLE
  5
3
330
0
100
AcDbSymbolTable
 70
     2
  0
STYLE
  5
11
330
3
100
AcDbSymbolTableRecord
100
AcDbTextStyleTableRecord
  2
STANDARD
 70
     0
 40
0.0
 41
0.8
 50
0.0
 71
     0
 42
3.5
  3
simplex.shx
  4

  0
STYLE
  5
34
330
3
100
AcDbSymbolTableRecord
100
AcDbTextStyleTableRecord
  2
GREEKS
 70
     0
 40
0.0
 41
0.8
 50
0.0
 71
     0
 42
2.5
  3
SIMPLEX.shx
  4

  0
ENDTAB
  0
TABLE
  2
VIEW
  5
6
330
0
100
AcDbSymbolTable
 70
     0
  0
ENDTAB
  0
TABLE
  2
UCS
  5
7
330
0
100
AcDbSymbolTable
 70
     0
  0
ENDTAB
  0
TABLE
  2
APPID
  5
9
330
0
100
AcDbSymbolTable
 70
     1
  0
APPID
  5
12
330
9
100
AcDbSymbolTableRecord
100
AcDbRegAppTableRecord
  2
ACAD
 70
     0
  0
ENDTAB
  0
TABLE
  2
DIMSTYLE
  5
A
330
0
100
AcDbSymbolTable
 70
     1
100
AcDbDimStyleTable
 71
     1
340
1CB
  0
DIMSTYLE
105
1CB
102
{ACAD_REACTORS
330
1085
330
11C3
330
107C
330
1E2B
330
1E45
330
1EF4
102
}
330
A
100
AcDbSymbolTableRecord
100
AcDbDimStyleTableRecord
  2
Standard
 70
     0
340
11
  0
ENDTAB
  0
TABLE
  2
BLOCK_RECORD
  5
1
330
0
100
AcDbSymbolTable
 70
     9
  0
BLOCK_RECORD
  5
1E
330
1
100
AcDbSymbolTableRecord
100
AcDbBlockTableRecord
  2
*Model_Space
340
21
  0
BLOCK_RECORD
  5
1A
330
1
100
AcDbSymbolTableRecord
100
AcDbBlockTableRecord
  2
*Paper_Space
340
1D
  0
BLOCK_RECORD
  5
22
330
1
100
AcDbSymbolTableRecord
100
AcDbBlockTableRecord
  2
LOGO
340
0
102
{BLKREFS
331
135
102
}
  0
BLOCK_RECORD
  5
1087
330
1
100
AcDbSymbolTableRecord
100
AcDbBlockTableRecord
  2
*D1
340
0
  0
BLOCK_RECORD
  5
1093
330
1
100
AcDbSymbolTableRecord
100
AcDbBlockTableRecord
  2
*D2
340
0
  0
BLOCK_RECORD
  5
11C4
330
1
100
AcDbSymbolTableRecord
100
AcDbBlockTableRecord
  2
*D3
340
0
  0
BLOCK_RECORD
  5
1E2C
330
1
100
AcDbSymbolTableRecord
100
AcDbBlockTableRecord
  2
*D4
340
0
  0
BLOCK_RECORD
  5
1E46
330
1
100
AcDbSymbolTableRecord
100
AcDbBlockTableRecord
  2
*D5
340
0
  0
BLOCK_RECORD
  5
1EF5
330
1
100
AcDbSymbolTableRecord
100
AcDbBlockTableRecord
  2
*D7
340
0
  0
ENDTAB
  0
ENDSEC
  0
SECTION
  2
BLOCKS
  0
BLOCK
  5
43
330
1E
100
AcDbEntity
  8
0
100
AcDbBlockBegin
  2
*Model_Space
 70
     0
 10
0.0
 20
0.0
 30
0.0
  3
*Model_Space
  1

  0
ENDBLK
  5
44
330
1E
100
AcDbEntity
  8
0
100
AcDbBlockEnd
  0
BLOCK
  5
41
330
1A
100
AcDbEntity
 67
     1
  8
0
100
AcDbBlockBegin
  2
*Paper_Space
 70
     0
 10
0.0
 20
0.0
 30
0.0
  3
*Paper_Space
  1

  0
ENDBLK
  5
42
330
1A
100
AcDbEntity
 67
     1
  8
0
100
AcDbBlockEnd
  0
BLOCK
  5
45
330
22
100
AcDbEntity
  8
0
100
AcDbBlockBegin
  2
LOGO
 70
     0
 10
0.0
 20
0.0
 30
0.0
  3
LOGO
  1

  0
ARC
  5
46
330
22
100
AcDbEntity
  8
0
100
AcDbCircle
 10
11.59973089678112
 20
-9.271599258481501
 30
0.0
 40
4.5
100
AcDbArc
 50
270.0
 51
231.0575587310159
  0
LINE
  5
47
330
22
100
AcDbEntity
  8
0
100
AcDbLine
 10
3.599730896781125
 20
-4.771599258481529
 30
0.0
 11
3.599730896781153
 21
-11.77159925848133
 31
0.0
  0
LINE
  5
48
330
22
100
AcDbEntity
  8
0
100
AcDbLine
 10
2.599730896781125
 20
-4.771599258481529
 30
0.0
 11
2.599730896781153
 21
-11.77159925848133
 31
0.0
  0
CIRCLE
  5
49
330
22
100
AcDbEntity
  8
0
100
AcDbCircle
 10
11.59973089678112
 20
-9.271599258481501
 30
0.0
 40
3.5
  0
ARC
  5
4A
330
22
100
AcDbEntity
  8
0
100
AcDbCircle
 10
31.59973089678115
 20
-9.271599258481472
 30
0.0
 40
4.5
100
AcDbArc
 50
270.0
 51
231.0575587310182
  0
LINE
  5
4B
330
22
100
AcDbEntity
  8
0
100
AcDbLine
 10
17.59973089678112
 20
-4.771599258481472
 30
0.0
 11
17.59973089678115
 21
-13.77159925848147
 31
0.0
  0
ARC
  5
4C
330
22
100
AcDbEntity
  8
0
100
AcDbCircle
 10
22.59973089678116
 20
-7.271599258481472
 30
0.0
 40
2.5
100
AcDbArc
 50
293.1161887722295
 51
90.0
  0
CIRCLE
  5
4D
330
22
100
AcDbEntity
  8
0
100
AcDbCircle
 10
31.59973089678115
 20
-9.271599258481472
 30
0.0
 40
3.5
  0
ARC
  5
4E
330
22
100
AcDbEntity
  8
0
100
AcDbCircle
 10
4.599730896781153
 20
-11.77159925848133
 30
0.0
 40
1.0
100
AcDbArc
 50
180.0
 51
270.0
  0
ARC
  5
4F
330
22
100
AcDbEntity
  8
0
100
AcDbCircle
 10
4.599730896781153
 20
-11.77159925848133
 30
0.0
 40
2.0
100
AcDbArc
 50
179.9999999999992
 51
270.0
  0
LINE
  5
50
330
22
100
AcDbEntity
  8
0
100
AcDbLine
 10
11.59973089678115
 20
-13.77159925848144
 30
0.0
 11
4.599730896781153
 21
-13.77159925848147
 31
0.0
  0
LINE
  5
51
330
22
100
AcDbEntity
  8
0
100
AcDbLine
 10
8.771303772034769
 20
-12.77159925848136
 30
0.0
 11
4.599730896781153
 21
-12.77159925848133
 31
0.0
  0
LINE
  5
52
330
22
100
AcDbEntity
  8
0
100
AcDbLine
 10
31.59973089678115
 20
-13.77159925848147
 30
0.0
 11
23.6715276665056
 21
-13.77159925848144
 31
0.0
  0
LINE
  5
53
330
22
100
AcDbEntity
  8
0
100
AcDbLine
 10
23.56565672307022
 20
-9.51278021337896
 30
0.0
 11
24.4388546544846
 21
-12.77159925848144
 31
0.0
  0
LINE
  5
54
330
22
100
AcDbEntity
  8
0
100
AcDbLine
 10
22.59973089678116
 20
-9.771599258481472
 30
0.0
 11
18.59973089678112
 21
-9.771599258481472
 31
0.0
  0
LINE
  5
55
330
22
100
AcDbEntity
  8
0
100
AcDbLine
 10
18.59973089678115
 20
-13.77159925848144
 30
0.0
 11
17.59973089678115
 21
-13.77159925848144
 31
0.0
  0
LINE
  5
56
330
22
100
AcDbEntity
  8
0
100
AcDbLine
 10
18.59973089678115
 20
-9.771599258481472
 30
0.0
 11
18.59973089678115
 21
-13.77159925848144
 31
0.0
  0
LINE
  5
57
330
22
100
AcDbEntity
  8
0
100
AcDbLine
 10
22.59973089678116
 20
-9.771599258481472
 30
0.0
 11
23.67152766650562
 21
-13.77159925848147
 31
0.0
  0
ARC
  5
58
330
22
100
AcDbEntity
  8
0
100
AcDbCircle
 10
22.59973089678116
 20
-7.271599258481472
 30
0.0
 40
2.5
100
AcDbArc
 50
270.0
 51
270.0000000000007
  0
LINE
  5
59
330
22
100
AcDbEntity
  8
0
100
AcDbLine
 10
28.77130377203494
 20
-12.77159925848147
 30
0.0
 11
24.43885465448463
 21
-12.77159925848144
 31
0.0
  0
LINE
  5
5A
330
22
100
AcDbEntity
  8
0
100
AcDbLine
 10
3.599730896781125
 20
-4.771599258481472
 30
0.0
 11
2.599730896781125
 21
-4.771599258481472
 31
0.0
  0
LINE
  5
5B
330
22
100
AcDbEntity
  8
0
100
AcDbLine
 10
22.59973089678116
 20
-8.771599258481472
 30
0.0
 11
18.59973089678115
 21
-8.771599258481472
 31
0.0
  0
LINE
  5
5C
330
22
100
AcDbEntity
  8
0
100
AcDbLine
 10
22.59973089678116
 20
-5.771599258481472
 30
0.0
 11
18.59973089678115
 21
-5.771599258481472
 31
0.0
  0
LINE
  5
5D
330
22
100
AcDbEntity
  8
0
100
AcDbLine
 10
22.59973089678116
 20
-4.771599258481472
 30
0.0
 11
17.59973089678115
 21
-4.771599258481472
 31
0.0
  0
LINE
  5
5E
330
22
100
AcDbEntity
  8
0
100
AcDbLine
 10
18.59973089678115
 20
-5.771599258481472
 30
0.0
 11
18.59973089678115
 21
-8.771599258481472
 31
0.0
  0
ARC
  5
5F
330
22
100
AcDbEntity
  8
0
100
AcDbCircle
 10
22.59973089678116
 20
-7.271599258481472
 30
0.0
 40
1.5
100
AcDbArc
 50
270.0
 51
90.0
  0
ENDBLK
  5
60
330
22
100
AcDbEntity
  8
0
100
AcDbBlockEnd
  0
BLOCK
  5
1091
330
1087
100
AcDbEntity
  8
0
100
AcDbBlockBegin
  2
*D1
 70
     1
 10
0.0
 20
0.0
 30
0.0
  3
*D1
  1

  0
LINE
  5
1FB4
330
1087
100
AcDbEntity
  8
BEM
 62
     0
370
    -2
100
AcDbLine
 10
401.4136788589109
 20
636.6598321052769
 30
0.0
 11
334.0788602085065
 21
636.6598321052769
 31
0.0
  0
LINE
  5
1FB5
330
1087
100
AcDbEntity
  8
BEM
 62
     0
370
    -2
100
AcDbLine
 10
394.3837253452078
 20
1056.659832105277
 30
0.0
 11
334.0788602085066
 21
1056.659832105277
 31
0.0
  0
LINE
  5
1FB6
330
1087
100
AcDbEntity
  8
BEM
 62
     0
370
    -2
100
AcDbLine
 10
339.0788602085066
 20
654.1598321052768
 30
0.0
 11
339.0788602085066
 21
1039.159832105277
 31
0.0
  0
SOLID
  5
1FB7
330
1087
100
AcDbEntity
  8
BEM
 62
     0
100
AcDbTrace
 10
336.1621935418399
 20
654.1598321052768
 30
0.0
 11
341.9955268751733
 21
654.1598321052768
 31
0.0
 12
339.0788602085065
 22
636.6598321052769
 32
0.0
 13
339.0788602085065
 23
636.6598321052769
 33
0.0
  0
SOLID
  5
1FB8
330
1087
100
AcDbEntity
  8
BEM
 62
     0
100
AcDbTrace
 10
336.16219354184
 20
1039.159832105277
 30
0.0
 11
341.9955268751733
 21
1039.159832105277
 31
0.0
 12
339.0788602085066
 22
1056.659832105277
 32
0.0
 13
339.0788602085066
 23
1056.659832105277
 33
0.0
  0
MTEXT
  5
1FB9
330
1087
100
AcDbEntity
  8
BEM
 62
     1
100
AcDbMText
 10
322.8288602085064
 20
846.6598321052769
 30
0.0
 40
17.5
 41
0.0
 71
     5
 72
     1
  1
\A1;420
 11
0.0000000000000001
 21
1.0
 31
0.0
 73
     1
 44
1.0
  0
POINT
  5
1FBA
330
1087
100
AcDbEntity
  8
DEFPOINTS
 62
     0
100
AcDbPoint
 10
406.4136788589109
 20
636.6598321052769
 30
0.0
  0
POINT
  5
1FBB
330
1087
100
AcDbEntity
  8
DEFPOINTS
 62
     0
100
AcDbPoint
 10
399.3837253452078
 20
1056.659832105277
 30
0.0
  0
POINT
  5
1FBC
330
1087
100
AcDbEntity
  8
DEFPOINTS
 62
     0
100
AcDbPoint
 10
339.0788602085066
 20
1056.659832105277
 30
0.0
  0
ENDBLK
  5
1092
330
1087
100
AcDbEntity
  8
0
100
AcDbBlockEnd
  0
BLOCK
  5
109D
330
1093
100
AcDbEntity
  8
0
100
AcDbBlockBegin
  2
*D2
 70
     1
 10
0.0
 20
0.0
 30
0.0
  3
*D2
  1

  0
LINE
  5
1DF5
330
1093
100
AcDbEntity
  8
BEM
 62
     0
370
    -2
100
AcDbLine
 10
405.5387922236517
 20
641.6598321052775
 30
0.0
 11
405.5387922236517
 21
593.6873544218019
 31
0.0
  0
LINE
  5
1DF6
330
1093
100
AcDbEntity
  8
BEM
 62
     0
370
    -2
100
AcDbLine
 10
564.5387922236518
 20
641.6598321052764
 30
0.0
 11
564.5387922236518
 21
593.6873544218019
 31
0.0
  0
LINE
  5
1DF7
330
1093
100
AcDbEntity
  8
BEM
 62
     0
370
    -2
100
AcDbLine
 10
423.0387922236517
 20
598.687354421802
 30
0.0
 11
547.0387922236518
 21
598.687354421802
 31
0.0
  0
SOLID
  5
1DF8
330
1093
100
AcDbEntity
  8
BEM
 62
     0
100
AcDbTrace
 10
423.0387922236517
 20
601.6040210884685
 30
0.0
 11
423.0387922236517
 21
595.7706877551353
 31
0.0
 12
405.5387922236517
 22
598.687354421802
 32
0.0
 13
405.5387922236517
 23
598.687354421802
 33
0.0
  0
SOLID
  5
1DF9
330
1093
100
AcDbEntity
  8
BEM
 62
     0
100
AcDbTrace
 10
547.0387922236518
 20
601.6040210884685
 30
0.0
 11
547.0387922236518
 21
595.7706877551353
 31
0.0
 12
564.5387922236518
 22
598.687354421802
 32
0.0
 13
564.5387922236518
 23
598.687354421802
 33
0.0
  0
MTEXT
  5
1DFA
330
1093
100
AcDbEntity
  8
BEM
 62
     1
100
AcDbMText
 10
485.0387922236517
 20
614.9373544218019
 30
0.0
 40
17.5
 41
0.0
 71
     5
 72
     1
  1
\A1;%%c159
 73
     1
 44
1.0
  0
POINT
  5
1DFB
330
1093
100
AcDbEntity
  8
DEFPOINTS
 62
     0
100
AcDbPoint
 10
405.5387922236517
 20
646.6598321052774
 30
0.0
  0
POINT
  5
1DFC
330
1093
100
AcDbEntity
  8
DEFPOINTS
 62
     0
100
AcDbPoint
 10
564.5387922236518
 20
646.6598321052764
 30
0.0
  0
POINT
  5
1DFD
330
1093
100
AcDbEntity
  8
DEFPOINTS
 62
     0
100
AcDbPoint
 10
564.5387922236518
 20
598.687354421802
 30
0.0
  0
ENDBLK
  5
109E
330
1093
100
AcDbEntity
  8
0
100
AcDbBlockEnd
  0
BLOCK
  5
11CE
330
11C4
100
AcDbEntity
  8
0
100
AcDbBlockBegin
  2
*D3
 70
     1
 10
0.0
 20
0.0
 30
0.0
  3
*D3
  1

  0
LINE
  5
1FAB
330
11C4
100
AcDbEntity
  8
BEM
 62
     0
370
    -2
100
AcDbLine
 10
401.4136788589109
 20
636.6598321052769
 30
0.0
 11
374.4082399138271
 21
636.6598321052769
 31
0.0
  0
LINE
  5
1FAC
330
11C4
100
AcDbEntity
  8
BEM
 62
     0
370
    -2
100
AcDbLine
 10
480.0387922236517
 20
756.659832105277
 30
0.0
 11
374.4082399138272
 21
756.659832105277
 31
0.0
  0
LINE
  5
1FAD
330
11C4
100
AcDbEntity
  8
BEM
 62
     0
370
    -2
100
AcDbLine
 10
379.4082399138272
 20
654.1598321052768
 30
0.0
 11
379.4082399138272
 21
739.159832105277
 31
0.0
  0
SOLID
  5
1FAE
330
11C4
100
AcDbEntity
  8
BEM
 62
     0
100
AcDbTrace
 10
376.4915732471605
 20
654.1598321052768
 30
0.0
 11
382.3249065804938
 21
654.1598321052768
 31
0.0
 12
379.4082399138271
 22
636.6598321052769
 32
0.0
 13
379.4082399138271
 23
636.6598321052769
 33
0.0
  0
SOLID
  5
1FAF
330
11C4
100
AcDbEntity
  8
BEM
 62
     0
100
AcDbTrace
 10
376.4915732471605
 20
739.159832105277
 30
0.0
 11
382.3249065804938
 21
739.159832105277
 31
0.0
 12
379.4082399138272
 22
756.659832105277
 32
0.0
 13
379.4082399138272
 23
756.659832105277
 33
0.0
  0
MTEXT
  5
1FB0
330
11C4
100
AcDbEntity
  8
BEM
 62
     1
100
AcDbMText
 10
363.1582399138271
 20
696.659832105277
 30
0.0
 40
17.5
 41
0.0
 71
     5
 72
     1
  1
\A1;120
 11
0.0000000000000001
 21
1.0
 31
0.0
 73
     1
 44
1.0
  0
POINT
  5
1FB1
330
11C4
100
AcDbEntity
  8
DEFPOINTS
 62
     0
100
AcDbPoint
 10
406.4136788589109
 20
636.6598321052769
 30
0.0
  0
POINT
  5
1FB2
330
11C4
100
AcDbEntity
  8
DEFPOINTS
 62
     0
100
AcDbPoint
 10
485.0387922236516
 20
756.659832105277
 30
0.0
  0
POINT
  5
1FB3
330
11C4
100
AcDbEntity
  8
DEFPOINTS
 62
     0
100
AcDbPoint
 10
379.4082399138272
 20
756.659832105277
 30
0.0
  0
ENDBLK
  5
11CF
330
11C4
100
AcDbEntity
  8
0
100
AcDbBlockEnd
  0
BLOCK
  5
1E38
330
1E2C
100
AcDbEntity
  8
0
100
AcDbBlockBegin
  2
*D4
 70
     1
 10
0.0
 20
0.0
 30
0.0
  3
*D4
  1

  0
LINE
  5
1FC8
330
1E2C
100
AcDbEntity
  8
BEM
 62
     0
370
    -2
100
AcDbLine
 10
707.7774282974143
 20
979.3984681790396
 30
0.0
 11
738.0860767094979
 21
1009.707116591123
 31
0.0
  0
LINE
  5
1FC9
330
1E2C
100
AcDbEntity
  8
BEM
 62
     0
370
    -2
100
AcDbLine
 10
485.0387922236516
 20
1066.659832105277
 30
0.0
 11
485.0387922236517
 21
1114.522733746843
 31
0.0
  0
ARC
  5
1FCA
330
1E2C
100
AcDbEntity
  8
BEM
 62
     0
370
    -2
100
AcDbCircle
 10
485.0387922236516
 20
756.659832105277
 30
0.0
 40
352.8629016415665
100
AcDbArc
 50
47.8418372199484
 51
87.15816278005156
  0
SOLID
  5
1FCB
330
1E2C
100
AcDbEntity
  8
BEM
 62
     0
100
AcDbTrace
 10
723.8837489904037
 20
1020.348199143004
 30
0.0
 11
719.8625108858784
 21
1016.122394854529
 31
0.0
 12
734.5505428035652
 22
1006.17158268519
 32
0.0
 13
734.5505428035652
 23
1006.17158268519
 33
0.0
  0
SOLID
  5
1FCC
330
1E2C
100
AcDbEntity
  8
BEM
 62
     0
100
AcDbTrace
 10
502.4610859581855
 20
1106.173013538815
 30
0.0
 11
502.6057360940576
 21
1112.004553139639
 31
0.0
 12
485.0387922236518
 22
1109.522733746843
 32
0.0
 13
485.0387922236518
 23
1109.522733746843
 33
0.0
  0
MTEXT
  5
1FCD
330
1E2C
100
AcDbEntity
  8
BEM
 62
     1
100
AcDbMText
 10
637.7028321503132
 20
1092.722363595366
 30
0.0
 40
17.5
 41
0.0
 71
     5
 72
     1
  1
\A1;45°
 11
0.9104599974574417
 21
-0.4135971385657729
 31
0.0
 73
     1
 44
1.0
  0
POINT
  5
1FCE
330
1E2C
100
AcDbEntity
  8
DEFPOINTS
 62
     0
100
AcDbPoint
 10
576.3664314786267
 20
1097.499221940165
 30
0.0
  0
POINT
  5
1FCF
330
1E2C
100
AcDbEntity
  8
DEFPOINTS
 62
     0
100
AcDbPoint
 10
485.0387922236516
 20
1061.659832105277
 30
0.0
  0
POINT
  5
1FD0
330
1E2C
100
AcDbEntity
  8
DEFPOINTS
 62
     0
100
AcDbPoint
 10
704.2418943914815
 20
975.8629342731067
 30
0.0
  0
POINT
  5
1FD1
330
1E2C
100
AcDbEntity
  8
DEFPOINTS
 62
     0
100
AcDbPoint
 10
485.0387922236516
 20
756.659832105277
 30
0.0
  0
POINT
  5
1FD2
330
1E2C
100
AcDbEntity
  8
DEFPOINTS
 62
     0
100
AcDbPoint
 10
485.0387922236516
 20
631.659832105277
 30
0.0
  0
ENDBLK
  5
1E39
330
1E2C
100
AcDbEntity
  8
0
100
AcDbBlockEnd
  0
BLOCK
  5
1E50
330
1E46
100
AcDbEntity
  8
0
100
AcDbBlockBegin
  2
*D5
 70
     1
 10
0.0
 20
0.0
 30
0.0
  3
*D5
  1

  0
LINE
  5
1E52
330
1E46
100
AcDbEntity
  8
BEM
 62
     0
370
    -2
100
AcDbLine
 10
561.0032583177189
 20
926.6695000971546
 30
0.0
 11
443.081672955853
 21
808.7479147352887
 31
0.0
  0
LINE
  5
1E53
330
1E46
100
AcDbEntity
  8
BEM
 62
     0
370
    -2
100
AcDbLine
 10
561.0032583177187
 20
738.579096301533
 30
0.0
 11
537.1268748536636
 21
714.7027128374779
 31
0.0
  0
LINE
  5
1E54
330
1E46
100
AcDbEntity
  8
BEM
 62
     0
370
    -2
100
AcDbLine
 10
458.9915755325502
 20
799.9090799704569
 30
0.0
 11
528.2880400888318
 21
730.6126154141753
 31
0.0
  0
SOLID
  5
1E55
330
1E46
100
AcDbEntity
  8
BEM
 62
     0
100
AcDbTrace
 10
461.053970311011
 20
801.9714747489176
 30
0.0
 11
456.9291807540895
 21
797.8466851919961
 31
0.0
 12
446.6172068617857
 22
812.2834486412214
 32
0.0
 13
446.6172068617857
 23
812.2834486412214
 33
0.0
  0
SOLID
  5
1E56
330
1E46
100
AcDbEntity
  8
BEM
 62
     0
100
AcDbTrace
 10
530.3504348672927
 20
732.6750101926361
 30
0.0
 11
526.2256453103711
 21
728.5502206357145
 31
0.0
 12
540.6624087595965
 22
718.2382467434107
 32
0.0
 13
540.6624087595965
 23
718.2382467434107
 33
0.0
  0
MTEXT
  5
1E57
330
1E46
100
AcDbEntity
  8
BEM
 62
     1
100
AcDbMText
 10
505.1302930049724
 20
776.7513328865976
 30
0.0
 40
17.5
 41
0.0
 71
     5
 72
     1
  1
\A1;%%c133
 11
0.7071067811865476
 21
-0.7071067811865475
 31
0.0
 73
     1
 44
1.0
  0
POINT
  5
1E58
330
1E46
100
AcDbEntity
  8
DEFPOINTS
 62
     0
100
AcDbPoint
 10
564.5387922236515
 20
930.2050340030874
 30
0.0
  0
POINT
  5
1E59
330
1E46
100
AcDbEntity
  8
DEFPOINTS
 62
     0
100
AcDbPoint
 10
564.5387922236515
 20
742.1146302074657
 30
0.0
  0
POINT
  5
1E5A
330
1E46
100
AcDbEntity
  8
DEFPOINTS
 62
     0
100
AcDbPoint
 10
540.6624087595965
 20
718.2382467434107
 30
0.0
  0
ENDBLK
  5
1E51
330
1E46
100
AcDbEntity
  8
0
100
AcDbBlockEnd
  0
BLOCK
  5
1EFF
330
1EF5
100
AcDbEntity
  8
0
100
AcDbBlockBegin
  2
*D7
 70
     1
 10
0.0
 20
0.0
 30
0.0
  3
*D7
  1

  0
LINE
  5
1F54
330
1EF5
100
AcDbEntity
  8
BEM
 62
     0
370
    -2
100
AcDbLine
 10
488.5743261295841
 20
753.1242981993443
 30
0.0
 11
575.4914958284449
 21
666.2071285004835
 31
0.0
  0
LINE
  5
1F55
330
1EF5
100
AcDbEntity
  8
BEM
 62
     0
370
    -2
100
AcDbLine
 10
754.9096780876044
 20
918.1240827651178
 30
0.0
 11
791.1590640903417
 21
881.8746967623805
 31
0.0
  0
LINE
  5
1F56
330
1EF5
100
AcDbEntity
  8
BEM
 62
     0
370
    -2
100
AcDbLine
 10
584.3303305932768
 20
682.1170310771809
 30
0.0
 11
775.2491615136444
 21
873.0358619975486
 31
0.0
  0
SOLID
  5
1F57
330
1EF5
100
AcDbEntity
  8
BEM
 62
     0
100
AcDbTrace
 10
582.267935814816
 20
684.1794258556417
 30
0.0
 11
586.3927253717376
 21
680.0546362987201
 31
0.0
 12
571.9559619225122
 22
669.7426624064164
 32
0.0
 13
571.9559619225122
 23
669.7426624064164
 33
0.0
  0
SOLID
  5
1F58
330
1EF5
100
AcDbEntity
  8
BEM
 62
     0
100
AcDbTrace
 10
773.1867667351837
 20
875.0982567760093
 30
0.0
 11
777.3115562921052
 21
870.9734672190878
 31
0.0
 12
787.623530184409
 22
885.4102306683133
 32
0.0
 13
787.623530184409
 23
885.4102306683133
 33
0.0
  0
MTEXT
  5
1F59
330
1EF5
100
AcDbEntity
  8
BEM
 62
     1
100
AcDbMText
 10
668.2992608591794
 20
789.0669317316461
 30
0.0
 40
17.5
 41
0.0
 71
     5
 72
     1
  1
\A1;305
 11
0.7071067811865476
 21
0.7071067811865475
 31
0.0
 73
     1
 44
1.0
  0
POINT
  5
1F5A
330
1EF5
100
AcDbEntity
  8
DEFPOINTS
 62
     0
100
AcDbPoint
 10
485.0387922236514
 20
756.6598321052771
 30
0.0
  0
POINT
  5
1F5B
330
1EF5
100
AcDbEntity
  8
DEFPOINTS
 62
     0
100
AcDbPoint
 10
751.3741441816716
 20
921.6596166710505
 30
0.0
  0
POINT
  5
1F5C
330
1EF5
100
AcDbEntity
  8
DEFPOINTS
 62
     0
100
AcDbPoint
 10
787.623530184409
 20
885.4102306683133
 30
0.0
  0
ENDBLK
  5
1F00
330
1EF5
100
AcDbEntity
  8
0
100
AcDbBlockEnd
  0
ENDSEC
  0
SECTION
  2
ENTITIES
  0
TEXT
  5
134
330
1E
100
AcDbEntity
  8
TEXT
100
AcDbText
 10
511.0540121453142
 20
157.7240979930877
 30
0.0
 40
10.0
  1
Koeh
 41
0.8
  7
GREEKS
 72
     1
 11
524.1968692881714
 21
157.7240979930877
 31
0.0
100
AcDbText
  0
INSERT
  5
135
330
1E
100
AcDbEntity
  8
STEMPEL
100
AcDbBlockReference
  2
LOGO
 10
377.4888713644485
 20
112.552631911208
 30
0.0
 41
5.0
 42
5.0
 43
5.0
  0
LINE
  5
136
330
1E
100
AcDbEntity
  8
HILF
100
AcDbLine
 10
1050.0
 20
0.0
 30
0.0
 11
0.0
 21
0.0
 31
0.0
  0
LINE
  5
137
330
1E
100
AcDbEntity
  8
HILF
100
AcDbLine
 10
1050.0
 20
1485.0
 30
0.0
 11
0.0
 21
1485.0
 31
0.0
  0
LINE
  5
138
330
1E
100
AcDbEntity
  8
STEMPEL
100
AcDbLine
 10
1025.0
 20
1460.0
 30
0.0
 11
99.99999999999971
 21
1460.0
 31
0.0
  0
LINE
  5
139
330
1E
100
AcDbEntity
  8
STEMPEL
100
AcDbLine
 10
1025.0
 20
25.0
 30
0.0
 11
99.99999999999971
 21
25.0
 31
0.0
  0
LINE
  5
13A
330
1E
100
AcDbEntity
  8
STEMPEL
100
AcDbLine
 10
124.9999999999997
 20
25.0
 30
0.0
 11
1025.0
 21
25.0
 31
0.0
  0
TEXT
  5
13B
330
1E
100
AcDbEntity
  8
TEXT
100
AcDbText
 10
506.1566460565737
 20
183.2740272978806
 30
0.0
 40
10.0
  1
Name
 41
0.8
  7
GREEKS
100
AcDbText
  0
TEXT
  5
13C
330
1E
100
AcDbEntity
  8
TEXT
100
AcDbText
 10
491.3745697753872
 20
256.6265569441474
 30
0.0
 40
12.5
  1
Zul. Abw.
 41
0.8
  7
GREEKS
 72
     4
 11
524.9459983468158
 21
262.8765569441474
 31
0.0
100
AcDbText
  0
LINE
  5
13D
330
1E
100
AcDbEntity
  8
HILF
100
AcDbLine
 10
365.0000000000003
 20
124.9999999999999
 30
0.0
 11
575.0
 21
124.9999999999999
 31
0.0
  0
LINE
  5
13E
330
1E
100
AcDbEntity
  8
HILF
100
AcDbLine
 10
365.0000000000003
 20
149.9999999999999
 30
0.0
 11
575.0
 21
149.9999999999999
 31
0.0
  0
LINE
  5
13F
330
1E
100
AcDbEntity
  8
HILF
100
AcDbLine
 10
365.0000000000003
 20
174.9999999999998
 30
0.0
 11
575.0
 21
174.9999999999998
 31
0.0
  0
LINE
  5
140
330
1E
100
AcDbEntity
  8
STEMPEL
100
AcDbLine
 10
1025.0
 20
200.0
 30
0.0
 11
365.0000000000003
 21
199.9999999999998
 31
0.0
  0
LINE
  5
141
330
1E
100
AcDbEntity
  8
STEMPEL
100
AcDbLine
 10
1025.0
 20
100.0
 30
0.0
 11
365.0000000000003
 21
99.99999999999992
 31
0.0
  0
LINE
  5
142
330
1E
100
AcDbEntity
  8
STEMPEL
100
AcDbLine
 10
1025.0
 20
275.0000000000001
 30
0.0
 11
99.99999999999992
 21
275.0
 31
0.0
  0
LINE
  5
144
330
1E
100
AcDbEntity
  8
HILF
100
AcDbLine
 10
0.0
 20
0.0
 30
0.0
 11
-0.0000000000002842
 21
1485.0
 31
0.0
  0
LINE
  5
145
330
1E
100
AcDbEntity
  8
STEMPEL
100
AcDbLine
 10
100.0
 20
25.0
 30
0.0
 11
99.99999999999971
 21
1460.0
 31
0.0
  0
LINE
  5
148
330
1E
100
AcDbEntity
  8
HILF
100
AcDbLine
 10
100.0000000000002
 20
99.99999999999992
 30
0.0
 11
365.0000000000003
 21
99.99999999999992
 31
0.0
  0
LINE
  5
149
330
1E
100
AcDbEntity
  8
HILF
100
AcDbLine
 10
100.0000000000002
 20
124.9999999999999
 30
0.0
 11
365.0000000000003
 21
124.9999999999999
 31
0.0
  0
LINE
  5
14A
330
1E
100
AcDbEntity
  8
HILF
100
AcDbLine
 10
100.0000000000002
 20
149.9999999999999
 30
0.0
 11
365.0000000000003
 21
149.9999999999999
 31
0.0
  0
LINE
  5
14B
330
1E
100
AcDbEntity
  8
HILF
100
AcDbLine
 10
100.0000000000002
 20
174.9999999999998
 30
0.0
 11
365.0000000000003
 21
174.9999999999998
 31
0.0
  0
LINE
  5
14C
330
1E
100
AcDbEntity
  8
HILF
100
AcDbLine
 10
100.0000000000002
 20
199.9999999999998
 30
0.0
 11
365.0000000000003
 21
199.9999999999998
 31
0.0
  0
LINE
  5
14D
330
1E
100
AcDbEntity
  8
HILF
100
AcDbLine
 10
100.0000000000002
 20
225.0000000000001
 30
0.0
 11
365.0000000000003
 21
225.0000000000001
 31
0.0
  0
LINE
  5
14E
330
1E
100
AcDbEntity
  8
HILF
100
AcDbLine
 10
100.0000000000002
 20
250.0000000000001
 30
0.0
 11
365.0000000000003
 21
250.0000000000001
 31
0.0
  0
LINE
  5
14F
330
1E
100
AcDbEntity
  8
STEMPEL
100
AcDbLine
 10
364.9999999999997
 20
74.99999999999992
 30
0.0
 11
99.99999999999992
 21
74.99999999999992
 31
0.0
  0
TEXT
  5
150
330
1E
100
AcDbEntity
  8
TEXT
100
AcDbText
 10
120.6660276761439
 20
34.13664615067979
 30
0.0
 40
10.0
  1
Index
 50
90.0
 41
0.8
  7
GREEKS
100
AcDbText
  0
LINE
  5
151
330
1E
100
AcDbEntity
  8
VOLL
100
AcDbLine
 10
135.0000000000002
 20
275.0000000000001
 30
0.0
 11
134.9999999999999
 21
24.99999999999993
 31
0.0
  0
LINE
  5
152
330
1E
100
AcDbEntity
  8
HILF
100
AcDbLine
 10
77.7191783928464
 20
742.5000000000001
 30
0.0
 11
0.0000000000002842
 21
742.5000000000001
 31
0.0
  0
LINE
  5
154
330
1E
100
AcDbEntity
  8
VOLL
100
AcDbLine
 10
310.0000000000003
 20
274.9999999999999
 30
0.0
 11
310.0
 21
24.99999999999993
 31
0.0
  0
LINE
  5
155
330
1E
100
AcDbEntity
  8
VOLL
100
AcDbLine
 10
260.0000000000003
 20
274.9999999999999
 30
0.0
 11
260.0
 21
24.99999999999993
 31
0.0
  0
LINE
  5
157
330
1E
100
AcDbEntity
  8
STEMPEL
100
AcDbLine
 10
365.0000000000003
 20
274.9999999999999
 30
0.0
 11
365.0
 21
24.99999999999993
 31
0.0
  0
TEXT
  5
159
330
1E
100
AcDbEntity
  8
TEXT
100
AcDbText
 10
430.8279182884127
 20
183.2970125307481
 30
0.0
 40
10.0
  1
Tag
 41
0.8
  7
GREEKS
100
AcDbText
  0
TEXT
  5
15A
330
1E
100
AcDbEntity
  8
TEXT
100
AcDbText
 10
368.9590317919039
 20
159.0747592404491
 30
0.0
 40
10.0
  1
Gez.
 41
0.8
  7
GREEKS
100
AcDbText
  0
LINE
  5
15B
330
1E
100
AcDbEntity
  8
VOLL
100
AcDbLine
 10
410.0000000000003
 20
199.9999999999998
 30
0.0
 11
410.0000000000003
 21
99.99999999999992
 31
0.0
  0
TEXT
  5
15C
330
1E
100
AcDbEntity
  8
TEXT
100
AcDbText
 10
369.0016943468259
 20
108.8236597412452
 30
0.0
 40
10.0
  1
Norm.
 41
0.8
  7
GREEKS
100
AcDbText
  0
TEXT
  5
15D
330
1E
100
AcDbEntity
  8
TEXT
100
AcDbText
 10
368.8787716429181
 20
134.2231572857094
 30
0.0
 40
10.0
  1
Gepr.
 41
0.8
  7
GREEKS
100
AcDbText
  0
TEXT
  5
15E
330
1E
100
AcDbEntity
  8
TEXT
 62
     1
100
AcDbText
 10
401.2515766204717
 20
220.372535722849
 30
0.0
 40
17.5
  1
1:5
 41
0.8
  7
GREEKS
100
AcDbText
  0
TEXT
  5
160
330
1E
100
AcDbEntity
  8
TEXT
100
AcDbText
 10
371.55527455526
 20
182.8506367787916
 30
0.0
 40
10.0
  1
2011
 41
0.8
  7
GREEKS
100
AcDbText
  0
LINE
  5
161
330
1E
100
AcDbEntity
  8
VOLL
100
AcDbLine
 10
475.0000000000002
 20
274.9999999999996
 30
0.0
 11
475.0
 21
99.99999999999992
 31
0.0
  0
LINE
  5
186
330
1E
100
AcDbEntity
  8
HILF
100
AcDbLine
 10
1050.0
 20
-0.0000000000002842
 30
0.0
 11
1050.0
 21
1485.0
 31
0.0
  0
LINE
  5
187
330
1E
100
AcDbEntity
  8
STEMPEL
100
AcDbLine
 10
1025.0
 20
25.0
 30
0.0
 11
1025.0
 21
1460.0
 31
0.0
  0
TEXT
  5
188
330
1E
100
AcDbEntity
  8
TEXT
100
AcDbText
 10
843.1002153742515
 20
130.185404446965
 30
0.0
 40
12.5
  1
ersetzt durch:
 41
0.8
  7
GREEKS
100
AcDbText
  0
TEXT
  5
18A
330
1E
100
AcDbEntity
  8
TEXT
100
AcDbText
 10
840.4468873940851
 20
255.7830086342841
 30
0.0
 40
12.5
  1
Zeichnungs Nr.
 41
0.8
  7
GREEKS
100
AcDbText
  0
LINE
  5
18B
330
1E
100
AcDbEntity
  8
HILF
100
AcDbLine
 10
583.7274248224712
 20
37.23495645070784
 30
0.0
 11
1012.147209831682
 21
37.23495645070784
 31
0.0
  0
LINE
  5
18C
330
1E
100
AcDbEntity
  8
HILF
100
AcDbLine
 10
841.8096540742482
 20
209.4495909238957
 30
0.0
 11
1012.147209831682
 21
209.4495909238957
 31
0.0
  0
LINE
  5
18D
330
1E
100
AcDbEntity
  8
VOLL
100
AcDbLine
 10
830.0
 20
150.0
 30
0.0
 11
1025.0
 21
150.0
 31
0.0
  0
TEXT
  5
18E
330
1E
100
AcDbEntity
  8
TEXT
 62
     1
100
AcDbText
 10
587.3209660800035
 20
218.5437197313445
 30
0.0
 40
17.5
  1
Red.-Abzweig DN150/125
 41
0.65
  7
GREEKS
100
AcDbText
  0
LINE
  5
18F
330
1E
100
AcDbEntity
  8
HILF
100
AcDbLine
 10
586.9342002742369
 20
124.9999999999999
 30
0.0
 11
812.0884791390775
 21
124.9999999999999
 31
0.0
  0
LINE
  5
190
330
1E
100
AcDbEntity
  8
HILF
100
AcDbLine
 10
586.9342002742369
 20
149.9999999999999
 30
0.0
 11
812.0884791390775
 21
149.9999999999999
 31
0.0
  0
LINE
  5
191
330
1E
100
AcDbEntity
  8
HILF
100
AcDbLine
 10
586.9342002742369
 20
174.9999999999998
 30
0.0
 11
812.0884791390775
 21
174.9999999999998
 31
0.0
  0
LINE
  5
192
330
1E
100
AcDbEntity
  8
HILF
100
AcDbLine
 10
586.9342002742369
 20
210.0939561891034
 30
0.0
 11
812.0884791390777
 21
210.0939561891034
 31
0.0
  0
LINE
  5
193
330
1E
100
AcDbEntity
  8
STEMPEL
100
AcDbLine
 10
575.0
 20
275.0000000000001
 30
0.0
 11
575.0
 21
24.99999999999993
 31
0.0
  0
TEXT
  5
194
330
1E
100
AcDbEntity
  8
TEXT
100
AcDbText
 10
587.8240977813288
 20
178.7583604396322
 30
0.0
 40
12.5
  1
dünnwandig 45°
 41
0.8
  7
GREEKS
100
AcDbText
  0
TEXT
  5
195
330
1E
100
AcDbEntity
  8
TEXT
100
AcDbText
 10
587.4593753944567
 20
106.5743538255658
 30
0.0
 40
10.0
  1
5250FE0W.DWG
 41
0.8
  7
GREEKS
100
AcDbText
  0
TEXT
  5
196
330
1E
100
AcDbEntity
  8
TEXT
100
AcDbText
 10
586.8555959778399
 20
77.11401425482641
 30
0.0
 40
12.5
  1
Bauvorhaben
 41
0.8
  7
GREEKS
100
AcDbText
  0
TEXT
  5
197
330
1E
100
AcDbEntity
  8
TEXT
100
AcDbText
 10
587.1948509522525
 20
256.3723320029449
 30
0.0
 40
12.5
  1
Benennung
 41
0.8
  7
GREEKS
100
AcDbText
  0
LINE
  5
198
330
1E
100
AcDbEntity
  8
STEMPEL
100
AcDbLine
 10
830.0
 20
274.9999999999994
 30
0.0
 11
830.0
 21
100.0
 31
0.0
  0
TEXT
  5
19A
330
1E
100
AcDbEntity
  8
TEXT
 62
     1
100
AcDbText
 10
874.5400375403303
 20
220.372535722849
 30
0.0
 40
17.5
  1
5250FE0W
 41
0.8
  7
GREEKS
 72
     1
 11
926.8733708736636
 21
220.372535722849
 31
0.0
100
AcDbText
  0
TEXT
  5
212
330
1E
100
AcDbEntity
  8
TEXT
100
AcDbText
 10
587.8240977813288
 20
128.7583604396323
 30
0.0
 40
12.5
  1
EDV-Art.Nr. 5.250.FE0C
 41
0.8
  7
GREEKS
100
AcDbText
  0
LINE
  5
EFF
102
{ACAD_REACTORS
330
1E8B
102
}
330
1E
100
AcDbEntity
  8
STEMPEL
100
AcDbLine
 10
564.5387922236514
 20
970.9809237594766
 30
0.0
 11
564.5387922236514
 21
930.2050340030874
 31
0.0
  0
LINE
  5
F01
330
1E
100
AcDbEntity
  8
STEMPEL
100
AcDbLine
 10
570.6938591020952
 20
1056.659832105277
 30
0.0
 11
399.3837253452078
 21
1056.659832105277
 31
0.0
  0
LINE
  5
F09
330
1E
100
AcDbEntity
  8
STEMPEL
100
AcDbLine
 10
570.6938591020952
 20
1056.659832105277
 30
0.0
 11
571.3532569828974
 21
1055.245748786526
 31
0.0
  0
ARC
  5
F0A
330
1E
100
AcDbEntity
  8
STEMPEL
100
AcDbCircle
 10
540.5387922236513
 20
1040.876727887343
 30
0.0
 40
34.0
100
AcDbArc
 50
0.0
 51
24.99999999999263
  0
LINE
  5
F0B
330
1E
100
AcDbEntity
  8
STEMPEL
100
AcDbLine
 10
574.5387922236513
 20
1040.876727887343
 30
0.0
 11
574.5387922236513
 21
1024.597226576123
 31
0.0
  0
ARC
  5
F0C
330
1E
100
AcDbEntity
  8
STEMPEL
100
AcDbCircle
 10
540.5407645438932
 20
1024.657133624559
 30
0.0
 40
34.0
100
AcDbArc
 50
332.2594896725498
 51
0.0
  0
ARC
  5
F0D
330
1E
100
AcDbEntity
  8
STEMPEL
100
AcDbCircle
 10
587.5387922236513
 20
1000.159832105277
 30
0.0
 40
19.0
100
AcDbArc
 50
152.8456571516186
 51
180.0
  0
LINE
  5
F0E
330
1E
100
AcDbEntity
  8
STEMPEL
100
AcDbLine
 10
568.5387922236514
 20
1000.159832105277
 30
0.0
 11
568.5387922236514
 21
985.1230593832076
 31
0.0
  0
ARC
  5
F11
330
1E
100
AcDbEntity
  8
STEMPEL
100
AcDbCircle
 10
574.5387922236513
 20
970.9809237594766
 30
0.0
 40
10.0
100
AcDbArc
 50
148.413661903472
 51
180.0
  0
ARC
  5
F13
330
1E
100
AcDbEntity
  8
STEMPEL
100
AcDbCircle
 10
551.5387922236514
 20
985.1230593832076
 30
0.0
 40
17.0
100
AcDbArc
 50
328.4136619034722
 51
0.0
  0
LINE
  5
F37
330
1E
100
AcDbEntity
  8
STEMPEL
100
AcDbLine
 10
395.5387922236516
 20
1040.876727887343
 30
0.0
 11
395.5387922236516
 21
1024.597226576123
 31
0.0
  0
LINE
  5
F39
330
1E
100
AcDbEntity
  8
STEMPEL
100
AcDbLine
 10
401.5387922236516
 20
1000.159832105277
 30
0.0
 11
401.5387922236516
 21
985.1230593832076
 31
0.0
  0
ARC
  5
F3B
330
1E
100
AcDbEntity
  8
STEMPEL
100
AcDbCircle
 10
395.5387922236516
 20
970.9809237594766
 30
0.0
 40
10.0
100
AcDbArc
 50
0.0
 51
31.58633809652779
  0
LINE
  5
F3D
330
1E
100
AcDbEntity
  8
STEMPEL
100
AcDbLine
 10
405.5387922236516
 20
970.9809237594766
 30
0.0
 11
405.5387922236517
 21
646.6598321052774
 31
0.0
  0
ARC
  5
F40
330
1E
100
AcDbEntity
  8
STEMPEL
100
AcDbCircle
 10
418.5387922236516
 20
985.1230593832076
 30
0.0
 40
17.0
100
AcDbArc
 50
180.0
 51
211.5863380965277
  0
ARC
  5
F41
330
1E
100
AcDbEntity
  8
STEMPEL
100
AcDbCircle
 10
429.5368199034097
 20
1024.657133624559
 30
0.0
 40
34.0
100
AcDbArc
 50
180.0
 51
207.3202406357857
  0
ARC
  5
F44
330
1E
100
AcDbEntity
  8
STEMPEL
100
AcDbCircle
 10
382.5387922236516
 20
1000.159832105277
 30
0.0
 40
19.0
100
AcDbArc
 50
0.0
 51
27.90640811485477
  0
LINE
  5
F45
330
1E
100
AcDbEntity
  8
STEMPEL
100
AcDbLine
 10
399.3837253452078
 20
1056.659832105277
 30
0.0
 11
398.7243274644055
 21
1055.245748786526
 31
0.0
  0
ARC
  5
F47
330
1E
100
AcDbEntity
  8
STEMPEL
100
AcDbCircle
 10
429.5387922236516
 20
1040.876727887343
 30
0.0
 40
34.0
100
AcDbArc
 50
155.0000000000074
 51
180.0
  0
LINE
  5
F58
330
1E
100
AcDbEntity
  8
HILF
100
AcDbLine
 10
563.4729120641835
 20
974.1108273196996
 30
0.0
 11
406.6046723831195
 21
974.1108273196996
 31
0.0
  0
LINE
  5
F59
330
1E
100
AcDbEntity
  8
HILF
100
AcDbLine
 10
566.4536741777167
 20
980.904493715081
 30
0.0
 11
403.6239102695863
 21
980.9044937150812
 31
0.0
  0
LINE
  5
F5A
330
1E
100
AcDbEntity
  8
HILF
100
AcDbLine
 10
567.6427331936991
 20
1005.099147348977
 30
0.0
 11
402.434851253604
 21
1005.099147348977
 31
0.0
  0
LINE
  5
107B
330
1E
100
AcDbEntity
  8
STEMPEL
100
AcDbLine
 10
563.6639055883923
 20
636.6598321052769
 30
0.0
 11
406.4136788589109
 21
636.6598321052769
 31
0.0
  0
DIMENSION
  5
107C
330
1E
100
AcDbEntity
  8
BEM
100
AcDbDimension
  2
*D2
 10
564.5387922236518
 20
598.687354421802
 30
0.0
 11
485.0387922236517
 21
614.9373544218019
 31
0.0
 70
    32
  1
%%c<>
 71
     5
 42
159.0000000000001
  3
Standard
100
AcDbAlignedDimension
 13
405.5387922236517
 23
646.6598321052774
 33
0.0
 14
564.5387922236518
 24
646.6598321052764
 34
0.0
100
AcDbRotatedDimension
1001
ACAD
1000
DSTYLE
1002
{
1070
    40
1040
5.0
1070
    41
1040
3.5
1070
    42
1040
1.0
1070
    43
1040
7.0
1070
    44
1040
1.0
1070
    73
1070
     0
1070
    74
1070
     0
1070
    77
1070
     1
1070
    78
1070
     8
1070
    79
1070
     2
1070
   140
1040
3.5
1070
   141
1040
1.5
1070
   146
1040
0.5142857142857144
1070
   147
1040
1.5
1070
   172
1070
     1
1070
   178
1070
     1
1070
   179
1070
     2
1070
   271
1070
     2
1070
   272
1070
     2
1070
   284
1070
     8
1070
   285
1070
     8
1070
   286
1070
     8
1002
}
  0
LINE
  5
107D
330
1E
100
AcDbEntity
  8
HILF
100
AcDbLine
 10
563.0387922236514
 20
646.6598321052764
 30
0.0
 11
407.0387922236517
 21
646.6598321052778
 31
0.0
  0
LINE
  5
107F
330
1E
100
AcDbEntity
  8
STEMPEL
100
AcDbLine
 10
405.5387922236517
 20
646.6598321052774
 30
0.0
 11
406.4136788589109
 21
636.6598321052775
 31
0.0
  0
LINE
  5
1084
330
1E
100
AcDbEntity
  8
STEMPEL
100
AcDbLine
 10
564.5387922236514
 20
646.659832105277
 30
0.0
 11
563.6639055883922
 21
636.6598321052764
 31
0.0
  0
DIMENSION
  5
1085
330
1E
100
AcDbEntity
  8
BEM
100
AcDbDimension
  2
*D1
 10
339.0788602085066
 20
1056.659832105277
 30
0.0
 11
322.8288602085064
 21
846.6598321052769
 31
0.0
 70
    32
 71
     5
 42
420.0
  3
Standard
100
AcDbAlignedDimension
 13
406.4136788589109
 23
636.6598321052769
 33
0.0
 14
399.3837253452078
 24
1056.659832105277
 34
0.0
 50
90.0
100
AcDbRotatedDimension
1001
ACAD
1000
DSTYLE
1002
{
1070
    40
1040
5.0
1070
    41
1040
3.5
1070
    42
1040
1.0
1070
    43
1040
7.0
1070
    44
1040
1.0
1070
    73
1070
     0
1070
    74
1070
     0
1070
    77
1070
     1
1070
    78
1070
     8
1070
    79
1070
     2
1070
   140
1040
3.5
1070
   141
1040
1.5
1070
   146
1040
0.5142857142857144
1070
   147
1040
1.5
1070
   172
1070
     1
1070
   178
1070
     1
1070
   179
1070
     2
1070
   271
1070
     2
1070
   272
1070
     2
1070
   284
1070
     8
1070
   285
1070
     8
1070
   286
1070
     8
1002
}
  0
TEXT
  5
10C7
330
1E
100
AcDbEntity
  8
TEXT
 62
     1
100
AcDbText
 10
464.9954126628904
 20
886.1510655672841
 30
0.0
 40
17.5
  1
DN150
 50
90.0
 41
0.8
  7
GREEKS
100
AcDbText
  0
TEXT
  5
1179
330
1E
100
AcDbEntity
  8
TEXT
 62
     1
100
AcDbText
 10
742.6434123389265
 20
330.562165920503
 30
0.0
 40
17.5
  1
Werkstoff: 1.4404
 41
0.8
  7
GREEKS
100
AcDbText
  0
DIMENSION
  5
11C3
330
1E
100
AcDbEntity
  8
BEM
100
AcDbDimension
  2
*D3
 10
379.4082399138272
 20
756.659832105277
 30
0.0
 11
363.1582399138271
 21
696.659832105277
 31
0.0
 70
    32
 71
     5
 42
120.0000000000001
  3
Standard
100
AcDbAlignedDimension
 13
406.4136788589109
 23
636.6598321052769
 33
0.0
 14
485.0387922236516
 24
756.659832105277
 34
0.0
 50
90.0
100
AcDbRotatedDimension
1001
ACAD
1000
DSTYLE
1002
{
1070
    40
1040
5.0
1070
    41
1040
3.5
1070
    42
1040
1.0
1070
    43
1040
7.0
1070
    44
1040
1.0
1070
    73
1070
     0
1070
    74
1070
     0
1070
    77
1070
     1
1070
    78
1070
     8
1070
    79
1070
     2
1070
   140
1040
3.5
1070
   141
1040
1.5
1070
   146
1040
0.5142857142857144
1070
   147
1040
1.5
1070
   172
1070
     1
1070
   178
1070
     1
1070
   179
1070
     2
1070
   271
1070
     2
1070
   272
1070
     2
1070
   284
1070
     8
1070
   285
1070
     8
1070
   286
1070
     8
1002
}
  0
LINE
  5
184D
102
{ACAD_REACTORS
330
1E95
102
}
330
1E
100
AcDbEntity
  8
STEMPEL
100
AcDbLine
 10
564.5387922236515
 20
742.1146302074658
 30
0.0
 11
564.5387922236514
 21
646.6598321052761
 31
0.0
  0
LINE
  5
18C6
330
1E
100
AcDbEntity
  8
MITTEL
100
AcDbLine
 10
485.0387922236516
 20
1061.659832105277
 30
0.0
 11
485.0387922236517
 21
631.659832105277
 31
0.0
  0
TEXT
  5
19A6
330
1E
100
AcDbEntity
  8
TEXT
 62
     1
100
AcDbText
 10
582.2668484266155
 20
867.2677435795996
 30
0.0
 40
17.5
  1
DN125
 50
45.0
 41
0.8
  7
GREEKS
100
AcDbText
  0
LINE
  5
1B34
330
1E
100
AcDbEntity
  8
STEMPEL
100
AcDbLine
 10
751.3741441816719
 20
921.6596166710507
 30
0.0
 11
650.0385767894256
 21
1022.995184063297
 31
0.0
  0
LINE
  5
1B3A
102
{ACAD_REACTORS
330
1E95
102
}
330
1E
100
AcDbEntity
  8
STEMPEL
100
AcDbLine
 10
690.6803582444108
 20
868.256196228225
 30
0.0
 11
564.5387922236515
 21
742.1146302074658
 31
0.0
  0
POINT
  5
1B3F
330
1E
100
AcDbEntity
  8
STEMPEL
100
AcDbPoint
 10
750.2038351686072
 20
922.8299256841156
 30
0.0
  0
LINE
  5
1B41
330
1E
100
AcDbEntity
  8
STEMPEL
100
AcDbLine
 10
751.3741441816719
 20
921.6596166710507
 30
0.0
 11
750.8660250916816
 21
920.2635709449086
 31
0.0
  0
ARC
  5
1B42
330
1E
100
AcDbEntity
  8
STEMPEL
100
AcDbCircle
 10
723.6149390888901
 20
930.1821551013532
 30
0.0
 40
29.0
100
AcDbArc
 50
315.0
 51
339.9999999999928
  0
LINE
  5
1B43
330
1E
100
AcDbEntity
  8
STEMPEL
100
AcDbLine
 10
744.1210357433001
 20
909.6760584469432
 30
0.0
 11
730.6106133687089
 21
896.1656360723521
 31
0.0
  0
ARC
  5
1B44
330
1E
100
AcDbEntity
  8
STEMPEL
100
AcDbCircle
 10
710.1045167142991
 20
916.6717327267617
 30
0.0
 40
29.0
100
AcDbArc
 50
289.8288522569419
 51
315.0
  0
ARC
  5
1B45
330
1E
100
AcDbEntity
  8
STEMPEL
100
AcDbCircle
 10
726.5157579988576
 20
871.5646840480909
 30
0.0
 40
19.0
100
AcDbArc
 50
109.7728556340919
 51
135.0
  0
LINE
  5
1B46
330
1E
100
AcDbEntity
  8
STEMPEL
100
AcDbLine
 10
713.0807291563132
 20
884.9997128906352
 30
0.0
 11
703.5087853691568
 21
875.4277691034788
 31
0.0
  0
ARC
  5
1B4B
330
1E
100
AcDbEntity
  8
STEMPEL
100
AcDbCircle
 10
691.4879700889858
 20
887.4485843836501
 30
0.0
 40
17.0
100
AcDbArc
 50
283.4136619034719
 51
315.0
  0
ARC
  5
1B4C
330
1E
100
AcDbEntity
  8
STEMPEL
100
AcDbCircle
 10
697.7514260562761
 20
861.1851284163595
 30
0.0
 40
10.0
100
AcDbArc
 50
103.413661903472
 51
135.0
  0
ARC
  5
1B7E
330
1E
100
AcDbEntity
  8
STEMPEL
100
AcDbCircle
 10
645.0506928451368
 20
981.7255565959241
 30
0.0
 40
29.0
100
AcDbArc
 50
135.0
 51
160.1711477430581
  0
LINE
  5
1B81
102
{ACAD_REACTORS
330
1E8B
102
}
330
1E
100
AcDbEntity
  8
STEMPEL
100
AcDbLine
 10
596.6351563466
 20
962.3013981260358
 30
0.0
 11
564.5387922236514
 21
930.2050340030874
 31
0.0
  0
ARC
  5
1B82
330
1E
100
AcDbEntity
  8
STEMPEL
100
AcDbCircle
 10
599.9436441664657
 20
998.1367978804827
 30
0.0
 40
19.0
100
AcDbArc
 50
315.0
 51
340.2271443659081
  0
LINE
  5
1B83
330
1E
100
AcDbEntity
  8
STEMPEL
100
AcDbLine
 10
613.3786730090101
 20
984.7017690379384
 30
0.0
 11
603.8067292218538
 21
975.1298252507821
 31
0.0
  0
ARC
  5
1B86
330
1E
100
AcDbEntity
  8
STEMPEL
100
AcDbCircle
 10
615.8275445020251
 20
963.109009970611
 30
0.0
 40
17.0
100
AcDbArc
 50
135.0
 51
166.5863380965278
  0
ARC
  5
1B87
330
1E
100
AcDbEntity
  8
STEMPEL
100
AcDbCircle
 10
589.5640885347343
 20
969.3724659379013
 30
0.0
 40
10.0
100
AcDbArc
 50
315.0
 51
346.5863380965278
  0
LINE
  5
1B8A
330
1E
100
AcDbEntity
  8
STEMPEL
100
AcDbLine
 10
650.0385767894256
 20
1022.995184063297
 30
0.0
 11
648.6425310632837
 21
1022.487064973306
 31
0.0
  0
POINT
  5
1B8D
330
1E
100
AcDbEntity
  8
STEMPEL
100
AcDbPoint
 10
651.2088858024903
 20
1021.824875050232
 30
0.0
  0
ARC
  5
1B8E
330
1E
100
AcDbEntity
  8
STEMPEL
100
AcDbCircle
 10
658.5611152197279
 20
995.2359789705154
 30
0.0
 40
29.0
100
AcDbArc
 50
110.0000000000072
 51
135.0
  0
LINE
  5
1B8F
330
1E
100
AcDbEntity
  8
STEMPEL
100
AcDbLine
 10
638.0550185653182
 20
1015.742075624925
 30
0.0
 11
624.5445961907269
 21
1002.231653250334
 31
0.0
  0
LINE
  5
1B91
330
1E
100
AcDbEntity
  8
HILF
100
AcDbLine
 10
699.0514078684891
 20
873.9191938225205
 30
0.0
 11
602.2981539408956
 21
970.6724477501142
 31
0.0
  0
LINE
  5
1B92
330
1E
100
AcDbEntity
  8
HILF
100
AcDbLine
 10
692.1398431876123
 20
871.2230633488106
 30
0.0
 11
599.6020234671853
 21
963.7608830692375
 31
0.0
  0
LINE
  5
1B93
330
1E
100
AcDbEntity
  8
HILF
100
AcDbLine
 10
715.5354090876321
 20
888.8760080236783
 30
0.0
 11
617.2549681420532
 21
987.1564489692573
 31
0.0
  0
DIMENSION
  5
1E2B
330
1E
100
AcDbEntity
  8
BEM
100
AcDbDimension
  2
*D4
 10
485.0387922236517
 20
631.659832105277
 30
0.0
 11
630.9818786486194
 21
1077.927388636683
 31
0.0
 70
   162
 71
     5
 42
0.7853981633974483
  3
Standard
100
AcDb2LineAngularDimension
 13
704.2418943914815
 23
975.8629342731065
 33
0.0
 14
485.0387922236516
 24
756.659832105277
 34
0.0
 15
485.0387922236516
 25
1061.659832105277
 35
0.0
 16
576.3664314786267
 26
1097.499221940165
 36
0.0
1001
ACAD
1000
DSTYLE
1002
{
1070
    40
1040
5.0
1070
    41
1040
3.5
1070
    42
1040
1.0
1070
    43
1040
7.0
1070
    44
1040
1.0
1070
    73
1070
     0
1070
    74
1070
     0
1070
    77
1070
     1
1070
    78
1070
     8
1070
    79
1070
     2
1070
   140
1040
3.5
1070
   141
1040
1.5
1070
   146
1040
0.5142857142857144
1070
   147
1040
1.5
1070
   172
1070
     1
1070
   178
1070
     1
1070
   179
1070
     2
1070
   271
1070
     2
1070
   272
1070
     2
1070
   284
1070
     8
1070
   285
1070
     8
1070
   286
1070
     8
1002
}
  0
DIMENSION
  5
1E45
330
1E
100
AcDbEntity
  8
BEM
100
AcDbDimension
  2
*D5
 10
540.6624087595965
 20
718.2382467434107
 30
0.0
 11
505.1302930049724
 21
776.7513328865975
 31
0.0
 70
    32
  1
%%c<>
 71
     5
 42
132.9999999999999
 51
45.0
  3
Standard
100
AcDbAlignedDimension
 13
564.5387922236515
 23
930.2050340030874
 33
0.0
 14
564.5387922236515
 24
742.1146302074658
 34
0.0
 50
315.0
100
AcDbRotatedDimension
1001
ACAD
1000
DSTYLE
1002
{
1070
    40
1040
5.0
1070
    41
1040
3.5
1070
    42
1040
1.0
1070
    43
1040
7.0
1070
    44
1040
1.0
1070
    73
1070
     0
1070
    74
1070
     0
1070
    77
1070
     1
1070
    78
1070
     8
1070
    79
1070
     2
1070
   140
1040
3.5
1070
   141
1040
1.5
1070
   146
1040
0.5142857142857144
1070
   147
1040
1.5
1070
   172
1070
     1
1070
   178
1070
     1
1070
   179
1070
     2
1070
   271
1070
     2
1070
   272
1070
     2
1070
   284
1070
     8
1070
   285
1070
     8
1070
   286
1070
     8
1002
}
  0
ELLIPSE
  5
1E63
330
1E
100
AcDbEntity
  8
STEMPEL
100
AcDbEllipse
 10
564.5387922236514
 20
800.2258739268608
 30
0.0
 11
0.0
 21
-58.11124371939502
 31
0.0
210
0.0
220
0.0
230
1.0
 40
0.6183649820322562
 41
4.712388980384689
 42
6.283185307179586
  0
ARC
  5
1E65
330
1E
100
AcDbEntity
  8
STEMPEL
100
AcDbCircle
 10
767.6584163426836
 20
804.093988425161
 30
0.0
 40
239.0848751364559
100
AcDbArc
 50
148.1650612528909
 51
180.9270193485595
  0
ARC
  5
1E68
330
1E
100
AcDbEntity
  8
SCHRAFF
100
AcDbCircle
 10
528.5762201432006
 20
805.2257920506516
 30
0.0
 40
9.999453289156527
100
AcDbArc
 50
253.3624852155449
 51
288.3004280136256
  0
ARC
  5
1E69
330
1E
100
AcDbEntity
  8
SCHRAFF
100
AcDbCircle
 10
528.7379996377036
 20
795.2276475489362
 30
0.0
 40
9.999453289156527
100
AcDbArc
 50
258.5427916502356
 51
293.510282662538
  0
ARC
  5
1E6A
330
1E
100
AcDbEntity
  8
SCHRAFF
100
AcDbCircle
 10
529.8126564006256
 20
785.286109492683
 30
0.0
 40
9.999453289156527
100
AcDbArc
 50
265.0503157582923
 51
300.0286771046645
  0
ARC
  5
1E6B
330
1E
100
AcDbEntity
  8
SCHRAFF
100
AcDbCircle
 10
532.0108382906072
 20
775.531261341093
 30
0.0
 40
9.999453289156527
100
AcDbArc
 50
272.3525805148329
 51
307.3510671280203
  0
ARC
  5
1E6C
330
1E
100
AcDbEntity
  8
SCHRAFF
100
AcDbCircle
 10
535.4370342416975
 20
766.1371010600057
 30
0.0
 40
9.999453289156527
100
AcDbArc
 50
281.1039252983022
 51
316.1529889886983
  0
ARC
  5
1E6D
330
1E
100
AcDbEntity
  8
SCHRAFF
100
AcDbCircle
 10
540.2636057803801
 20
757.3796314903183
 30
0.0
 40
9.999453289156527
100
AcDbArc
 50
292.3999383830725
 51
327.5590379173895
  0
ARC
  5
1E6E
330
1E
100
AcDbEntity
  8
SCHRAFF
100
AcDbCircle
 10
546.7304745486726
 20
749.752792406156
 30
0.0
 40
9.999453289156527
100
AcDbArc
 50
308.0085524775491
 51
343.4154394718027
  0
ARC
  5
1E70
330
1E
100
AcDbEntity
  8
SCHRAFF
100
AcDbCircle
 10
528.8326517365019
 20
815.2219567611782
 30
0.0
 40
9.999453289156527
100
AcDbArc
 50
251.0131551345778
 51
285.9375051020949
  0
ARC
  5
1E71
330
1E
100
AcDbEntity
  8
SCHRAFF
100
AcDbCircle
 10
529.5068458583364
 20
825.1986560333877
 30
0.0
 40
9.999453289156527
100
AcDbArc
 50
248.6166495570502
 51
283.5409995245668
  0
ARC
  5
1E72
330
1E
100
AcDbEntity
  8
SCHRAFF
100
AcDbCircle
 10
530.5976231843482
 20
835.1384382697892
 30
0.0
 40
9.999453289156527
100
AcDbArc
 50
246.2201439795218
 51
281.1444939470388
  0
ARC
  5
1E73
330
1E
100
AcDbEntity
  8
SCHRAFF
100
AcDbCircle
 10
532.1030756880118
 20
845.0239164494847
 30
0.0
 40
9.999453289156527
100
AcDbArc
 50
243.8236384019935
 51
278.747988369511
  0
ARC
  5
1E74
330
1E
100
AcDbEntity
  8
SCHRAFF
100
AcDbCircle
 10
534.0205699782212
 20
854.8377985421653
 30
0.0
 40
9.999453289156527
100
AcDbArc
 50
241.427132824465
 51
276.3514827919821
  0
ARC
  5
1E75
330
1E
100
AcDbEntity
  8
SCHRAFF
100
AcDbCircle
 10
536.3467519057096
 20
864.5629177559463
 30
0.0
 40
9.999453289156527
100
AcDbArc
 50
239.0306272469377
 51
273.9549772144546
  0
ARC
  5
1E76
330
1E
100
AcDbEntity
  8
SCHRAFF
100
AcDbCircle
 10
539.0775524302486
 20
874.1822625661296
 30
0.0
 40
9.999453289156527
100
AcDbArc
 50
236.6341216694085
 51
271.5584716369254
  0
ARC
  5
1E77
330
1E
100
AcDbEntity
  8
SCHRAFF
100
AcDbCircle
 10
542.2081947383564
 20
883.6790064723697
 30
0.0
 40
9.999453289156527
100
AcDbArc
 50
234.2376160918807
 51
269.1619660593975
  0
ARC
  5
1E78
330
1E
100
AcDbEntity
  8
SCHRAFF
100
AcDbCircle
 10
545.7332025990719
 20
893.0365374321858
 30
0.0
 40
9.999453289156527
100
AcDbArc
 50
231.8411105143524
 51
266.7654604818694
  0
ARC
  5
1E79
330
1E
100
AcDbEntity
  8
SCHRAFF
100
AcDbCircle
 10
549.6464099431711
 20
902.2384869193386
 30
0.0
 40
9.999453289156527
100
AcDbArc
 50
229.4446049368249
 51
264.3689549043417
  0
ARC
  5
1E7A
330
1E
100
AcDbEntity
  8
SCHRAFF
100
AcDbCircle
 10
553.9409716490756
 20
911.2687585562387
 30
0.0
 40
9.999453289156527
100
AcDbArc
 50
227.048099359296
 51
261.9724493268127
  0
ARC
  5
1E7B
330
1E
100
AcDbEntity
  8
SCHRAFF
100
AcDbCircle
 10
558.6093755165832
 20
920.1115562703032
 30
0.0
 40
9.999453289156527
100
AcDbArc
 50
224.6515937817679
 51
259.5759437492853
  0
ARC
  5
1E7C
330
1E
100
AcDbEntity
  8
SCHRAFF
100
AcDbCircle
 10
563.6434554074754
 20
928.7514119250081
 30
0.0
 40
9.999453289156527
100
AcDbArc
 50
222.2550882042399
 51
257.1794381717566
  0
ARC
  5
1E7D
330
1E
100
AcDbEntity
  8
SCHRAFF
100
AcDbCircle
 10
569.0344055300173
 20
937.1732123773039
 30
0.0
 40
9.999453289156527
100
AcDbArc
 50
219.8585826267117
 51
254.7829325942287
  0
ARC
  5
1E85
102
{ACAD_REACTORS
330
1E8B
102
}
330
1E
100
AcDbEntity
  8
SCHRAFF
100
AcDbCircle
 10
564.8327330927708
 20
930.3354247728275
 30
0.0
 40
5.476385618095209
100
AcDbArc
 50
46.21003159338306
 51
93.07678630638154
  0
HATCH
  5
1E8B
330
1E
100
AcDbEntity
  8
SCHRAFF
100
AcDbHatch
 10
0.0
 20
0.0
 30
0.0
210
0.0
220
0.0
230
1.0
  2
_USER
 70
     0
 71
     1
 91
        1
 92
        7
 72
     1
 73
     1
 93
        3
 10
564.5387922236514
 20
930.2050340030874
 42
0.0
 10
568.6224839128499
 20
934.2887256922859
 42
0.2073938267347004
 10
564.5387922236514
 20
935.8039161738943
 42
0.0
 97
        3
330
1E85
330
EFF
330
1B81
 75
     0
 76
     0
 52
0.0
 41
0.1
 77
     0
 78
     1
 53
0.0
 43
0.0
 44
0.0
 45
0.0
 46
0.1
 79
     0
 47
0.0637933293496051
 98
        1
 10
565.7239090436759
 20
933.4221879127367
  0
ARC
  5
1E8D
102
{ACAD_REACTORS
330
1E95
102
}
330
1E
100
AcDbEntity
  8
SCHRAFF
100
AcDbCircle
 10
561.6284788851253
 20
743.3201214630388
 30
0.0
 40
5.114301558287628
100
AcDbArc
 50
304.6842788824359
 51
10.31572111756337
  0
HATCH
  5
1E95
330
1E
100
AcDbEntity
  8
SCHRAFF
100
AcDbHatch
 10
0.0
 20
0.0
 30
0.0
210
0.0
220
0.0
230
1.0
  2
_USER
 70
     0
 71
     1
 91
        1
 92
        7
 72
     1
 73
     1
 93
        3
 10
564.5387922236515
 20
739.1146302074659
 42
0.2944650878692866
 10
566.6601125672112
 20
744.2359505510255
 42
0.0
 10
564.5387922236514
 20
742.1146302074658
 42
0.0
 97
        3
330
1B3A
330
184D
330
1E8D
 75
     0
 76
     0
 52
0.0
 41
0.1
 77
     0
 78
     1
 53
0.0
 43
0.0
 44
0.0
 45
0.0
 46
0.1
 79
     0
 47
0.0401911779800728
 98
        1
 10
565.4104919999108
 20
741.5101802718322
  0
LINE
  5
1ED4
330
1E
100
AcDbEntity
  8
MITTEL
100
AcDbLine
 10
704.2418943914813
 20
975.8629342731062
 30
0.0
 11
514.2660788172776
 21
785.887118698903
 31
0.0
  0
LINE
  5
1ED5
330
1E
100
AcDbEntity
  8
MITTEL
100
AcDbLine
 10
490.4784069744515
 20
762.0994468560768
 30
0.0
 11
485.0387922236516
 21
756.659832105277
 31
0.0
  0
DIMENSION
  5
1EF4
330
1E
100
AcDbEntity
  8
BEM
100
AcDbDimension
  2
*D7
 10
787.623530184409
 20
885.4102306683133
 30
0.0
 11
668.2992608591794
 21
789.0669317316461
 31
0.0
 70
    32
 71
     5
 42
304.9999999999998
  3
Standard
100
AcDbAlignedDimension
 13
485.0387922236515
 23
756.6598321052771
 33
0.0
 14
751.3741441816717
 24
921.6596166710505
 34
0.0
 50
45.0
100
AcDbRotatedDimension
1001
ACAD
1000
DSTYLE
1002
{
1070
    40
1040
5.0
1070
    41
1040
3.5
1070
    42
1040
1.0
1070
    43
1040
7.0
1070
    44
1040
1.0
1070
    73
1070
     0
1070
    74
1070
     0
1070
    77
1070
     1
1070
    78
1070
     8
1070
    79
1070
     2
1070
   140
1040
3.5
1070
   141
1040
1.5
1070
   146
1040
0.5142857142857144
1070
   147
1040
1.5
1070
   172
1070
     1
1070
   178
1070
     1
1070
   179
1070
     2
1070
   271
1070
     2
1070
   272
1070
     2
1070
   284
1070
     8
1070
   285
1070
     8
1070
   286
1070
     8
1002
}
  0
TEXT
  5
1F6A
330
1E
100
AcDbEntity
  8
BEM
100
AcDbText
 10
1041.452885359359
 20
30.37012038345759
 30
0.0
 40
10.0
  1
Diese Zeichnung ist urheberrechtlich geschützt und bleibt unser Eigentum. Sie darf weder ganz noch teilweise vervielfältigt und nicht an Dritte weitergegeben werden.
 50
90.0
 41
0.8
  7
GREEKS
100
AcDbText
  0
TEXT
  5
1F6B
330
1E
100
AcDbEntity
  8
TEXT
100
AcDbText
 10
841.809654074248
 20
182.9529559274993
 30
0.0
 40
12.5
  1
Ersatz für:
 41
0.8
  7
GREEKS
100
AcDbText
  0
TEXT
  5
1F6C
330
1E
100
AcDbEntity
  8
TEXT
100
AcDbText
 10
481.7206788119809
 20
224.4478592884235
 30
0.0
 40
10.0
  1
DIN EN1124-3
 41
0.8
  7
GREEKS
 72
     1
 11
524.1968692881714
 21
224.4478592884235
 31
0.0
100
AcDbText
  0
TEXT
  5
1F6D
330
1E
100
AcDbEntity
  8
TEXT
100
AcDbText
 10
383.7908930375943
 20
256.1552237717722
 30
0.0
 40
12.5
  1
Maßstab
 41
0.8
  7
GREEKS
100
AcDbText
  0
TEXT
  5
1F6E
330
1E
100
AcDbEntity
  8
TEXT
100
AcDbText
 10
104.6377487744416
 20
279.1799999999999
 30
0.0
 40
12.5
  1
Erstellt mit AUTOCAD 2004
 41
0.8
  7
GREEKS
100
AcDbText
  0
TEXT
  5
1F6F
330
1E
100
AcDbEntity
  8
TEXT
100
AcDbText
 10
322.2507152447943
 20
46.48310542416021
 30
0.0
 40
10.0
  1
Name
 41
0.8
  7
GREEKS
 72
     1
 11
338.0602390543181
 21
46.48310542416021
 31
0.0
100
AcDbText
  0
TEXT
  5
1F70
330
1E
100
AcDbEntity
  8
TEXT
100
AcDbText
 10
276.15652626084
 20
46.67890673349527
 30
0.0
 40
10.0
  1
Tag
 41
0.8
  7
GREEKS
 72
     1
 11
285.4898595941734
 21
46.67890673349527
 31
0.0
100
AcDbText
  0
TEXT
  5
1F71
330
1E
100
AcDbEntity
  8
TEXT
100
AcDbText
 10
169.1452957849062
 20
45.8707299621667
 30
0.0
 40
10.0
  1
Änderung
 41
0.8
  7
GREEKS
 72
     1
 11
196.0024386420491
 21
45.8707299621667
 31
0.0
100
AcDbText
  0
TEXT
  5
1FA0
330
1E
100
AcDbEntity
  8
TEXT
100
AcDbText
 10
425.9974927705902
 20
157.7691260206433
 30
0.0
 40
10.0
  1
08.04.
 41
0.8
  7
GREEKS
 72
     1
 11
443.5213022943996
 21
157.7691260206433
 31
0.0
100
AcDbText
  0
ENDSEC
  0
SECTION
  2
OBJECTS
  0
DICTIONARY
  5
C
330
0
100
AcDbDictionary
281
     1
  3
ACAD_COLOR
350
1EE0
  3
ACAD_GROUP
350
D
  3
ACAD_LAYOUT
350
19
  3
ACAD_MATERIAL
350
1EDF
  3
ACAD_MLINESTYLE
350
16
  3
ACAD_PLOTSETTINGS
350
18
  3
ACAD_PLOTSTYLENAME
350
E
  3
AcDbVariableDictionary
350
246
  0
DICTIONARY
  5
1EE0
102
{ACAD_REACTORS
330
C
102
}
330
C
100
AcDbDictionary
281
     1
  0
DICTIONARY
  5
D
102
{ACAD_REACTORS
330
C
102
}
330
C
100
AcDbDictionary
281
     1
  0
DICTIONARY
  5
19
102
{ACAD_REACTORS
330
C
102
}
330
C
100
AcDbDictionary
281
     1
  3
Layout1
350
1D
  3
Model
350
21
  0
DICTIONARY
  5
1EDF
102
{ACAD_REACTORS
330
C
102
}
330
C
100
AcDbDictionary
281
     1
  0
DICTIONARY
  5
16
102
{ACAD_REACTORS
330
C
102
}
330
C
100
AcDbDictionary
281
     1
  3
Standard
350
17
  0
DICTIONARY
  5
18
102
{ACAD_REACTORS
330
C
102
}
330
C
100
AcDbDictionary
281
     1
  0
ACDBDICTIONARYWDFLT
  5
E
102
{ACAD_REACTORS
330
C
102
}
330
C
100
AcDbDictionary
281
     1
  3
Normal
350
F
100
AcDbDictionaryWithDefault
340
F
  0
DICTIONARY
  5
246
102
{ACAD_REACTORS
330
C
102
}
330
C
100
AcDbDictionary
281
     1
  3
DIMASSOC
350
1F84
  3
PROJECTNAME
350
1F85
  3
SORTENTS
350
247
  0
LAYOUT
  5
1D
102
{ACAD_REACTORS
330
19
102
}
330
19
100
AcDbPlotSettings
  1

  2
Tektronix Phaser 740
  4

  6

 40
0.0
 41
0.0
 42
0.0
 43
0.0
 44
0.0
 45
0.0
 46
0.0
 47
0.0
 48
0.0
 49
0.0
140
0.0
141
0.0
142
1.0
143
1.0
 70
   688
 72
     0
 73
     0
 74
     5
  7
monochrome.ctb
 75
    16
147
1.0
 76
     0
 77
     2
 78
   300
148
0.0
149
0.0
100
AcDbLayout
  1
Layout1
 70
     0
 71
     1
 10
0.0
 20
0.0
 11
12.0
 21
9.0
 12
0.0
 22
0.0
 32
0.0
 14
1.000000000000000E+20
 24
1.000000000000000E+20
 34
1.000000000000000E+20
 15
-1.000000000000000E+20
 25
-1.000000000000000E+20
 35
-1.000000000000000E+20
146
0.0
 13
0.0
 23
0.0
 33
0.0
 16
1.0
 26
0.0
 36
0.0
 17
0.0
 27
1.0
 37
0.0
 76
     0
330
1A
  0
LAYOUT
  5
21
102
{ACAD_REACTORS
330
19
102
}
330
19
100
AcDbPlotSettings
  1

  2
Tektronix Phaser 740
  4
A4
  6

 40
5.873749732971191
 41
6.085414409637451
 42
5.577407836914062
 43
5.662078857421875
 44
209.9733276367187
 45
296.9683227539062
 46
0.0
 47
0.0
 48
0.0
 49
0.0
140
0.0
141
0.0
142
1.0
143
1.0
 70
 11952
 72
     0
 73
     1
 74
     0
  7
monochrome.ctb
 75
     0
147
1.0
 76
     0
 77
     2
 78
   300
148
1150.120678237584
149
45.30495740799864
100
AcDbLayout
  1
Model
 70
     1
 71
     0
 10
0.0
 20
0.0
 11
12.0
 21
9.0
 12
0.0
 22
0.0
 32
0.0
 14
0.0
 24
0.0
 34
0.0
 15
0.0
 25
0.0
 35
0.0
146
0.0
 13
0.0
 23
0.0
 33
0.0
 16
1.0
 26
0.0
 36
0.0
 17
0.0
 27
1.0
 37
0.0
 76
     0
330
1E
  0
MLINESTYLE
  5
17
102
{ACAD_REACTORS
330
16
102
}
330
16
100
AcDbMlineStyle
  2
STANDARD
 70
     0
  3

 62
   256
 51
90.0
 52
90.0
 71
     2
 49
0.5
 62
   256
  6
BYLAYER
 49
-0.5
 62
   256
  6
BYLAYER
  0
ACDBPLACEHOLDER
  5
F
102
{ACAD_REACTORS
330
E
102
}
330
E
  0
DICTIONARYVAR
  5
1F84
102
{ACAD_REACTORS
330
246
102
}
330
246
100
DictionaryVariables
280
     0
  1
1
  0
DICTIONARYVAR
  5
1F85
102
{ACAD_REACTORS
330
246
102
}
330
246
100
DictionaryVariables
280
     0
  1

  0
DICTIONARYVAR
  5
247
102
{ACAD_REACTORS
330
246
102
}
330
246
100
DictionaryVariables
280
     0
  1
96
  0
ENDSEC
  0
EOF
