  0
SECTION
  2
HEADER
  9
$ACADVER
  1
AC1018
  9
$ACADMAINTVER
 70
     2
  9
$DWGCODEPAGE
  3
ANSI_1252
  9
$INSBASE
 10
0.0
 20
0.0
 30
0.0
  9
$EXTMIN
 10
-0.0132831719639626
 20
-0.0187006492330966
 30
-0.0000000000000022
  9
$EXTMAX
 10
420.0078492443956
 20
594.0228047734672
 30
0.0000000000000131
  9
$LIMMIN
 10
0.0
 20
0.0
  9
$LIMMAX
 10
419.9999999999999
 20
594.0
  9
$ORTHOMODE
 70
     1
  9
$REGENMODE
 70
     1
  9
$FILLMODE
 70
     1
  9
$QTEXTMODE
 70
     0
  9
$MIRRTEXT
 70
     1
  9
$LTSCALE
 40
20.0
  9
$ATTMODE
 70
     1
  9
$TEXTSIZE
 40
3.5
  9
$TRACEWID
 40
0.5
  9
$TEXTSTYLE
  7
STANDARD
  9
$CLAYER
  8
BEM
  9
$CELTYPE
  6
ByLayer
  9
$CECOLOR
 62
   256
  9
$CELTSCALE
 40
1.0
  9
$DISPSILH
 70
     0
  9
$DIMSCALE
 40
2.0
  9
$DIMASZ
 40
3.5
  9
$DIMEXO
 40
1.0
  9
$DIMDLI
 40
7.0
  9
$DIMRND
 40
0.0
  9
$DIMDLE
 40
0.0
  9
$DIMEXE
 40
1.0
  9
$DIMTP
 40
0.0
  9
$DIMTM
 40
0.0
  9
$DIMTXT
 40
3.5
  9
$DIMCEN
 40
1.5
  9
$DIMTSZ
 40
0.0
  9
$DIMTOL
 70
     0
  9
$DIMLIM
 70
     0
  9
$DIMTIH
 70
     0
  9
$DIMTOH
 70
     0
  9
$DIMSE1
 70
     0
  9
$DIMSE2
 70
     0
  9
$DIMTAD
 70
     1
  9
$DIMZIN
 70
     8
  9
$DIMBLK
  1

  9
$DIMASO
 70
     1
  9
$DIMSHO
 70
     0
  9
$DIMPOST
  1

  9
$DIMAPOST
  1

  9
$DIMALT
 70
     0
  9
$DIMALTD
 70
     2
  9
$DIMALTF
 40
25.4
  9
$DIMLFAC
 40
1.0
  9
$DIMTOFL
 70
     1
  9
$DIMTVP
 40
0.0
  9
$DIMTIX
 70
     0
  9
$DIMSOXD
 70
     0
  9
$DIMSAH
 70
     0
  9
$DIMBLK1
  1

  9
$DIMBLK2
  1

  9
$DIMSTYLE
  2
Standard
  9
$DIMCLRD
 70
     0
  9
$DIMCLRE
 70
     0
  9
$DIMCLRT
 70
     1
  9
$DIMTFAC
 40
0.5
  9
$DIMGAP
 40
1.5
  9
$DIMJUST
 70
     0
  9
$DIMSD1
 70
     0
  9
$DIMSD2
 70
     0
  9
$DIMTOLJ
 70
     1
  9
$DIMTZIN
 70
     8
  9
$DIMALTZ
 70
     8
  9
$DIMALTTZ
 70
     8
  9
$DIMUPT
 70
     0
  9
$DIMDEC
 70
     2
  9
$DIMTDEC
 70
     2
  9
$DIMALTU
 70
     2
  9
$DIMALTTD
 70
     2
  9
$DIMTXSTY
  7
STANDARD
  9
$DIMAUNIT
 70
     0
  9
$DIMADEC
 70
     2
  9
$DIMALTRND
 40
0.0
  9
$DIMAZIN
 70
     2
  9
$DIMDSEP
 70
    46
  9
$DIMATFIT
 70
     3
  9
$DIMFRAC
 70
     0
  9
$DIMLDRBLK
  1

  9
$DIMLUNIT
 70
     2
  9
$DIMLWD
 70
    -2
  9
$DIMLWE
 70
    -2
  9
$DIMTMOVE
 70
     0
  9
$LUNITS
 70
     2
  9
$LUPREC
 70
     2
  9
$SKETCHINC
 40
1.0
  9
$FILLETRAD
 40
0.0
  9
$AUNITS
 70
     1
  9
$AUPREC
 70
     3
  9
$MENU
  1
ACAD
  9
$ELEVATION
 40
0.0
  9
$PELEVATION
 40
0.0
  9
$THICKNESS
 40
0.0
  9
$LIMCHECK
 70
     0
  9
$CHAMFERA
 40
0.0
  9
$CHAMFERB
 40
0.0
  9
$CHAMFERC
 40
0.0
  9
$CHAMFERD
 40
0.0
  9
$SKPOLY
 70
     0
  9
$TDCREATE
 40
2452040.637099653
  9
$TDUCREATE
 40
2452040.553766320
  9
$TDUPDATE
 40
2455660.405048194
  9
$TDUUPDATE
 40
2455660.321714861
  9
$TDINDWG
 40
0.4407807986
  9
$TDUSRTIMER
 40
0.4407807986
  9
$USRTIMER
 70
     1
  9
$ANGBASE
 50
0.0
  9
$ANGDIR
 70
     0
  9
$PDMODE
 70
     0
  9
$PDSIZE
 40
0.0
  9
$PLINEWID
 40
0.0
  9
$SPLFRAME
 70
     0
  9
$SPLINETYPE
 70
     6
  9
$SPLINESEGS
 70
     8
  9
$HANDSEED
  5
1B0E
  9
$SURFTAB1
 70
     6
  9
$SURFTAB2
 70
     6
  9
$SURFTYPE
 70
     6
  9
$SURFU
 70
     6
  9
$SURFV
 70
     6
  9
$UCSBASE
  2

  9
$UCSNAME
  2

  9
$UCSORG
 10
0.0
 20
0.0
 30
0.0
  9
$UCSXDIR
 10
1.0
 20
0.0
 30
0.0
  9
$UCSYDIR
 10
0.0
 20
1.0
 30
0.0
  9
$UCSORTHOREF
  2

  9
$UCSORTHOVIEW
 70
     0
  9
$UCSORGTOP
 10
0.0
 20
0.0
 30
0.0
  9
$UCSORGBOTTOM
 10
0.0
 20
0.0
 30
0.0
  9
$UCSORGLEFT
 10
0.0
 20
0.0
 30
0.0
  9
$UCSORGRIGHT
 10
0.0
 20
0.0
 30
0.0
  9
$UCSORGFRONT
 10
0.0
 20
0.0
 30
0.0
  9
$UCSORGBACK
 10
0.0
 20
0.0
 30
0.0
  9
$PUCSBASE
  2

  9
$PUCSNAME
  2

  9
$PUCSORG
 10
0.0
 20
0.0
 30
0.0
  9
$PUCSXDIR
 10
1.0
 20
0.0
 30
0.0
  9
$PUCSYDIR
 10
0.0
 20
1.0
 30
0.0
  9
$PUCSORTHOREF
  2

  9
$PUCSORTHOVIEW
 70
     0
  9
$PUCSORGTOP
 10
0.0
 20
0.0
 30
0.0
  9
$PUCSORGBOTTOM
 10
0.0
 20
0.0
 30
0.0
  9
$PUCSORGLEFT
 10
0.0
 20
0.0
 30
0.0
  9
$PUCSORGRIGHT
 10
0.0
 20
0.0
 30
0.0
  9
$PUCSORGFRONT
 10
0.0
 20
0.0
 30
0.0
  9
$PUCSORGBACK
 10
0.0
 20
0.0
 30
0.0
  9
$USERI1
 70
     0
  9
$USERI2
 70
     0
  9
$USERI3
 70
     0
  9
$USERI4
 70
     0
  9
$USERI5
 70
     0
  9
$USERR1
 40
0.0
  9
$USERR2
 40
0.0
  9
$USERR3
 40
0.0
  9
$USERR4
 40
0.0
  9
$USERR5
 40
0.0
  9
$WORLDVIEW
 70
     1
  9
$SHADEDGE
 70
     3
  9
$SHADEDIF
 70
    70
  9
$TILEMODE
 70
     1
  9
$MAXACTVP
 70
    16
  9
$PINSBASE
 10
0.0
 20
0.0
 30
0.0
  9
$PLIMCHECK
 70
     0
  9
$PEXTMIN
 10
1.000000000000000E+20
 20
1.000000000000000E+20
 30
1.000000000000000E+20
  9
$PEXTMAX
 10
-1.000000000000000E+20
 20
-1.000000000000000E+20
 30
-1.000000000000000E+20
  9
$PLIMMIN
 10
0.0
 20
0.0
  9
$PLIMMAX
 10
12.0
 20
9.0
  9
$UNITMODE
 70
     0
  9
$VISRETAIN
 70
     0
  9
$PLINEGEN
 70
     0
  9
$PSLTSCALE
 70
     0
  9
$TREEDEPTH
 70
  3020
  9
$CMLSTYLE
  2
Standard
  9
$CMLJUST
 70
     0
  9
$CMLSCALE
 40
1.0
  9
$PROXYGRAPHICS
 70
     1
  9
$MEASUREMENT
 70
     0
  9
$CELWEIGHT
370
    -1
  9
$ENDCAPS
280
     0
  9
$JOINSTYLE
280
     0
  9
$LWDISPLAY
290
     0
  9
$INSUNITS
 70
     0
  9
$HYPERLINKBASE
  1

  9
$STYLESHEET
  1
monochrome 1.ctb
  9
$XEDIT
290
     1
  9
$CEPSNTYPE
380
     0
  9
$PSTYLEMODE
290
     1
  9
$FINGERPRINTGUID
  2
{7AADB5C8-6110-11D8-B72B-000102183313}
  9
$VERSIONGUID
  2
{B19C3359-A8F0-4C05-B91C-7A34FB832118}
  9
$EXTNAMES
290
     1
  9
$PSVPSCALE
 40
0.0
  9
$OLESTARTUP
290
     0
  9
$SORTENTS
280
    96
  9
$INDEXCTL
280
     0
  9
$HIDETEXT
280
     0
  9
$XCLIPFRAME
290
     0
  9
$HALOGAP
280
     0
  9
$OBSCOLOR
 70
   257
  9
$OBSLTYPE
280
     0
  9
$INTERSECTIONDISPLAY
280
     0
  9
$INTERSECTIONCOLOR
 70
   257
  9
$DIMASSOC
280
     1
  9
$PROJECTNAME
  1

  0
ENDSEC
  0
SECTION
  2
CLASSES
  0
CLASS
  1
ACDBDICTIONARYWDFLT
  2
AcDbDictionaryWithDefault
  3
ObjectDBX Classes
 90
        0
 91
        1
280
     0
281
     0
  0
CLASS
  1
DICTIONARYVAR
  2
AcDbDictionaryVar
  3
ObjectDBX Classes
 90
        0
 91
        3
280
     0
281
     0
  0
ENDSEC
  0
SECTION
  2
TABLES
  0
TABLE
  2
VPORT
  5
8
330
0
100
AcDbSymbolTable
 70
     4
  0
VPORT
  5
1B0D
330
8
100
AcDbSymbolTableRecord
100
AcDbViewportTableRecord
  2
*Active
 70
     0
 10
0.0
 20
0.0
 11
1.0
 21
1.0
 12
210.0
 22
297.0
 13
0.0
 23
0.0
 14
1.0
 24
1.0
 15
10.0
 25
10.0
 16
0.0
 26
0.0
 36
1.0
 17
0.0
 27
0.0
 37
0.0
 40
594.0
 41
1.334231805929919
 42
50.0
 43
0.0
 44
0.0
 50
0.0
 51
0.0
 71
     0
 72
  1500
 73
     1
 74
     0
 75
     0
 76
     0
 77
     0
 78
     0
281
     0
 65
     1
110
0.0
120
0.0
130
0.0
111
1.0
121
0.0
131
0.0
112
0.0
122
1.0
132
0.0
 79
     0
146
0.0
  0
ENDTAB
  0
TABLE
  2
LTYPE
  5
5
330
0
100
AcDbSymbolTable
 70
     2
  0
LTYPE
  5
13
330
5
100
AcDbSymbolTableRecord
100
AcDbLinetypeTableRecord
  2
ByBlock
 70
     0
  3

 72
    65
 73
     0
 40
0.0
  0
LTYPE
  5
14
330
5
100
AcDbSymbolTableRecord
100
AcDbLinetypeTableRecord
  2
ByLayer
 70
     0
  3

 72
    65
 73
     0
 40
0.0
  0
LTYPE
  5
15
330
5
100
AcDbSymbolTableRecord
100
AcDbLinetypeTableRecord
  2
Continuous
 70
     0
  3
Solid line
 72
    65
 73
     0
 40
0.0
  0
LTYPE
  5
35
330
5
100
AcDbSymbolTableRecord
100
AcDbLinetypeTableRecord
  2
STRICHPUNKT
 70
     0
  3
__ . __ . __ . __ . __ . __ . __ . __ . __ . __
 72
    65
 73
     4
 40
1.0
 49
0.5
 74
     0
 49
-0.25
 74
     0
 49
0.0
 74
     0
 49
-0.25
 74
     0
  0
ENDTAB
  0
TABLE
  2
LAYER
  5
2
330
0
100
AcDbSymbolTable
 70
     9
  0
LAYER
  5
10
330
2
100
AcDbSymbolTableRecord
100
AcDbLayerTableRecord
  2
0
 70
     0
 62
     7
  6
Continuous
370
    -3
390
F
  0
LAYER
  5
38
330
2
100
AcDbSymbolTableRecord
100
AcDbLayerTableRecord
  2
VOLL
 70
     0
 62
     1
  6
Continuous
370
    -3
390
F
  0
LAYER
  5
39
330
2
100
AcDbSymbolTableRecord
100
AcDbLayerTableRecord
  2
HILF
 70
     0
 62
     2
  6
Continuous
370
    -3
390
F
  0
LAYER
  5
3A
330
2
100
AcDbSymbolTableRecord
100
AcDbLayerTableRecord
  2
MITTEL
 70
     0
 62
     2
  6
STRICHPUNKT
370
    -3
390
F
  0
LAYER
  5
3B
330
2
100
AcDbSymbolTableRecord
100
AcDbLayerTableRecord
  2
BEM
 70
     0
 62
     7
  6
Continuous
370
    -3
390
F
  0
LAYER
  5
3C
330
2
100
AcDbSymbolTableRecord
100
AcDbLayerTableRecord
  2
STEMPEL
 70
     0
 62
     3
  6
Continuous
370
    -3
390
F
  0
LAYER
  5
3D
330
2
100
AcDbSymbolTableRecord
100
AcDbLayerTableRecord
  2
TEXT
 70
     0
 62
     7
  6
Continuous
370
    -3
390
F
  0
LAYER
  5
3E
330
2
100
AcDbSymbolTableRecord
100
AcDbLayerTableRecord
  2
DEFPOINTS
 70
     0
 62
     7
  6
Continuous
290
     0
370
    -3
390
F
  0
LAYER
  5
3F
330
2
100
AcDbSymbolTableRecord
100
AcDbLayerTableRecord
  2
SCHRAFF
 70
     0
 62
     7
  6
Continuous
370
    -3
390
F
  0
ENDTAB
  0
TABLE
  2
STYLE
  5
3
330
0
100
AcDbSymbolTable
 70
     2
  0
STYLE
  5
11
330
3
100
AcDbSymbolTableRecord
100
AcDbTextStyleTableRecord
  2
STANDARD
 70
     0
 40
0.0
 41
0.8
 50
0.0
 71
     0
 42
3.5
  3
simplex.shx
  4

  0
STYLE
  5
34
330
3
100
AcDbSymbolTableRecord
100
AcDbTextStyleTableRecord
  2
GREEKS
 70
     0
 40
0.0
 41
0.8
 50
0.0
 71
     0
 42
2.5
  3
SIMPLEX.shx
  4

  0
ENDTAB
  0
TABLE
  2
VIEW
  5
6
330
0
100
AcDbSymbolTable
 70
     0
  0
ENDTAB
  0
TABLE
  2
UCS
  5
7
330
0
100
AcDbSymbolTable
 70
     0
  0
ENDTAB
  0
TABLE
  2
APPID
  5
9
330
0
100
AcDbSymbolTable
 70
     1
  0
APPID
  5
12
330
9
100
AcDbSymbolTableRecord
100
AcDbRegAppTableRecord
  2
ACAD
 70
     0
  0
ENDTAB
  0
TABLE
  2
DIMSTYLE
  5
A
330
0
100
AcDbSymbolTable
 70
     1
100
AcDbDimStyleTable
 71
     1
340
1CB
  0
DIMSTYLE
105
1CB
102
{ACAD_REACTORS
330
107C
330
11E1
330
16ED
330
17F6
330
1A00
330
1A8E
102
}
330
A
100
AcDbSymbolTableRecord
100
AcDbDimStyleTableRecord
  2
Standard
 70
     0
340
11
  0
ENDTAB
  0
TABLE
  2
BLOCK_RECORD
  5
1
330
0
100
AcDbSymbolTable
 70
     9
  0
BLOCK_RECORD
  5
1E
330
1
100
AcDbSymbolTableRecord
100
AcDbBlockTableRecord
  2
*Model_Space
340
21
  0
BLOCK_RECORD
  5
1A
330
1
100
AcDbSymbolTableRecord
100
AcDbBlockTableRecord
  2
*Paper_Space
340
1D
  0
BLOCK_RECORD
  5
22
330
1
100
AcDbSymbolTableRecord
100
AcDbBlockTableRecord
  2
LOGO
340
0
102
{BLKREFS
331
135
102
}
  0
BLOCK_RECORD
  5
1093
330
1
100
AcDbSymbolTableRecord
100
AcDbBlockTableRecord
  2
*D1
340
0
  0
BLOCK_RECORD
  5
11E2
330
1
100
AcDbSymbolTableRecord
100
AcDbBlockTableRecord
  2
*D3
340
0
  0
BLOCK_RECORD
  5
16EE
330
1
100
AcDbSymbolTableRecord
100
AcDbBlockTableRecord
  2
*D4
340
0
  0
BLOCK_RECORD
  5
17F7
330
1
100
AcDbSymbolTableRecord
100
AcDbBlockTableRecord
  2
*D6
340
0
  0
BLOCK_RECORD
  5
1A01
330
1
100
AcDbSymbolTableRecord
100
AcDbBlockTableRecord
  2
*D7
340
0
  0
BLOCK_RECORD
  5
1A8F
330
1
100
AcDbSymbolTableRecord
100
AcDbBlockTableRecord
  2
*D8
340
0
  0
ENDTAB
  0
ENDSEC
  0
SECTION
  2
BLOCKS
  0
BLOCK
  5
43
330
1E
100
AcDbEntity
  8
0
100
AcDbBlockBegin
  2
*Model_Space
 70
     0
 10
0.0
 20
0.0
 30
0.0
  3
*Model_Space
  1

  0
ENDBLK
  5
44
330
1E
100
AcDbEntity
  8
0
100
AcDbBlockEnd
  0
BLOCK
  5
41
330
1A
100
AcDbEntity
 67
     1
  8
0
100
AcDbBlockBegin
  2
*Paper_Space
 70
     0
 10
0.0
 20
0.0
 30
0.0
  3
*Paper_Space
  1

  0
ENDBLK
  5
42
330
1A
100
AcDbEntity
 67
     1
  8
0
100
AcDbBlockEnd
  0
BLOCK
  5
45
330
22
100
AcDbEntity
  8
0
100
AcDbBlockBegin
  2
LOGO
 70
     0
 10
0.0
 20
0.0
 30
0.0
  3
LOGO
  1

  0
ARC
  5
46
330
22
100
AcDbEntity
  8
0
100
AcDbCircle
 10
11.59973089678112
 20
-9.271599258481501
 30
0.0
 40
4.5
100
AcDbArc
 50
270.0
 51
231.0575587310159
  0
LINE
  5
47
330
22
100
AcDbEntity
  8
0
100
AcDbLine
 10
3.599730896781125
 20
-4.771599258481529
 30
0.0
 11
3.599730896781153
 21
-11.77159925848133
 31
0.0
  0
LINE
  5
48
330
22
100
AcDbEntity
  8
0
100
AcDbLine
 10
2.599730896781125
 20
-4.771599258481529
 30
0.0
 11
2.599730896781153
 21
-11.77159925848133
 31
0.0
  0
CIRCLE
  5
49
330
22
100
AcDbEntity
  8
0
100
AcDbCircle
 10
11.59973089678112
 20
-9.271599258481501
 30
0.0
 40
3.5
  0
ARC
  5
4A
330
22
100
AcDbEntity
  8
0
100
AcDbCircle
 10
31.59973089678115
 20
-9.271599258481472
 30
0.0
 40
4.5
100
AcDbArc
 50
270.0
 51
231.0575587310182
  0
LINE
  5
4B
330
22
100
AcDbEntity
  8
0
100
AcDbLine
 10
17.59973089678112
 20
-4.771599258481472
 30
0.0
 11
17.59973089678115
 21
-13.77159925848147
 31
0.0
  0
ARC
  5
4C
330
22
100
AcDbEntity
  8
0
100
AcDbCircle
 10
22.59973089678116
 20
-7.271599258481472
 30
0.0
 40
2.5
100
AcDbArc
 50
293.1161887722295
 51
90.0
  0
CIRCLE
  5
4D
330
22
100
AcDbEntity
  8
0
100
AcDbCircle
 10
31.59973089678115
 20
-9.271599258481472
 30
0.0
 40
3.5
  0
ARC
  5
4E
330
22
100
AcDbEntity
  8
0
100
AcDbCircle
 10
4.599730896781153
 20
-11.77159925848133
 30
0.0
 40
1.0
100
AcDbArc
 50
180.0
 51
270.0
  0
ARC
  5
4F
330
22
100
AcDbEntity
  8
0
100
AcDbCircle
 10
4.599730896781153
 20
-11.77159925848133
 30
0.0
 40
2.0
100
AcDbArc
 50
179.9999999999992
 51
270.0
  0
LINE
  5
50
330
22
100
AcDbEntity
  8
0
100
AcDbLine
 10
11.59973089678115
 20
-13.77159925848144
 30
0.0
 11
4.599730896781153
 21
-13.77159925848147
 31
0.0
  0
LINE
  5
51
330
22
100
AcDbEntity
  8
0
100
AcDbLine
 10
8.771303772034769
 20
-12.77159925848136
 30
0.0
 11
4.599730896781153
 21
-12.77159925848133
 31
0.0
  0
LINE
  5
52
330
22
100
AcDbEntity
  8
0
100
AcDbLine
 10
31.59973089678115
 20
-13.77159925848147
 30
0.0
 11
23.6715276665056
 21
-13.77159925848144
 31
0.0
  0
LINE
  5
53
330
22
100
AcDbEntity
  8
0
100
AcDbLine
 10
23.56565672307022
 20
-9.51278021337896
 30
0.0
 11
24.4388546544846
 21
-12.77159925848144
 31
0.0
  0
LINE
  5
54
330
22
100
AcDbEntity
  8
0
100
AcDbLine
 10
22.59973089678116
 20
-9.771599258481472
 30
0.0
 11
18.59973089678112
 21
-9.771599258481472
 31
0.0
  0
LINE
  5
55
330
22
100
AcDbEntity
  8
0
100
AcDbLine
 10
18.59973089678115
 20
-13.77159925848144
 30
0.0
 11
17.59973089678115
 21
-13.77159925848144
 31
0.0
  0
LINE
  5
56
330
22
100
AcDbEntity
  8
0
100
AcDbLine
 10
18.59973089678115
 20
-9.771599258481472
 30
0.0
 11
18.59973089678115
 21
-13.77159925848144
 31
0.0
  0
LINE
  5
57
330
22
100
AcDbEntity
  8
0
100
AcDbLine
 10
22.59973089678116
 20
-9.771599258481472
 30
0.0
 11
23.67152766650562
 21
-13.77159925848147
 31
0.0
  0
ARC
  5
58
330
22
100
AcDbEntity
  8
0
100
AcDbCircle
 10
22.59973089678116
 20
-7.271599258481472
 30
0.0
 40
2.5
100
AcDbArc
 50
270.0
 51
270.0000000000007
  0
LINE
  5
59
330
22
100
AcDbEntity
  8
0
100
AcDbLine
 10
28.77130377203494
 20
-12.77159925848147
 30
0.0
 11
24.43885465448463
 21
-12.77159925848144
 31
0.0
  0
LINE
  5
5A
330
22
100
AcDbEntity
  8
0
100
AcDbLine
 10
3.599730896781125
 20
-4.771599258481472
 30
0.0
 11
2.599730896781125
 21
-4.771599258481472
 31
0.0
  0
LINE
  5
5B
330
22
100
AcDbEntity
  8
0
100
AcDbLine
 10
22.59973089678116
 20
-8.771599258481472
 30
0.0
 11
18.59973089678115
 21
-8.771599258481472
 31
0.0
  0
LINE
  5
5C
330
22
100
AcDbEntity
  8
0
100
AcDbLine
 10
22.59973089678116
 20
-5.771599258481472
 30
0.0
 11
18.59973089678115
 21
-5.771599258481472
 31
0.0
  0
LINE
  5
5D
330
22
100
AcDbEntity
  8
0
100
AcDbLine
 10
22.59973089678116
 20
-4.771599258481472
 30
0.0
 11
17.59973089678115
 21
-4.771599258481472
 31
0.0
  0
LINE
  5
5E
330
22
100
AcDbEntity
  8
0
100
AcDbLine
 10
18.59973089678115
 20
-5.771599258481472
 30
0.0
 11
18.59973089678115
 21
-8.771599258481472
 31
0.0
  0
ARC
  5
5F
330
22
100
AcDbEntity
  8
0
100
AcDbCircle
 10
22.59973089678116
 20
-7.271599258481472
 30
0.0
 40
1.5
100
AcDbArc
 50
270.0
 51
90.0
  0
ENDBLK
  5
60
330
22
100
AcDbEntity
  8
0
100
AcDbBlockEnd
  0
BLOCK
  5
109D
330
1093
100
AcDbEntity
  8
0
100
AcDbBlockBegin
  2
*D1
 70
     1
 10
0.0
 20
0.0
 30
0.0
  3
*D1
  1

  0
LINE
  5
1AE8
330
1093
100
AcDbEntity
  8
BEM
 62
     0
370
    -2
100
AcDbLine
 10
86.47561569098574
 20
177.3174650238239
 30
0.0
 11
86.47561569098574
 21
146.2550325119077
 31
0.0
  0
LINE
  5
1AE9
330
1093
100
AcDbEntity
  8
BEM
 62
     0
370
    -2
100
AcDbLine
 10
245.4756156909859
 20
177.3174650238228
 30
0.0
 11
245.4756156909859
 21
146.2550325119077
 31
0.0
  0
LINE
  5
1AEA
330
1093
100
AcDbEntity
  8
BEM
 62
     0
370
    -2
100
AcDbLine
 10
93.47561569098573
 20
148.2550325119077
 30
0.0
 11
238.4756156909859
 21
148.2550325119077
 31
0.0
  0
SOLID
  5
1AEB
330
1093
100
AcDbEntity
  8
BEM
 62
     0
100
AcDbTrace
 10
93.47561569098573
 20
149.4216991785743
 30
0.0
 11
93.47561569098573
 21
147.088365845241
 31
0.0
 12
86.47561569098574
 22
148.2550325119077
 32
0.0
 13
86.47561569098574
 23
148.2550325119077
 33
0.0
  0
SOLID
  5
1AEC
330
1093
100
AcDbEntity
  8
BEM
 62
     0
100
AcDbTrace
 10
238.4756156909859
 20
149.4216991785743
 30
0.0
 11
238.4756156909859
 21
147.088365845241
 31
0.0
 12
245.4756156909859
 22
148.2550325119077
 32
0.0
 13
245.4756156909859
 23
148.2550325119077
 33
0.0
  0
MTEXT
  5
1AED
330
1093
100
AcDbEntity
  8
BEM
 62
     1
100
AcDbMText
 10
165.9756156909858
 20
154.7550325119077
 30
0.0
 40
7.0
 41
0.0
 71
     5
 72
     1
  1
\A1;%%c159
 73
     1
 44
1.0
  0
POINT
  5
1AEE
330
1093
100
AcDbEntity
  8
DEFPOINTS
 62
     0
100
AcDbPoint
 10
86.47561569098574
 20
179.3174650238239
 30
0.0
  0
POINT
  5
1AEF
330
1093
100
AcDbEntity
  8
DEFPOINTS
 62
     0
100
AcDbPoint
 10
245.4756156909859
 20
179.3174650238228
 30
0.0
  0
POINT
  5
1AF0
330
1093
100
AcDbEntity
  8
DEFPOINTS
 62
     0
100
AcDbPoint
 10
245.4756156909859
 20
148.2550325119077
 30
0.0
  0
ENDBLK
  5
109E
330
1093
100
AcDbEntity
  8
0
100
AcDbBlockEnd
  0
BLOCK
  5
11EC
330
11E2
100
AcDbEntity
  8
0
100
AcDbBlockBegin
  2
*D3
 70
     1
 10
0.0
 20
0.0
 30
0.0
  3
*D3
  1

  0
LINE
  5
1AFA
330
11E2
100
AcDbEntity
  8
BEM
 62
     0
370
    -2
100
AcDbLine
 10
85.3505023262449
 20
169.3174650238233
 30
0.0
 11
67.77184924488344
 21
169.3174650238233
 31
0.0
  0
LINE
  5
1AFB
330
11E2
100
AcDbEntity
  8
BEM
 62
     0
370
    -2
100
AcDbLine
 10
166.1813483996857
 20
264.3174650238233
 30
0.0
 11
67.77184924488345
 21
264.3174650238234
 31
0.0
  0
LINE
  5
1AFC
330
11E2
100
AcDbEntity
  8
BEM
 62
     0
370
    -2
100
AcDbLine
 10
69.77184924488344
 20
176.3174650238233
 30
0.0
 11
69.77184924488345
 21
257.3174650238234
 31
0.0
  0
SOLID
  5
1AFD
330
11E2
100
AcDbEntity
  8
BEM
 62
     0
100
AcDbTrace
 10
68.60518257821677
 20
176.3174650238233
 30
0.0
 11
70.93851591155011
 21
176.3174650238233
 31
0.0
 12
69.77184924488344
 22
169.3174650238233
 32
0.0
 13
69.77184924488344
 23
169.3174650238233
 33
0.0
  0
SOLID
  5
1AFE
330
11E2
100
AcDbEntity
  8
BEM
 62
     0
100
AcDbTrace
 10
68.60518257821678
 20
257.3174650238234
 30
0.0
 11
70.93851591155012
 21
257.3174650238234
 31
0.0
 12
69.77184924488345
 22
264.3174650238234
 32
0.0
 13
69.77184924488345
 23
264.3174650238234
 33
0.0
  0
MTEXT
  5
1AFF
330
11E2
100
AcDbEntity
  8
BEM
 62
     1
100
AcDbMText
 10
63.27184924488341
 20
216.8174650238233
 30
0.0
 40
7.0
 41
0.0
 71
     5
 72
     1
  1
\A1;95
 11
0.0000000000000001
 21
1.0
 31
0.0
 73
     1
 44
1.0
  0
POINT
  5
1B00
330
11E2
100
AcDbEntity
  8
DEFPOINTS
 62
     0
100
AcDbPoint
 10
87.35050232624489
 20
169.3174650238233
 30
0.0
  0
POINT
  5
1B01
330
11E2
100
AcDbEntity
  8
DEFPOINTS
 62
     0
100
AcDbPoint
 10
168.1813483996857
 20
264.3174650238233
 30
0.0
  0
POINT
  5
1B02
330
11E2
100
AcDbEntity
  8
DEFPOINTS
 62
     0
100
AcDbPoint
 10
69.77184924488345
 20
264.3174650238234
 30
0.0
  0
ENDBLK
  5
11ED
330
11E2
100
AcDbEntity
  8
0
100
AcDbBlockEnd
  0
BLOCK
  5
16F8
330
16EE
100
AcDbEntity
  8
0
100
AcDbBlockBegin
  2
*D4
 70
     1
 10
0.0
 20
0.0
 30
0.0
  3
*D4
  1

  0
LINE
  5
1AF1
330
16EE
100
AcDbEntity
  8
BEM
 62
     0
370
    -2
100
AcDbLine
 10
85.3505023262449
 20
169.3174650238233
 30
0.0
 11
51.72290665332235
 21
169.3174650238233
 31
0.0
  0
LINE
  5
1AF2
330
16EE
100
AcDbEntity
  8
BEM
 62
     0
370
    -2
100
AcDbLine
 10
78.32054881254203
 20
539.3174650238234
 30
0.0
 11
51.72290665332244
 21
539.3174650238234
 31
0.0
  0
LINE
  5
1AF3
330
16EE
100
AcDbEntity
  8
BEM
 62
     0
370
    -2
100
AcDbLine
 10
53.72290665332236
 20
176.3174650238233
 30
0.0
 11
53.72290665332243
 21
532.3174650238233
 31
0.0
  0
SOLID
  5
1AF4
330
16EE
100
AcDbEntity
  8
BEM
 62
     0
100
AcDbTrace
 10
52.55623998665569
 20
176.3174650238233
 30
0.0
 11
54.88957331998903
 21
176.3174650238233
 31
0.0
 12
53.72290665332235
 22
169.3174650238233
 32
0.0
 13
53.72290665332235
 23
169.3174650238233
 33
0.0
  0
SOLID
  5
1AF5
330
16EE
100
AcDbEntity
  8
BEM
 62
     0
100
AcDbTrace
 10
52.55623998665577
 20
532.3174650238233
 30
0.0
 11
54.88957331998911
 21
532.3174650238233
 31
0.0
 12
53.72290665332243
 22
539.3174650238234
 32
0.0
 13
53.72290665332243
 23
539.3174650238234
 33
0.0
  0
MTEXT
  5
1AF6
330
16EE
100
AcDbEntity
  8
BEM
 62
     1
100
AcDbMText
 10
47.22290665332233
 20
354.3174650238234
 30
0.0
 40
7.0
 41
0.0
 71
     5
 72
     1
  1
\A1;370
 11
0.0000000000000001
 21
1.0
 31
0.0
 73
     1
 44
1.0
  0
POINT
  5
1AF7
330
16EE
100
AcDbEntity
  8
DEFPOINTS
 62
     0
100
AcDbPoint
 10
87.35050232624489
 20
169.3174650238233
 30
0.0
  0
POINT
  5
1AF8
330
16EE
100
AcDbEntity
  8
DEFPOINTS
 62
     0
100
AcDbPoint
 10
80.32054881254202
 20
539.3174650238234
 30
0.0
  0
POINT
  5
1AF9
330
16EE
100
AcDbEntity
  8
DEFPOINTS
 62
     0
100
AcDbPoint
 10
53.72290665332243
 20
539.3174650238234
 30
0.0
  0
ENDBLK
  5
16F9
330
16EE
100
AcDbEntity
  8
0
100
AcDbBlockEnd
  0
BLOCK
  5
1801
330
17F7
100
AcDbEntity
  8
0
100
AcDbBlockBegin
  2
*D6
 70
     1
 10
0.0
 20
0.0
 30
0.0
  3
*D6
  1

  0
LINE
  5
1ADF
330
17F7
100
AcDbEntity
  8
BEM
 62
     0
370
    -2
100
AcDbLine
 10
244.0614021286124
 20
414.2453004300033
 30
0.0
 11
152.2127069702472
 21
322.3966052716384
 31
0.0
  0
LINE
  5
1AE0
330
17F7
100
AcDbEntity
  8
BEM
 62
     0
370
    -2
100
AcDbLine
 10
244.0614021286121
 20
270.5612024928964
 30
0.0
 11
224.0547559388006
 21
250.5545563030848
 31
0.0
  0
LINE
  5
1AE1
330
17F7
100
AcDbEntity
  8
BEM
 62
     0
370
    -2
100
AcDbLine
 10
158.5766680009261
 20
318.8610713657056
 30
0.0
 11
220.5192220328679
 21
256.9185173337638
 31
0.0
  0
SOLID
  5
1AE2
330
17F7
100
AcDbEntity
  8
BEM
 62
     0
100
AcDbTrace
 10
159.4016259123104
 20
319.6860292770899
 30
0.0
 11
157.7517100895418
 21
318.0361134543213
 31
0.0
 12
153.6269205326203
 22
323.8108188340114
 32
0.0
 13
153.6269205326203
 23
323.8108188340114
 33
0.0
  0
SOLID
  5
1AE3
330
17F7
100
AcDbEntity
  8
BEM
 62
     0
100
AcDbTrace
 10
221.3441799442521
 20
257.7434752451481
 30
0.0
 11
219.6942641214835
 21
256.0935594223794
 31
0.0
 12
225.4689695011737
 22
251.9687698654579
 32
0.0
 13
225.4689695011737
 23
251.9687698654579
 33
0.0
  0
MTEXT
  5
1AE4
330
17F7
100
AcDbEntity
  8
BEM
 62
     1
100
AcDbMText
 10
194.1441390946095
 20
292.4859884274472
 30
0.0
 40
7.0
 41
0.0
 71
     5
 72
     1
  1
\A1;%%c101.6
 11
0.707106781186547
 21
-0.7071067811865481
 31
0.0
 73
     1
 44
1.0
  0
POINT
  5
1AE5
330
17F7
100
AcDbEntity
  8
DEFPOINTS
 62
     0
100
AcDbPoint
 10
245.4756156909855
 20
415.6595139923764
 30
0.0
  0
POINT
  5
1AE6
330
17F7
100
AcDbEntity
  8
DEFPOINTS
 62
     0
100
AcDbPoint
 10
245.4756156909853
 20
271.9754160552694
 30
0.0
  0
POINT
  5
1AE7
330
17F7
100
AcDbEntity
  8
DEFPOINTS
 62
     0
100
AcDbPoint
 10
225.4689695011737
 20
251.9687698654579
 30
0.0
  0
ENDBLK
  5
1802
330
17F7
100
AcDbEntity
  8
0
100
AcDbBlockEnd
  0
BLOCK
  5
1A0D
330
1A01
100
AcDbEntity
  8
0
100
AcDbBlockBegin
  2
*D7
 70
     1
 10
0.0
 20
0.0
 30
0.0
  3
*D7
  1

  0
LINE
  5
1AD4
330
1A01
100
AcDbEntity
  8
BEM
 62
     0
370
    -2
100
AcDbLine
 10
358.3086601737267
 20
456.6505095065642
 30
0.0
 11
382.527262209771
 21
480.8691115426084
 31
0.0
  0
LINE
  5
1AD5
330
1A01
100
AcDbEntity
  8
BEM
 62
     0
370
    -2
100
AcDbLine
 10
165.9756156909857
 20
546.3174650238234
 30
0.0
 11
165.9756156909858
 21
570.5677404849138
 31
0.0
  0
ARC
  5
1AD6
330
1A01
100
AcDbEntity
  8
BEM
 62
     0
370
    -2
100
AcDbCircle
 10
165.9756156909855
 20
264.3174650238232
 30
0.0
 40
304.2502754610907
100
AcDbArc
 50
46.31825452726908
 51
88.68174547273083
  0
SOLID
  5
1AD7
330
1A01
100
AcDbEntity
  8
BEM
 62
     0
100
AcDbTrace
 10
376.9221016217755
 20
485.1817709611506
 30
0.0
 11
375.2912750888096
 21
483.5129841971154
 31
0.0
 12
381.1130486473979
 22
479.4548979802352
 32
0.0
 13
381.1130486473979
 23
479.4548979802352
 33
0.0
  0
SOLID
  5
1AD8
330
1A01
100
AcDbEntity
  8
BEM
 62
     0
100
AcDbTrace
 10
172.9617315353917
 20
567.3206252056991
 30
0.0
 11
172.9885734721962
 21
569.6538041433018
 31
0.0
 12
165.9756156909857
 22
568.5677404849139
 32
0.0
 13
165.9756156909857
 23
568.5677404849139
 33
0.0
  0
MTEXT
  5
1AD9
330
1A01
100
AcDbEntity
  8
BEM
 62
     1
100
AcDbMText
 10
284.894597712833
 20
551.4132842445691
 30
0.0
 40
7.0
 41
0.0
 71
     5
 72
     1
  1
\A1;45°
 11
0.9238795325112864
 21
-0.3826834323650904
 31
0.0
 73
     1
 44
1.0
  0
POINT
  5
1ADA
330
1A01
100
AcDbEntity
  8
DEFPOINTS
 62
     0
100
AcDbPoint
 10
318.1007534215311
 20
527.8059326815408
 30
0.0
  0
POINT
  5
1ADB
330
1A01
100
AcDbEntity
  8
DEFPOINTS
 62
     0
100
AcDbPoint
 10
165.9756156909857
 20
544.3174650238233
 30
0.0
  0
POINT
  5
1ADC
330
1A01
100
AcDbEntity
  8
DEFPOINTS
 62
     0
100
AcDbPoint
 10
356.8944466113535
 20
455.2362959441912
 30
0.0
  0
POINT
  5
1ADD
330
1A01
100
AcDbEntity
  8
DEFPOINTS
 62
     0
100
AcDbPoint
 10
198.8697125198288
 20
297.2115618526665
 30
0.0
  0
POINT
  5
1ADE
330
1A01
100
AcDbEntity
  8
DEFPOINTS
 62
     0
100
AcDbPoint
 10
165.9756156909855
 20
164.3174650238235
 30
0.0
  0
ENDBLK
  5
1A0E
330
1A01
100
AcDbEntity
  8
0
100
AcDbBlockEnd
  0
BLOCK
  5
1A99
330
1A8F
100
AcDbEntity
  8
0
100
AcDbBlockBegin
  2
*D8
 70
     1
 10
0.0
 20
0.0
 30
0.0
  3
*D8
  1

  0
LINE
  5
1B03
330
1A8F
100
AcDbEntity
  8
BEM
 62
     0
370
    -2
100
AcDbLine
 10
167.3898292533588
 20
263.1089841701503
 30
0.0
 11
219.3307934247664
 21
211.1680199987426
 31
0.0
  0
LINE
  5
1B04
330
1A8F
100
AcDbEntity
  8
BEM
 62
     0
370
    -2
100
AcDbLine
 10
393.4234294278077
 20
411.6362453158713
 30
0.0
 11
406.6112240848513
 21
398.4484506588277
 31
0.0
  0
LINE
  5
1B05
330
1A8F
100
AcDbEntity
  8
BEM
 62
     0
370
    -2
100
AcDbLine
 10
222.8663273306992
 20
217.5319810294216
 30
0.0
 11
400.2472630541724
 21
394.9129167528949
 31
0.0
  0
SOLID
  5
1B06
330
1A8F
100
AcDbEntity
  8
BEM
 62
     0
100
AcDbTrace
 10
222.0413694193149
 20
218.3569389408059
 30
0.0
 11
223.6912852420835
 21
216.7070231180372
 31
0.0
 12
217.9165798623933
 22
212.5822335611157
 32
0.0
 13
217.9165798623933
 23
212.5822335611157
 33
0.0
  0
SOLID
  5
1B07
330
1A8F
100
AcDbEntity
  8
BEM
 62
     0
100
AcDbTrace
 10
399.4223051427882
 20
395.7378746642792
 30
0.0
 11
401.0722209655567
 21
394.0879588415106
 31
0.0
 12
405.1970105224783
 22
399.8626642212008
 32
0.0
 13
405.1970105224783
 23
399.8626642212008
 33
0.0
  0
MTEXT
  5
1B08
330
1A8F
100
AcDbEntity
  8
BEM
 62
     1
100
AcDbMText
 10
306.9606011147233
 20
310.8186429688708
 30
0.0
 40
7.0
 41
0.0
 71
     5
 72
     1
  1
\A1;265
 11
0.7071067811865474
 21
0.7071067811865478
 31
0.0
 73
     1
 44
1.0
  0
POINT
  5
1B09
330
1A8F
100
AcDbEntity
  8
DEFPOINTS
 62
     0
100
AcDbPoint
 10
165.9756156909857
 20
264.5231977325234
 30
0.0
  0
POINT
  5
1B0A
330
1A8F
100
AcDbEntity
  8
DEFPOINTS
 62
     0
100
AcDbPoint
 10
392.0092158654346
 20
413.0504588782444
 30
0.0
  0
POINT
  5
1B0B
330
1A8F
100
AcDbEntity
  8
DEFPOINTS
 62
     0
100
AcDbPoint
 10
405.1970105224783
 20
399.8626642212008
 30
0.0
  0
ENDBLK
  5
1A9A
330
1A8F
100
AcDbEntity
  8
0
100
AcDbBlockEnd
  0
ENDSEC
  0
SECTION
  2
ENTITIES
  0
TEXT
  5
134
330
1E
100
AcDbEntity
  8
TEXT
100
AcDbText
 10
204.4216048581257
 20
63.0896391972351
 30
0.0
 40
4.0
  1
Koeh
 41
0.8
  7
GREEKS
 72
     1
 11
209.6787477152686
 21
63.0896391972351
 31
0.0
100
AcDbText
  0
INSERT
  5
135
330
1E
100
AcDbEntity
  8
STEMPEL
100
AcDbBlockReference
  2
LOGO
 10
150.9955485457794
 20
45.02105276448322
 30
0.0
 41
2.0
 42
2.0
 43
2.0
  0
LINE
  5
136
330
1E
100
AcDbEntity
  8
HILF
100
AcDbLine
 10
420.0
 20
0.0
 30
0.0
 11
0.0
 21
0.0
 31
0.0
  0
LINE
  5
137
330
1E
100
AcDbEntity
  8
HILF
100
AcDbLine
 10
419.9999999999999
 20
594.0000000000002
 30
0.0
 11
0.0
 21
594.0
 31
0.0
  0
LINE
  5
138
330
1E
100
AcDbEntity
  8
STEMPEL
100
AcDbLine
 10
410.0
 20
584.0
 30
0.0
 11
39.99999999999989
 21
584.0
 31
0.0
  0
LINE
  5
139
330
1E
100
AcDbEntity
  8
STEMPEL
100
AcDbLine
 10
410.0
 20
10.0
 30
0.0
 11
39.99999999999989
 21
10.0
 31
0.0
  0
LINE
  5
13A
330
1E
100
AcDbEntity
  8
STEMPEL
100
AcDbLine
 10
49.99999999999989
 20
10.0
 30
0.0
 11
410.0
 21
10.0
 31
0.0
  0
TEXT
  5
13B
330
1E
100
AcDbEntity
  8
TEXT
100
AcDbText
 10
202.4626584226295
 20
73.30961091915225
 30
0.0
 40
4.0
  1
Name
 41
0.8
  7
GREEKS
100
AcDbText
  0
TEXT
  5
13C
330
1E
100
AcDbEntity
  8
TEXT
100
AcDbText
 10
196.5498279101549
 20
102.6506227776589
 30
0.0
 40
5.0
  1
Zul. Abw.
 41
0.8
  7
GREEKS
 72
     4
 11
209.9783993387263
 21
105.1506227776589
 31
0.0
100
AcDbText
  0
LINE
  5
13D
330
1E
100
AcDbEntity
  8
HILF
100
AcDbLine
 10
146.0000000000001
 20
49.99999999999997
 30
0.0
 11
230.0
 21
49.99999999999997
 31
0.0
  0
LINE
  5
13E
330
1E
100
AcDbEntity
  8
HILF
100
AcDbLine
 10
146.0000000000001
 20
59.99999999999997
 30
0.0
 11
230.0
 21
59.99999999999997
 31
0.0
  0
LINE
  5
13F
330
1E
100
AcDbEntity
  8
HILF
100
AcDbLine
 10
146.0000000000001
 20
69.99999999999994
 30
0.0
 11
230.0
 21
69.99999999999994
 31
0.0
  0
LINE
  5
140
330
1E
100
AcDbEntity
  8
STEMPEL
100
AcDbLine
 10
410.0
 20
80.0
 30
0.0
 11
146.0000000000001
 21
79.99999999999994
 31
0.0
  0
LINE
  5
141
330
1E
100
AcDbEntity
  8
STEMPEL
100
AcDbLine
 10
410.0
 20
40.0
 30
0.0
 11
146.0000000000001
 21
39.99999999999997
 31
0.0
  0
LINE
  5
142
330
1E
100
AcDbEntity
  8
STEMPEL
100
AcDbLine
 10
410.0
 20
110.0
 30
0.0
 11
39.99999999999997
 21
110.0
 31
0.0
  0
LINE
  5
144
330
1E
100
AcDbEntity
  8
HILF
100
AcDbLine
 10
0.0
 20
0.0
 30
0.0
 11
-0.0000000000001137
 21
594.0
 31
0.0
  0
LINE
  5
145
330
1E
100
AcDbEntity
  8
STEMPEL
100
AcDbLine
 10
40.0
 20
10.0
 30
0.0
 11
39.99999999999989
 21
584.0
 31
0.0
  0
TEXT
  5
146
330
1E
100
AcDbEntity
  8
TEXT
100
AcDbText
 10
41.85509950977674
 20
111.6719999999999
 30
0.0
 40
5.0
  1
Erstellt mit AUTOCAD 2004
 41
0.8
  7
GREEKS
100
AcDbText
  0
TEXT
  5
147
330
1E
100
AcDbEntity
  8
TEXT
100
AcDbText
 10
67.35820429276079
 20
18.67381894984132
 30
0.0
 40
4.0
  1
Änderung
 41
0.8
  7
GREEKS
 72
     1
 11
78.10106143561793
 21
18.67381894984132
 31
0.0
100
AcDbText
  0
LINE
  5
148
330
1E
100
AcDbEntity
  8
HILF
100
AcDbLine
 10
40.00000000000008
 20
39.99999999999997
 30
0.0
 11
146.0000000000001
 21
39.99999999999997
 31
0.0
  0
LINE
  5
149
330
1E
100
AcDbEntity
  8
HILF
100
AcDbLine
 10
40.00000000000008
 20
49.99999999999997
 30
0.0
 11
146.0000000000001
 21
49.99999999999997
 31
0.0
  0
LINE
  5
14A
330
1E
100
AcDbEntity
  8
HILF
100
AcDbLine
 10
40.00000000000008
 20
59.99999999999997
 30
0.0
 11
146.0000000000001
 21
59.99999999999997
 31
0.0
  0
LINE
  5
14B
330
1E
100
AcDbEntity
  8
HILF
100
AcDbLine
 10
40.00000000000008
 20
69.99999999999994
 30
0.0
 11
146.0000000000001
 21
69.99999999999994
 31
0.0
  0
LINE
  5
14C
330
1E
100
AcDbEntity
  8
HILF
100
AcDbLine
 10
40.00000000000008
 20
79.99999999999994
 30
0.0
 11
146.0000000000001
 21
79.99999999999994
 31
0.0
  0
LINE
  5
14D
330
1E
100
AcDbEntity
  8
HILF
100
AcDbLine
 10
40.00000000000008
 20
90.00000000000005
 30
0.0
 11
146.0000000000001
 21
90.00000000000005
 31
0.0
  0
LINE
  5
14E
330
1E
100
AcDbEntity
  8
HILF
100
AcDbLine
 10
40.00000000000008
 20
100.0
 30
0.0
 11
146.0000000000001
 21
100.0
 31
0.0
  0
LINE
  5
14F
330
1E
100
AcDbEntity
  8
STEMPEL
100
AcDbLine
 10
145.9999999999999
 20
29.99999999999997
 30
0.0
 11
39.99999999999997
 21
29.99999999999997
 31
0.0
  0
TEXT
  5
150
330
1E
100
AcDbEntity
  8
TEXT
100
AcDbText
 10
48.26641107045756
 20
13.65465846027192
 30
0.0
 40
4.0
  1
Index
 50
90.0
 41
0.8
  7
GREEKS
100
AcDbText
  0
LINE
  5
151
330
1E
100
AcDbEntity
  8
VOLL
100
AcDbLine
 10
54.00000000000009
 20
110.0
 30
0.0
 11
53.99999999999997
 21
9.999999999999971
 31
0.0
  0
LINE
  5
152
330
1E
100
AcDbEntity
  8
HILF
100
AcDbLine
 10
31.08767135713856
 20
297.0
 30
0.0
 11
0.0000000000001137
 21
297.0
 31
0.0
  0
TEXT
  5
153
330
1E
100
AcDbEntity
  8
TEXT
100
AcDbText
 10
110.1119276920046
 20
18.6715626933981
 30
0.0
 40
4.0
  1
Tag
 41
0.8
  7
GREEKS
 72
     1
 11
113.845261025338
 21
18.6715626933981
 31
0.0
100
AcDbText
  0
LINE
  5
154
330
1E
100
AcDbEntity
  8
VOLL
100
AcDbLine
 10
124.0000000000001
 20
109.9999999999999
 30
0.0
 11
124.0
 21
9.999999999999971
 31
0.0
  0
LINE
  5
155
330
1E
100
AcDbEntity
  8
VOLL
100
AcDbLine
 10
104.0000000000001
 20
109.9999999999999
 30
0.0
 11
104.0
 21
9.999999999999971
 31
0.0
  0
TEXT
  5
156
330
1E
100
AcDbEntity
  8
TEXT
100
AcDbText
 10
128.9242295083001
 20
18.59324216966408
 30
0.0
 40
4.0
  1
Name
 41
0.8
  7
GREEKS
 72
     1
 11
135.2480390321096
 21
18.59324216966408
 31
0.0
100
AcDbText
  0
LINE
  5
157
330
1E
100
AcDbEntity
  8
STEMPEL
100
AcDbLine
 10
146.0000000000001
 20
109.9999999999999
 30
0.0
 11
146.0
 21
9.999999999999971
 31
0.0
  0
TEXT
  5
158
330
1E
100
AcDbEntity
  8
TEXT
100
AcDbText
 10
170.398997108236
 20
63.10765040825732
 30
0.0
 40
4.0
  1
08.04.
 41
0.8
  7
GREEKS
 72
     1
 11
177.4085209177598
 21
63.10765040825732
 31
0.0
100
AcDbText
  0
TEXT
  5
159
330
1E
100
AcDbEntity
  8
TEXT
100
AcDbText
 10
172.331167315365
 20
73.31880501229926
 30
0.0
 40
4.0
  1
Tag
 41
0.8
  7
GREEKS
100
AcDbText
  0
TEXT
  5
15A
330
1E
100
AcDbEntity
  8
TEXT
100
AcDbText
 10
147.5836127167615
 20
63.62990369617964
 30
0.0
 40
4.0
  1
Gez.
 41
0.8
  7
GREEKS
100
AcDbText
  0
LINE
  5
15B
330
1E
100
AcDbEntity
  8
VOLL
100
AcDbLine
 10
164.0000000000001
 20
79.99999999999994
 30
0.0
 11
164.0000000000001
 21
39.99999999999997
 31
0.0
  0
TEXT
  5
15C
330
1E
100
AcDbEntity
  8
TEXT
100
AcDbText
 10
147.6006777387303
 20
43.52946389649807
 30
0.0
 40
4.0
  1
Norm.
 41
0.8
  7
GREEKS
100
AcDbText
  0
TEXT
  5
15D
330
1E
100
AcDbEntity
  8
TEXT
100
AcDbText
 10
147.5515086571672
 20
53.68926291428377
 30
0.0
 40
4.0
  1
Gepr.
 41
0.8
  7
GREEKS
100
AcDbText
  0
TEXT
  5
15E
330
1E
100
AcDbEntity
  8
TEXT
 62
     1
100
AcDbText
 10
160.5006306481887
 20
88.14901428913959
 30
0.0
 40
7.0
  1
1:2
 41
0.8
  7
GREEKS
100
AcDbText
  0
TEXT
  5
15F
330
1E
100
AcDbEntity
  8
TEXT
100
AcDbText
 10
153.5163572150377
 20
102.4620895087088
 30
0.0
 40
5.0
  1
Maßstab
 41
0.8
  7
GREEKS
100
AcDbText
  0
TEXT
  5
160
330
1E
100
AcDbEntity
  8
TEXT
100
AcDbText
 10
148.622109822104
 20
73.14025471151666
 30
0.0
 40
4.0
  1
2011
 41
0.8
  7
GREEKS
100
AcDbText
  0
LINE
  5
161
330
1E
100
AcDbEntity
  8
VOLL
100
AcDbLine
 10
190.0000000000001
 20
109.9999999999998
 30
0.0
 11
190.0
 21
39.99999999999997
 31
0.0
  0
LINE
  5
186
330
1E
100
AcDbEntity
  8
HILF
100
AcDbLine
 10
420.0
 20
-0.0000000000001137
 30
0.0
 11
419.9999999999999
 21
594.0
 31
0.0
  0
LINE
  5
187
330
1E
100
AcDbEntity
  8
STEMPEL
100
AcDbLine
 10
410.0
 20
10.0
 30
0.0
 11
410.0
 21
584.0
 31
0.0
  0
TEXT
  5
188
330
1E
100
AcDbEntity
  8
TEXT
100
AcDbText
 10
337.2400861497006
 20
52.07416177878602
 30
0.0
 40
5.0
  1
ersetzt durch:
 41
0.8
  7
GREEKS
100
AcDbText
  0
TEXT
  5
189
330
1E
100
AcDbEntity
  8
TEXT
100
AcDbText
 10
336.7238616296993
 20
73.1811823709997
 30
0.0
 40
5.0
  1
Ersatz für:
 41
0.8
  7
GREEKS
100
AcDbText
  0
TEXT
  5
18A
330
1E
100
AcDbEntity
  8
TEXT
100
AcDbText
 10
336.178754957634
 20
102.3132034537136
 30
0.0
 40
5.0
  1
Zeichnungs Nr.
 41
0.8
  7
GREEKS
100
AcDbText
  0
LINE
  5
18B
330
1E
100
AcDbEntity
  8
HILF
100
AcDbLine
 10
233.4909699289885
 20
14.89398258028314
 30
0.0
 11
404.8588839326728
 21
14.89398258028314
 31
0.0
  0
LINE
  5
18C
330
1E
100
AcDbEntity
  8
HILF
100
AcDbLine
 10
336.7238616296993
 20
83.77983636955827
 30
0.0
 11
404.8588839326728
 21
83.77983636955827
 31
0.0
  0
LINE
  5
18D
330
1E
100
AcDbEntity
  8
VOLL
100
AcDbLine
 10
332.0
 20
60.0
 30
0.0
 11
410.0
 21
60.0
 31
0.0
  0
TEXT
  5
18E
330
1E
100
AcDbEntity
  8
TEXT
 62
     1
100
AcDbText
 10
234.9283864320014
 20
87.41748789253779
 30
0.0
 40
7.0
  1
Red.-Abzweig DN150/100
 41
0.65
  7
GREEKS
100
AcDbText
  0
LINE
  5
18F
330
1E
100
AcDbEntity
  8
HILF
100
AcDbLine
 10
234.7736801096947
 20
49.99999999999997
 30
0.0
 11
324.835391655631
 21
49.99999999999997
 31
0.0
  0
LINE
  5
190
330
1E
100
AcDbEntity
  8
HILF
100
AcDbLine
 10
234.7736801096947
 20
59.99999999999997
 30
0.0
 11
324.835391655631
 21
59.99999999999997
 31
0.0
  0
LINE
  5
191
330
1E
100
AcDbEntity
  8
HILF
100
AcDbLine
 10
234.7736801096947
 20
69.99999999999994
 30
0.0
 11
324.835391655631
 21
69.99999999999994
 31
0.0
  0
LINE
  5
192
330
1E
100
AcDbEntity
  8
HILF
100
AcDbLine
 10
234.7736801096947
 20
84.03758247564139
 30
0.0
 11
324.8353916556311
 21
84.03758247564139
 31
0.0
  0
LINE
  5
193
330
1E
100
AcDbEntity
  8
STEMPEL
100
AcDbLine
 10
230.0
 20
110.0
 30
0.0
 11
230.0
 21
9.999999999999971
 31
0.0
  0
TEXT
  5
194
330
1E
100
AcDbEntity
  8
TEXT
100
AcDbText
 10
235.1296391125315
 20
71.50334417585288
 30
0.0
 40
5.0
  1
dünnwandig 45°
 41
0.8
  7
GREEKS
100
AcDbText
  0
TEXT
  5
195
330
1E
100
AcDbEntity
  8
TEXT
100
AcDbText
 10
234.9837501577827
 20
42.62974153022632
 30
0.0
 40
4.0
  1
5250FD0W.DWG
 41
0.8
  7
GREEKS
100
AcDbText
  0
TEXT
  5
196
330
1E
100
AcDbEntity
  8
TEXT
100
AcDbText
 10
234.742238391136
 20
30.84560570193057
 30
0.0
 40
5.0
  1
Bauvorhaben
 41
0.8
  7
GREEKS
100
AcDbText
  0
TEXT
  5
197
330
1E
100
AcDbEntity
  8
TEXT
100
AcDbText
 10
234.877940380901
 20
102.5489328011779
 30
0.0
 40
5.0
  1
Benennung
 41
0.8
  7
GREEKS
100
AcDbText
  0
LINE
  5
198
330
1E
100
AcDbEntity
  8
STEMPEL
100
AcDbLine
 10
332.0
 20
109.9999999999997
 30
0.0
 11
332.0
 21
40.0
 31
0.0
  0
TEXT
  5
19A
330
1E
100
AcDbEntity
  8
TEXT
 62
     1
100
AcDbText
 10
348.6174610628377
 20
88.14901428913959
 30
0.0
 40
7.0
  1
5250FD0W
 41
0.8
  7
GREEKS
 72
     1
 11
369.8174610628377
 21
88.14901428913959
 31
0.0
100
AcDbText
  0
TEXT
  5
212
330
1E
100
AcDbEntity
  8
TEXT
100
AcDbText
 10
235.1296391125315
 20
51.50334417585291
 30
0.0
 40
5.0
  1
EDV-Art.Nr. 5.250.FD0C
 41
0.8
  7
GREEKS
100
AcDbText
  0
LINE
  5
EFF
102
{ACAD_REACTORS
330
19F3
102
}
330
1E
100
AcDbEntity
  8
STEMPEL
100
AcDbLine
 10
245.4756156909856
 20
453.638556678023
 30
0.0
 11
245.4756156909855
 21
415.6595139923764
 31
0.0
  0
LINE
  5
F01
330
1E
100
AcDbEntity
  8
STEMPEL
100
AcDbLine
 10
251.6306825694294
 20
539.3174650238234
 30
0.0
 11
80.32054881254202
 21
539.3174650238234
 31
0.0
  0
LINE
  5
F09
330
1E
100
AcDbEntity
  8
STEMPEL
100
AcDbLine
 10
251.6306825694294
 20
539.3174650238234
 30
0.0
 11
252.2900804502317
 21
537.9033817050731
 31
0.0
  0
ARC
  5
F0A
330
1E
100
AcDbEntity
  8
STEMPEL
100
AcDbCircle
 10
221.4756156909856
 20
523.5343608058894
 30
0.0
 40
34.0
100
AcDbArc
 50
0.0
 51
24.9999999999926
  0
LINE
  5
F0B
330
1E
100
AcDbEntity
  8
STEMPEL
100
AcDbLine
 10
255.4756156909856
 20
523.5343608058895
 30
0.0
 11
255.4756156909856
 21
507.2548594946694
 31
0.0
  0
ARC
  5
F0C
330
1E
100
AcDbEntity
  8
STEMPEL
100
AcDbCircle
 10
221.4775880112274
 20
507.3147665431052
 30
0.0
 40
34.0
100
AcDbArc
 50
332.2594896725498
 51
0.0
  0
ARC
  5
F0D
330
1E
100
AcDbEntity
  8
STEMPEL
100
AcDbCircle
 10
268.4756156909855
 20
482.8174650238231
 30
0.0
 40
19.0
100
AcDbArc
 50
152.8456571516186
 51
179.9999999999999
  0
LINE
  5
F0E
330
1E
100
AcDbEntity
  8
STEMPEL
100
AcDbLine
 10
249.4756156909855
 20
482.8174650238231
 30
0.0
 11
249.4756156909855
 21
467.780692301754
 31
0.0
  0
ARC
  5
F11
330
1E
100
AcDbEntity
  8
STEMPEL
100
AcDbCircle
 10
255.4756156909856
 20
453.6385566780229
 30
0.0
 40
10.0
100
AcDbArc
 50
148.413661903472
 51
179.9999999999999
  0
ARC
  5
F13
330
1E
100
AcDbEntity
  8
STEMPEL
100
AcDbCircle
 10
232.4756156909856
 20
467.7806923017538
 30
0.0
 40
17.0
100
AcDbArc
 50
328.4136619034722
 51
0.0
  0
LINE
  5
F37
330
1E
100
AcDbEntity
  8
STEMPEL
100
AcDbLine
 10
76.47561569098582
 20
523.5343608058895
 30
0.0
 11
76.47561569098582
 21
507.2548594946695
 31
0.0
  0
LINE
  5
F39
330
1E
100
AcDbEntity
  8
STEMPEL
100
AcDbLine
 10
82.47561569098582
 20
482.8174650238231
 30
0.0
 11
82.47561569098582
 21
467.780692301754
 31
0.0
  0
ARC
  5
F3B
330
1E
100
AcDbEntity
  8
STEMPEL
100
AcDbCircle
 10
76.47561569098576
 20
453.638556678023
 30
0.0
 40
10.0
100
AcDbArc
 50
0.0
 51
31.58633809652776
  0
LINE
  5
F3D
330
1E
100
AcDbEntity
  8
STEMPEL
100
AcDbLine
 10
86.47561569098575
 20
453.6385566780231
 30
0.0
 11
86.4756156909857
 21
179.3174650238238
 31
0.0
  0
ARC
  5
F40
330
1E
100
AcDbEntity
  8
STEMPEL
100
AcDbCircle
 10
99.47561569098581
 20
467.780692301754
 30
0.0
 40
17.0
100
AcDbArc
 50
179.9999999999999
 51
211.5863380965277
  0
ARC
  5
F41
330
1E
100
AcDbEntity
  8
STEMPEL
100
AcDbCircle
 10
110.4736433707439
 20
507.3147665431053
 30
0.0
 40
34.0
100
AcDbArc
 50
179.9999999999999
 51
207.3202406357856
  0
ARC
  5
F44
330
1E
100
AcDbEntity
  8
STEMPEL
100
AcDbCircle
 10
63.47561569098582
 20
482.8174650238231
 30
0.0
 40
19.0
100
AcDbArc
 50
0.0
 51
27.90640811485474
  0
LINE
  5
F45
330
1E
100
AcDbEntity
  8
STEMPEL
100
AcDbLine
 10
80.32054881254202
 20
539.3174650238234
 30
0.0
 11
79.66115093173971
 21
537.9033817050733
 31
0.0
  0
ARC
  5
F47
330
1E
100
AcDbEntity
  8
STEMPEL
100
AcDbCircle
 10
110.4756156909858
 20
523.5343608058895
 30
0.0
 40
34.0
100
AcDbArc
 50
155.0000000000073
 51
179.9999999999999
  0
LINE
  5
F58
330
1E
100
AcDbEntity
  8
HILF
100
AcDbLine
 10
244.4097355315177
 20
456.7684602382459
 30
0.0
 11
87.54149585045366
 21
456.7684602382461
 31
0.0
  0
LINE
  5
F59
330
1E
100
AcDbEntity
  8
HILF
100
AcDbLine
 10
247.3904976450508
 20
463.5621266336273
 30
0.0
 11
84.56073373692049
 21
463.5621266336275
 31
0.0
  0
LINE
  5
F5A
330
1E
100
AcDbEntity
  8
HILF
100
AcDbLine
 10
248.5795566610332
 20
487.7567802675235
 30
0.0
 11
83.37167472093824
 21
487.7567802675236
 31
0.0
  0
LINE
  5
107B
330
1E
100
AcDbEntity
  8
STEMPEL
100
AcDbLine
 10
244.6007290557264
 20
169.3174650238233
 30
0.0
 11
87.35050232624491
 21
169.3174650238233
 31
0.0
  0
DIMENSION
  5
107C
330
1E
100
AcDbEntity
  8
BEM
100
AcDbDimension
  2
*D1
 10
245.4756156909859
 20
148.2550325119077
 30
0.0
 11
165.9756156909858
 21
154.7550325119077
 31
0.0
 70
    32
  1
%%c<>
 71
     5
 42
159.0000000000001
  3
Standard
100
AcDbAlignedDimension
 13
86.47561569098574
 23
179.3174650238239
 33
0.0
 14
245.4756156909859
 24
179.3174650238228
 34
0.0
100
AcDbRotatedDimension
1001
ACAD
1000
DSTYLE
1002
{
1070
    40
1040
2.0
1070
    41
1040
3.5
1070
    42
1040
1.0
1070
    43
1040
7.0
1070
    44
1040
1.0
1070
    73
1070
     0
1070
    74
1070
     0
1070
    77
1070
     1
1070
    78
1070
     8
1070
    79
1070
     2
1070
   140
1040
3.5
1070
   141
1040
1.5
1070
   146
1040
0.5142857142857144
1070
   147
1040
1.5
1070
   172
1070
     1
1070
   178
1070
     1
1070
   179
1070
     2
1070
   271
1070
     2
1070
   272
1070
     2
1070
   284
1070
     8
1070
   285
1070
     8
1070
   286
1070
     8
1002
}
  0
LINE
  5
107D
330
1E
100
AcDbEntity
  8
HILF
100
AcDbLine
 10
243.9756156909853
 20
179.3174650238228
 30
0.0
 11
87.9756156909857
 21
179.3174650238242
 31
0.0
  0
LINE
  5
107F
330
1E
100
AcDbEntity
  8
STEMPEL
100
AcDbLine
 10
86.4756156909857
 20
179.3174650238239
 30
0.0
 11
87.35050232624486
 21
169.3174650238239
 31
0.0
  0
LINE
  5
1084
330
1E
100
AcDbEntity
  8
STEMPEL
100
AcDbLine
 10
245.4756156909855
 20
179.3174650238233
 30
0.0
 11
244.6007290557263
 21
169.3174650238227
 31
0.0
  0
LINE
  5
1086
330
1E
100
AcDbEntity
  8
MITTEL
100
AcDbLine
 10
165.9756156909857
 20
544.3174650238233
 30
0.0
 11
165.9756156909855
 21
164.3174650238235
 31
0.0
  0
TEXT
  5
10C7
330
1E
100
AcDbEntity
  8
TEXT
 62
     1
100
AcDbText
 10
128.6880665018621
 20
510.2459573190962
 30
0.0
 40
7.0
  1
DN150
 41
0.8
  7
GREEKS
100
AcDbText
  0
TEXT
  5
1179
330
1E
100
AcDbEntity
  8
TEXT
 62
     1
100
AcDbText
 10
297.0573649355706
 20
132.2248663682012
 30
0.0
 40
7.0
  1
Werkstoff: 1.4404
 41
0.8
  7
GREEKS
100
AcDbText
  0
DIMENSION
  5
11E1
330
1E
100
AcDbEntity
  8
BEM
100
AcDbDimension
  2
*D3
 10
69.77184924488345
 20
264.3174650238234
 30
0.0
 11
63.27184924488341
 21
216.8174650238233
 31
0.0
 70
    32
 71
     5
 42
95.00000000000005
  3
Standard
100
AcDbAlignedDimension
 13
87.35050232624489
 23
169.3174650238233
 33
0.0
 14
168.1813483996857
 24
264.3174650238233
 34
0.0
 50
90.0
100
AcDbRotatedDimension
1001
ACAD
1000
DSTYLE
1002
{
1070
    40
1040
2.0
1070
    41
1040
3.5
1070
    42
1040
1.0
1070
    43
1040
7.0
1070
    44
1040
1.0
1070
    73
1070
     0
1070
    74
1070
     0
1070
    77
1070
     1
1070
    78
1070
     8
1070
    79
1070
     2
1070
   140
1040
3.5
1070
   141
1040
1.5
1070
   146
1040
0.5142857142857144
1070
   147
1040
1.5
1070
   172
1070
     1
1070
   178
1070
     1
1070
   179
1070
     2
1070
   271
1070
     2
1070
   272
1070
     2
1070
   284
1070
     8
1070
   285
1070
     8
1070
   286
1070
     8
1002
}
  0
LINE
  5
1372
330
1E
100
AcDbEntity
  8
MITTEL
100
AcDbLine
 10
356.8944466113535
 20
455.2362959441911
 30
0.0
 11
198.8697125198289
 21
297.2115618526666
 31
0.0
  0
LINE
  5
1533
102
{ACAD_REACTORS
330
19FF
102
}
330
1E
100
AcDbEntity
  8
STEMPEL
100
AcDbLine
 10
245.4756156909852
 20
271.9754160552694
 30
0.0
 11
245.4756156909854
 21
179.3174650238224
 31
0.0
  0
DIMENSION
  5
16ED
330
1E
100
AcDbEntity
  8
BEM
100
AcDbDimension
  2
*D4
 10
53.72290665332243
 20
539.3174650238234
 30
0.0
 11
47.22290665332233
 21
354.3174650238234
 31
0.0
 70
    32
 71
     5
 42
370.0000000000001
  3
Standard
100
AcDbAlignedDimension
 13
87.35050232624489
 23
169.3174650238233
 33
0.0
 14
80.32054881254202
 24
539.3174650238234
 34
0.0
 50
90.0
100
AcDbRotatedDimension
1001
ACAD
1000
DSTYLE
1002
{
1070
    40
1040
2.0
1070
    41
1040
3.5
1070
    42
1040
1.0
1070
    43
1040
7.0
1070
    44
1040
1.0
1070
    73
1070
     0
1070
    74
1070
     0
1070
    77
1070
     1
1070
    78
1070
     8
1070
    79
1070
     2
1070
   140
1040
3.5
1070
   141
1040
1.5
1070
   146
1040
0.5
1070
   147
1040
1.5
1070
   172
1070
     1
1070
   178
1070
     1
1070
   179
1070
     2
1070
   271
1070
     2
1070
   272
1070
     2
1070
   284
1070
     8
1070
   285
1070
     8
1070
   286
1070
     8
1002
}
  0
LINE
  5
1717
330
1E
100
AcDbEntity
  8
STEMPEL
100
AcDbLine
 10
392.0092158654345
 20
413.0504588782442
 30
0.0
 11
314.708609545407
 21
490.351065198272
 31
0.0
  0
TEXT
  5
1722
330
1E
100
AcDbEntity
  8
TEXT
 62
     1
100
AcDbText
 10
317.531990979616
 20
438.0068498351193
 30
0.0
 40
7.0
  1
DN100
 50
44.99999999999911
 41
0.8
  7
GREEKS
100
AcDbText
  0
LINE
  5
1728
102
{ACAD_REACTORS
330
19FF
102
}
330
1E
100
AcDbEntity
  8
STEMPEL
100
AcDbLine
 10
336.4989811224982
 20
362.9987814867825
 30
0.0
 11
245.4756156909852
 21
271.9754160552694
 31
0.0
  0
LINE
  5
1729
102
{ACAD_REACTORS
330
19F3
102
}
330
1E
100
AcDbEntity
  8
STEMPEL
100
AcDbLine
 10
264.2472530140764
 20
434.4311513154671
 30
0.0
 11
245.4756156909855
 21
415.6595139923764
 31
0.0
  0
DIMENSION
  5
17F6
330
1E
100
AcDbEntity
  8
BEM
100
AcDbDimension
  2
*D6
 10
225.4689695011737
 20
251.9687698654579
 30
0.0
 11
194.1441390946095
 21
292.4859884274472
 31
0.0
 70
    32
  1
%%c<>
 71
     5
 42
101.6000000000003
 51
87.00000000000018
  3
Standard
100
AcDbAlignedDimension
 13
245.4756156909855
 23
415.6595139923764
 33
0.0
 14
245.4756156909852
 24
271.9754160552694
 34
0.0
 50
314.9999999999999
100
AcDbRotatedDimension
1001
ACAD
1000
DSTYLE
1002
{
1070
    40
1040
2.0
1070
    41
1040
3.5
1070
    42
1040
1.0
1070
    43
1040
7.0
1070
    44
1040
1.0
1070
    73
1070
     0
1070
    74
1070
     0
1070
    77
1070
     1
1070
    78
1070
     8
1070
    79
1070
     2
1070
   140
1040
3.5
1070
   141
1040
1.5
1070
   146
1040
0.5
1070
   147
1040
1.5
1070
   172
1070
     1
1070
   178
1070
     1
1070
   179
1070
     2
1070
   271
1070
     2
1070
   272
1070
     2
1070
   284
1070
     8
1070
   285
1070
     8
1070
   286
1070
     8
1002
}
  0
LINE
  5
180C
330
1E
100
AcDbEntity
  8
MITTEL
100
AcDbLine
 10
187.2593503820222
 20
285.60119971486
 30
0.0
 11
165.9756156909856
 21
264.3174650238233
 31
0.0
  0
TEXT
  5
1826
330
1E
100
AcDbEntity
  8
BEM
100
AcDbText
 10
416.5811541437437
 20
12.14804815338303
 30
0.0
 40
4.0
  1
Diese Zeichnung ist urheberrechtlich geschützt und bleibt unser Eigentum. Sie darf weder ganz noch teilweise vervielfältigt und nicht an Dritte weitergegeben werden.
 50
90.0
 41
0.8
  7
GREEKS
100
AcDbText
  0
TEXT
  5
1842
330
1E
100
AcDbEntity
  8
TEXT
100
AcDbText
 10
192.6882715247924
 20
88.76801189497724
 30
0.0
 40
4.0
  1
DIN EN1124-3
 41
0.8
  7
GREEKS
 72
     1
 11
209.6787477152686
 21
88.76801189497724
 31
0.0
100
AcDbText
  0
ELLIPSE
  5
19B9
330
1E
100
AcDbEntity
  8
STEMPEL
100
AcDbEllipse
 10
245.4756156909854
 20
325.4698157554181
 30
0.0
 11
-0.0000000000001657
 21
-53.49439970014868
 31
0.0
210
0.0
220
0.0
230
1.0
 40
0.342982618203937
 41
4.712388980384689
 42
6.283185307179586
  0
ARC
  5
19BB
330
1E
100
AcDbEntity
  8
STEMPEL
100
AcDbCircle
 10
441.1599673869708
 20
328.8895507250939
 30
0.0
 40
214.0593189377272
100
AcDbArc
 50
156.0866400359207
 51
180.9153757811748
  0
ARC
  5
19C8
330
1E
100
AcDbEntity
  8
SCHRAFF
100
AcDbCircle
 10
245.4756156909855
 20
415.6595139923763
 30
0.0
 40
5.0
100
AcDbArc
 50
209.7502136509609
 51
283.4937606651333
  0
ARC
  5
19D1
330
1E
100
AcDbEntity
  8
SCHRAFF
100
AcDbCircle
 10
243.5023625022034
 20
411.0653577202234
 30
0.0
 40
5.0
100
AcDbArc
 50
211.0885595448351
 51
284.8321065590076
  0
ARC
  5
19D2
330
1E
100
AcDbEntity
  8
SCHRAFF
100
AcDbCircle
 10
241.6369506491783
 20
406.4263665994523
 30
0.0
 40
5.0
100
AcDbArc
 50
212.4269054387106
 51
286.1704524528828
  0
ARC
  5
19D3
330
1E
100
AcDbEntity
  8
SCHRAFF
100
AcDbCircle
 10
239.8803978944499
 20
401.7450716482817
 30
0.0
 40
5.0
100
AcDbArc
 50
213.7652513325853
 51
287.5087983467576
  0
ARC
  5
19D4
330
1E
100
AcDbEntity
  8
SCHRAFF
100
AcDbCircle
 10
238.233662607394
 20
397.0240269657601
 30
0.0
 40
5.0
100
AcDbArc
 50
215.1035972264608
 51
288.8471442406334
  0
ARC
  5
19D5
330
1E
100
AcDbEntity
  8
SCHRAFF
100
AcDbCircle
 10
236.697643241339
 20
392.2658083382584
 30
0.0
 40
5.0
100
AcDbArc
 50
216.441943120335
 51
290.1854901345076
  0
ARC
  5
19D6
330
1E
100
AcDbEntity
  8
SCHRAFF
100
AcDbCircle
 10
235.2731778433728
 20
387.4730118341288
 30
0.0
 40
5.0
100
AcDbArc
 50
217.7802890142107
 51
291.5238360283829
  0
ARC
  5
19D7
330
1E
100
AcDbEntity
  8
SCHRAFF
100
AcDbCircle
 10
233.9610435971072
 20
382.6482523872986
 30
0.0
 40
5.0
100
AcDbArc
 50
219.1186349080859
 51
292.8621819222584
  0
ARC
  5
19D8
330
1E
100
AcDbEntity
  8
SCHRAFF
100
AcDbCircle
 10
232.7619563986491
 20
377.7941623705711
 30
0.0
 40
5.0
100
AcDbArc
 50
220.4569808019606
 51
294.2005278161332
  0
ARC
  5
19D9
330
1E
100
AcDbEntity
  8
SCHRAFF
100
AcDbCircle
 10
231.6765704660094
 20
372.9133901594114
 30
0.0
 40
5.0
100
AcDbArc
 50
221.7953266958357
 51
295.5388737100081
  0
ARC
  5
19DA
330
1E
100
AcDbEntity
  8
SCHRAFF
100
AcDbCircle
 10
230.7054779821649
 20
368.0085986870019
 30
0.0
 40
5.0
100
AcDbArc
 50
223.1336725897107
 51
296.8772196038834
  0
ARC
  5
19DB
330
1E
100
AcDbEntity
  8
SCHRAFF
100
AcDbCircle
 10
229.8492087719642
 20
363.0824639913544
 30
0.0
 40
5.0
100
AcDbArc
 50
224.4720184835857
 51
298.2155654977581
  0
ARC
  5
19DC
330
1E
100
AcDbEntity
  8
SCHRAFF
100
AcDbCircle
 10
229.1082300130574
 20
358.1376737552727
 30
0.0
 40
5.0
100
AcDbArc
 50
225.8103643774611
 51
299.5539113916335
  0
ARC
  5
19DD
330
1E
100
AcDbEntity
  8
SCHRAFF
100
AcDbCircle
 10
228.4829459810058
 20
353.1769258399618
 30
0.0
 40
5.0
100
AcDbArc
 50
227.1487102713358
 51
300.8922572855083
  0
ARC
  5
19DE
330
1E
100
AcDbEntity
  8
SCHRAFF
100
AcDbCircle
 10
227.9736978287099
 20
348.2029268130838
 30
0.0
 40
5.0
100
AcDbArc
 50
228.4870561652112
 51
302.2306031793837
  0
ARC
  5
19DF
330
1E
100
AcDbEntity
  8
SCHRAFF
100
AcDbCircle
 10
227.5807634002781
 20
343.2183904720635
 30
0.0
 40
5.0
100
AcDbArc
 50
229.8254020590858
 51
303.5689490732582
  0
ARC
  5
19E0
330
1E
100
AcDbEntity
  8
SCHRAFF
100
AcDbCircle
 10
227.3043570794355
 20
338.2260363634491
 30
0.0
 40
5.0
100
AcDbArc
 50
231.1637479529609
 51
304.9072949671334
  0
ARC
  5
19E1
330
1E
100
AcDbEntity
  8
SCHRAFF
100
AcDbCircle
 10
227.1446296725569
 20
333.2285882991375
 30
0.0
 40
5.0
100
AcDbArc
 50
232.5020938468357
 51
306.2456408610082
  0
ARC
  5
19E2
330
1E
100
AcDbEntity
  8
SCHRAFF
100
AcDbCircle
 10
227.1016683263873
 20
328.2287728702706
 30
0.0
 40
5.0
100
AcDbArc
 50
233.5775964594858
 51
307.3174137745273
  0
ARC
  5
19E3
330
1E
100
AcDbEntity
  8
SCHRAFF
100
AcDbCircle
 10
227.1440712132773
 20
323.2289526739852
 30
0.0
 40
5.0
100
AcDbArc
 50
234.6899066566732
 51
308.4369380171431
  0
ARC
  5
19E4
330
1E
100
AcDbEntity
  8
SCHRAFF
100
AcDbCircle
 10
227.2967136391457
 20
318.2312831881323
 30
0.0
 40
5.0
100
AcDbArc
 50
236.5708036736181
 51
310.3194592239595
  0
ARC
  5
19E5
330
1E
100
AcDbEntity
  8
SCHRAFF
100
AcDbCircle
 10
227.613775966401
 20
313.241346166422
 30
0.0
 40
5.0
100
AcDbArc
 50
238.5367626720342
 51
312.2869835826513
  0
ARC
  5
19E6
330
1E
100
AcDbEntity
  8
SCHRAFF
100
AcDbCircle
 10
228.1027558159253
 20
308.2653137402055
 30
0.0
 40
5.0
100
AcDbArc
 50
240.6401503481297
 51
314.3903582264193
  0
ARC
  5
19E7
330
1E
100
AcDbEntity
  8
SCHRAFF
100
AcDbCircle
 10
228.776090197918
 20
303.3108590971568
 30
0.0
 40
5.0
100
AcDbArc
 50
242.9693360087267
 51
316.7260880540208
  0
ARC
  5
19E8
330
1E
100
AcDbEntity
  8
SCHRAFF
100
AcDbCircle
 10
229.6528353635596
 20
298.3883274401205
 30
0.0
 40
5.0
100
AcDbArc
 50
245.6367670892211
 51
319.399986368841
  0
ARC
  5
19E9
330
1E
100
AcDbEntity
  8
SCHRAFF
100
AcDbCircle
 10
230.7616928527823
 20
293.512834124705
 30
0.0
 40
5.0
100
AcDbArc
 50
248.824288534697
 51
322.5923392505235
  0
ARC
  5
19EA
330
1E
100
AcDbEntity
  8
SCHRAFF
100
AcDbCircle
 10
232.1466298320175
 20
288.7084663657229
 30
0.0
 40
5.0
100
AcDbArc
 50
252.8667213734609
 51
326.6634031968936
  0
ARC
  5
19EB
330
1E
100
AcDbEntity
  8
SCHRAFF
100
AcDbCircle
 10
233.8780252312404
 20
284.0178086323608
 30
0.0
 40
5.0
100
AcDbArc
 50
258.4255880662465
 51
332.2808411565691
  0
ARC
  5
19EC
330
1E
100
AcDbEntity
  8
SCHRAFF
100
AcDbCircle
 10
236.0768283975676
 20
279.5272335427147
 30
0.0
 40
5.0
100
AcDbArc
 50
267.0558765758354
 51
341.1236490458141
  0
ARC
  5
19ED
330
1E
100
AcDbEntity
  8
SCHRAFF
100
AcDbCircle
 10
238.9709787083805
 20
275.4499925664636
 30
0.0
 40
5.0
100
AcDbArc
 50
283.0962315812008
 51
358.3957957797021
  0
ARC
  5
19EE
102
{ACAD_REACTORS
330
19F3
102
}
330
1E
100
AcDbEntity
  8
SCHRAFF
100
AcDbCircle
 10
245.4756156909855
 20
415.6595139923762
 30
0.0
 40
7.15757496848704
100
AcDbArc
 50
45.00000000000031
 51
89.99999999999955
  0
HATCH
  5
19F3
330
1E
100
AcDbEntity
  8
SCHRAFF
100
AcDbHatch
 10
0.0
 20
0.0
 30
0.0
210
0.0
220
0.0
230
1.0
  2
_USER
 70
     0
 71
     1
 91
        1
 92
        7
 72
     1
 73
     1
 93
        3
 10
250.5367854880537
 20
420.7206837894445
 42
0.1989123673796526
 10
245.4756156909855
 20
422.8170889608632
 42
0.0
 10
245.4756156909856
 20
415.6595139923764
 42
0.0
 97
        3
330
19EE
330
EFF
330
1729
 75
     0
 76
     0
 52
0.0
 41
0.1
 77
     0
 78
     1
 53
0.0
 43
-6.449965820629131
 44
0.0
 45
0.0
 46
0.1
 79
     0
 47
0.0787196742570106
 98
        1
 10
247.9490849295839
 20
419.7439107100668
  0
ARC
  5
19F4
102
{ACAD_REACTORS
330
19FF
102
}
330
1E
100
AcDbEntity
  8
SCHRAFF
100
AcDbCircle
 10
245.4756156909852
 20
271.9754160552694
 30
0.0
 40
3.0
100
AcDbArc
 50
270.0
 51
44.99999999999924
  0
HATCH
  5
19FF
330
1E
100
AcDbEntity
  8
SCHRAFF
100
AcDbHatch
 10
0.0
 20
0.0
 30
0.0
210
0.0
220
0.0
230
1.0
  2
_USER
 70
     0
 71
     1
 91
        1
 92
        7
 72
     1
 73
     1
 93
        3
 10
245.4756156909853
 20
268.9754160552694
 42
0.6681786379192875
 10
247.5969360345449
 20
274.096736398829
 42
0.0
 10
245.4756156909853
 20
271.9754160552695
 42
0.0
 97
        3
330
1728
330
1533
330
19F4
 75
     0
 76
     0
 52
0.0
 41
0.1
 77
     0
 78
     1
 53
0.0
 43
-6.449965820629131
 44
0.0
 45
0.0
 46
0.1
 79
     0
 47
0.0981551859766608
 98
        1
 10
246.1091057171625
 20
270.9909207299895
  0
DIMENSION
  5
1A00
330
1E
100
AcDbEntity
  8
BEM
100
AcDbDimension
  2
*D7
 10
165.9756156909855
 20
164.3174650238235
 30
0.0
 11
284.894597712833
 21
551.4132842445691
 31
0.0
 70
    34
 71
     5
 42
0.7853981633974483
  3
Standard
100
AcDb2LineAngularDimension
 13
356.8944466113535
 23
455.2362959441911
 33
0.0
 14
198.8697125198289
 24
297.2115618526666
 34
0.0
 15
165.9756156909857
 25
544.3174650238233
 35
0.0
 16
318.1007534215311
 26
527.8059326815408
 36
0.0
1001
ACAD
1000
DSTYLE
1002
{
1070
    40
1040
2.0
1070
    41
1040
3.5
1070
    42
1040
1.0
1070
    43
1040
7.0
1070
    44
1040
1.0
1070
    73
1070
     0
1070
    74
1070
     0
1070
    77
1070
     1
1070
    78
1070
     8
1070
    79
1070
     2
1070
   140
1040
3.5
1070
   141
1040
1.5
1070
   146
1040
0.5
1070
   147
1040
1.5
1070
   172
1070
     1
1070
   178
1070
     1
1070
   179
1070
     2
1070
   271
1070
     2
1070
   272
1070
     2
1070
   284
1070
     8
1070
   285
1070
     8
1070
   286
1070
     8
1002
}
  0
LINE
  5
1A57
330
1E
100
AcDbEntity
  8
STEMPEL
100
AcDbLine
 10
385.6967610081777
 20
402.1147254248409
 30
0.0
 11
372.5631795063979
 21
388.981143923061
 31
0.0
  0
ARC
  5
1A58
330
1E
100
AcDbEntity
  8
STEMPEL
100
AcDbCircle
 10
366.9535596146403
 20
370.9264446824201
 30
0.0
 40
12.8
100
AcDbArc
 50
108.1119523822754
 51
135.0
  0
ARC
  5
1A59
330
1E
100
AcDbEntity
  8
STEMPEL
100
AcDbCircle
 10
342.2473009026757
 20
357.3924731132029
 30
0.0
 40
8.0
100
AcDbArc
 50
104.1404189093777
 51
135.0
  0
ARC
  5
1A5A
330
1E
100
AcDbEntity
  8
STEMPEL
100
AcDbCircle
 10
336.7424988270873
 20
378.8991500789407
 30
0.0
 40
14.2
100
AcDbArc
 50
284.3570682370605
 51
315.0
  0
LINE
  5
1A5C
330
1E
100
AcDbEntity
  8
STEMPEL
100
AcDbLine
 10
357.9025928154525
 20
379.9774114816079
 30
0.0
 11
346.7834151199364
 21
368.8582337860918
 31
0.0
  0
ARC
  5
1A5D
330
1E
100
AcDbEntity
  8
STEMPEL
100
AcDbCircle
 10
355.4511954016835
 20
406.0931280277753
 30
0.0
 40
24.2
100
AcDbArc
 50
288.1119523822754
 51
315.0
  0
ARC
  5
1A5E
330
1E
100
AcDbEntity
  8
STEMPEL
100
AcDbCircle
 10
368.5847769034634
 20
419.2267095295552
 30
0.0
 40
24.2
100
AcDbArc
 50
315.0
 51
345.2636519420999
  0
ARC
  5
1A5F
330
1E
100
AcDbEntity
  8
STEMPEL
100
AcDbCircle
 10
272.6255150043548
 20
465.2544892927054
 30
0.0
 40
12.8
100
AcDbArc
 50
315.0
 51
341.8880476177246
  0
ARC
  5
1A60
330
1E
100
AcDbEntity
  8
STEMPEL
100
AcDbCircle
 10
307.7921983497102
 20
453.7521250797486
 30
0.0
 40
24.2
100
AcDbArc
 50
135.0
 51
161.8880476177246
  0
LINE
  5
1A61
330
1E
100
AcDbEntity
  8
STEMPEL
100
AcDbLine
 10
303.8137957467757
 20
483.9976906862429
 30
0.0
 11
290.6802142449958
 21
470.864109184463
 31
0.0
  0
ARC
  5
1A62
330
1E
100
AcDbEntity
  8
STEMPEL
100
AcDbCircle
 10
259.0915434351378
 20
440.5482305807408
 30
0.0
 40
8.0
100
AcDbArc
 50
310.1254772421682
 51
345.8595810906223
  0
ARC
  5
1A63
330
1E
100
AcDbEntity
  8
STEMPEL
100
AcDbCircle
 10
280.5982204008754
 20
435.0434285051525
 30
0.0
 40
14.2
100
AcDbArc
 50
135.0
 51
165.6429317629395
  0
LINE
  5
1A65
330
1E
100
AcDbEntity
  8
STEMPEL
100
AcDbLine
 10
281.6764818035427
 20
456.2035224935176
 30
0.0
 11
270.5573041080266
 21
445.0843447980016
 31
0.0
  0
ARC
  5
1A66
330
1E
100
AcDbEntity
  8
STEMPEL
100
AcDbCircle
 10
320.9257798514901
 20
466.8857065815286
 30
0.0
 40
24.2
100
AcDbArc
 50
104.7363480579001
 51
135.0
  0
LINE
  5
1A68
330
1E
100
AcDbEntity
  8
HILF
100
AcDbLine
 10
337.4234599459946
 20
365.2264094433404
 30
0.0
 11
266.9254797652751
 21
435.7243896240598
 31
0.0
  0
LINE
  5
1A69
330
1E
100
AcDbEntity
  8
HILF
100
AcDbLine
 10
342.8905230971123
 20
367.4448147610279
 30
0.0
 11
269.1438850829627
 21
441.1914527751775
 31
0.0
  0
LINE
  5
1A6A
330
1E
100
AcDbEntity
  8
HILF
100
AcDbLine
 10
359.3846101223192
 20
382.7040082497584
 30
0.0
 11
284.4030785716931
 21
457.6855398003845
 31
0.0
  0
DIMENSION
  5
1A8E
330
1E
100
AcDbEntity
  8
BEM
100
AcDbDimension
  2
*D8
 10
405.1970105224783
 20
399.8626642212008
 30
0.0
 11
306.9606011147233
 21
310.8186429688708
 31
0.0
 70
    32
  1
265
 71
     5
 42
264.8545250065662
 51
315.0
  3
Standard
100
AcDbAlignedDimension
 13
165.9756156909857
 23
264.5231977325234
 33
0.0
 14
392.0092158654346
 24
413.0504588782444
 34
0.0
 50
44.99999999999998
100
AcDbRotatedDimension
1001
ACAD
1000
DSTYLE
1002
{
1070
    40
1040
2.0
1070
    41
1040
3.5
1070
    42
1040
1.0
1070
    43
1040
7.0
1070
    44
1040
1.0
1070
    73
1070
     0
1070
    74
1070
     0
1070
    77
1070
     1
1070
    78
1070
     8
1070
    79
1070
     2
1070
   140
1040
3.5
1070
   141
1040
1.5
1070
   146
1040
0.5
1070
   147
1040
1.5
1070
   172
1070
     1
1070
   178
1070
     1
1070
   179
1070
     2
1070
   271
1070
     2
1070
   272
1070
     2
1070
   284
1070
     8
1070
   285
1070
     8
1070
   286
1070
     8
1002
}
  0
ENDSEC
  0
SECTION
  2
OBJECTS
  0
DICTIONARY
  5
C
330
0
100
AcDbDictionary
281
     1
  3
ACAD_COLOR
350
16EB
  3
ACAD_GROUP
350
D
  3
ACAD_LAYOUT
350
19
  3
ACAD_MATERIAL
350
16EA
  3
ACAD_MLINESTYLE
350
16
  3
ACAD_PLOTSETTINGS
350
18
  3
ACAD_PLOTSTYLENAME
350
E
  3
AcDbVariableDictionary
350
246
  0
DICTIONARY
  5
16EB
102
{ACAD_REACTORS
330
C
102
}
330
C
100
AcDbDictionary
281
     1
  0
DICTIONARY
  5
D
102
{ACAD_REACTORS
330
C
102
}
330
C
100
AcDbDictionary
281
     1
  0
DICTIONARY
  5
19
102
{ACAD_REACTORS
330
C
102
}
330
C
100
AcDbDictionary
281
     1
  3
Layout1
350
1D
  3
Model
350
21
  0
DICTIONARY
  5
16EA
102
{ACAD_REACTORS
330
C
102
}
330
C
100
AcDbDictionary
281
     1
  0
DICTIONARY
  5
16
102
{ACAD_REACTORS
330
C
102
}
330
C
100
AcDbDictionary
281
     1
  3
Standard
350
17
  0
DICTIONARY
  5
18
102
{ACAD_REACTORS
330
C
102
}
330
C
100
AcDbDictionary
281
     1
  0
ACDBDICTIONARYWDFLT
  5
E
102
{ACAD_REACTORS
330
C
102
}
330
C
100
AcDbDictionary
281
     1
  3
Normal
350
F
100
AcDbDictionaryWithDefault
340
F
  0
DICTIONARY
  5
246
102
{ACAD_REACTORS
330
C
102
}
330
C
100
AcDbDictionary
281
     1
  3
DIMASSOC
350
183E
  3
PROJECTNAME
350
183F
  3
SORTENTS
350
247
  0
LAYOUT
  5
1D
102
{ACAD_REACTORS
330
19
102
}
330
19
100
AcDbPlotSettings
  1

  2
Tektronix Phaser 740
  4

  6

 40
0.0
 41
0.0
 42
0.0
 43
0.0
 44
0.0
 45
0.0
 46
0.0
 47
0.0
 48
0.0
 49
0.0
140
0.0
141
0.0
142
1.0
143
1.0
 70
   688
 72
     0
 73
     0
 74
     5
  7
monochrome.ctb
 75
    16
147
1.0
 76
     0
 77
     2
 78
   300
148
0.0
149
0.0
100
AcDbLayout
  1
Layout1
 70
     0
 71
     1
 10
0.0
 20
0.0
 11
12.0
 21
9.0
 12
0.0
 22
0.0
 32
0.0
 14
1.000000000000000E+20
 24
1.000000000000000E+20
 34
1.000000000000000E+20
 15
-1.000000000000000E+20
 25
-1.000000000000000E+20
 35
-1.000000000000000E+20
146
0.0
 13
0.0
 23
0.0
 33
0.0
 16
1.0
 26
0.0
 36
0.0
 17
0.0
 27
1.0
 37
0.0
 76
     0
330
1A
  0
LAYOUT
  5
21
102
{ACAD_REACTORS
330
19
102
}
330
19
100
AcDbPlotSettings
  1

  2
Tektronix Phaser 740
  4
A4
  6

 40
5.873749732971191
 41
6.085414409637451
 42
5.577407836914062
 43
5.662078857421875
 44
209.9733276367187
 45
296.9683227539062
 46
0.0
 47
0.0
 48
0.0
 49
0.0
140
0.0
141
0.0
142
1.0
143
1.0
 70
 11952
 72
     0
 73
     1
 74
     0
  7
monochrome.ctb
 75
     0
147
1.0
 76
     0
 77
     2
 78
   300
148
1150.120678237584
149
45.30495740799864
100
AcDbLayout
  1
Model
 70
     1
 71
     0
 10
0.0
 20
0.0
 11
12.0
 21
9.0
 12
0.0
 22
0.0
 32
0.0
 14
0.0
 24
0.0
 34
0.0
 15
0.0
 25
0.0
 35
0.0
146
0.0
 13
0.0
 23
0.0
 33
0.0
 16
1.0
 26
0.0
 36
0.0
 17
0.0
 27
1.0
 37
0.0
 76
     0
330
1E
  0
MLINESTYLE
  5
17
102
{ACAD_REACTORS
330
16
102
}
330
16
100
AcDbMlineStyle
  2
STANDARD
 70
     0
  3

 62
   256
 51
90.0
 52
90.0
 71
     2
 49
0.5
 62
   256
  6
BYLAYER
 49
-0.5
 62
   256
  6
BYLAYER
  0
ACDBPLACEHOLDER
  5
F
102
{ACAD_REACTORS
330
E
102
}
330
E
  0
DICTIONARYVAR
  5
183E
102
{ACAD_REACTORS
330
246
102
}
330
246
100
DictionaryVariables
280
     0
  1
1
  0
DICTIONARYVAR
  5
183F
102
{ACAD_REACTORS
330
246
102
}
330
246
100
DictionaryVariables
280
     0
  1

  0
DICTIONARYVAR
  5
247
102
{ACAD_REACTORS
330
246
102
}
330
246
100
DictionaryVariables
280
     0
  1
96
  0
ENDSEC
  0
EOF
