  0
SECTION
  2
HEADER
  9
$ACADVER
  1
AC1018
  9
$ACADMAINTVER
 70
     2
  9
$DWGCODEPAGE
  3
ANSI_1252
  9
$INSBASE
 10
0.0
 20
0.0
 30
0.0
  9
$EXTMIN
 10
-0.0192146320376878
 20
-0.0271749795965661
 30
-0.0000000000000022
  9
$EXTMAX
 10
420.0192317462092
 20
594.027199183924
 30
0.0000000000000131
  9
$LIMMIN
 10
0.0
 20
0.0
  9
$LIMMAX
 10
419.9999999999999
 20
594.0
  9
$ORTHOMODE
 70
     0
  9
$REGENMODE
 70
     1
  9
$FILLMODE
 70
     1
  9
$QTEXTMODE
 70
     0
  9
$MIRRTEXT
 70
     1
  9
$LTSCALE
 40
20.0
  9
$ATTMODE
 70
     1
  9
$TEXTSIZE
 40
3.5
  9
$TRACEWID
 40
0.5
  9
$TEXTSTYLE
  7
STANDARD
  9
$CLAYER
  8
BEM
  9
$CELTYPE
  6
ByLayer
  9
$CECOLOR
 62
   256
  9
$CELTSCALE
 40
1.0
  9
$DISPSILH
 70
     0
  9
$DIMSCALE
 40
2.0
  9
$DIMASZ
 40
3.5
  9
$DIMEXO
 40
1.0
  9
$DIMDLI
 40
7.0
  9
$DIMRND
 40
0.0
  9
$DIMDLE
 40
0.0
  9
$DIMEXE
 40
1.0
  9
$DIMTP
 40
0.0
  9
$DIMTM
 40
0.0
  9
$DIMTXT
 40
3.5
  9
$DIMCEN
 40
1.5
  9
$DIMTSZ
 40
0.0
  9
$DIMTOL
 70
     0
  9
$DIMLIM
 70
     0
  9
$DIMTIH
 70
     0
  9
$DIMTOH
 70
     0
  9
$DIMSE1
 70
     0
  9
$DIMSE2
 70
     0
  9
$DIMTAD
 70
     1
  9
$DIMZIN
 70
     8
  9
$DIMBLK
  1

  9
$DIMASO
 70
     1
  9
$DIMSHO
 70
     0
  9
$DIMPOST
  1

  9
$DIMAPOST
  1

  9
$DIMALT
 70
     0
  9
$DIMALTD
 70
     2
  9
$DIMALTF
 40
25.4
  9
$DIMLFAC
 40
1.0
  9
$DIMTOFL
 70
     1
  9
$DIMTVP
 40
0.0
  9
$DIMTIX
 70
     0
  9
$DIMSOXD
 70
     0
  9
$DIMSAH
 70
     0
  9
$DIMBLK1
  1

  9
$DIMBLK2
  1

  9
$DIMSTYLE
  2
Standard
  9
$DIMCLRD
 70
     0
  9
$DIMCLRE
 70
     0
  9
$DIMCLRT
 70
     1
  9
$DIMTFAC
 40
0.5142857142857144
  9
$DIMGAP
 40
1.5
  9
$DIMJUST
 70
     0
  9
$DIMSD1
 70
     0
  9
$DIMSD2
 70
     0
  9
$DIMTOLJ
 70
     1
  9
$DIMTZIN
 70
     8
  9
$DIMALTZ
 70
     8
  9
$DIMALTTZ
 70
     8
  9
$DIMUPT
 70
     0
  9
$DIMDEC
 70
     2
  9
$DIMTDEC
 70
     2
  9
$DIMALTU
 70
     2
  9
$DIMALTTD
 70
     2
  9
$DIMTXSTY
  7
STANDARD
  9
$DIMAUNIT
 70
     0
  9
$DIMADEC
 70
     2
  9
$DIMALTRND
 40
0.0
  9
$DIMAZIN
 70
     2
  9
$DIMDSEP
 70
    46
  9
$DIMATFIT
 70
     3
  9
$DIMFRAC
 70
     0
  9
$DIMLDRBLK
  1

  9
$DIMLUNIT
 70
     2
  9
$DIMLWD
 70
    -2
  9
$DIMLWE
 70
    -2
  9
$DIMTMOVE
 70
     0
  9
$LUNITS
 70
     2
  9
$LUPREC
 70
     2
  9
$SKETCHINC
 40
1.0
  9
$FILLETRAD
 40
0.0
  9
$AUNITS
 70
     1
  9
$AUPREC
 70
     3
  9
$MENU
  1
ACAD
  9
$ELEVATION
 40
0.0
  9
$PELEVATION
 40
0.0
  9
$THICKNESS
 40
0.0
  9
$LIMCHECK
 70
     0
  9
$CHAMFERA
 40
0.0
  9
$CHAMFERB
 40
0.0
  9
$CHAMFERC
 40
0.0
  9
$CHAMFERD
 40
0.0
  9
$SKPOLY
 70
     0
  9
$TDCREATE
 40
2452040.637099653
  9
$TDUCREATE
 40
2452040.553766320
  9
$TDUPDATE
 40
2455660.372666910
  9
$TDUUPDATE
 40
2455660.289333577
  9
$TDINDWG
 40
0.4678210995
  9
$TDUSRTIMER
 40
0.4678210995
  9
$USRTIMER
 70
     1
  9
$ANGBASE
 50
0.0
  9
$ANGDIR
 70
     0
  9
$PDMODE
 70
     0
  9
$PDSIZE
 40
0.0
  9
$PLINEWID
 40
0.0
  9
$SPLFRAME
 70
     0
  9
$SPLINETYPE
 70
     6
  9
$SPLINESEGS
 70
     8
  9
$HANDSEED
  5
19F5
  9
$SURFTAB1
 70
     6
  9
$SURFTAB2
 70
     6
  9
$SURFTYPE
 70
     6
  9
$SURFU
 70
     6
  9
$SURFV
 70
     6
  9
$UCSBASE
  2

  9
$UCSNAME
  2

  9
$UCSORG
 10
0.0
 20
0.0
 30
0.0
  9
$UCSXDIR
 10
1.0
 20
0.0
 30
0.0
  9
$UCSYDIR
 10
0.0
 20
1.0
 30
0.0
  9
$UCSORTHOREF
  2

  9
$UCSORTHOVIEW
 70
     0
  9
$UCSORGTOP
 10
0.0
 20
0.0
 30
0.0
  9
$UCSORGBOTTOM
 10
0.0
 20
0.0
 30
0.0
  9
$UCSORGLEFT
 10
0.0
 20
0.0
 30
0.0
  9
$UCSORGRIGHT
 10
0.0
 20
0.0
 30
0.0
  9
$UCSORGFRONT
 10
0.0
 20
0.0
 30
0.0
  9
$UCSORGBACK
 10
0.0
 20
0.0
 30
0.0
  9
$PUCSBASE
  2

  9
$PUCSNAME
  2

  9
$PUCSORG
 10
0.0
 20
0.0
 30
0.0
  9
$PUCSXDIR
 10
1.0
 20
0.0
 30
0.0
  9
$PUCSYDIR
 10
0.0
 20
1.0
 30
0.0
  9
$PUCSORTHOREF
  2

  9
$PUCSORTHOVIEW
 70
     0
  9
$PUCSORGTOP
 10
0.0
 20
0.0
 30
0.0
  9
$PUCSORGBOTTOM
 10
0.0
 20
0.0
 30
0.0
  9
$PUCSORGLEFT
 10
0.0
 20
0.0
 30
0.0
  9
$PUCSORGRIGHT
 10
0.0
 20
0.0
 30
0.0
  9
$PUCSORGFRONT
 10
0.0
 20
0.0
 30
0.0
  9
$PUCSORGBACK
 10
0.0
 20
0.0
 30
0.0
  9
$USERI1
 70
     0
  9
$USERI2
 70
     0
  9
$USERI3
 70
     0
  9
$USERI4
 70
     0
  9
$USERI5
 70
     0
  9
$USERR1
 40
0.0
  9
$USERR2
 40
0.0
  9
$USERR3
 40
0.0
  9
$USERR4
 40
0.0
  9
$USERR5
 40
0.0
  9
$WORLDVIEW
 70
     1
  9
$SHADEDGE
 70
     3
  9
$SHADEDIF
 70
    70
  9
$TILEMODE
 70
     1
  9
$MAXACTVP
 70
    16
  9
$PINSBASE
 10
0.0
 20
0.0
 30
0.0
  9
$PLIMCHECK
 70
     0
  9
$PEXTMIN
 10
1.000000000000000E+20
 20
1.000000000000000E+20
 30
1.000000000000000E+20
  9
$PEXTMAX
 10
-1.000000000000000E+20
 20
-1.000000000000000E+20
 30
-1.000000000000000E+20
  9
$PLIMMIN
 10
0.0
 20
0.0
  9
$PLIMMAX
 10
12.0
 20
9.0
  9
$UNITMODE
 70
     0
  9
$VISRETAIN
 70
     0
  9
$PLINEGEN
 70
     0
  9
$PSLTSCALE
 70
     0
  9
$TREEDEPTH
 70
  3020
  9
$CMLSTYLE
  2
Standard
  9
$CMLJUST
 70
     0
  9
$CMLSCALE
 40
1.0
  9
$PROXYGRAPHICS
 70
     1
  9
$MEASUREMENT
 70
     0
  9
$CELWEIGHT
370
    -1
  9
$ENDCAPS
280
     0
  9
$JOINSTYLE
280
     0
  9
$LWDISPLAY
290
     0
  9
$INSUNITS
 70
     0
  9
$HYPERLINKBASE
  1

  9
$STYLESHEET
  1
monochrome 1.ctb
  9
$XEDIT
290
     1
  9
$CEPSNTYPE
380
     0
  9
$PSTYLEMODE
290
     1
  9
$FINGERPRINTGUID
  2
{7AADB5C8-6110-11D8-B72B-000102183313}
  9
$VERSIONGUID
  2
{6217E428-BB0C-4679-97FE-257E54FE4870}
  9
$EXTNAMES
290
     1
  9
$PSVPSCALE
 40
0.0
  9
$OLESTARTUP
290
     0
  9
$SORTENTS
280
    96
  9
$INDEXCTL
280
     0
  9
$HIDETEXT
280
     0
  9
$XCLIPFRAME
290
     0
  9
$HALOGAP
280
     0
  9
$OBSCOLOR
 70
   257
  9
$OBSLTYPE
280
     0
  9
$INTERSECTIONDISPLAY
280
     0
  9
$INTERSECTIONCOLOR
 70
   257
  9
$DIMASSOC
280
     1
  9
$PROJECTNAME
  1

  0
ENDSEC
  0
SECTION
  2
CLASSES
  0
CLASS
  1
ACDBDICTIONARYWDFLT
  2
AcDbDictionaryWithDefault
  3
ObjectDBX Classes
 90
        0
 91
        1
280
     0
281
     0
  0
CLASS
  1
DICTIONARYVAR
  2
AcDbDictionaryVar
  3
ObjectDBX Classes
 90
        0
 91
        3
280
     0
281
     0
  0
ENDSEC
  0
SECTION
  2
TABLES
  0
TABLE
  2
VPORT
  5
8
330
0
100
AcDbSymbolTable
 70
     3
  0
VPORT
  5
19F4
330
8
100
AcDbSymbolTableRecord
100
AcDbViewportTableRecord
  2
*Active
 70
     0
 10
0.0
 20
0.0
 11
1.0
 21
1.0
 12
210.0
 22
297.0000000000001
 13
0.0
 23
0.0
 14
1.0
 24
1.0
 15
10.0
 25
10.0
 16
0.0
 26
0.0
 36
1.0
 17
0.0
 27
0.0
 37
0.0
 40
594.0000000000002
 41
1.334231805929919
 42
50.0
 43
0.0
 44
0.0
 50
0.0
 51
0.0
 71
     0
 72
  1500
 73
     1
 74
     0
 75
     0
 76
     0
 77
     0
 78
     0
281
     0
 65
     1
110
0.0
120
0.0
130
0.0
111
1.0
121
0.0
131
0.0
112
0.0
122
1.0
132
0.0
 79
     0
146
0.0
  0
ENDTAB
  0
TABLE
  2
LTYPE
  5
5
330
0
100
AcDbSymbolTable
 70
     2
  0
LTYPE
  5
13
330
5
100
AcDbSymbolTableRecord
100
AcDbLinetypeTableRecord
  2
ByBlock
 70
     0
  3

 72
    65
 73
     0
 40
0.0
  0
LTYPE
  5
14
330
5
100
AcDbSymbolTableRecord
100
AcDbLinetypeTableRecord
  2
ByLayer
 70
     0
  3

 72
    65
 73
     0
 40
0.0
  0
LTYPE
  5
15
330
5
100
AcDbSymbolTableRecord
100
AcDbLinetypeTableRecord
  2
Continuous
 70
     0
  3
Solid line
 72
    65
 73
     0
 40
0.0
  0
LTYPE
  5
35
330
5
100
AcDbSymbolTableRecord
100
AcDbLinetypeTableRecord
  2
STRICHPUNKT
 70
     0
  3
__ . __ . __ . __ . __ . __ . __ . __ . __ . __
 72
    65
 73
     4
 40
1.0
 49
0.5
 74
     0
 49
-0.25
 74
     0
 49
0.0
 74
     0
 49
-0.25
 74
     0
  0
ENDTAB
  0
TABLE
  2
LAYER
  5
2
330
0
100
AcDbSymbolTable
 70
     9
  0
LAYER
  5
10
330
2
100
AcDbSymbolTableRecord
100
AcDbLayerTableRecord
  2
0
 70
     0
 62
     7
  6
Continuous
370
    -3
390
F
  0
LAYER
  5
38
330
2
100
AcDbSymbolTableRecord
100
AcDbLayerTableRecord
  2
VOLL
 70
     0
 62
     1
  6
Continuous
370
    -3
390
F
  0
LAYER
  5
39
330
2
100
AcDbSymbolTableRecord
100
AcDbLayerTableRecord
  2
HILF
 70
     0
 62
     2
  6
Continuous
370
    -3
390
F
  0
LAYER
  5
3A
330
2
100
AcDbSymbolTableRecord
100
AcDbLayerTableRecord
  2
MITTEL
 70
     0
 62
     2
  6
STRICHPUNKT
370
    -3
390
F
  0
LAYER
  5
3B
330
2
100
AcDbSymbolTableRecord
100
AcDbLayerTableRecord
  2
BEM
 70
     0
 62
     7
  6
Continuous
370
    -3
390
F
  0
LAYER
  5
3C
330
2
100
AcDbSymbolTableRecord
100
AcDbLayerTableRecord
  2
STEMPEL
 70
     0
 62
     3
  6
Continuous
370
    -3
390
F
  0
LAYER
  5
3D
330
2
100
AcDbSymbolTableRecord
100
AcDbLayerTableRecord
  2
TEXT
 70
     0
 62
     7
  6
Continuous
370
    -3
390
F
  0
LAYER
  5
3E
330
2
100
AcDbSymbolTableRecord
100
AcDbLayerTableRecord
  2
DEFPOINTS
 70
     0
 62
     7
  6
Continuous
290
     0
370
    -3
390
F
  0
LAYER
  5
3F
330
2
100
AcDbSymbolTableRecord
100
AcDbLayerTableRecord
  2
SCHRAFF
 70
     0
 62
     7
  6
Continuous
370
    -3
390
F
  0
ENDTAB
  0
TABLE
  2
STYLE
  5
3
330
0
100
AcDbSymbolTable
 70
     2
  0
STYLE
  5
11
330
3
100
AcDbSymbolTableRecord
100
AcDbTextStyleTableRecord
  2
STANDARD
 70
     0
 40
0.0
 41
0.8
 50
0.0
 71
     0
 42
3.5
  3
simplex.shx
  4

  0
STYLE
  5
34
330
3
100
AcDbSymbolTableRecord
100
AcDbTextStyleTableRecord
  2
GREEKS
 70
     0
 40
0.0
 41
0.8
 50
0.0
 71
     0
 42
2.5
  3
SIMPLEX.shx
  4

  0
ENDTAB
  0
TABLE
  2
VIEW
  5
6
330
0
100
AcDbSymbolTable
 70
     0
  0
ENDTAB
  0
TABLE
  2
UCS
  5
7
330
0
100
AcDbSymbolTable
 70
     0
  0
ENDTAB
  0
TABLE
  2
APPID
  5
9
330
0
100
AcDbSymbolTable
 70
     1
  0
APPID
  5
12
330
9
100
AcDbSymbolTableRecord
100
AcDbRegAppTableRecord
  2
ACAD
 70
     0
  0
ENDTAB
  0
TABLE
  2
DIMSTYLE
  5
A
330
0
100
AcDbSymbolTable
 70
     1
100
AcDbDimStyleTable
 71
     1
340
1CB
  0
DIMSTYLE
105
1CB
102
{ACAD_REACTORS
330
1E8
330
A32
330
1711
330
1872
330
1929
330
1947
102
}
330
A
100
AcDbSymbolTableRecord
100
AcDbDimStyleTableRecord
  2
Standard
 70
     0
340
11
  0
ENDTAB
  0
TABLE
  2
BLOCK_RECORD
  5
1
330
0
100
AcDbSymbolTable
 70
     9
  0
BLOCK_RECORD
  5
1E
330
1
100
AcDbSymbolTableRecord
100
AcDbBlockTableRecord
  2
*Model_Space
340
21
  0
BLOCK_RECORD
  5
1A
330
1
100
AcDbSymbolTableRecord
100
AcDbBlockTableRecord
  2
*Paper_Space
340
1D
  0
BLOCK_RECORD
  5
22
330
1
100
AcDbSymbolTableRecord
100
AcDbBlockTableRecord
  2
LOGO
340
0
102
{BLKREFS
331
135
102
}
  0
BLOCK_RECORD
  5
1E9
330
1
100
AcDbSymbolTableRecord
100
AcDbBlockTableRecord
  2
*D1
340
0
  0
BLOCK_RECORD
  5
A33
330
1
100
AcDbSymbolTableRecord
100
AcDbBlockTableRecord
  2
*D3
340
0
  0
BLOCK_RECORD
  5
1712
330
1
100
AcDbSymbolTableRecord
100
AcDbBlockTableRecord
  2
*D4
340
0
  0
BLOCK_RECORD
  5
1873
330
1
100
AcDbSymbolTableRecord
100
AcDbBlockTableRecord
  2
*D6
340
0
  0
BLOCK_RECORD
  5
192A
330
1
100
AcDbSymbolTableRecord
100
AcDbBlockTableRecord
  2
*D7
340
0
  0
BLOCK_RECORD
  5
1948
330
1
100
AcDbSymbolTableRecord
100
AcDbBlockTableRecord
  2
*D8
340
0
  0
ENDTAB
  0
ENDSEC
  0
SECTION
  2
BLOCKS
  0
BLOCK
  5
43
330
1E
100
AcDbEntity
  8
0
100
AcDbBlockBegin
  2
*Model_Space
 70
     0
 10
0.0
 20
0.0
 30
0.0
  3
*Model_Space
  1

  0
ENDBLK
  5
44
330
1E
100
AcDbEntity
  8
0
100
AcDbBlockEnd
  0
BLOCK
  5
41
330
1A
100
AcDbEntity
 67
     1
  8
0
100
AcDbBlockBegin
  2
*Paper_Space
 70
     0
 10
0.0
 20
0.0
 30
0.0
  3
*Paper_Space
  1

  0
ENDBLK
  5
42
330
1A
100
AcDbEntity
 67
     1
  8
0
100
AcDbBlockEnd
  0
BLOCK
  5
45
330
22
100
AcDbEntity
  8
0
100
AcDbBlockBegin
  2
LOGO
 70
     0
 10
0.0
 20
0.0
 30
0.0
  3
LOGO
  1

  0
ARC
  5
46
330
22
100
AcDbEntity
  8
0
100
AcDbCircle
 10
11.59973089678112
 20
-9.271599258481501
 30
0.0
 40
4.5
100
AcDbArc
 50
270.0
 51
231.0575587310159
  0
LINE
  5
47
330
22
100
AcDbEntity
  8
0
100
AcDbLine
 10
3.599730896781125
 20
-4.771599258481529
 30
0.0
 11
3.599730896781153
 21
-11.77159925848133
 31
0.0
  0
LINE
  5
48
330
22
100
AcDbEntity
  8
0
100
AcDbLine
 10
2.599730896781125
 20
-4.771599258481529
 30
0.0
 11
2.599730896781153
 21
-11.77159925848133
 31
0.0
  0
CIRCLE
  5
49
330
22
100
AcDbEntity
  8
0
100
AcDbCircle
 10
11.59973089678112
 20
-9.271599258481501
 30
0.0
 40
3.5
  0
ARC
  5
4A
330
22
100
AcDbEntity
  8
0
100
AcDbCircle
 10
31.59973089678115
 20
-9.271599258481472
 30
0.0
 40
4.5
100
AcDbArc
 50
270.0
 51
231.0575587310182
  0
LINE
  5
4B
330
22
100
AcDbEntity
  8
0
100
AcDbLine
 10
17.59973089678112
 20
-4.771599258481472
 30
0.0
 11
17.59973089678115
 21
-13.77159925848147
 31
0.0
  0
ARC
  5
4C
330
22
100
AcDbEntity
  8
0
100
AcDbCircle
 10
22.59973089678116
 20
-7.271599258481472
 30
0.0
 40
2.5
100
AcDbArc
 50
293.1161887722295
 51
90.0
  0
CIRCLE
  5
4D
330
22
100
AcDbEntity
  8
0
100
AcDbCircle
 10
31.59973089678115
 20
-9.271599258481472
 30
0.0
 40
3.5
  0
ARC
  5
4E
330
22
100
AcDbEntity
  8
0
100
AcDbCircle
 10
4.599730896781153
 20
-11.77159925848133
 30
0.0
 40
1.0
100
AcDbArc
 50
180.0
 51
270.0
  0
ARC
  5
4F
330
22
100
AcDbEntity
  8
0
100
AcDbCircle
 10
4.599730896781153
 20
-11.77159925848133
 30
0.0
 40
2.0
100
AcDbArc
 50
179.9999999999992
 51
270.0
  0
LINE
  5
50
330
22
100
AcDbEntity
  8
0
100
AcDbLine
 10
11.59973089678115
 20
-13.77159925848144
 30
0.0
 11
4.599730896781153
 21
-13.77159925848147
 31
0.0
  0
LINE
  5
51
330
22
100
AcDbEntity
  8
0
100
AcDbLine
 10
8.771303772034769
 20
-12.77159925848136
 30
0.0
 11
4.599730896781153
 21
-12.77159925848133
 31
0.0
  0
LINE
  5
52
330
22
100
AcDbEntity
  8
0
100
AcDbLine
 10
31.59973089678115
 20
-13.77159925848147
 30
0.0
 11
23.6715276665056
 21
-13.77159925848144
 31
0.0
  0
LINE
  5
53
330
22
100
AcDbEntity
  8
0
100
AcDbLine
 10
23.56565672307022
 20
-9.51278021337896
 30
0.0
 11
24.4388546544846
 21
-12.77159925848144
 31
0.0
  0
LINE
  5
54
330
22
100
AcDbEntity
  8
0
100
AcDbLine
 10
22.59973089678116
 20
-9.771599258481472
 30
0.0
 11
18.59973089678112
 21
-9.771599258481472
 31
0.0
  0
LINE
  5
55
330
22
100
AcDbEntity
  8
0
100
AcDbLine
 10
18.59973089678115
 20
-13.77159925848144
 30
0.0
 11
17.59973089678115
 21
-13.77159925848144
 31
0.0
  0
LINE
  5
56
330
22
100
AcDbEntity
  8
0
100
AcDbLine
 10
18.59973089678115
 20
-9.771599258481472
 30
0.0
 11
18.59973089678115
 21
-13.77159925848144
 31
0.0
  0
LINE
  5
57
330
22
100
AcDbEntity
  8
0
100
AcDbLine
 10
22.59973089678116
 20
-9.771599258481472
 30
0.0
 11
23.67152766650562
 21
-13.77159925848147
 31
0.0
  0
ARC
  5
58
330
22
100
AcDbEntity
  8
0
100
AcDbCircle
 10
22.59973089678116
 20
-7.271599258481472
 30
0.0
 40
2.5
100
AcDbArc
 50
270.0
 51
270.0000000000007
  0
LINE
  5
59
330
22
100
AcDbEntity
  8
0
100
AcDbLine
 10
28.77130377203494
 20
-12.77159925848147
 30
0.0
 11
24.43885465448463
 21
-12.77159925848144
 31
0.0
  0
LINE
  5
5A
330
22
100
AcDbEntity
  8
0
100
AcDbLine
 10
3.599730896781125
 20
-4.771599258481472
 30
0.0
 11
2.599730896781125
 21
-4.771599258481472
 31
0.0
  0
LINE
  5
5B
330
22
100
AcDbEntity
  8
0
100
AcDbLine
 10
22.59973089678116
 20
-8.771599258481472
 30
0.0
 11
18.59973089678115
 21
-8.771599258481472
 31
0.0
  0
LINE
  5
5C
330
22
100
AcDbEntity
  8
0
100
AcDbLine
 10
22.59973089678116
 20
-5.771599258481472
 30
0.0
 11
18.59973089678115
 21
-5.771599258481472
 31
0.0
  0
LINE
  5
5D
330
22
100
AcDbEntity
  8
0
100
AcDbLine
 10
22.59973089678116
 20
-4.771599258481472
 30
0.0
 11
17.59973089678115
 21
-4.771599258481472
 31
0.0
  0
LINE
  5
5E
330
22
100
AcDbEntity
  8
0
100
AcDbLine
 10
18.59973089678115
 20
-5.771599258481472
 30
0.0
 11
18.59973089678115
 21
-8.771599258481472
 31
0.0
  0
ARC
  5
5F
330
22
100
AcDbEntity
  8
0
100
AcDbCircle
 10
22.59973089678116
 20
-7.271599258481472
 30
0.0
 40
1.5
100
AcDbArc
 50
270.0
 51
90.0
  0
ENDBLK
  5
60
330
22
100
AcDbEntity
  8
0
100
AcDbBlockEnd
  0
BLOCK
  5
1F3
330
1E9
100
AcDbEntity
  8
0
100
AcDbBlockBegin
  2
*D1
 70
     1
 10
0.0
 20
0.0
 30
0.0
  3
*D1
  1

  0
LINE
  5
1893
330
1E9
100
AcDbEntity
  8
BEM
 62
     0
370
    -2
100
AcDbLine
 10
93.18961799599945
 20
170.75037185299
 30
0.0
 11
93.18961799599945
 21
134.6264288703215
 31
0.0
  0
LINE
  5
1894
330
1E9
100
AcDbEntity
  8
BEM
 62
     0
370
    -2
100
AcDbLine
 10
226.1896179959999
 20
170.7503718529903
 30
0.0
 11
226.1896179959999
 21
134.6264288703215
 31
0.0
  0
LINE
  5
1895
330
1E9
100
AcDbEntity
  8
BEM
 62
     0
370
    -2
100
AcDbLine
 10
100.1896179959994
 20
136.6264288703215
 30
0.0
 11
219.1896179959999
 21
136.6264288703215
 31
0.0
  0
SOLID
  5
1896
330
1E9
100
AcDbEntity
  8
BEM
 62
     0
100
AcDbTrace
 10
100.1896179959994
 20
137.7930955369882
 30
0.0
 11
100.1896179959994
 21
135.4597622036549
 31
0.0
 12
93.18961799599945
 22
136.6264288703215
 32
0.0
 13
93.18961799599945
 23
136.6264288703215
 33
0.0
  0
SOLID
  5
1897
330
1E9
100
AcDbEntity
  8
BEM
 62
     0
100
AcDbTrace
 10
219.1896179959999
 20
137.7930955369882
 30
0.0
 11
219.1896179959999
 21
135.4597622036549
 31
0.0
 12
226.1896179959999
 22
136.6264288703215
 32
0.0
 13
226.1896179959999
 23
136.6264288703215
 33
0.0
  0
MTEXT
  5
1898
330
1E9
100
AcDbEntity
  8
BEM
 62
     1
100
AcDbMText
 10
159.6896179959997
 20
143.1264288703216
 30
0.0
 40
7.0
 41
0.0
 71
     5
 72
     1
  1
\A1;%%c133
 73
     1
 44
1.0
  0
POINT
  5
1899
330
1E9
100
AcDbEntity
  8
DEFPOINTS
 62
     0
100
AcDbPoint
 10
93.18961799599945
 20
172.75037185299
 30
0.0
  0
POINT
  5
189A
330
1E9
100
AcDbEntity
  8
DEFPOINTS
 62
     0
100
AcDbPoint
 10
226.1896179959999
 20
172.7503718529903
 30
0.0
  0
POINT
  5
189B
330
1E9
100
AcDbEntity
  8
DEFPOINTS
 62
     0
100
AcDbPoint
 10
226.1896179959999
 20
136.6264288703215
 30
0.0
  0
ENDBLK
  5
1F4
330
1E9
100
AcDbEntity
  8
0
100
AcDbBlockEnd
  0
BLOCK
  5
A3D
330
A33
100
AcDbEntity
  8
0
100
AcDbBlockBegin
  2
*D3
 70
     1
 10
0.0
 20
0.0
 30
0.0
  3
*D3
  1

  0
LINE
  5
18A5
330
A33
100
AcDbEntity
  8
BEM
 62
     0
370
    -2
100
AcDbLine
 10
157.6896179959994
 20
267.7503718529903
 30
0.0
 11
74.41406664670696
 21
267.7503718529903
 31
0.0
  0
LINE
  5
18A6
330
A33
100
AcDbEntity
  8
BEM
 62
     0
370
    -2
100
AcDbLine
 10
92.06450463125866
 20
162.75037185299
 30
0.0
 11
74.41406664670694
 21
162.75037185299
 31
0.0
  0
LINE
  5
18A7
330
A33
100
AcDbEntity
  8
BEM
 62
     0
370
    -2
100
AcDbLine
 10
76.41406664670696
 20
260.7503718529903
 30
0.0
 11
76.41406664670694
 21
169.75037185299
 31
0.0
  0
SOLID
  5
18A8
330
A33
100
AcDbEntity
  8
BEM
 62
     0
100
AcDbTrace
 10
75.24739998004029
 20
260.7503718529903
 30
0.0
 11
77.58073331337363
 21
260.7503718529903
 31
0.0
 12
76.41406664670696
 22
267.7503718529903
 32
0.0
 13
76.41406664670696
 23
267.7503718529903
 33
0.0
  0
SOLID
  5
18A9
330
A33
100
AcDbEntity
  8
BEM
 62
     0
100
AcDbTrace
 10
75.24739998004027
 20
169.75037185299
 30
0.0
 11
77.58073331337361
 21
169.75037185299
 31
0.0
 12
76.41406664670694
 22
162.75037185299
 32
0.0
 13
76.41406664670694
 23
162.75037185299
 33
0.0
  0
MTEXT
  5
18AA
330
A33
100
AcDbEntity
  8
BEM
 62
     1
100
AcDbMText
 10
69.91406664670691
 20
215.2503718529902
 30
0.0
 40
7.0
 41
0.0
 71
     5
 72
     1
  1
\A1;105
 11
0.0000000000000001
 21
1.0
 31
0.0
 73
     1
 44
1.0
  0
POINT
  5
18AB
330
A33
100
AcDbEntity
  8
DEFPOINTS
 62
     0
100
AcDbPoint
 10
159.6896179959994
 20
267.7503718529903
 30
0.0
  0
POINT
  5
18AC
330
A33
100
AcDbEntity
  8
DEFPOINTS
 62
     0
100
AcDbPoint
 10
94.06450463125867
 20
162.75037185299
 30
0.0
  0
POINT
  5
18AD
330
A33
100
AcDbEntity
  8
DEFPOINTS
 62
     0
100
AcDbPoint
 10
76.41406664670694
 20
162.75037185299
 30
0.0
  0
ENDBLK
  5
A3E
330
A33
100
AcDbEntity
  8
0
100
AcDbBlockEnd
  0
BLOCK
  5
171E
330
1712
100
AcDbEntity
  8
0
100
AcDbBlockBegin
  2
*D4
 70
     1
 10
0.0
 20
0.0
 30
0.0
  3
*D4
  1

  0
LINE
  5
1888
330
1712
100
AcDbEntity
  8
BEM
 62
     0
370
    -2
100
AcDbLine
 10
338.5876336361961
 20
446.6483874931866
 30
0.0
 11
364.7213110953539
 21
472.7820649523446
 31
0.0
  0
LINE
  5
1889
330
1712
100
AcDbEntity
  8
BEM
 62
     0
370
    -2
100
AcDbLine
 10
159.6896179959994
 20
534.7536647573202
 30
0.0
 11
159.6896179959997
 21
557.7089729504153
 31
0.0
  0
ARC
  5
188A
330
1712
100
AcDbEntity
  8
BEM
 62
     0
370
    -2
100
AcDbCircle
 10
159.6896179959994
 20
267.7503718529903
 30
0.0
 40
287.958601097425
100
AcDbArc
 50
46.39284025866298
 51
88.60715974133695
  0
SOLID
  5
188B
330
1712
100
AcDbEntity
  8
BEM
 62
     0
100
AcDbTrace
 10
359.1124238694173
 20
477.0919953405825
 30
0.0
 11
357.4826838672496
 21
475.4221474523667
 31
0.0
 12
363.3070975329809
 22
471.3678513899714
 32
0.0
 13
363.3070975329809
 23
471.3678513899714
 33
0.0
  0
SOLID
  5
188C
330
1712
100
AcDbEntity
  8
BEM
 62
     0
100
AcDbTrace
 10
166.6749206341314
 20
554.4573107895988
 30
0.0
 11
166.7032811923351
 21
556.79047176201
 31
0.0
 12
159.6896179959997
 22
555.7089729504154
 32
0.0
 13
159.6896179959997
 23
555.7089729504154
 33
0.0
  0
MTEXT
  5
188D
330
1712
100
AcDbEntity
  8
BEM
 62
     1
100
AcDbMText
 10
272.374046153385
 20
539.7946465788067
 30
0.0
 40
7.0
 41
0.0
 71
     5
 72
     1
  1
\A1;45°
 11
0.9238795325112864
 21
-0.3826834323650904
 31
0.0
 73
     1
 44
1.0
  0
POINT
  5
188E
330
1712
100
AcDbEntity
  8
DEFPOINTS
 62
     0
100
AcDbPoint
 10
303.6689185447122
 20
517.1298356415897
 30
0.0
  0
POINT
  5
188F
330
1712
100
AcDbEntity
  8
DEFPOINTS
 62
     0
100
AcDbPoint
 10
159.6896179959993
 20
532.7536647573201
 30
0.0
  0
POINT
  5
1890
330
1712
100
AcDbEntity
  8
DEFPOINTS
 62
     0
100
AcDbPoint
 10
337.173420073823
 20
445.2341739308135
 30
0.0
  0
POINT
  5
1891
330
1712
100
AcDbEntity
  8
DEFPOINTS
 62
     0
100
AcDbPoint
 10
159.6896179959993
 20
267.7503718529902
 30
0.0
  0
POINT
  5
1892
330
1712
100
AcDbEntity
  8
DEFPOINTS
 62
     0
100
AcDbPoint
 10
159.6896179959994
 20
157.7503718529903
 30
0.0
  0
ENDBLK
  5
171F
330
1712
100
AcDbEntity
  8
0
100
AcDbBlockEnd
  0
BLOCK
  5
187D
330
1873
100
AcDbEntity
  8
0
100
AcDbBlockBegin
  2
*D6
 70
     1
 10
0.0
 20
0.0
 30
0.0
  3
*D6
  1

  0
LINE
  5
19EA
330
1873
100
AcDbEntity
  8
BEM
 62
     0
370
    -2
100
AcDbLine
 10
161.1038315583725
 20
266.3361582906172
 30
0.0
 11
214.6125148730969
 21
212.8274749758928
 31
0.0
  0
LINE
  5
19EB
330
1873
100
AcDbEntity
  8
BEM
 62
     0
370
    -2
100
AcDbLine
 10
373.7024028902772
 20
401.6341233024936
 30
0.0
 11
388.5607830449876
 21
386.7757431477833
 31
0.0
  0
LINE
  5
19EC
330
1873
100
AcDbEntity
  8
BEM
 62
     0
370
    -2
100
AcDbLine
 10
218.1480487790296
 20
219.1914360065717
 30
0.0
 11
382.1968220143086
 21
383.2402092418505
 31
0.0
  0
SOLID
  5
19ED
330
1873
100
AcDbEntity
  8
BEM
 62
     0
100
AcDbTrace
 10
217.3230908676453
 20
220.016393917956
 30
0.0
 11
218.9730066904139
 21
218.3664780951874
 31
0.0
 12
213.1983013107238
 22
214.2416885382659
 32
0.0
 13
213.1983013107238
 23
214.2416885382659
 33
0.0
  0
SOLID
  5
19EE
330
1873
100
AcDbEntity
  8
BEM
 62
     0
100
AcDbTrace
 10
381.3718641029243
 20
384.0651671532348
 30
0.0
 11
383.021779925693
 21
382.4152513304662
 31
0.0
 12
387.1465694826145
 22
388.1899567101564
 32
0.0
 13
387.1465694826145
 23
388.1899567101564
 33
0.0
  0
MTEXT
  5
19EF
330
1873
100
AcDbEntity
  8
BEM
 62
     1
100
AcDbMText
 10
295.5762413189566
 20
305.8120167019236
 30
0.0
 40
7.0
 41
0.0
 71
     5
 72
     1
  1
\A1;246
 11
0.707106781186548
 21
0.7071067811865471
 31
0.0
 73
     1
 44
1.0
  0
POINT
  5
19F0
330
1873
100
AcDbEntity
  8
DEFPOINTS
 62
     0
100
AcDbPoint
 10
159.6896179959994
 20
267.7503718529903
 30
0.0
  0
POINT
  5
19F1
330
1873
100
AcDbEntity
  8
DEFPOINTS
 62
     0
100
AcDbPoint
 10
372.2881893279041
 20
403.0483368648667
 30
0.0
  0
POINT
  5
19F2
330
1873
100
AcDbEntity
  8
DEFPOINTS
 62
     0
100
AcDbPoint
 10
387.1465694826145
 20
388.1899567101564
 30
0.0
  0
ENDBLK
  5
187E
330
1873
100
AcDbEntity
  8
0
100
AcDbBlockEnd
  0
BLOCK
  5
1934
330
192A
100
AcDbEntity
  8
0
100
AcDbBlockBegin
  2
*D7
 70
     1
 10
0.0
 20
0.0
 30
0.0
  3
*D7
  1

  0
LINE
  5
1936
330
192A
100
AcDbEntity
  8
BEM
 62
     0
370
    -2
100
AcDbLine
 10
92.06450463125866
 20
162.75037185299
 30
0.0
 11
54.52977028640217
 21
162.7503718529901
 31
0.0
  0
LINE
  5
1937
330
192A
100
AcDbEntity
  8
BEM
 62
     0
370
    -2
100
AcDbLine
 10
86.0345511175557
 20
527.7536647573201
 30
0.0
 11
54.52977028640225
 21
527.7536647573201
 31
0.0
  0
LINE
  5
1938
330
192A
100
AcDbEntity
  8
BEM
 62
     0
370
    -2
100
AcDbLine
 10
56.52977028640218
 20
169.75037185299
 30
0.0
 11
56.52977028640226
 21
520.7536647573201
 31
0.0
  0
SOLID
  5
1939
330
192A
100
AcDbEntity
  8
BEM
 62
     0
100
AcDbTrace
 10
55.36310361973551
 20
169.75037185299
 30
0.0
 11
57.69643695306884
 21
169.75037185299
 31
0.0
 12
56.52977028640218
 22
162.7503718529901
 32
0.0
 13
56.52977028640218
 23
162.7503718529901
 33
0.0
  0
SOLID
  5
193A
330
192A
100
AcDbEntity
  8
BEM
 62
     0
100
AcDbTrace
 10
55.36310361973558
 20
520.7536647573201
 30
0.0
 11
57.69643695306892
 21
520.7536647573201
 31
0.0
 12
56.52977028640226
 22
527.7536647573201
 32
0.0
 13
56.52977028640226
 23
527.7536647573201
 33
0.0
  0
MTEXT
  5
193B
330
192A
100
AcDbEntity
  8
BEM
 62
     1
100
AcDbMText
 10
50.02977028640216
 20
345.2520183051551
 30
0.0
 40
7.0
 41
0.0
 71
     5
 72
     1
  1
\A1;365
 11
0.0000000000000001
 21
1.0
 31
0.0
 73
     1
 44
1.0
  0
POINT
  5
193C
330
192A
100
AcDbEntity
  8
DEFPOINTS
 62
     0
100
AcDbPoint
 10
94.06450463125867
 20
162.75037185299
 30
0.0
  0
POINT
  5
193D
330
192A
100
AcDbEntity
  8
DEFPOINTS
 62
     0
100
AcDbPoint
 10
88.03455111755571
 20
527.7536647573201
 30
0.0
  0
POINT
  5
193E
330
192A
100
AcDbEntity
  8
DEFPOINTS
 62
     0
100
AcDbPoint
 10
56.52977028640226
 20
527.7536647573201
 30
0.0
  0
ENDBLK
  5
1935
330
192A
100
AcDbEntity
  8
0
100
AcDbBlockEnd
  0
BLOCK
  5
1952
330
1948
100
AcDbEntity
  8
0
100
AcDbBlockBegin
  2
*D8
 70
     1
 10
0.0
 20
0.0
 30
0.0
  3
*D8
  1

  0
LINE
  5
1954
330
1948
100
AcDbEntity
  8
BEM
 62
     0
370
    -2
100
AcDbLine
 10
224.7754044336261
 20
404.6782072591697
 30
0.0
 11
139.3029217166254
 21
319.2057245421695
 31
0.0
  0
LINE
  5
1955
330
1948
100
AcDbEntity
  8
BEM
 62
     0
370
    -2
100
AcDbLine
 10
224.7754044336265
 20
260.9941093220637
 30
0.0
 11
211.1449706851786
 21
247.3636755736159
 31
0.0
  0
LINE
  5
1956
330
1948
100
AcDbEntity
  8
BEM
 62
     0
370
    -2
100
AcDbLine
 10
145.6668827473043
 20
315.6701906362368
 30
0.0
 11
207.6094367792459
 21
253.7276366042949
 31
0.0
  0
SOLID
  5
1957
330
1948
100
AcDbEntity
  8
BEM
 62
     0
100
AcDbTrace
 10
146.4918406586886
 20
316.4951485476211
 30
0.0
 11
144.84192483592
 21
314.8452327248524
 31
0.0
 12
140.7171352789985
 22
320.6199381045426
 32
0.0
 13
140.7171352789985
 23
320.6199381045426
 33
0.0
  0
SOLID
  5
1958
330
1948
100
AcDbEntity
  8
BEM
 62
     0
100
AcDbTrace
 10
208.4343946906302
 20
254.5525945156792
 30
0.0
 11
206.7844788678615
 21
252.9026786929106
 31
0.0
 12
212.5591842475517
 22
248.777889135989
 32
0.0
 13
212.5591842475517
 23
248.777889135989
 33
0.0
  0
MTEXT
  5
1959
330
1948
100
AcDbEntity
  8
BEM
 62
     1
100
AcDbMText
 10
181.2343538409876
 20
289.2951076979784
 30
0.0
 40
7.0
 41
0.0
 71
     5
 72
     1
  1
\A1;%%c101.6
 11
0.7071067811865457
 21
-0.7071067811865494
 31
0.0
 73
     1
 44
1.0
  0
POINT
  5
195A
330
1948
100
AcDbEntity
  8
DEFPOINTS
 62
     0
100
AcDbPoint
 10
226.1896179959992
 20
406.0924208215427
 30
0.0
  0
POINT
  5
195B
330
1948
100
AcDbEntity
  8
DEFPOINTS
 62
     0
100
AcDbPoint
 10
226.1896179959995
 20
262.4083228844368
 30
0.0
  0
POINT
  5
195C
330
1948
100
AcDbEntity
  8
DEFPOINTS
 62
     0
100
AcDbPoint
 10
212.5591842475517
 20
248.777889135989
 30
0.0
  0
ENDBLK
  5
1953
330
1948
100
AcDbEntity
  8
0
100
AcDbBlockEnd
  0
ENDSEC
  0
SECTION
  2
ENTITIES
  0
LINE
  5
12A
330
1E
100
AcDbEntity
  8
STEMPEL
100
AcDbLine
 10
231.3446848744434
 20
527.7536647573201
 30
0.0
 11
88.03455111755571
 21
527.7536647573201
 31
0.0
  0
TEXT
  5
134
330
1E
100
AcDbEntity
  8
TEXT
100
AcDbText
 10
204.4216048581257
 20
63.0896391972351
 30
0.0
 40
4.0
  1
Koeh
 41
0.8
  7
GREEKS
 72
     1
 11
209.6787477152686
 21
63.0896391972351
 31
0.0
100
AcDbText
  0
INSERT
  5
135
330
1E
100
AcDbEntity
  8
STEMPEL
100
AcDbBlockReference
  2
LOGO
 10
150.9955485457794
 20
45.02105276448322
 30
0.0
 41
2.0
 42
2.0
 43
2.0
  0
LINE
  5
136
330
1E
100
AcDbEntity
  8
HILF
100
AcDbLine
 10
420.0
 20
0.0
 30
0.0
 11
0.0
 21
0.0
 31
0.0
  0
LINE
  5
137
330
1E
100
AcDbEntity
  8
HILF
100
AcDbLine
 10
419.9999999999999
 20
594.0000000000002
 30
0.0
 11
0.0
 21
594.0
 31
0.0
  0
LINE
  5
138
330
1E
100
AcDbEntity
  8
STEMPEL
100
AcDbLine
 10
410.0
 20
584.0
 30
0.0
 11
39.99999999999989
 21
584.0
 31
0.0
  0
LINE
  5
139
330
1E
100
AcDbEntity
  8
STEMPEL
100
AcDbLine
 10
410.0
 20
10.0
 30
0.0
 11
39.99999999999989
 21
10.0
 31
0.0
  0
LINE
  5
13A
330
1E
100
AcDbEntity
  8
STEMPEL
100
AcDbLine
 10
49.99999999999989
 20
10.0
 30
0.0
 11
410.0
 21
10.0
 31
0.0
  0
TEXT
  5
13B
330
1E
100
AcDbEntity
  8
TEXT
100
AcDbText
 10
202.4626584226295
 20
73.30961091915225
 30
0.0
 40
4.0
  1
Name
 41
0.8
  7
GREEKS
100
AcDbText
  0
TEXT
  5
13C
330
1E
100
AcDbEntity
  8
TEXT
100
AcDbText
 10
196.5498279101549
 20
102.6506227776589
 30
0.0
 40
5.0
  1
Zul. Abw.
 41
0.8
  7
GREEKS
 72
     4
 11
209.9783993387263
 21
105.1506227776589
 31
0.0
100
AcDbText
  0
LINE
  5
13D
330
1E
100
AcDbEntity
  8
HILF
100
AcDbLine
 10
146.0000000000001
 20
49.99999999999997
 30
0.0
 11
230.0
 21
49.99999999999997
 31
0.0
  0
LINE
  5
13E
330
1E
100
AcDbEntity
  8
HILF
100
AcDbLine
 10
146.0000000000001
 20
59.99999999999997
 30
0.0
 11
230.0
 21
59.99999999999997
 31
0.0
  0
LINE
  5
13F
330
1E
100
AcDbEntity
  8
HILF
100
AcDbLine
 10
146.0000000000001
 20
69.99999999999994
 30
0.0
 11
230.0
 21
69.99999999999994
 31
0.0
  0
LINE
  5
140
330
1E
100
AcDbEntity
  8
STEMPEL
100
AcDbLine
 10
410.0
 20
80.0
 30
0.0
 11
146.0000000000001
 21
79.99999999999994
 31
0.0
  0
LINE
  5
141
330
1E
100
AcDbEntity
  8
STEMPEL
100
AcDbLine
 10
410.0
 20
40.0
 30
0.0
 11
146.0000000000001
 21
39.99999999999997
 31
0.0
  0
LINE
  5
142
330
1E
100
AcDbEntity
  8
STEMPEL
100
AcDbLine
 10
410.0
 20
110.0
 30
0.0
 11
39.99999999999997
 21
110.0
 31
0.0
  0
LINE
  5
143
330
1E
100
AcDbEntity
  8
MITTEL
100
AcDbLine
 10
159.6896179959994
 20
532.7536647573201
 30
0.0
 11
159.6896179959994
 21
157.7503718529903
 31
0.0
  0
LINE
  5
144
330
1E
100
AcDbEntity
  8
HILF
100
AcDbLine
 10
0.0
 20
0.0
 30
0.0
 11
-0.0000000000001137
 21
594.0
 31
0.0
  0
LINE
  5
145
330
1E
100
AcDbEntity
  8
STEMPEL
100
AcDbLine
 10
40.0
 20
10.0
 30
0.0
 11
39.99999999999989
 21
584.0
 31
0.0
  0
TEXT
  5
146
330
1E
100
AcDbEntity
  8
TEXT
100
AcDbText
 10
41.85509950977674
 20
111.6719999999999
 30
0.0
 40
5.0
  1
Erstellt mit AUTOCAD 2004
 41
0.8
  7
GREEKS
100
AcDbText
  0
TEXT
  5
147
330
1E
100
AcDbEntity
  8
TEXT
100
AcDbText
 10
66.91496965935563
 20
18.67381894984132
 30
0.0
 40
4.0
  1
Änderung
 41
0.8
  7
GREEKS
 72
     1
 11
77.65782680221278
 21
18.67381894984132
 31
0.0
100
AcDbText
  0
LINE
  5
148
330
1E
100
AcDbEntity
  8
HILF
100
AcDbLine
 10
40.00000000000008
 20
39.99999999999997
 30
0.0
 11
146.0000000000001
 21
39.99999999999997
 31
0.0
  0
LINE
  5
149
330
1E
100
AcDbEntity
  8
HILF
100
AcDbLine
 10
40.00000000000008
 20
49.99999999999997
 30
0.0
 11
146.0000000000001
 21
49.99999999999997
 31
0.0
  0
LINE
  5
14A
330
1E
100
AcDbEntity
  8
HILF
100
AcDbLine
 10
40.00000000000008
 20
59.99999999999997
 30
0.0
 11
146.0000000000001
 21
59.99999999999997
 31
0.0
  0
LINE
  5
14B
330
1E
100
AcDbEntity
  8
HILF
100
AcDbLine
 10
40.00000000000008
 20
69.99999999999994
 30
0.0
 11
146.0000000000001
 21
69.99999999999994
 31
0.0
  0
LINE
  5
14C
330
1E
100
AcDbEntity
  8
HILF
100
AcDbLine
 10
40.00000000000008
 20
79.99999999999994
 30
0.0
 11
146.0000000000001
 21
79.99999999999994
 31
0.0
  0
LINE
  5
14D
330
1E
100
AcDbEntity
  8
HILF
100
AcDbLine
 10
40.00000000000008
 20
90.00000000000005
 30
0.0
 11
146.0000000000001
 21
90.00000000000005
 31
0.0
  0
LINE
  5
14E
330
1E
100
AcDbEntity
  8
HILF
100
AcDbLine
 10
40.00000000000008
 20
100.0
 30
0.0
 11
146.0000000000001
 21
100.0
 31
0.0
  0
LINE
  5
14F
330
1E
100
AcDbEntity
  8
STEMPEL
100
AcDbLine
 10
145.9999999999999
 20
29.99999999999997
 30
0.0
 11
39.99999999999997
 21
29.99999999999997
 31
0.0
  0
TEXT
  5
150
330
1E
100
AcDbEntity
  8
TEXT
100
AcDbText
 10
48.26641107045756
 20
13.65465846027192
 30
0.0
 40
4.0
  1
Index
 50
90.0
 41
0.8
  7
GREEKS
100
AcDbText
  0
LINE
  5
151
330
1E
100
AcDbEntity
  8
VOLL
100
AcDbLine
 10
54.00000000000009
 20
110.0
 30
0.0
 11
53.99999999999997
 21
9.999999999999971
 31
0.0
  0
LINE
  5
152
330
1E
100
AcDbEntity
  8
HILF
100
AcDbLine
 10
31.08767135713856
 20
297.0
 30
0.0
 11
0.0000000000001137
 21
297.0
 31
0.0
  0
TEXT
  5
153
330
1E
100
AcDbEntity
  8
TEXT
100
AcDbText
 10
109.8044064698759
 20
18.6715626933981
 30
0.0
 40
4.0
  1
Tag
 41
0.8
  7
GREEKS
 72
     1
 11
113.5377398032092
 21
18.6715626933981
 31
0.0
100
AcDbText
  0
LINE
  5
154
330
1E
100
AcDbEntity
  8
VOLL
100
AcDbLine
 10
124.0000000000001
 20
109.9999999999999
 30
0.0
 11
124.0
 21
9.999999999999971
 31
0.0
  0
LINE
  5
155
330
1E
100
AcDbEntity
  8
VOLL
100
AcDbLine
 10
104.0000000000001
 20
109.9999999999999
 30
0.0
 11
104.0
 21
9.999999999999971
 31
0.0
  0
TEXT
  5
156
330
1E
100
AcDbEntity
  8
TEXT
100
AcDbText
 10
128.8413747461297
 20
18.59324216966408
 30
0.0
 40
4.0
  1
Name
 41
0.8
  7
GREEKS
 72
     1
 11
135.1651842699392
 21
18.59324216966408
 31
0.0
100
AcDbText
  0
LINE
  5
157
330
1E
100
AcDbEntity
  8
STEMPEL
100
AcDbLine
 10
146.0000000000001
 20
109.9999999999999
 30
0.0
 11
146.0
 21
9.999999999999971
 31
0.0
  0
TEXT
  5
159
330
1E
100
AcDbEntity
  8
TEXT
100
AcDbText
 10
172.331167315365
 20
73.31880501229926
 30
0.0
 40
4.0
  1
Tag
 41
0.8
  7
GREEKS
100
AcDbText
  0
TEXT
  5
15A
330
1E
100
AcDbEntity
  8
TEXT
100
AcDbText
 10
147.5836127167615
 20
63.62990369617964
 30
0.0
 40
4.0
  1
Gez.
 41
0.8
  7
GREEKS
100
AcDbText
  0
LINE
  5
15B
330
1E
100
AcDbEntity
  8
VOLL
100
AcDbLine
 10
164.0000000000001
 20
79.99999999999994
 30
0.0
 11
164.0000000000001
 21
39.99999999999997
 31
0.0
  0
TEXT
  5
15C
330
1E
100
AcDbEntity
  8
TEXT
100
AcDbText
 10
147.6006777387303
 20
43.52946389649807
 30
0.0
 40
4.0
  1
Norm.
 41
0.8
  7
GREEKS
100
AcDbText
  0
TEXT
  5
15D
330
1E
100
AcDbEntity
  8
TEXT
100
AcDbText
 10
147.5515086571672
 20
53.68926291428377
 30
0.0
 40
4.0
  1
Gepr.
 41
0.8
  7
GREEKS
100
AcDbText
  0
TEXT
  5
15E
330
1E
100
AcDbEntity
  8
TEXT
 62
     1
100
AcDbText
 10
160.5006306481887
 20
88.14901428913959
 30
0.0
 40
7.0
  1
1:2
 41
0.8
  7
GREEKS
100
AcDbText
  0
TEXT
  5
15F
330
1E
100
AcDbEntity
  8
TEXT
100
AcDbText
 10
153.5163572150377
 20
102.4620895087088
 30
0.0
 40
5.0
  1
Maßstab
 41
0.8
  7
GREEKS
100
AcDbText
  0
TEXT
  5
160
330
1E
100
AcDbEntity
  8
TEXT
100
AcDbText
 10
148.622109822104
 20
73.14025471151666
 30
0.0
 40
4.0
  1
2011
 41
0.8
  7
GREEKS
100
AcDbText
  0
LINE
  5
161
330
1E
100
AcDbEntity
  8
VOLL
100
AcDbLine
 10
190.0000000000001
 20
109.9999999999998
 30
0.0
 11
190.0
 21
39.99999999999997
 31
0.0
  0
LINE
  5
186
330
1E
100
AcDbEntity
  8
HILF
100
AcDbLine
 10
420.0
 20
-0.0000000000001137
 30
0.0
 11
419.9999999999999
 21
594.0
 31
0.0
  0
LINE
  5
187
330
1E
100
AcDbEntity
  8
STEMPEL
100
AcDbLine
 10
410.0
 20
10.0
 30
0.0
 11
410.0
 21
584.0
 31
0.0
  0
TEXT
  5
188
330
1E
100
AcDbEntity
  8
TEXT
100
AcDbText
 10
337.2400861497006
 20
52.07416177878602
 30
0.0
 40
5.0
  1
ersetzt durch:
 41
0.8
  7
GREEKS
100
AcDbText
  0
TEXT
  5
189
330
1E
100
AcDbEntity
  8
TEXT
100
AcDbText
 10
336.7238616296993
 20
73.1811823709997
 30
0.0
 40
5.0
  1
Ersatz für:
 41
0.8
  7
GREEKS
100
AcDbText
  0
TEXT
  5
18A
330
1E
100
AcDbEntity
  8
TEXT
100
AcDbText
 10
336.178754957634
 20
102.3132034537136
 30
0.0
 40
5.0
  1
Zeichnungs Nr.
 41
0.8
  7
GREEKS
100
AcDbText
  0
LINE
  5
18B
330
1E
100
AcDbEntity
  8
HILF
100
AcDbLine
 10
233.4909699289885
 20
14.89398258028314
 30
0.0
 11
404.8588839326728
 21
14.89398258028314
 31
0.0
  0
LINE
  5
18C
330
1E
100
AcDbEntity
  8
HILF
100
AcDbLine
 10
336.7238616296993
 20
83.77983636955827
 30
0.0
 11
404.8588839326728
 21
83.77983636955827
 31
0.0
  0
LINE
  5
18D
330
1E
100
AcDbEntity
  8
VOLL
100
AcDbLine
 10
332.0
 20
60.0
 30
0.0
 11
410.0
 21
60.0
 31
0.0
  0
TEXT
  5
18E
330
1E
100
AcDbEntity
  8
TEXT
 62
     1
100
AcDbText
 10
234.9283864320014
 20
87.41748789253779
 30
0.0
 40
7.0
  1
Red.-Abzweig DN125/100
 41
0.65
  7
GREEKS
100
AcDbText
  0
LINE
  5
18F
330
1E
100
AcDbEntity
  8
HILF
100
AcDbLine
 10
234.7736801096947
 20
49.99999999999997
 30
0.0
 11
324.835391655631
 21
49.99999999999997
 31
0.0
  0
LINE
  5
190
330
1E
100
AcDbEntity
  8
HILF
100
AcDbLine
 10
234.7736801096947
 20
59.99999999999997
 30
0.0
 11
324.835391655631
 21
59.99999999999997
 31
0.0
  0
LINE
  5
191
330
1E
100
AcDbEntity
  8
HILF
100
AcDbLine
 10
234.7736801096947
 20
69.99999999999994
 30
0.0
 11
324.835391655631
 21
69.99999999999994
 31
0.0
  0
LINE
  5
192
330
1E
100
AcDbEntity
  8
HILF
100
AcDbLine
 10
234.7736801096947
 20
84.03758247564139
 30
0.0
 11
324.8353916556311
 21
84.03758247564139
 31
0.0
  0
LINE
  5
193
330
1E
100
AcDbEntity
  8
STEMPEL
100
AcDbLine
 10
230.0
 20
110.0
 30
0.0
 11
230.0
 21
9.999999999999971
 31
0.0
  0
TEXT
  5
194
330
1E
100
AcDbEntity
  8
TEXT
100
AcDbText
 10
235.1296391125315
 20
71.50334417585288
 30
0.0
 40
5.0
  1
dünnwandig 45°
 41
0.8
  7
GREEKS
100
AcDbText
  0
TEXT
  5
195
330
1E
100
AcDbEntity
  8
TEXT
100
AcDbText
 10
234.9837501577827
 20
42.62974153022632
 30
0.0
 40
4.0
  1
5250ED0W.DWG
 41
0.8
  7
GREEKS
100
AcDbText
  0
TEXT
  5
196
330
1E
100
AcDbEntity
  8
TEXT
100
AcDbText
 10
234.742238391136
 20
30.84560570193057
 30
0.0
 40
5.0
  1
Bauvorhaben
 41
0.8
  7
GREEKS
100
AcDbText
  0
TEXT
  5
197
330
1E
100
AcDbEntity
  8
TEXT
100
AcDbText
 10
234.877940380901
 20
102.5489328011779
 30
0.0
 40
5.0
  1
Benennung
 41
0.8
  7
GREEKS
100
AcDbText
  0
LINE
  5
198
330
1E
100
AcDbEntity
  8
STEMPEL
100
AcDbLine
 10
332.0
 20
109.9999999999997
 30
0.0
 11
332.0
 21
40.0
 31
0.0
  0
TEXT
  5
19A
330
1E
100
AcDbEntity
  8
TEXT
 62
     1
100
AcDbText
 10
349.903938518259
 20
88.14901428913959
 30
0.0
 40
7.0
  1
5250ED0W
 41
0.8
  7
GREEKS
 72
     1
 11
371.2372718515922
 21
88.14901428913959
 31
0.0
100
AcDbText
  0
LINE
  5
1D4
330
1E
100
AcDbEntity
  8
STEMPEL
100
AcDbLine
 10
225.3147313607403
 20
162.7503718529904
 30
0.0
 11
94.06450463125867
 21
162.75037185299
 31
0.0
  0
LINE
  5
1D6
330
1E
100
AcDbEntity
  8
HILF
100
AcDbLine
 10
224.6896179959995
 20
172.7503718529904
 30
0.0
 11
94.68961799599938
 21
172.7503718529904
 31
0.0
  0
LINE
  5
1D7
330
1E
100
AcDbEntity
  8
STEMPEL
100
AcDbLine
 10
93.18961799599945
 20
172.75037185299
 30
0.0
 11
94.06450463125864
 21
162.75037185299
 31
0.0
  0
LINE
  5
1D8
330
1E
100
AcDbEntity
  8
STEMPEL
100
AcDbLine
 10
226.1896179959995
 20
172.7503718529908
 30
0.0
 11
225.3147313607403
 21
162.7503718529904
 31
0.0
  0
DIMENSION
  5
1E8
330
1E
100
AcDbEntity
  8
BEM
100
AcDbDimension
  2
*D1
 10
226.1896179959999
 20
136.6264288703215
 30
0.0
 11
159.6896179959997
 21
143.1264288703216
 31
0.0
 70
    32
  1
%%c<>
 71
     5
 42
133.0000000000005
  3
Standard
100
AcDbAlignedDimension
 13
93.18961799599945
 23
172.75037185299
 33
0.0
 14
226.1896179959999
 24
172.7503718529903
 34
0.0
100
AcDbRotatedDimension
1001
ACAD
1000
DSTYLE
1002
{
1070
    40
1040
2.0
1070
    41
1040
3.5
1070
    42
1040
1.0
1070
    43
1040
7.0
1070
    44
1040
1.0
1070
    73
1070
     0
1070
    74
1070
     0
1070
    77
1070
     1
1070
    78
1070
     8
1070
    79
1070
     2
1070
   140
1040
3.5
1070
   141
1040
1.5
1070
   146
1040
0.5142857142857144
1070
   147
1040
1.5
1070
   172
1070
     1
1070
   178
1070
     1
1070
   179
1070
     2
1070
   271
1070
     2
1070
   272
1070
     2
1070
   284
1070
     8
1070
   285
1070
     8
1070
   286
1070
     8
1002
}
  0
TEXT
  5
212
330
1E
100
AcDbEntity
  8
TEXT
100
AcDbText
 10
235.1296391125315
 20
51.50334417585291
 30
0.0
 40
5.0
  1
EDV-Art.Nr. 5.250.ED0C
 41
0.8
  7
GREEKS
100
AcDbText
  0
TEXT
  5
255
330
1E
100
AcDbEntity
  8
TEXT
 62
     1
100
AcDbText
 10
297.9974873842989
 20
131.2276367653921
 30
0.0
 40
7.0
  1
Werkstoff: 1.4404
 41
0.8
  7
GREEKS
100
AcDbText
  0
TEXT
  5
25D
330
1E
100
AcDbEntity
  8
TEXT
 62
     1
100
AcDbText
 10
126.8884287235955
 20
502.2975686152201
 30
0.0
 40
7.0
  1
DN125
 41
0.8
  7
GREEKS
100
AcDbText
  0
LINE
  5
7B6
330
1E
100
AcDbEntity
  8
STEMPEL
100
AcDbLine
 10
231.3446848744432
 20
527.7536647573201
 30
0.0
 11
231.9725438200623
 21
526.4072169033362
 31
0.0
  0
ARC
  5
7B7
330
1E
100
AcDbEntity
  8
STEMPEL
100
AcDbCircle
 10
205.6896179959994
 20
514.1512873128558
 30
0.0
 40
29.0
100
AcDbArc
 50
0.0
 51
24.99999999999304
  0
LINE
  5
7B8
330
1E
100
AcDbEntity
  8
STEMPEL
100
AcDbLine
 10
234.6896179959994
 20
514.1512873128558
 30
0.0
 11
234.6896179959994
 21
495.04466475732
 31
0.0
  0
ARC
  5
7B9
330
1E
100
AcDbEntity
  8
STEMPEL
100
AcDbCircle
 10
205.6896179959994
 20
495.04466475732
 30
0.0
 40
29.0
100
AcDbArc
 50
334.8288522569422
 51
0.0
  0
ARC
  5
7BA
330
1E
100
AcDbEntity
  8
STEMPEL
100
AcDbCircle
 10
249.1896179959994
 20
474.7536647573201
 30
0.0
 40
19.0
100
AcDbArc
 50
154.772855634092
 51
180.0
  0
LINE
  5
7BB
330
1E
100
AcDbEntity
  8
STEMPEL
100
AcDbLine
 10
230.1896179959994
 20
474.7536647573201
 30
0.0
 11
230.1896179959994
 21
461.2168920352508
 31
0.0
  0
ARC
  5
7C0
330
1E
100
AcDbEntity
  8
STEMPEL
100
AcDbCircle
 10
213.1896179959995
 20
461.2168920352508
 30
0.0
 40
17.0
100
AcDbArc
 50
328.4136619034719
 51
0.0
  0
ARC
  5
7C1
330
1E
100
AcDbEntity
  8
STEMPEL
100
AcDbCircle
 10
236.1896179959995
 20
447.07475641152
 30
0.0
 40
10.00000000000005
100
AcDbArc
 50
148.4136619034724
 51
180.0000000000003
  0
ARC
  5
7F3
330
1E
100
AcDbEntity
  8
STEMPEL
100
AcDbCircle
 10
113.6896179959994
 20
495.04466475732
 30
0.0
 40
29.0
100
AcDbArc
 50
180.0
 51
205.1711477430577
  0
ARC
  5
7F7
330
1E
100
AcDbEntity
  8
STEMPEL
100
AcDbCircle
 10
70.18961799599941
 20
474.7536647573201
 30
0.0
 40
19.0
100
AcDbArc
 50
0.0
 51
25.22714436590793
  0
LINE
  5
7F8
330
1E
100
AcDbEntity
  8
STEMPEL
100
AcDbLine
 10
89.18961799599941
 20
474.7536647573201
 30
0.0
 11
89.18961799599941
 21
461.2168920352508
 31
0.0
  0
ARC
  5
7FB
330
1E
100
AcDbEntity
  8
STEMPEL
100
AcDbCircle
 10
106.1896179959994
 20
461.2168920352508
 30
0.0
 40
17.0
100
AcDbArc
 50
180.0
 51
211.5863380965281
  0
ARC
  5
7FC
330
1E
100
AcDbEntity
  8
STEMPEL
100
AcDbCircle
 10
83.18961799599959
 20
447.0747564115199
 30
0.0
 40
9.999999999999843
100
AcDbArc
 50
359.9999999999997
 51
31.58633809652798
  0
LINE
  5
7FF
330
1E
100
AcDbEntity
  8
STEMPEL
100
AcDbLine
 10
88.03455111755573
 20
527.7536647573201
 30
0.0
 11
87.40669217193675
 21
526.4072169033362
 31
0.0
  0
POINT
  5
802
330
1E
100
AcDbEntity
  8
STEMPEL
100
AcDbPoint
 10
89.68961799599941
 20
527.7536647573201
 30
0.0
  0
ARC
  5
803
330
1E
100
AcDbEntity
  8
STEMPEL
100
AcDbCircle
 10
113.6896179959994
 20
514.1512873128558
 30
0.0
 40
29.0
100
AcDbArc
 50
155.0000000000069
 51
180.0
  0
LINE
  5
804
330
1E
100
AcDbEntity
  8
STEMPEL
100
AcDbLine
 10
84.68961799599965
 20
514.1512873128558
 30
0.0
 11
84.68961799599965
 21
495.04466475732
 31
0.0
  0
LINE
  5
806
330
1E
100
AcDbEntity
  8
HILF
100
AcDbLine
 10
228.1044999500648
 20
456.9983263671241
 30
0.0
 11
91.2747360419341
 21
456.9983263671241
 31
0.0
  0
LINE
  5
807
330
1E
100
AcDbEntity
  8
HILF
100
AcDbLine
 10
225.1237378365316
 20
450.2046599717427
 30
0.0
 11
94.25549815546725
 21
450.2046599717427
 31
0.0
  0
LINE
  5
808
330
1E
100
AcDbEntity
  8
HILF
100
AcDbLine
 10
229.1843842466224
 20
479.2303401568535
 30
0.0
 11
90.1948517453764
 21
479.2303401568535
 31
0.0
  0
LINE
  5
952
330
1E
100
AcDbEntity
  8
STEMPEL
100
AcDbLine
 10
93.18961799599941
 20
447.0747564115198
 30
0.0
 11
93.18961799599941
 21
172.7503718529901
 31
0.0
  0
DIMENSION
  5
A32
330
1E
100
AcDbEntity
  8
BEM
100
AcDbDimension
  2
*D3
 10
76.41406664670694
 20
162.75037185299
 30
0.0
 11
69.91406664670691
 21
215.2503718529902
 31
0.0
 70
    32
 71
     5
 42
105.0000000000003
  3
Standard
100
AcDbAlignedDimension
 13
159.6896179959994
 23
267.7503718529903
 33
0.0
 14
94.06450463125867
 24
162.75037185299
 34
0.0
 50
90.0
100
AcDbRotatedDimension
1001
ACAD
1000
DSTYLE
1002
{
1070
    40
1040
2.0
1070
    41
1040
3.5
1070
    42
1040
1.0
1070
    43
1040
7.0
1070
    44
1040
1.0
1070
    73
1070
     0
1070
    74
1070
     0
1070
    77
1070
     1
1070
    78
1070
     8
1070
    79
1070
     2
1070
   140
1040
3.5
1070
   141
1040
1.5
1070
   146
1040
0.5142857142857144
1070
   147
1040
1.5
1070
   172
1070
     1
1070
   178
1070
     1
1070
   179
1070
     2
1070
   271
1070
     2
1070
   272
1070
     2
1070
   284
1070
     8
1070
   285
1070
     8
1070
   286
1070
     8
1002
}
  0
LINE
  5
DAA
102
{ACAD_REACTORS
330
191B
102
}
330
1E
100
AcDbEntity
  8
STEMPEL
100
AcDbLine
 10
226.1896179959993
 20
447.07475641152
 30
0.0
 11
226.1896179959992
 21
406.0924208215428
 31
0.0
  0
LINE
  5
118D
102
{ACAD_REACTORS
330
1928
102
}
330
1E
100
AcDbEntity
  8
STEMPEL
100
AcDbLine
 10
226.1896179959995
 20
262.408322884437
 30
0.0
 11
226.1896179959995
 21
172.7503718529905
 31
0.0
  0
LINE
  5
146F
330
1E
100
AcDbEntity
  8
MITTEL
100
AcDbLine
 10
337.173420073823
 20
445.2341739308135
 30
0.0
 11
186.2231834737688
 21
294.2839373307596
 31
0.0
  0
DIMENSION
  5
1711
330
1E
100
AcDbEntity
  8
BEM
100
AcDbDimension
  2
*D4
 10
159.6896179959994
 20
157.7503718529903
 30
0.0
 11
272.374046153385
 21
539.7946465788067
 31
0.0
 70
    34
 71
     5
 42
0.7853981633974483
  3
Standard
100
AcDb2LineAngularDimension
 13
337.173420073823
 23
445.2341739308135
 33
0.0
 14
159.6896179959993
 24
267.7503718529902
 34
0.0
 15
159.6896179959994
 25
532.7536647573201
 35
0.0
 16
303.6689185447122
 26
517.1298356415897
 36
0.0
1001
ACAD
1000
DSTYLE
1002
{
1070
    40
1040
2.0
1070
    41
1040
3.5
1070
    42
1040
1.0
1070
    43
1040
7.0
1070
    44
1040
1.0
1070
    73
1070
     0
1070
    74
1070
     0
1070
    77
1070
     1
1070
    78
1070
     8
1070
    79
1070
     2
1070
   140
1040
3.5
1070
   141
1040
1.5
1070
   146
1040
0.5142857142857144
1070
   147
1040
1.5
1070
   172
1070
     1
1070
   178
1070
     1
1070
   179
1070
     2
1070
   271
1070
     2
1070
   272
1070
     2
1070
   284
1070
     8
1070
   285
1070
     8
1070
   286
1070
     8
1002
}
  0
LINE
  5
183C
102
{ACAD_REACTORS
330
1928
102
}
330
1E
100
AcDbEntity
  8
STEMPEL
100
AcDbLine
 10
316.7779545849677
 20
352.9966594734048
 30
0.0
 11
226.1896179959995
 21
262.408322884437
 31
0.0
  0
LINE
  5
183D
330
1E
100
AcDbEntity
  8
STEMPEL
100
AcDbLine
 10
372.288189327904
 20
403.0483368648667
 30
0.0
 11
294.9875830078765
 21
480.3489431848945
 31
0.0
  0
TEXT
  5
1847
330
1E
100
AcDbEntity
  8
TEXT
 62
     1
100
AcDbText
 10
297.8109644420856
 20
428.0047278217419
 30
0.0
 40
7.0
  1
DN100
 50
44.99999999999909
 41
0.8
  7
GREEKS
100
AcDbText
  0
LINE
  5
1849
102
{ACAD_REACTORS
330
191B
102
}
330
1E
100
AcDbEntity
  8
STEMPEL
100
AcDbLine
 10
244.5262264765467
 20
424.4290293020904
 30
0.0
 11
226.1896179959992
 21
406.0924208215428
 31
0.0
  0
DIMENSION
  5
1872
330
1E
100
AcDbEntity
  8
BEM
100
AcDbDimension
  2
*D6
 10
387.1465694826145
 20
388.1899567101564
 30
0.0
 11
295.5762413189566
 21
305.8120167019236
 31
0.0
 70
    32
 71
     5
 42
245.9999999999999
 51
315.0000000000001
  3
Standard
100
AcDbAlignedDimension
 13
159.6896179959994
 23
267.7503718529903
 33
0.0
 14
372.2881893279041
 24
403.0483368648667
 34
0.0
 50
44.99999999999989
100
AcDbRotatedDimension
1001
ACAD
1000
DSTYLE
1002
{
1070
    40
1040
2.0
1070
    41
1040
3.5
1070
    42
1040
1.0
1070
    43
1040
7.0
1070
    44
1040
1.0
1070
    73
1070
     0
1070
    74
1070
     0
1070
    77
1070
     1
1070
    78
1070
     8
1070
    79
1070
     2
1070
   140
1040
3.5
1070
   141
1040
1.5
1070
   146
1040
0.5142857142857144
1070
   147
1040
1.5
1070
   172
1070
     1
1070
   178
1070
     1
1070
   179
1070
     2
1070
   271
1070
     2
1070
   272
1070
     2
1070
   284
1070
     8
1070
   285
1070
     8
1070
   286
1070
     8
1002
}
  0
ELLIPSE
  5
18E1
330
1E
100
AcDbEntity
  8
STEMPEL
100
AcDbEllipse
 10
226.1896179959994
 20
310.6643555878989
 30
0.0
 11
0.0000000000001163
 21
-48.25603270346187
 31
0.0
210
0.0
220
0.0
230
1.0
 40
0.4887682418907044
 41
4.712388980384689
 42
6.283185307179586
  0
ARC
  5
18F1
330
1E
100
AcDbEntity
  8
STEMPEL
100
AcDbCircle
 10
385.8030179025445
 20
316.0135522620392
 30
0.0
 40
183.2774945013356
100
AcDbArc
 50
150.5615051232975
 51
181.6724907971561
  0
ARC
  5
18F7
330
1E
100
AcDbEntity
  8
SCHRAFF
100
AcDbCircle
 10
226.1896179959992
 20
406.0924208215427
 30
0.0
 40
5.0
100
AcDbArc
 50
204.3143171291356
 51
278.0592304265955
  0
ARC
  5
18F8
330
1E
100
AcDbEntity
  8
SCHRAFF
100
AcDbCircle
 10
223.7917982659654
 20
401.7048861444991
 30
0.0
 40
5.0
100
AcDbArc
 50
205.8774538523751
 51
279.6223671498349
  0
ARC
  5
18F9
330
1E
100
AcDbEntity
  8
SCHRAFF
100
AcDbCircle
 10
221.5145561876834
 20
397.2535752682626
 30
0.0
 40
5.0
100
AcDbArc
 50
207.4405905756143
 51
281.1855038730745
  0
ARC
  5
18FA
330
1E
100
AcDbEntity
  8
SCHRAFF
100
AcDbCircle
 10
219.3595866098363
 20
392.7418011029753
 30
0.0
 40
5.0
100
AcDbArc
 50
209.003727298854
 51
282.748640596314
  0
ARC
  5
18FB
330
1E
100
AcDbEntity
  8
SCHRAFF
100
AcDbCircle
 10
217.328493379194
 20
388.1729215588815
 30
0.0
 40
5.0
100
AcDbArc
 50
210.5668640220935
 51
284.3117773195535
  0
ARC
  5
18FC
330
1E
100
AcDbEntity
  8
SCHRAFF
100
AcDbCircle
 10
215.4227881469422
 20
383.550337047186
 30
0.0
 40
5.0
100
AcDbArc
 50
212.1300007453332
 51
285.8749140427927
  0
ARC
  5
18FD
330
1E
100
AcDbEntity
  8
SCHRAFF
100
AcDbCircle
 10
213.643889243628
 20
378.8774879492814
 30
0.0
 40
5.0
100
AcDbArc
 50
213.6931374685724
 51
287.4380507660326
  0
ARC
  5
18FE
330
1E
100
AcDbEntity
  8
SCHRAFF
100
AcDbCircle
 10
211.9931206235614
 20
374.1578520562274
 30
0.0
 40
5.0
100
AcDbArc
 50
215.2562741918124
 51
289.0011874892719
  0
ARC
  5
18FF
330
1E
100
AcDbEntity
  8
SCHRAFF
100
AcDbCircle
 10
210.4717108794549
 20
369.3949419803875
 30
0.0
 40
5.0
100
AcDbArc
 50
216.8194109150514
 51
290.5643242125112
  0
ARC
  5
1900
330
1E
100
AcDbEntity
  8
SCHRAFF
100
AcDbCircle
 10
209.0807923280376
 20
364.5923025411496
 30
0.0
 40
5.0
100
AcDbArc
 50
218.3825476382913
 51
292.1274609357512
  0
ARC
  5
1901
330
1E
100
AcDbEntity
  8
SCHRAFF
100
AcDbCircle
 10
207.8214001673227
 20
359.7535081266771
 30
0.0
 40
5.0
100
AcDbArc
 50
219.9456843615306
 51
293.6905976589902
  0
ARC
  5
1902
330
1E
100
AcDbEntity
  8
SCHRAFF
100
AcDbCircle
 10
206.6944717061567
 20
354.8821600336526
 30
0.0
 40
5.0
100
AcDbArc
 50
221.5088210847706
 51
295.2537343822299
  0
ARC
  5
1903
330
1E
100
AcDbEntity
  8
SCHRAFF
100
AcDbCircle
 10
205.7008456666223
 20
349.9818837869947
 30
0.0
 40
5.0
100
AcDbArc
 50
223.07195780801
 51
296.8168711054695
  0
ARC
  5
1904
330
1E
100
AcDbEntity
  8
SCHRAFF
100
AcDbCircle
 10
204.8412615598151
 20
345.0563264415439
 30
0.0
 40
5.0
100
AcDbArc
 50
224.6350945312493
 51
298.3800078287093
  0
ARC
  5
1905
330
1E
100
AcDbEntity
  8
SCHRAFF
100
AcDbCircle
 10
204.1163591354594
 20
340.1091538677233
 30
0.0
 40
5.0
100
AcDbArc
 50
226.1982312544883
 51
299.9431445519481
  0
ARC
  5
1906
330
1E
100
AcDbEntity
  8
SCHRAFF
100
AcDbCircle
 10
203.5266779057709
 20
335.1440480231965
 30
0.0
 40
5.0
100
AcDbArc
 50
227.7613679777283
 51
301.5062812751883
  0
ARC
  5
1907
330
1E
100
AcDbEntity
  8
SCHRAFF
100
AcDbCircle
 10
203.0726567439222
 20
330.1647042125531
 30
0.0
 40
5.0
100
AcDbArc
 50
229.3245047009678
 51
303.0694179984273
  0
ARC
  5
1908
330
1E
100
AcDbEntity
  8
SCHRAFF
100
AcDbCircle
 10
202.7546335574093
 20
325.1748283370587
 30
0.0
 40
5.0
100
AcDbArc
 50
230.8876414242072
 51
304.632554721667
  0
ARC
  5
1909
330
1E
100
AcDbEntity
  8
SCHRAFF
100
AcDbCircle
 10
202.572845036562
 20
320.1781341365209
 30
0.0
 40
5.0
100
AcDbArc
 50
232.4507781474466
 51
306.1956914449065
  0
ARC
  5
190A
330
1E
100
AcDbEntity
  8
SCHRAFF
100
AcDbCircle
 10
202.5274264783865
 20
315.178340425319
 30
0.0
 40
5.0
100
AcDbArc
 50
234.0139148706864
 51
307.758828168146
  0
ARC
  5
190B
330
1E
100
AcDbEntity
  8
SCHRAFF
100
AcDbCircle
 10
202.6047950634709
 20
310.1789390509501
 30
0.0
 40
5.0
100
AcDbArc
 50
234.5665130825431
 51
308.3242178020705
  0
ARC
  5
190C
330
1E
100
AcDbEntity
  8
SCHRAFF
100
AcDbCircle
 10
202.7563531737102
 20
305.1812365648851
 30
0.0
 40
5.0
100
AcDbArc
 50
237.5099214553903
 51
311.2694366079769
  0
ARC
  5
190D
330
1E
100
AcDbEntity
  8
SCHRAFF
100
AcDbCircle
 10
203.1650568774732
 20
300.1979684321704
 30
0.0
 40
5.0
100
AcDbArc
 50
240.5684106295288
 51
314.3298701745472
  0
ARC
  5
190E
330
1E
100
AcDbEntity
  8
SCHRAFF
100
AcDbCircle
 10
203.8402910022223
 20
295.2437723443298
 30
0.0
 40
5.0
100
AcDbArc
 50
243.8206498295523
 51
317.5841315228646
  0
ARC
  5
190F
330
1E
100
AcDbEntity
  8
SCHRAFF
100
AcDbCircle
 10
204.7984244596057
 20
290.3364329146752
 30
0.0
 40
5.0
100
AcDbArc
 50
247.3973172514446
 51
321.173728207216
  0
ARC
  5
1910
330
1E
100
AcDbEntity
  8
SCHRAFF
100
AcDbCircle
 10
206.0646442860685
 20
285.4994206807572
 30
0.0
 40
5.0
100
AcDbArc
 50
251.4597374896017
 51
325.2419835062887
  0
ARC
  5
1911
330
1E
100
AcDbEntity
  8
SCHRAFF
100
AcDbCircle
 10
207.676041793617
 20
280.7661978809445
 30
0.0
 40
5.0
100
AcDbArc
 50
256.2559505586757
 51
330.0628498057565
  0
ARC
  5
1912
330
1E
100
AcDbEntity
  8
SCHRAFF
100
AcDbCircle
 10
209.686596228744
 20
276.1882430031021
 30
0.0
 40
5.0
100
AcDbArc
 50
262.2046274026877
 51
336.0520489362571
  0
ARC
  5
1913
330
1E
100
AcDbEntity
  8
SCHRAFF
100
AcDbCircle
 10
212.1747407194097
 20
271.8512928081413
 30
0.0
 40
5.0
100
AcDbArc
 50
270.038054525858
 51
343.9818409378645
  0
ARC
  5
1914
330
1E
100
AcDbEntity
  8
SCHRAFF
100
AcDbCircle
 10
215.2521623815336
 20
267.9105472043894
 30
0.0
 40
5.0
100
AcDbArc
 50
281.0430890612627
 51
355.2075432252712
  0
ARC
  5
1915
330
1E
100
AcDbEntity
  8
SCHRAFF
100
AcDbCircle
 10
219.0576329064844
 20
264.667339828391
 30
0.0
 40
5.0
100
AcDbArc
 50
297.2818959488265
 51
11.94602317847518
  0
ARC
  5
1916
102
{ACAD_REACTORS
330
1928
102
}
330
1E
100
AcDbEntity
  8
SCHRAFF
100
AcDbCircle
 10
226.1896179959995
 20
262.408322884437
 30
0.0
 40
3.0
100
AcDbArc
 50
270.0
 51
45.00000000000038
  0
ARC
  5
1917
102
{ACAD_REACTORS
330
191B
102
}
330
1E
100
AcDbEntity
  8
SCHRAFF
100
AcDbCircle
 10
226.1896179959992
 20
406.0924208215427
 30
0.0
 40
5.956893154393185
100
AcDbArc
 50
45.00000000000019
 51
89.9999999999992
  0
HATCH
  5
191B
330
1E
100
AcDbEntity
  8
SCHRAFF
100
AcDbHatch
 10
0.0
 20
0.0
 30
0.0
210
0.0
220
0.0
230
1.0
  2
_USER
 70
     0
 71
     1
 91
        1
 92
        7
 72
     1
 73
     1
 93
        3
 10
226.1896179959992
 20
406.0924208215428
 42
0.0
 10
230.4017775402743
 20
410.3045803658179
 42
0.1989123673796547
 10
226.1896179959992
 20
412.049313975936
 42
0.0
 97
        3
330
DAA
330
1849
330
1917
 75
     0
 76
     0
 52
0.0
 41
0.1
 77
     0
 78
     1
 53
0.0
 43
0.0
 44
0.0
 45
0.0
 46
0.1
 79
     0
 47
0.0573833959566404
 98
        1
 10
227.3083281012955
 20
410.339758477472
  0
HATCH
  5
1928
330
1E
100
AcDbEntity
  8
SCHRAFF
100
AcDbHatch
 10
0.0
 20
0.0
 30
0.0
210
0.0
220
0.0
230
1.0
  2
_USER
 70
     0
 71
     1
 91
        1
 92
        7
 72
     1
 73
     1
 93
        3
 10
228.3109383395592
 20
264.5296432279967
 42
0.0
 10
226.1896179959995
 20
262.4083228844369
 42
0.0
 10
226.1896179959995
 20
259.408322884437
 42
0.6681786379193085
 97
        3
330
183C
330
118D
330
1916
 75
     0
 76
     0
 52
0.0
 41
0.1
 77
     0
 78
     1
 53
0.0
 43
0.0
 44
0.0
 45
0.0
 46
0.1
 79
     0
 47
0.1102365286941107
 98
        1
 10
228.2641587800108
 20
262.0670981145656
  0
DIMENSION
  5
1929
330
1E
100
AcDbEntity
  8
BEM
100
AcDbDimension
  2
*D7
 10
56.52977028640226
 20
527.7536647573201
 30
0.0
 11
50.02977028640216
 21
345.2520183051551
 31
0.0
 70
    32
 71
     5
 42
365.0032929043301
  3
Standard
100
AcDbAlignedDimension
 13
94.06450463125867
 23
162.75037185299
 33
0.0
 14
88.03455111755571
 24
527.7536647573201
 34
0.0
 50
90.0
100
AcDbRotatedDimension
1001
ACAD
1000
DSTYLE
1002
{
1070
    40
1040
2.0
1070
    41
1040
3.5
1070
    42
1040
1.0
1070
    43
1040
7.0
1070
    44
1040
1.0
1070
    73
1070
     0
1070
    74
1070
     0
1070
    77
1070
     1
1070
    78
1070
     8
1070
    79
1070
     2
1070
   140
1040
3.5
1070
   141
1040
1.5
1070
   146
1040
0.5142857142857144
1070
   147
1040
1.5
1070
   172
1070
     1
1070
   178
1070
     1
1070
   179
1070
     2
1070
   271
1070
     2
1070
   272
1070
     2
1070
   284
1070
     8
1070
   285
1070
     8
1070
   286
1070
     8
1002
}
  0
TEXT
  5
1940
330
1E
100
AcDbEntity
  8
BEM
100
AcDbText
 10
416.5811541437437
 20
12.14804815338303
 30
0.0
 40
4.0
  1
Diese Zeichnung ist urheberrechtlich geschützt und bleibt unser Eigentum. Sie darf weder ganz noch teilweise vervielfältigt und nicht an Dritte weitergegeben werden.
 50
90.0
 41
0.8
  7
GREEKS
100
AcDbText
  0
TEXT
  5
1942
330
1E
100
AcDbEntity
  8
TEXT
100
AcDbText
 10
192.6882715247924
 20
89.83634332273027
 30
0.0
 40
4.0
  1
DIN EN1124-3
 41
0.8
  7
GREEKS
 72
     1
 11
209.6787477152686
 21
89.83634332273027
 31
0.0
100
AcDbText
  0
DIMENSION
  5
1947
330
1E
100
AcDbEntity
  8
BEM
100
AcDbDimension
  2
*D8
 10
212.5591842475517
 20
248.777889135989
 30
0.0
 11
181.2343538409876
 21
289.2951076979784
 31
0.0
 70
    32
  1
%%c<>
 71
     5
 42
101.6000000000002
 51
45.00000000000015
  3
Standard
100
AcDbAlignedDimension
 13
226.1896179959992
 23
406.0924208215427
 33
0.0
 14
226.1896179959995
 24
262.4083228844368
 34
0.0
 50
314.9999999999999
100
AcDbRotatedDimension
1001
ACAD
1000
DSTYLE
1002
{
1070
    40
1040
2.0
1070
    41
1040
3.5
1070
    42
1040
1.0
1070
    43
1040
7.0
1070
    44
1040
1.0
1070
    73
1070
     0
1070
    74
1070
     0
1070
    77
1070
     1
1070
    78
1070
     8
1070
    79
1070
     2
1070
   140
1040
3.5
1070
   141
1040
1.5
1070
   146
1040
0.5142857142857144
1070
   147
1040
1.5
1070
   172
1070
     1
1070
   178
1070
     1
1070
   179
1070
     2
1070
   271
1070
     2
1070
   272
1070
     2
1070
   284
1070
     8
1070
   285
1070
     8
1070
   286
1070
     8
1002
}
  0
LINE
  5
195D
330
1E
100
AcDbEntity
  8
MITTEL
100
AcDbLine
 10
174.6206663078747
 20
282.6814201648655
 30
0.0
 11
159.6896179959994
 21
267.7503718529903
 31
0.0
  0
LINE
  5
199B
330
1E
100
AcDbEntity
  8
STEMPEL
100
AcDbLine
 10
365.9757344706473
 20
392.1126034114635
 30
0.0
 11
352.8421529688675
 21
378.9790219096835
 31
0.0
  0
ARC
  5
199C
330
1E
100
AcDbEntity
  8
STEMPEL
100
AcDbCircle
 10
347.2325330771098
 20
360.9243226690427
 30
0.0
 40
12.8
100
AcDbArc
 50
108.1119523822754
 51
135.0
  0
ARC
  5
199D
330
1E
100
AcDbEntity
  8
STEMPEL
100
AcDbCircle
 10
322.5262743651452
 20
347.3903510998255
 30
0.0
 40
8.0
100
AcDbArc
 50
104.140418909376
 51
135.0
  0
ARC
  5
199E
330
1E
100
AcDbEntity
  8
STEMPEL
100
AcDbCircle
 10
317.0214722895569
 20
368.8970280655634
 30
0.0
 40
14.2
100
AcDbArc
 50
284.3570682370605
 51
315.0
  0
LINE
  5
19A0
330
1E
100
AcDbEntity
  8
STEMPEL
100
AcDbLine
 10
338.1815662779221
 20
369.9752894682304
 30
0.0
 11
327.0623885824059
 21
358.8561117727143
 31
0.0
  0
ARC
  5
19A1
330
1E
100
AcDbEntity
  8
STEMPEL
100
AcDbCircle
 10
335.7301688641529
 20
396.0910060143979
 30
0.0
 40
24.2
100
AcDbArc
 50
288.1119523822754
 51
315.0
  0
ARC
  5
19A2
330
1E
100
AcDbEntity
  8
STEMPEL
100
AcDbCircle
 10
348.8637503659329
 20
409.2245875161778
 30
0.0
 40
24.2
100
AcDbArc
 50
315.0
 51
345.2636519420999
  0
ARC
  5
19A3
330
1E
100
AcDbEntity
  8
STEMPEL
100
AcDbCircle
 10
252.9044884668244
 20
455.2523672793281
 30
0.0
 40
12.8
100
AcDbArc
 50
315.0
 51
341.8880476177246
  0
ARC
  5
19A4
330
1E
100
AcDbEntity
  8
STEMPEL
100
AcDbCircle
 10
288.0711718121796
 20
443.7500030663712
 30
0.0
 40
24.2
100
AcDbArc
 50
135.0
 51
161.8880476177246
  0
LINE
  5
19A5
330
1E
100
AcDbEntity
  8
STEMPEL
100
AcDbLine
 10
284.0927692092451
 20
473.9955686728655
 30
0.0
 11
270.9591877074653
 21
460.8619871710856
 31
0.0
  0
ARC
  5
19A6
330
1E
100
AcDbEntity
  8
STEMPEL
100
AcDbCircle
 10
239.3705168976073
 20
430.5461085673634
 30
0.0
 40
8.0
100
AcDbArc
 50
310.1254772421762
 51
345.8595810906239
  0
ARC
  5
19A7
330
1E
100
AcDbEntity
  8
STEMPEL
100
AcDbCircle
 10
260.8771938633449
 20
425.0413064917751
 30
0.0
 40
14.2
100
AcDbArc
 50
135.0
 51
165.6429317629395
  0
LINE
  5
19A9
330
1E
100
AcDbEntity
  8
STEMPEL
100
AcDbLine
 10
261.9554552660121
 20
446.2014004801401
 30
0.0
 11
250.836277570496
 21
435.082222784624
 31
0.0
  0
ARC
  5
19AA
330
1E
100
AcDbEntity
  8
STEMPEL
100
AcDbCircle
 10
301.2047533139596
 20
456.8835845681512
 30
0.0
 40
24.2
100
AcDbArc
 50
104.7363480579001
 51
135.0
  0
LINE
  5
19AC
330
1E
100
AcDbEntity
  8
HILF
100
AcDbLine
 10
317.7024334084641
 20
355.2242874299629
 30
0.0
 11
247.2044532277447
 21
425.7222676106824
 31
0.0
  0
LINE
  5
19AD
330
1E
100
AcDbEntity
  8
HILF
100
AcDbLine
 10
323.1694965595817
 20
357.4426927476504
 30
0.0
 11
249.4228585454322
 21
431.1893307617999
 31
0.0
  0
LINE
  5
19AE
330
1E
100
AcDbEntity
  8
HILF
100
AcDbLine
 10
339.6635835847888
 20
372.7018862363808
 30
0.0
 11
264.6820520341627
 21
447.683417787007
 31
0.0
  0
TEXT
  5
19D7
330
1E
100
AcDbEntity
  8
TEXT
100
AcDbText
 10
170.398997108236
 20
63.10765040825732
 30
0.0
 40
4.0
  1
08.04.
 41
0.8
  7
GREEKS
 72
     1
 11
177.4085209177598
 21
63.10765040825732
 31
0.0
100
AcDbText
  0
ENDSEC
  0
SECTION
  2
OBJECTS
  0
DICTIONARY
  5
C
330
0
100
AcDbDictionary
281
     1
  3
ACAD_COLOR
350
1730
  3
ACAD_GROUP
350
D
  3
ACAD_LAYOUT
350
19
  3
ACAD_MATERIAL
350
172F
  3
ACAD_MLINESTYLE
350
16
  3
ACAD_PLOTSETTINGS
350
18
  3
ACAD_PLOTSTYLENAME
350
E
  3
AcDbVariableDictionary
350
246
  0
DICTIONARY
  5
1730
102
{ACAD_REACTORS
330
C
102
}
330
C
100
AcDbDictionary
281
     1
  0
DICTIONARY
  5
D
102
{ACAD_REACTORS
330
C
102
}
330
C
100
AcDbDictionary
281
     1
  0
DICTIONARY
  5
19
102
{ACAD_REACTORS
330
C
102
}
330
C
100
AcDbDictionary
281
     1
  3
Layout1
350
1D
  3
Model
350
21
  0
DICTIONARY
  5
172F
102
{ACAD_REACTORS
330
C
102
}
330
C
100
AcDbDictionary
281
     1
  0
DICTIONARY
  5
16
102
{ACAD_REACTORS
330
C
102
}
330
C
100
AcDbDictionary
281
     1
  3
Standard
350
17
  0
DICTIONARY
  5
18
102
{ACAD_REACTORS
330
C
102
}
330
C
100
AcDbDictionary
281
     1
  0
ACDBDICTIONARYWDFLT
  5
E
102
{ACAD_REACTORS
330
C
102
}
330
C
100
AcDbDictionary
281
     1
  3
Normal
350
F
100
AcDbDictionaryWithDefault
340
F
  0
DICTIONARY
  5
246
102
{ACAD_REACTORS
330
C
102
}
330
C
100
AcDbDictionary
281
     1
  3
DIMASSOC
350
18DC
  3
PROJECTNAME
350
18DD
  3
SORTENTS
350
247
  0
LAYOUT
  5
1D
102
{ACAD_REACTORS
330
19
102
}
330
19
100
AcDbPlotSettings
  1

  2
Tektronix Phaser 740
  4

  6

 40
0.0
 41
0.0
 42
0.0
 43
0.0
 44
0.0
 45
0.0
 46
0.0
 47
0.0
 48
0.0
 49
0.0
140
0.0
141
0.0
142
1.0
143
1.0
 70
   688
 72
     0
 73
     0
 74
     5
  7
monochrome.ctb
 75
    16
147
1.0
 76
     0
 77
     2
 78
   300
148
0.0
149
0.0
100
AcDbLayout
  1
Layout1
 70
     0
 71
     1
 10
0.0
 20
0.0
 11
12.0
 21
9.0
 12
0.0
 22
0.0
 32
0.0
 14
1.000000000000000E+20
 24
1.000000000000000E+20
 34
1.000000000000000E+20
 15
-1.000000000000000E+20
 25
-1.000000000000000E+20
 35
-1.000000000000000E+20
146
0.0
 13
0.0
 23
0.0
 33
0.0
 16
1.0
 26
0.0
 36
0.0
 17
0.0
 27
1.0
 37
0.0
 76
     0
330
1A
  0
LAYOUT
  5
21
102
{ACAD_REACTORS
330
19
102
}
330
19
100
AcDbPlotSettings
  1

  2
Tektronix Phaser 740
  4
A4
  6

 40
5.873749732971191
 41
6.085414409637451
 42
5.577407836914062
 43
5.662078857421875
 44
209.9733276367187
 45
296.9683227539062
 46
0.0
 47
0.0
 48
0.0
 49
0.0
140
0.0
141
0.0
142
1.0
143
1.0
 70
 11952
 72
     0
 73
     1
 74
     0
  7
monochrome.ctb
 75
     0
147
1.0
 76
     0
 77
     2
 78
   300
148
1150.120678237584
149
45.30495740799864
100
AcDbLayout
  1
Model
 70
     1
 71
     0
 10
0.0
 20
0.0
 11
12.0
 21
9.0
 12
0.0
 22
0.0
 32
0.0
 14
0.0
 24
0.0
 34
0.0
 15
0.0
 25
0.0
 35
0.0
146
0.0
 13
0.0
 23
0.0
 33
0.0
 16
1.0
 26
0.0
 36
0.0
 17
0.0
 27
1.0
 37
0.0
 76
     0
330
1E
  0
MLINESTYLE
  5
17
102
{ACAD_REACTORS
330
16
102
}
330
16
100
AcDbMlineStyle
  2
STANDARD
 70
     0
  3

 62
   256
 51
90.0
 52
90.0
 71
     2
 49
0.5
 62
   256
  6
BYLAYER
 49
-0.5
 62
   256
  6
BYLAYER
  0
ACDBPLACEHOLDER
  5
F
102
{ACAD_REACTORS
330
E
102
}
330
E
  0
DICTIONARYVAR
  5
18DC
102
{ACAD_REACTORS
330
246
102
}
330
246
100
DictionaryVariables
280
     0
  1
1
  0
DICTIONARYVAR
  5
18DD
102
{ACAD_REACTORS
330
246
102
}
330
246
100
DictionaryVariables
280
     0
  1

  0
DICTIONARYVAR
  5
247
102
{ACAD_REACTORS
330
246
102
}
330
246
100
DictionaryVariables
280
     0
  1
96
  0
ENDSEC
  0
EOF
