  0
SECTION
  2
HEADER
  9
$ACADVER
  1
AC1018
  9
$ACADMAINTVER
 70
     2
  9
$DWGCODEPAGE
  3
ANSI_1252
  9
$INSBASE
 10
0.0
 20
0.0
 30
0.0
  9
$EXTMIN
 10
-0.0128036914306904
 20
-0.018108077881152
 30
-0.0000000000000023
  9
$EXTMAX
 10
420.0128242284961
 20
594.0181371231585
 30
0.0000000000000129
  9
$LIMMIN
 10
0.0
 20
0.0
  9
$LIMMAX
 10
419.9999999999999
 20
594.0
  9
$ORTHOMODE
 70
     0
  9
$REGENMODE
 70
     1
  9
$FILLMODE
 70
     1
  9
$QTEXTMODE
 70
     0
  9
$MIRRTEXT
 70
     1
  9
$LTSCALE
 40
20.0
  9
$ATTMODE
 70
     1
  9
$TEXTSIZE
 40
3.5
  9
$TRACEWID
 40
0.5
  9
$TEXTSTYLE
  7
STANDARD
  9
$CLAYER
  8
SCHRAFF
  9
$CELTYPE
  6
ByLayer
  9
$CECOLOR
 62
   256
  9
$CELTSCALE
 40
1.0
  9
$DISPSILH
 70
     0
  9
$DIMSCALE
 40
2.0
  9
$DIMASZ
 40
3.5
  9
$DIMEXO
 40
1.0
  9
$DIMDLI
 40
7.0
  9
$DIMRND
 40
0.0
  9
$DIMDLE
 40
0.0
  9
$DIMEXE
 40
1.0
  9
$DIMTP
 40
0.0
  9
$DIMTM
 40
0.0
  9
$DIMTXT
 40
3.5
  9
$DIMCEN
 40
1.5
  9
$DIMTSZ
 40
0.0
  9
$DIMTOL
 70
     0
  9
$DIMLIM
 70
     0
  9
$DIMTIH
 70
     0
  9
$DIMTOH
 70
     0
  9
$DIMSE1
 70
     0
  9
$DIMSE2
 70
     0
  9
$DIMTAD
 70
     1
  9
$DIMZIN
 70
     8
  9
$DIMBLK
  1

  9
$DIMASO
 70
     1
  9
$DIMSHO
 70
     0
  9
$DIMPOST
  1

  9
$DIMAPOST
  1

  9
$DIMALT
 70
     0
  9
$DIMALTD
 70
     2
  9
$DIMALTF
 40
25.4
  9
$DIMLFAC
 40
1.0
  9
$DIMTOFL
 70
     1
  9
$DIMTVP
 40
0.0
  9
$DIMTIX
 70
     0
  9
$DIMSOXD
 70
     0
  9
$DIMSAH
 70
     0
  9
$DIMBLK1
  1

  9
$DIMBLK2
  1

  9
$DIMSTYLE
  2
Standard
  9
$DIMCLRD
 70
     0
  9
$DIMCLRE
 70
     0
  9
$DIMCLRT
 70
     1
  9
$DIMTFAC
 40
0.5142857142857144
  9
$DIMGAP
 40
1.5
  9
$DIMJUST
 70
     0
  9
$DIMSD1
 70
     0
  9
$DIMSD2
 70
     0
  9
$DIMTOLJ
 70
     1
  9
$DIMTZIN
 70
     8
  9
$DIMALTZ
 70
     8
  9
$DIMALTTZ
 70
     8
  9
$DIMUPT
 70
     0
  9
$DIMDEC
 70
     2
  9
$DIMTDEC
 70
     2
  9
$DIMALTU
 70
     2
  9
$DIMALTTD
 70
     2
  9
$DIMTXSTY
  7
STANDARD
  9
$DIMAUNIT
 70
     0
  9
$DIMADEC
 70
     2
  9
$DIMALTRND
 40
0.0
  9
$DIMAZIN
 70
     2
  9
$DIMDSEP
 70
    46
  9
$DIMATFIT
 70
     3
  9
$DIMFRAC
 70
     0
  9
$DIMLDRBLK
  1

  9
$DIMLUNIT
 70
     2
  9
$DIMLWD
 70
    -2
  9
$DIMLWE
 70
    -2
  9
$DIMTMOVE
 70
     0
  9
$LUNITS
 70
     2
  9
$LUPREC
 70
     2
  9
$SKETCHINC
 40
1.0
  9
$FILLETRAD
 40
0.0
  9
$AUNITS
 70
     1
  9
$AUPREC
 70
     3
  9
$MENU
  1
ACAD
  9
$ELEVATION
 40
0.0
  9
$PELEVATION
 40
0.0
  9
$THICKNESS
 40
0.0
  9
$LIMCHECK
 70
     0
  9
$CHAMFERA
 40
0.0
  9
$CHAMFERB
 40
0.0
  9
$CHAMFERC
 40
0.0
  9
$CHAMFERD
 40
0.0
  9
$SKPOLY
 70
     0
  9
$TDCREATE
 40
2452040.637099653
  9
$TDUCREATE
 40
2452040.553766320
  9
$TDUPDATE
 40
2455660.369144433
  9
$TDUUPDATE
 40
2455660.285811100
  9
$TDINDWG
 40
0.5852373148
  9
$TDUSRTIMER
 40
0.5852373148
  9
$USRTIMER
 70
     1
  9
$ANGBASE
 50
0.0
  9
$ANGDIR
 70
     0
  9
$PDMODE
 70
     0
  9
$PDSIZE
 40
0.0
  9
$PLINEWID
 40
0.0
  9
$SPLFRAME
 70
     0
  9
$SPLINETYPE
 70
     6
  9
$SPLINESEGS
 70
     8
  9
$HANDSEED
  5
2B2D
  9
$SURFTAB1
 70
     6
  9
$SURFTAB2
 70
     6
  9
$SURFTYPE
 70
     6
  9
$SURFU
 70
     6
  9
$SURFV
 70
     6
  9
$UCSBASE
  2

  9
$UCSNAME
  2

  9
$UCSORG
 10
0.0
 20
0.0
 30
0.0
  9
$UCSXDIR
 10
1.0
 20
0.0
 30
0.0
  9
$UCSYDIR
 10
0.0
 20
1.0
 30
0.0
  9
$UCSORTHOREF
  2

  9
$UCSORTHOVIEW
 70
     0
  9
$UCSORGTOP
 10
0.0
 20
0.0
 30
0.0
  9
$UCSORGBOTTOM
 10
0.0
 20
0.0
 30
0.0
  9
$UCSORGLEFT
 10
0.0
 20
0.0
 30
0.0
  9
$UCSORGRIGHT
 10
0.0
 20
0.0
 30
0.0
  9
$UCSORGFRONT
 10
0.0
 20
0.0
 30
0.0
  9
$UCSORGBACK
 10
0.0
 20
0.0
 30
0.0
  9
$PUCSBASE
  2

  9
$PUCSNAME
  2

  9
$PUCSORG
 10
0.0
 20
0.0
 30
0.0
  9
$PUCSXDIR
 10
1.0
 20
0.0
 30
0.0
  9
$PUCSYDIR
 10
0.0
 20
1.0
 30
0.0
  9
$PUCSORTHOREF
  2

  9
$PUCSORTHOVIEW
 70
     0
  9
$PUCSORGTOP
 10
0.0
 20
0.0
 30
0.0
  9
$PUCSORGBOTTOM
 10
0.0
 20
0.0
 30
0.0
  9
$PUCSORGLEFT
 10
0.0
 20
0.0
 30
0.0
  9
$PUCSORGRIGHT
 10
0.0
 20
0.0
 30
0.0
  9
$PUCSORGFRONT
 10
0.0
 20
0.0
 30
0.0
  9
$PUCSORGBACK
 10
0.0
 20
0.0
 30
0.0
  9
$USERI1
 70
     0
  9
$USERI2
 70
     0
  9
$USERI3
 70
     0
  9
$USERI4
 70
     0
  9
$USERI5
 70
     0
  9
$USERR1
 40
0.0
  9
$USERR2
 40
0.0
  9
$USERR3
 40
0.0
  9
$USERR4
 40
0.0
  9
$USERR5
 40
0.0
  9
$WORLDVIEW
 70
     1
  9
$SHADEDGE
 70
     3
  9
$SHADEDIF
 70
    70
  9
$TILEMODE
 70
     1
  9
$MAXACTVP
 70
    16
  9
$PINSBASE
 10
0.0
 20
0.0
 30
0.0
  9
$PLIMCHECK
 70
     0
  9
$PEXTMIN
 10
1.000000000000000E+20
 20
1.000000000000000E+20
 30
1.000000000000000E+20
  9
$PEXTMAX
 10
-1.000000000000000E+20
 20
-1.000000000000000E+20
 30
-1.000000000000000E+20
  9
$PLIMMIN
 10
0.0
 20
0.0
  9
$PLIMMAX
 10
12.0
 20
9.0
  9
$UNITMODE
 70
     0
  9
$VISRETAIN
 70
     0
  9
$PLINEGEN
 70
     0
  9
$PSLTSCALE
 70
     0
  9
$TREEDEPTH
 70
  3020
  9
$CMLSTYLE
  2
Standard
  9
$CMLJUST
 70
     0
  9
$CMLSCALE
 40
1.0
  9
$PROXYGRAPHICS
 70
     1
  9
$MEASUREMENT
 70
     0
  9
$CELWEIGHT
370
    -1
  9
$ENDCAPS
280
     0
  9
$JOINSTYLE
280
     0
  9
$LWDISPLAY
290
     0
  9
$INSUNITS
 70
     0
  9
$HYPERLINKBASE
  1

  9
$STYLESHEET
  1
monochrome 1.ctb
  9
$XEDIT
290
     1
  9
$CEPSNTYPE
380
     0
  9
$PSTYLEMODE
290
     1
  9
$FINGERPRINTGUID
  2
{7AADB5C8-6110-11D8-B72B-000102183313}
  9
$VERSIONGUID
  2
{EEFFB3D3-9194-4681-83F0-3AFC1A425651}
  9
$EXTNAMES
290
     1
  9
$PSVPSCALE
 40
0.0
  9
$OLESTARTUP
290
     0
  9
$SORTENTS
280
    96
  9
$INDEXCTL
280
     0
  9
$HIDETEXT
280
     0
  9
$XCLIPFRAME
290
     0
  9
$HALOGAP
280
     0
  9
$OBSCOLOR
 70
   257
  9
$OBSLTYPE
280
     0
  9
$INTERSECTIONDISPLAY
280
     0
  9
$INTERSECTIONCOLOR
 70
   257
  9
$DIMASSOC
280
     1
  9
$PROJECTNAME
  1

  0
ENDSEC
  0
SECTION
  2
CLASSES
  0
CLASS
  1
ACDBDICTIONARYWDFLT
  2
AcDbDictionaryWithDefault
  3
ObjectDBX Classes
 90
        0
 91
        1
280
     0
281
     0
  0
CLASS
  1
DICTIONARYVAR
  2
AcDbDictionaryVar
  3
ObjectDBX Classes
 90
        0
 91
        3
280
     0
281
     0
  0
ENDSEC
  0
SECTION
  2
TABLES
  0
TABLE
  2
VPORT
  5
8
330
0
100
AcDbSymbolTable
 70
     3
  0
VPORT
  5
2B2C
330
8
100
AcDbSymbolTableRecord
100
AcDbViewportTableRecord
  2
*Active
 70
     0
 10
0.0
 20
0.0
 11
1.0
 21
1.0
 12
210.0
 22
297.0
 13
0.0
 23
0.0
 14
1.0
 24
1.0
 15
10.0
 25
10.0
 16
0.0
 26
0.0
 36
1.0
 17
0.0
 27
0.0
 37
0.0
 40
594.0
 41
1.334231805929919
 42
50.0
 43
0.0
 44
0.0
 50
0.0
 51
0.0
 71
     0
 72
  1500
 73
     1
 74
     0
 75
     0
 76
     0
 77
     0
 78
     0
281
     0
 65
     1
110
0.0
120
0.0
130
0.0
111
1.0
121
0.0
131
0.0
112
0.0
122
1.0
132
0.0
 79
     0
146
0.0
  0
ENDTAB
  0
TABLE
  2
LTYPE
  5
5
330
0
100
AcDbSymbolTable
 70
     2
  0
LTYPE
  5
13
330
5
100
AcDbSymbolTableRecord
100
AcDbLinetypeTableRecord
  2
ByBlock
 70
     0
  3

 72
    65
 73
     0
 40
0.0
  0
LTYPE
  5
14
330
5
100
AcDbSymbolTableRecord
100
AcDbLinetypeTableRecord
  2
ByLayer
 70
     0
  3

 72
    65
 73
     0
 40
0.0
  0
LTYPE
  5
15
330
5
100
AcDbSymbolTableRecord
100
AcDbLinetypeTableRecord
  2
Continuous
 70
     0
  3
Solid line
 72
    65
 73
     0
 40
0.0
  0
LTYPE
  5
35
330
5
100
AcDbSymbolTableRecord
100
AcDbLinetypeTableRecord
  2
STRICHPUNKT
 70
     0
  3
__ . __ . __ . __ . __ . __ . __ . __ . __ . __
 72
    65
 73
     4
 40
1.0
 49
0.5
 74
     0
 49
-0.25
 74
     0
 49
0.0
 74
     0
 49
-0.25
 74
     0
  0
ENDTAB
  0
TABLE
  2
LAYER
  5
2
330
0
100
AcDbSymbolTable
 70
     9
  0
LAYER
  5
10
330
2
100
AcDbSymbolTableRecord
100
AcDbLayerTableRecord
  2
0
 70
     0
 62
     7
  6
Continuous
370
    -3
390
F
  0
LAYER
  5
38
330
2
100
AcDbSymbolTableRecord
100
AcDbLayerTableRecord
  2
VOLL
 70
     0
 62
     1
  6
Continuous
370
    -3
390
F
  0
LAYER
  5
39
330
2
100
AcDbSymbolTableRecord
100
AcDbLayerTableRecord
  2
HILF
 70
     0
 62
     2
  6
Continuous
370
    -3
390
F
  0
LAYER
  5
3A
330
2
100
AcDbSymbolTableRecord
100
AcDbLayerTableRecord
  2
MITTEL
 70
     0
 62
     2
  6
STRICHPUNKT
370
    -3
390
F
  0
LAYER
  5
3B
330
2
100
AcDbSymbolTableRecord
100
AcDbLayerTableRecord
  2
BEM
 70
     0
 62
     7
  6
Continuous
370
    -3
390
F
  0
LAYER
  5
3C
330
2
100
AcDbSymbolTableRecord
100
AcDbLayerTableRecord
  2
STEMPEL
 70
     0
 62
     3
  6
Continuous
370
    -3
390
F
  0
LAYER
  5
3D
330
2
100
AcDbSymbolTableRecord
100
AcDbLayerTableRecord
  2
TEXT
 70
     0
 62
     7
  6
Continuous
370
    -3
390
F
  0
LAYER
  5
3E
330
2
100
AcDbSymbolTableRecord
100
AcDbLayerTableRecord
  2
DEFPOINTS
 70
     0
 62
     7
  6
Continuous
290
     0
370
    -3
390
F
  0
LAYER
  5
3F
330
2
100
AcDbSymbolTableRecord
100
AcDbLayerTableRecord
  2
SCHRAFF
 70
     0
 62
     7
  6
Continuous
370
    -3
390
F
  0
ENDTAB
  0
TABLE
  2
STYLE
  5
3
330
0
100
AcDbSymbolTable
 70
     2
  0
STYLE
  5
11
330
3
100
AcDbSymbolTableRecord
100
AcDbTextStyleTableRecord
  2
STANDARD
 70
     0
 40
0.0
 41
0.8
 50
0.0
 71
     0
 42
3.5
  3
simplex.shx
  4

  0
STYLE
  5
34
330
3
100
AcDbSymbolTableRecord
100
AcDbTextStyleTableRecord
  2
GREEKS
 70
     0
 40
0.0
 41
0.8
 50
0.0
 71
     0
 42
2.5
  3
SIMPLEX.shx
  4

  0
ENDTAB
  0
TABLE
  2
VIEW
  5
6
330
0
100
AcDbSymbolTable
 70
     0
  0
ENDTAB
  0
TABLE
  2
UCS
  5
7
330
0
100
AcDbSymbolTable
 70
     0
  0
ENDTAB
  0
TABLE
  2
APPID
  5
9
330
0
100
AcDbSymbolTable
 70
     2
  0
APPID
  5
12
330
9
100
AcDbSymbolTableRecord
100
AcDbRegAppTableRecord
  2
ACAD
 70
     0
  0
APPID
  5
1555
330
9
100
AcDbSymbolTableRecord
100
AcDbRegAppTableRecord
  2
AVE_RENDER
 70
     0
  0
ENDTAB
  0
TABLE
  2
DIMSTYLE
  5
A
330
0
100
AcDbSymbolTable
 70
     1
100
AcDbDimStyleTable
 71
     1
340
1CB
  0
DIMSTYLE
105
1CB
102
{ACAD_REACTORS
330
170F
330
1AB8
330
1AE8
330
27AA
330
29E1
330
2AD9
102
}
330
A
100
AcDbSymbolTableRecord
100
AcDbDimStyleTableRecord
  2
Standard
 70
     0
340
11
  0
ENDTAB
  0
TABLE
  2
BLOCK_RECORD
  5
1
330
0
100
AcDbSymbolTable
 70
     9
  0
BLOCK_RECORD
  5
1E
330
1
100
AcDbSymbolTableRecord
100
AcDbBlockTableRecord
  2
*Model_Space
340
21
  0
BLOCK_RECORD
  5
1A
330
1
100
AcDbSymbolTableRecord
100
AcDbBlockTableRecord
  2
*Paper_Space
340
1D
  0
BLOCK_RECORD
  5
22
330
1
100
AcDbSymbolTableRecord
100
AcDbBlockTableRecord
  2
LOGO
340
0
102
{BLKREFS
331
135
102
}
  0
BLOCK_RECORD
  5
1710
330
1
100
AcDbSymbolTableRecord
100
AcDbBlockTableRecord
  2
*D1
340
0
  0
BLOCK_RECORD
  5
1AB9
330
1
100
AcDbSymbolTableRecord
100
AcDbBlockTableRecord
  2
*D2
340
0
  0
BLOCK_RECORD
  5
1AE9
330
1
100
AcDbSymbolTableRecord
100
AcDbBlockTableRecord
  2
*D3
340
0
  0
BLOCK_RECORD
  5
27AB
330
1
100
AcDbSymbolTableRecord
100
AcDbBlockTableRecord
  2
*D6
340
0
  0
BLOCK_RECORD
  5
29E2
330
1
100
AcDbSymbolTableRecord
100
AcDbBlockTableRecord
  2
*D7
340
0
  0
BLOCK_RECORD
  5
2ADA
330
1
100
AcDbSymbolTableRecord
100
AcDbBlockTableRecord
  2
*D8
340
0
  0
ENDTAB
  0
ENDSEC
  0
SECTION
  2
BLOCKS
  0
BLOCK
  5
43
330
1E
100
AcDbEntity
  8
0
100
AcDbBlockBegin
  2
*Model_Space
 70
     0
 10
0.0
 20
0.0
 30
0.0
  3
*Model_Space
  1

  0
ENDBLK
  5
44
330
1E
100
AcDbEntity
  8
0
100
AcDbBlockEnd
  0
BLOCK
  5
41
330
1A
100
AcDbEntity
 67
     1
  8
0
100
AcDbBlockBegin
  2
*Paper_Space
 70
     0
 10
0.0
 20
0.0
 30
0.0
  3
*Paper_Space
  1

  0
ENDBLK
  5
42
330
1A
100
AcDbEntity
 67
     1
  8
0
100
AcDbBlockEnd
  0
BLOCK
  5
45
330
22
100
AcDbEntity
  8
0
100
AcDbBlockBegin
  2
LOGO
 70
     0
 10
0.0
 20
0.0
 30
0.0
  3
LOGO
  1

  0
ARC
  5
46
330
22
100
AcDbEntity
  8
0
100
AcDbCircle
 10
11.59973089678112
 20
-9.271599258481501
 30
0.0
 40
4.5
100
AcDbArc
 50
270.0
 51
231.0575587310159
  0
LINE
  5
47
330
22
100
AcDbEntity
  8
0
100
AcDbLine
 10
3.599730896781125
 20
-4.771599258481529
 30
0.0
 11
3.599730896781153
 21
-11.77159925848133
 31
0.0
  0
LINE
  5
48
330
22
100
AcDbEntity
  8
0
100
AcDbLine
 10
2.599730896781125
 20
-4.771599258481529
 30
0.0
 11
2.599730896781153
 21
-11.77159925848133
 31
0.0
  0
CIRCLE
  5
49
330
22
100
AcDbEntity
  8
0
100
AcDbCircle
 10
11.59973089678112
 20
-9.271599258481501
 30
0.0
 40
3.5
  0
ARC
  5
4A
330
22
100
AcDbEntity
  8
0
100
AcDbCircle
 10
31.59973089678115
 20
-9.271599258481472
 30
0.0
 40
4.5
100
AcDbArc
 50
270.0
 51
231.0575587310182
  0
LINE
  5
4B
330
22
100
AcDbEntity
  8
0
100
AcDbLine
 10
17.59973089678112
 20
-4.771599258481472
 30
0.0
 11
17.59973089678115
 21
-13.77159925848147
 31
0.0
  0
ARC
  5
4C
330
22
100
AcDbEntity
  8
0
100
AcDbCircle
 10
22.59973089678116
 20
-7.271599258481472
 30
0.0
 40
2.5
100
AcDbArc
 50
293.1161887722295
 51
90.0
  0
CIRCLE
  5
4D
330
22
100
AcDbEntity
  8
0
100
AcDbCircle
 10
31.59973089678115
 20
-9.271599258481472
 30
0.0
 40
3.5
  0
ARC
  5
4E
330
22
100
AcDbEntity
  8
0
100
AcDbCircle
 10
4.599730896781153
 20
-11.77159925848133
 30
0.0
 40
1.0
100
AcDbArc
 50
180.0
 51
270.0
  0
ARC
  5
4F
330
22
100
AcDbEntity
  8
0
100
AcDbCircle
 10
4.599730896781153
 20
-11.77159925848133
 30
0.0
 40
2.0
100
AcDbArc
 50
179.9999999999992
 51
270.0
  0
LINE
  5
50
330
22
100
AcDbEntity
  8
0
100
AcDbLine
 10
11.59973089678115
 20
-13.77159925848144
 30
0.0
 11
4.599730896781153
 21
-13.77159925848147
 31
0.0
  0
LINE
  5
51
330
22
100
AcDbEntity
  8
0
100
AcDbLine
 10
8.771303772034769
 20
-12.77159925848136
 30
0.0
 11
4.599730896781153
 21
-12.77159925848133
 31
0.0
  0
LINE
  5
52
330
22
100
AcDbEntity
  8
0
100
AcDbLine
 10
31.59973089678115
 20
-13.77159925848147
 30
0.0
 11
23.6715276665056
 21
-13.77159925848144
 31
0.0
  0
LINE
  5
53
330
22
100
AcDbEntity
  8
0
100
AcDbLine
 10
23.56565672307022
 20
-9.51278021337896
 30
0.0
 11
24.4388546544846
 21
-12.77159925848144
 31
0.0
  0
LINE
  5
54
330
22
100
AcDbEntity
  8
0
100
AcDbLine
 10
22.59973089678116
 20
-9.771599258481472
 30
0.0
 11
18.59973089678112
 21
-9.771599258481472
 31
0.0
  0
LINE
  5
55
330
22
100
AcDbEntity
  8
0
100
AcDbLine
 10
18.59973089678115
 20
-13.77159925848144
 30
0.0
 11
17.59973089678115
 21
-13.77159925848144
 31
0.0
  0
LINE
  5
56
330
22
100
AcDbEntity
  8
0
100
AcDbLine
 10
18.59973089678115
 20
-9.771599258481472
 30
0.0
 11
18.59973089678115
 21
-13.77159925848144
 31
0.0
  0
LINE
  5
57
330
22
100
AcDbEntity
  8
0
100
AcDbLine
 10
22.59973089678116
 20
-9.771599258481472
 30
0.0
 11
23.67152766650562
 21
-13.77159925848147
 31
0.0
  0
ARC
  5
58
330
22
100
AcDbEntity
  8
0
100
AcDbCircle
 10
22.59973089678116
 20
-7.271599258481472
 30
0.0
 40
2.5
100
AcDbArc
 50
270.0
 51
270.0000000000007
  0
LINE
  5
59
330
22
100
AcDbEntity
  8
0
100
AcDbLine
 10
28.77130377203494
 20
-12.77159925848147
 30
0.0
 11
24.43885465448463
 21
-12.77159925848144
 31
0.0
  0
LINE
  5
5A
330
22
100
AcDbEntity
  8
0
100
AcDbLine
 10
3.599730896781125
 20
-4.771599258481472
 30
0.0
 11
2.599730896781125
 21
-4.771599258481472
 31
0.0
  0
LINE
  5
5B
330
22
100
AcDbEntity
  8
0
100
AcDbLine
 10
22.59973089678116
 20
-8.771599258481472
 30
0.0
 11
18.59973089678115
 21
-8.771599258481472
 31
0.0
  0
LINE
  5
5C
330
22
100
AcDbEntity
  8
0
100
AcDbLine
 10
22.59973089678116
 20
-5.771599258481472
 30
0.0
 11
18.59973089678115
 21
-5.771599258481472
 31
0.0
  0
LINE
  5
5D
330
22
100
AcDbEntity
  8
0
100
AcDbLine
 10
22.59973089678116
 20
-4.771599258481472
 30
0.0
 11
17.59973089678115
 21
-4.771599258481472
 31
0.0
  0
LINE
  5
5E
330
22
100
AcDbEntity
  8
0
100
AcDbLine
 10
18.59973089678115
 20
-5.771599258481472
 30
0.0
 11
18.59973089678115
 21
-8.771599258481472
 31
0.0
  0
ARC
  5
5F
330
22
100
AcDbEntity
  8
0
100
AcDbCircle
 10
22.59973089678116
 20
-7.271599258481472
 30
0.0
 40
1.5
100
AcDbArc
 50
270.0
 51
90.0
  0
ENDBLK
  5
60
330
22
100
AcDbEntity
  8
0
100
AcDbBlockEnd
  0
BLOCK
  5
171A
330
1710
100
AcDbEntity
  8
0
100
AcDbBlockBegin
  2
*D1
 70
     1
 10
0.0
 20
0.0
 30
0.0
  3
*D1
  1

  0
LINE
  5
2B22
330
1710
100
AcDbEntity
  8
BEM
 62
     0
370
    -2
100
AcDbLine
 10
130.036976919046
 20
182.7383452322626
 30
0.0
 11
111.0344840713402
 21
182.7383452322626
 31
0.0
  0
LINE
  5
2B23
330
1710
100
AcDbEntity
  8
BEM
 62
     0
370
    -2
100
AcDbLine
 10
180.137067610839
 20
282.7383452322623
 30
0.0
 11
111.0344840713402
 21
282.7383452322624
 31
0.0
  0
LINE
  5
2B24
330
1710
100
AcDbEntity
  8
BEM
 62
     0
370
    -2
100
AcDbLine
 10
113.0344840713402
 20
189.7383452322626
 30
0.0
 11
113.0344840713402
 21
275.7383452322624
 31
0.0
  0
SOLID
  5
2B25
330
1710
100
AcDbEntity
  8
BEM
 62
     0
100
AcDbTrace
 10
111.8678174046735
 20
189.7383452322626
 30
0.0
 11
114.2011507380069
 21
189.7383452322626
 31
0.0
 12
113.0344840713402
 22
182.7383452322626
 32
0.0
 13
113.0344840713402
 23
182.7383452322626
 33
0.0
  0
SOLID
  5
2B26
330
1710
100
AcDbEntity
  8
BEM
 62
     0
100
AcDbTrace
 10
111.8678174046735
 20
275.7383452322624
 30
0.0
 11
114.2011507380069
 21
275.7383452322624
 31
0.0
 12
113.0344840713402
 22
282.7383452322624
 32
0.0
 13
113.0344840713402
 23
282.7383452322624
 33
0.0
  0
MTEXT
  5
2B27
330
1710
100
AcDbEntity
  8
BEM
 62
     1
100
AcDbMText
 10
106.5344840713402
 20
232.7383452322625
 30
0.0
 40
7.0
 41
0.0
 71
     5
 72
     1
  1
\A1;100
 11
0.0000000000000001
 21
1.0
 31
0.0
 73
     1
 44
1.0
  0
POINT
  5
2B28
330
1710
100
AcDbEntity
  8
DEFPOINTS
 62
     0
100
AcDbPoint
 10
132.0369769190461
 20
182.7383452322626
 30
0.0
  0
POINT
  5
2B29
330
1710
100
AcDbEntity
  8
DEFPOINTS
 62
     0
100
AcDbPoint
 10
182.137067610839
 20
282.7383452322623
 30
0.0
  0
POINT
  5
2B2A
330
1710
100
AcDbEntity
  8
DEFPOINTS
 62
     0
100
AcDbPoint
 10
113.0344840713402
 20
282.7383452322624
 30
0.0
  0
ENDBLK
  5
171B
330
1710
100
AcDbEntity
  8
0
100
AcDbBlockEnd
  0
BLOCK
  5
1AC3
330
1AB9
100
AcDbEntity
  8
0
100
AcDbBlockBegin
  2
*D2
 70
     1
 10
0.0
 20
0.0
 30
0.0
  3
*D2
  1

  0
LINE
  5
2B19
330
1AB9
100
AcDbEntity
  8
BEM
 62
     0
370
    -2
100
AcDbLine
 10
125.477284692116
 20
502.7416381365927
 30
0.0
 11
94.31597440096236
 21
502.7416381365927
 31
0.0
  0
LINE
  5
2B1A
330
1AB9
100
AcDbEntity
  8
BEM
 62
     0
370
    -2
100
AcDbLine
 10
130.036976919046
 20
182.7383452322626
 30
0.0
 11
94.31597440096229
 21
182.7383452322626
 31
0.0
  0
LINE
  5
2B1B
330
1AB9
100
AcDbEntity
  8
BEM
 62
     0
370
    -2
100
AcDbLine
 10
96.31597440096236
 20
495.7416381365927
 30
0.0
 11
96.31597440096228
 21
189.7383452322626
 31
0.0
  0
SOLID
  5
2B1C
330
1AB9
100
AcDbEntity
  8
BEM
 62
     0
100
AcDbTrace
 10
95.14930773429568
 20
495.7416381365927
 30
0.0
 11
97.48264106762903
 21
495.7416381365927
 31
0.0
 12
96.31597440096236
 22
502.7416381365927
 32
0.0
 13
96.31597440096236
 23
502.7416381365927
 33
0.0
  0
SOLID
  5
2B1D
330
1AB9
100
AcDbEntity
  8
BEM
 62
     0
100
AcDbTrace
 10
95.14930773429561
 20
189.7383452322626
 30
0.0
 11
97.48264106762896
 21
189.7383452322626
 31
0.0
 12
96.31597440096228
 22
182.7383452322626
 32
0.0
 13
96.31597440096228
 23
182.7383452322626
 33
0.0
  0
MTEXT
  5
2B1E
330
1AB9
100
AcDbEntity
  8
BEM
 62
     1
100
AcDbMText
 10
89.81597440096226
 20
342.7399916844278
 30
0.0
 40
7.0
 41
0.0
 71
     5
 72
     1
  1
\A1;320
 11
0.0000000000000001
 21
1.0
 31
0.0
 73
     1
 44
1.0
  0
POINT
  5
2B1F
330
1AB9
100
AcDbEntity
  8
DEFPOINTS
 62
     0
100
AcDbPoint
 10
127.477284692116
 20
502.7416381365927
 30
0.0
  0
POINT
  5
2B20
330
1AB9
100
AcDbEntity
  8
DEFPOINTS
 62
     0
100
AcDbPoint
 10
132.0369769190461
 20
182.7383452322626
 30
0.0
  0
POINT
  5
2B21
330
1AB9
100
AcDbEntity
  8
DEFPOINTS
 62
     0
100
AcDbPoint
 10
96.31597440096228
 20
182.7383452322626
 30
0.0
  0
ENDBLK
  5
1AC4
330
1AB9
100
AcDbEntity
  8
0
100
AcDbBlockEnd
  0
BLOCK
  5
1AF3
330
1AE9
100
AcDbEntity
  8
0
100
AcDbBlockBegin
  2
*D3
 70
     1
 10
0.0
 20
0.0
 30
0.0
  3
*D3
  1

  0
LINE
  5
29AC
330
1AE9
100
AcDbEntity
  8
BEM
 62
     0
370
    -2
100
AcDbLine
 10
131.3370676108387
 20
188.7383452322627
 30
0.0
 11
131.3370676108387
 21
159.6484559791852
 31
0.0
  0
LINE
  5
29AD
330
1AE9
100
AcDbEntity
  8
BEM
 62
     0
370
    -2
100
AcDbLine
 10
232.9370676108386
 20
188.7383452322619
 30
0.0
 11
232.9370676108386
 21
159.6484559791852
 31
0.0
  0
LINE
  5
29AE
330
1AE9
100
AcDbEntity
  8
BEM
 62
     0
370
    -2
100
AcDbLine
 10
138.3370676108387
 20
161.6484559791852
 30
0.0
 11
225.9370676108387
 21
161.6484559791852
 31
0.0
  0
SOLID
  5
29AF
330
1AE9
100
AcDbEntity
  8
BEM
 62
     0
100
AcDbTrace
 10
138.3370676108387
 20
162.8151226458519
 30
0.0
 11
138.3370676108387
 21
160.4817893125186
 31
0.0
 12
131.3370676108387
 22
161.6484559791852
 32
0.0
 13
131.3370676108387
 23
161.6484559791852
 33
0.0
  0
SOLID
  5
29B0
330
1AE9
100
AcDbEntity
  8
BEM
 62
     0
100
AcDbTrace
 10
225.9370676108387
 20
162.8151226458519
 30
0.0
 11
225.9370676108387
 21
160.4817893125186
 31
0.0
 12
232.9370676108386
 22
161.6484559791852
 32
0.0
 13
232.9370676108386
 23
161.6484559791852
 33
0.0
  0
MTEXT
  5
29B1
330
1AE9
100
AcDbEntity
  8
BEM
 62
     1
100
AcDbMText
 10
182.1370676108387
 20
168.1484559791852
 30
0.0
 40
7.0
 41
0.0
 71
     5
 72
     1
  1
\A1;%%c101.6
 73
     1
 44
1.0
  0
POINT
  5
29B2
330
1AE9
100
AcDbEntity
  8
DEFPOINTS
 62
     0
100
AcDbPoint
 10
131.3370676108387
 20
190.7383452322627
 30
0.0
  0
POINT
  5
29B3
330
1AE9
100
AcDbEntity
  8
DEFPOINTS
 62
     0
100
AcDbPoint
 10
232.9370676108386
 20
190.7383452322619
 30
0.0
  0
POINT
  5
29B4
330
1AE9
100
AcDbEntity
  8
DEFPOINTS
 62
     0
100
AcDbPoint
 10
232.9370676108386
 20
161.6484559791852
 30
0.0
  0
ENDBLK
  5
1AF4
330
1AE9
100
AcDbEntity
  8
0
100
AcDbBlockEnd
  0
BLOCK
  5
27B5
330
27AB
100
AcDbEntity
  8
0
100
AcDbBlockBegin
  2
*D6
 70
     1
 10
0.0
 20
0.0
 30
0.0
  3
*D6
  1

  0
LINE
  5
29F5
330
27AB
100
AcDbEntity
  8
BEM
 62
     0
370
    -2
100
AcDbLine
 10
231.522854048466
 20
394.985924517373
 30
0.0
 11
155.4267350293114
 21
318.8898054982177
 31
0.0
  0
LINE
  5
29F6
330
27AB
100
AcDbEntity
  8
BEM
 62
     0
370
    -2
100
AcDbLine
 10
231.5228540484656
 20
269.2623388224047
 30
0.0
 11
218.2885278767955
 21
256.0280126507344
 31
0.0
  0
LINE
  5
29F7
330
27AB
100
AcDbEntity
  8
BEM
 62
     0
370
    -2
100
AcDbLine
 10
161.7906960599905
 20
315.3542715922849
 30
0.0
 11
214.7529939708627
 21
262.3919736814133
 31
0.0
  0
SOLID
  5
29F8
330
27AB
100
AcDbEntity
  8
BEM
 62
     0
100
AcDbTrace
 10
162.6156539713747
 20
316.1792295036693
 30
0.0
 11
160.9657381486061
 21
314.5293136809006
 31
0.0
 12
156.8409485916846
 22
320.3040190605908
 32
0.0
 13
156.8409485916846
 23
320.3040190605908
 33
0.0
  0
SOLID
  5
29F9
330
27AB
100
AcDbEntity
  8
BEM
 62
     0
100
AcDbTrace
 10
215.577951882247
 20
263.2169315927976
 30
0.0
 11
213.9280360594784
 21
261.567015770029
 31
0.0
 12
219.7027414391686
 22
257.4422262131075
 32
0.0
 13
219.7027414391686
 23
257.4422262131075
 33
0.0
  0
MTEXT
  5
29FA
330
27AB
100
AcDbEntity
  8
BEM
 62
     1
100
AcDbMText
 10
192.8680390931391
 20
293.4693167145617
 30
0.0
 40
7.0
 41
0.0
 71
     5
 72
     1
  1
\A1;%%c88.9
 11
0.7071067811865514
 21
-0.7071067811865437
 31
0.0
 73
     1
 44
1.0
  0
POINT
  5
29FB
330
27AB
100
AcDbEntity
  8
DEFPOINTS
 62
     0
100
AcDbPoint
 10
232.937067610839
 20
396.400138079746
 30
0.0
  0
POINT
  5
29FC
330
27AB
100
AcDbEntity
  8
DEFPOINTS
 62
     0
100
AcDbPoint
 10
232.9370676108386
 20
270.6765523847778
 30
0.0
  0
POINT
  5
29FD
330
27AB
100
AcDbEntity
  8
DEFPOINTS
 62
     0
100
AcDbPoint
 10
219.7027414391685
 20
257.4422262131075
 30
0.0
  0
ENDBLK
  5
27B6
330
27AB
100
AcDbEntity
  8
0
100
AcDbBlockEnd
  0
BLOCK
  5
29EE
330
29E2
100
AcDbEntity
  8
0
100
AcDbBlockBegin
  2
*D7
 70
     1
 10
0.0
 20
0.0
 30
0.0
  3
*D7
  1

  0
LINE
  5
29E3
330
29E2
100
AcDbEntity
  8
BEM
 62
     0
370
    -2
100
AcDbLine
 10
332.043705222387
 20
432.6449828438102
 30
0.0
 11
355.2427958198475
 21
455.8440734412704
 31
0.0
  0
LINE
  5
29E4
330
29E2
100
AcDbEntity
  8
BEM
 62
     0
370
    -2
100
AcDbLine
 10
182.1370676108393
 20
509.7416381365921
 30
0.0
 11
182.1370676108394
 21
527.5468137899127
 31
0.0
  0
ARC
  5
29E5
330
29E2
100
AcDbEntity
  8
BEM
 62
     0
370
    -2
100
AcDbCircle
 10
182.1370676108388
 20
282.7383452322621
 30
0.0
 40
242.8084685576507
100
AcDbArc
 50
46.65185485289192
 51
88.34814514710792
  0
SOLID
  5
29E6
330
29E2
100
AcDbEntity
  8
BEM
 62
     0
100
AcDbTrace
 10
349.6209808733143
 20
460.1445078735795
 30
0.0
 11
347.9950194363449
 21
458.4709805060312
 31
0.0
 12
353.8285822574744
 22
454.4298598788973
 32
0.0
 13
353.8285822574744
 23
454.4298598788973
 33
0.0
  0
SOLID
  5
29E7
330
29E2
100
AcDbEntity
  8
BEM
 62
     0
100
AcDbTrace
 10
189.1195232391769
 20
524.2793657596537
 30
0.0
 11
189.1531574312428
 21
526.6124566677772
 31
0.0
 12
182.1370676108394
 22
525.5468137899128
 32
0.0
 13
182.1370676108394
 23
525.5468137899128
 33
0.0
  0
MTEXT
  5
29E8
330
29E2
100
AcDbEntity
  8
BEM
 62
     1
100
AcDbMText
 10
277.543288076165
 20
513.0693366144091
 30
0.0
 40
7.0
 41
0.0
 71
     5
 72
     1
  1
\A1;45°
 11
0.9238795325112864
 21
-0.3826834323650904
 31
0.0
 73
     1
 44
1.0
  0
POINT
  5
29E9
330
29E2
100
AcDbEntity
  8
DEFPOINTS
 62
     0
100
AcDbPoint
 10
303.5413018896645
 20
493.0166472571825
 30
0.0
  0
POINT
  5
29EA
330
29E2
100
AcDbEntity
  8
DEFPOINTS
 62
     0
100
AcDbPoint
 10
182.1370676108392
 20
507.7416381365921
 30
0.0
  0
POINT
  5
29EB
330
29E2
100
AcDbEntity
  8
DEFPOINTS
 62
     0
100
AcDbPoint
 10
330.6294916600139
 20
431.230769281437
 30
0.0
  0
POINT
  5
29EC
330
29E2
100
AcDbEntity
  8
DEFPOINTS
 62
     0
100
AcDbPoint
 10
182.137067610839
 20
282.7383452322622
 30
0.0
  0
POINT
  5
29ED
330
29E2
100
AcDbEntity
  8
DEFPOINTS
 62
     0
100
AcDbPoint
 10
182.1370676108387
 20
177.7383452322624
 30
0.0
  0
ENDBLK
  5
29EF
330
29E2
100
AcDbEntity
  8
0
100
AcDbBlockEnd
  0
BLOCK
  5
2AE4
330
2ADA
100
AcDbEntity
  8
0
100
AcDbBlockBegin
  2
*D8
 70
     1
 10
0.0
 20
0.0
 30
0.0
  3
*D8
  1

  0
LINE
  5
2B10
330
2ADA
100
AcDbEntity
  8
SCHRAFF
 62
     0
370
    -2
100
AcDbLine
 10
183.551281173212
 20
281.3241316698891
 30
0.0
 11
233.7260952142046
 21
231.1493176288966
 31
0.0
  0
LINE
  5
2B11
330
2ADA
100
AcDbEntity
  8
SCHRAFF
 62
     0
370
    -2
100
AcDbLine
 10
361.9203199799748
 20
392.868873149611
 30
0.0
 11
378.6829853574469
 21
376.1062077721389
 31
0.0
  0
LINE
  5
2B12
330
2ADA
100
AcDbEntity
  8
SCHRAFF
 62
     0
370
    -2
100
AcDbLine
 10
237.2616291201374
 20
237.5132786595755
 30
0.0
 11
372.3190243267679
 21
372.5706738662062
 31
0.0
  0
SOLID
  5
2B13
330
2ADA
100
AcDbEntity
  8
SCHRAFF
 62
     0
100
AcDbTrace
 10
236.436671208753
 20
238.3382365709598
 30
0.0
 11
238.0865870315217
 21
236.6883207481912
 31
0.0
 12
232.3118816518315
 22
232.5635311912697
 32
0.0
 13
232.3118816518315
 23
232.5635311912697
 33
0.0
  0
SOLID
  5
2B14
330
2ADA
100
AcDbEntity
  8
SCHRAFF
 62
     0
100
AcDbTrace
 10
371.4940664153837
 20
373.3956317775905
 30
0.0
 11
373.1439822381523
 21
371.7457159548219
 31
0.0
 12
377.2687717950738
 22
377.520421334512
 32
0.0
 13
377.2687717950738
 23
377.520421334512
 33
0.0
  0
MTEXT
  5
2B15
330
2ADA
100
AcDbEntity
  8
SCHRAFF
 62
     1
100
AcDbMText
 10
300.1941326457401
 20
309.6381703406034
 30
0.0
 40
7.0
 41
0.0
 71
     5
 72
     1
  1
\A1;205
 11
0.7071067811865474
 21
0.7071067811865478
 31
0.0
 73
     1
 44
1.0
  0
POINT
  5
2B16
330
2ADA
100
AcDbEntity
  8
DEFPOINTS
 62
     0
100
AcDbPoint
 10
182.1370676108389
 20
282.7383452322622
 30
0.0
  0
POINT
  5
2B17
330
2ADA
100
AcDbEntity
  8
DEFPOINTS
 62
     0
100
AcDbPoint
 10
360.5061064176017
 20
394.2830867119841
 30
0.0
  0
POINT
  5
2B18
330
2ADA
100
AcDbEntity
  8
DEFPOINTS
 62
     0
100
AcDbPoint
 10
377.2687717950738
 20
377.520421334512
 30
0.0
  0
ENDBLK
  5
2AE5
330
2ADA
100
AcDbEntity
  8
0
100
AcDbBlockEnd
  0
ENDSEC
  0
SECTION
  2
ENTITIES
  0
TEXT
  5
134
330
1E
100
AcDbEntity
  8
TEXT
100
AcDbText
 10
204.4216048581257
 20
63.0896391972351
 30
0.0
 40
4.0
  1
Koeh
 41
0.8
  7
GREEKS
 72
     1
 11
209.6787477152686
 21
63.0896391972351
 31
0.0
100
AcDbText
  0
INSERT
  5
135
330
1E
100
AcDbEntity
  8
STEMPEL
100
AcDbBlockReference
  2
LOGO
 10
150.9955485457794
 20
45.02105276448322
 30
0.0
 41
2.0
 42
2.0
 43
2.0
  0
LINE
  5
136
330
1E
100
AcDbEntity
  8
HILF
100
AcDbLine
 10
420.0
 20
0.0
 30
0.0
 11
0.0
 21
0.0
 31
0.0
  0
LINE
  5
137
330
1E
100
AcDbEntity
  8
HILF
100
AcDbLine
 10
419.9999999999999
 20
594.0000000000002
 30
0.0
 11
0.0
 21
594.0
 31
0.0
  0
LINE
  5
138
330
1E
100
AcDbEntity
  8
STEMPEL
100
AcDbLine
 10
410.0
 20
584.0
 30
0.0
 11
39.99999999999989
 21
584.0
 31
0.0
  0
LINE
  5
139
330
1E
100
AcDbEntity
  8
STEMPEL
100
AcDbLine
 10
410.0
 20
10.0
 30
0.0
 11
39.99999999999989
 21
10.0
 31
0.0
  0
LINE
  5
13A
330
1E
100
AcDbEntity
  8
STEMPEL
100
AcDbLine
 10
49.99999999999989
 20
10.0
 30
0.0
 11
410.0
 21
10.0
 31
0.0
  0
TEXT
  5
13B
330
1E
100
AcDbEntity
  8
TEXT
100
AcDbText
 10
202.4626584226295
 20
73.30961091915225
 30
0.0
 40
4.0
  1
Name
 41
0.8
  7
GREEKS
100
AcDbText
  0
TEXT
  5
13C
330
1E
100
AcDbEntity
  8
TEXT
100
AcDbText
 10
196.5498279101549
 20
102.6506227776589
 30
0.0
 40
5.0
  1
Zul. Abw.
 41
0.8
  7
GREEKS
 72
     4
 11
209.9783993387263
 21
105.1506227776589
 31
0.0
100
AcDbText
  0
LINE
  5
13D
330
1E
100
AcDbEntity
  8
HILF
100
AcDbLine
 10
146.0000000000001
 20
49.99999999999997
 30
0.0
 11
230.0
 21
49.99999999999997
 31
0.0
  0
LINE
  5
13E
330
1E
100
AcDbEntity
  8
HILF
100
AcDbLine
 10
146.0000000000001
 20
59.99999999999997
 30
0.0
 11
230.0
 21
59.99999999999997
 31
0.0
  0
LINE
  5
13F
330
1E
100
AcDbEntity
  8
HILF
100
AcDbLine
 10
146.0000000000001
 20
69.99999999999994
 30
0.0
 11
230.0
 21
69.99999999999994
 31
0.0
  0
LINE
  5
140
330
1E
100
AcDbEntity
  8
STEMPEL
100
AcDbLine
 10
410.0
 20
80.0
 30
0.0
 11
146.0000000000001
 21
79.99999999999994
 31
0.0
  0
LINE
  5
141
330
1E
100
AcDbEntity
  8
STEMPEL
100
AcDbLine
 10
410.0
 20
40.0
 30
0.0
 11
146.0000000000001
 21
39.99999999999997
 31
0.0
  0
LINE
  5
142
330
1E
100
AcDbEntity
  8
STEMPEL
100
AcDbLine
 10
410.0
 20
110.0
 30
0.0
 11
39.99999999999997
 21
110.0
 31
0.0
  0
LINE
  5
144
330
1E
100
AcDbEntity
  8
HILF
100
AcDbLine
 10
0.0
 20
0.0
 30
0.0
 11
-0.0000000000001137
 21
594.0
 31
0.0
  0
LINE
  5
145
330
1E
100
AcDbEntity
  8
STEMPEL
100
AcDbLine
 10
40.0
 20
10.0
 30
0.0
 11
39.99999999999989
 21
584.0
 31
0.0
  0
TEXT
  5
146
330
1E
100
AcDbEntity
  8
TEXT
100
AcDbText
 10
41.85509950977674
 20
111.6719999999999
 30
0.0
 40
5.0
  1
Erstellt mit AUTOCAD 2004
 41
0.8
  7
GREEKS
100
AcDbText
  0
TEXT
  5
147
330
1E
100
AcDbEntity
  8
TEXT
100
AcDbText
 10
67.93969678957707
 20
18.67381894984132
 30
0.0
 40
4.0
  1
Änderung
 41
0.8
  7
GREEKS
 72
     1
 11
78.68255393243422
 21
18.67381894984132
 31
0.0
100
AcDbText
  0
LINE
  5
148
330
1E
100
AcDbEntity
  8
HILF
100
AcDbLine
 10
40.00000000000008
 20
39.99999999999997
 30
0.0
 11
146.0000000000001
 21
39.99999999999997
 31
0.0
  0
LINE
  5
149
330
1E
100
AcDbEntity
  8
HILF
100
AcDbLine
 10
40.00000000000008
 20
49.99999999999997
 30
0.0
 11
146.0000000000001
 21
49.99999999999997
 31
0.0
  0
LINE
  5
14A
330
1E
100
AcDbEntity
  8
HILF
100
AcDbLine
 10
40.00000000000008
 20
59.99999999999997
 30
0.0
 11
146.0000000000001
 21
59.99999999999997
 31
0.0
  0
LINE
  5
14B
330
1E
100
AcDbEntity
  8
HILF
100
AcDbLine
 10
40.00000000000008
 20
69.99999999999994
 30
0.0
 11
146.0000000000001
 21
69.99999999999994
 31
0.0
  0
LINE
  5
14C
330
1E
100
AcDbEntity
  8
HILF
100
AcDbLine
 10
40.00000000000008
 20
79.99999999999994
 30
0.0
 11
146.0000000000001
 21
79.99999999999994
 31
0.0
  0
LINE
  5
14D
330
1E
100
AcDbEntity
  8
HILF
100
AcDbLine
 10
40.00000000000008
 20
90.00000000000005
 30
0.0
 11
146.0000000000001
 21
90.00000000000005
 31
0.0
  0
LINE
  5
14E
330
1E
100
AcDbEntity
  8
HILF
100
AcDbLine
 10
40.00000000000008
 20
100.0
 30
0.0
 11
146.0000000000001
 21
100.0
 31
0.0
  0
LINE
  5
14F
330
1E
100
AcDbEntity
  8
STEMPEL
100
AcDbLine
 10
145.9999999999999
 20
29.99999999999997
 30
0.0
 11
39.99999999999997
 21
29.99999999999997
 31
0.0
  0
TEXT
  5
150
330
1E
100
AcDbEntity
  8
TEXT
100
AcDbText
 10
48.26641107045756
 20
13.65465846027192
 30
0.0
 40
4.0
  1
Index
 50
90.0
 41
0.8
  7
GREEKS
100
AcDbText
  0
LINE
  5
151
330
1E
100
AcDbEntity
  8
VOLL
100
AcDbLine
 10
54.00000000000009
 20
110.0
 30
0.0
 11
53.99999999999997
 21
9.999999999999971
 31
0.0
  0
LINE
  5
152
330
1E
100
AcDbEntity
  8
HILF
100
AcDbLine
 10
31.08767135713856
 20
297.0
 30
0.0
 11
0.0000000000001137
 21
297.0
 31
0.0
  0
TEXT
  5
153
330
1E
100
AcDbEntity
  8
TEXT
100
AcDbText
 10
110.2820548933125
 20
18.6715626933981
 30
0.0
 40
4.0
  1
Tag
 41
0.8
  7
GREEKS
 72
     1
 11
114.0153882266458
 21
18.6715626933981
 31
0.0
100
AcDbText
  0
LINE
  5
154
330
1E
100
AcDbEntity
  8
VOLL
100
AcDbLine
 10
124.0000000000001
 20
109.9999999999999
 30
0.0
 11
124.0
 21
9.999999999999971
 31
0.0
  0
LINE
  5
155
330
1E
100
AcDbEntity
  8
VOLL
100
AcDbLine
 10
104.0000000000001
 20
109.9999999999999
 30
0.0
 11
104.0
 21
9.999999999999971
 31
0.0
  0
TEXT
  5
156
330
1E
100
AcDbEntity
  8
TEXT
100
AcDbText
 10
128.9001864118674
 20
18.59324216966408
 30
0.0
 40
4.0
  1
Name
 41
0.8
  7
GREEKS
 72
     1
 11
135.2239959356769
 21
18.59324216966408
 31
0.0
100
AcDbText
  0
LINE
  5
157
330
1E
100
AcDbEntity
  8
STEMPEL
100
AcDbLine
 10
146.0000000000001
 20
109.9999999999999
 30
0.0
 11
146.0
 21
9.999999999999971
 31
0.0
  0
TEXT
  5
159
330
1E
100
AcDbEntity
  8
TEXT
100
AcDbText
 10
172.331167315365
 20
73.31880501229926
 30
0.0
 40
4.0
  1
Tag
 41
0.8
  7
GREEKS
100
AcDbText
  0
TEXT
  5
15A
330
1E
100
AcDbEntity
  8
TEXT
100
AcDbText
 10
147.5836127167615
 20
63.62990369617964
 30
0.0
 40
4.0
  1
Gez.
 41
0.8
  7
GREEKS
100
AcDbText
  0
LINE
  5
15B
330
1E
100
AcDbEntity
  8
VOLL
100
AcDbLine
 10
164.0000000000001
 20
79.99999999999994
 30
0.0
 11
164.0000000000001
 21
39.99999999999997
 31
0.0
  0
TEXT
  5
15C
330
1E
100
AcDbEntity
  8
TEXT
100
AcDbText
 10
147.6006777387303
 20
43.52946389649807
 30
0.0
 40
4.0
  1
Norm.
 41
0.8
  7
GREEKS
100
AcDbText
  0
TEXT
  5
15D
330
1E
100
AcDbEntity
  8
TEXT
100
AcDbText
 10
147.5515086571672
 20
53.68926291428377
 30
0.0
 40
4.0
  1
Gepr.
 41
0.8
  7
GREEKS
100
AcDbText
  0
TEXT
  5
15E
330
1E
100
AcDbEntity
  8
TEXT
 62
     1
100
AcDbText
 10
160.5006306481887
 20
88.14901428913959
 30
0.0
 40
7.0
  1
1:2
 41
0.8
  7
GREEKS
100
AcDbText
  0
TEXT
  5
15F
330
1E
100
AcDbEntity
  8
TEXT
100
AcDbText
 10
153.5163572150377
 20
102.4620895087088
 30
0.0
 40
5.0
  1
Maßstab
 41
0.8
  7
GREEKS
100
AcDbText
  0
TEXT
  5
160
330
1E
100
AcDbEntity
  8
TEXT
100
AcDbText
 10
148.622109822104
 20
73.14025471151666
 30
0.0
 40
4.0
  1
2011
 41
0.8
  7
GREEKS
100
AcDbText
  0
LINE
  5
161
330
1E
100
AcDbEntity
  8
VOLL
100
AcDbLine
 10
190.0000000000001
 20
109.9999999999998
 30
0.0
 11
190.0
 21
39.99999999999997
 31
0.0
  0
LINE
  5
186
330
1E
100
AcDbEntity
  8
HILF
100
AcDbLine
 10
420.0
 20
-0.0000000000001137
 30
0.0
 11
419.9999999999999
 21
594.0
 31
0.0
  0
LINE
  5
187
330
1E
100
AcDbEntity
  8
STEMPEL
100
AcDbLine
 10
410.0
 20
10.0
 30
0.0
 11
410.0
 21
584.0
 31
0.0
  0
TEXT
  5
188
330
1E
100
AcDbEntity
  8
TEXT
100
AcDbText
 10
337.2400861497006
 20
52.07416177878602
 30
0.0
 40
5.0
  1
ersetzt durch:
 41
0.8
  7
GREEKS
100
AcDbText
  0
TEXT
  5
189
330
1E
100
AcDbEntity
  8
TEXT
100
AcDbText
 10
336.7238616296993
 20
73.1811823709997
 30
0.0
 40
5.0
  1
Ersatz für:
 41
0.8
  7
GREEKS
100
AcDbText
  0
TEXT
  5
18A
330
1E
100
AcDbEntity
  8
TEXT
100
AcDbText
 10
336.178754957634
 20
102.3132034537136
 30
0.0
 40
5.0
  1
Zeichnungs Nr.
 41
0.8
  7
GREEKS
100
AcDbText
  0
LINE
  5
18B
330
1E
100
AcDbEntity
  8
HILF
100
AcDbLine
 10
233.4909699289885
 20
14.89398258028314
 30
0.0
 11
404.8588839326728
 21
14.89398258028314
 31
0.0
  0
LINE
  5
18C
330
1E
100
AcDbEntity
  8
HILF
100
AcDbLine
 10
336.7238616296993
 20
83.77983636955827
 30
0.0
 11
404.8588839326728
 21
83.77983636955827
 31
0.0
  0
LINE
  5
18D
330
1E
100
AcDbEntity
  8
VOLL
100
AcDbLine
 10
332.0
 20
60.0
 30
0.0
 11
410.0
 21
60.0
 31
0.0
  0
TEXT
  5
18E
330
1E
100
AcDbEntity
  8
TEXT
 62
     1
100
AcDbText
 10
234.9283864320014
 20
87.41748789253779
 30
0.0
 40
7.0
  1
Red.-Abzweig DN100/80
 41
0.7
  7
GREEKS
100
AcDbText
  0
LINE
  5
18F
330
1E
100
AcDbEntity
  8
HILF
100
AcDbLine
 10
234.7736801096947
 20
49.99999999999997
 30
0.0
 11
324.835391655631
 21
49.99999999999997
 31
0.0
  0
LINE
  5
190
330
1E
100
AcDbEntity
  8
HILF
100
AcDbLine
 10
234.7736801096947
 20
59.99999999999997
 30
0.0
 11
324.835391655631
 21
59.99999999999997
 31
0.0
  0
LINE
  5
191
330
1E
100
AcDbEntity
  8
HILF
100
AcDbLine
 10
234.7736801096947
 20
69.99999999999994
 30
0.0
 11
324.835391655631
 21
69.99999999999994
 31
0.0
  0
LINE
  5
192
330
1E
100
AcDbEntity
  8
HILF
100
AcDbLine
 10
234.7736801096947
 20
84.03758247564139
 30
0.0
 11
324.8353916556311
 21
84.03758247564139
 31
0.0
  0
LINE
  5
193
330
1E
100
AcDbEntity
  8
STEMPEL
100
AcDbLine
 10
230.0
 20
110.0
 30
0.0
 11
230.0
 21
9.999999999999971
 31
0.0
  0
TEXT
  5
194
330
1E
100
AcDbEntity
  8
TEXT
100
AcDbText
 10
235.1296391125315
 20
71.50334417585288
 30
0.0
 40
5.0
  1
dünnwandig 45° 
 41
0.8
  7
GREEKS
100
AcDbText
  0
TEXT
  5
195
330
1E
100
AcDbEntity
  8
TEXT
100
AcDbText
 10
234.9837501577827
 20
42.62974153022632
 30
0.0
 40
4.0
  1
5250DM0W.DWG
 41
0.8
  7
GREEKS
100
AcDbText
  0
TEXT
  5
196
330
1E
100
AcDbEntity
  8
TEXT
100
AcDbText
 10
234.742238391136
 20
30.84560570193057
 30
0.0
 40
5.0
  1
Bauvorhaben
 41
0.8
  7
GREEKS
100
AcDbText
  0
TEXT
  5
197
330
1E
100
AcDbEntity
  8
TEXT
100
AcDbText
 10
234.877940380901
 20
102.5489328011779
 30
0.0
 40
5.0
  1
Benennung
 41
0.8
  7
GREEKS
100
AcDbText
  0
LINE
  5
198
330
1E
100
AcDbEntity
  8
STEMPEL
100
AcDbLine
 10
332.0
 20
109.9999999999997
 30
0.0
 11
332.0
 21
40.0
 31
0.0
  0
TEXT
  5
19A
330
1E
100
AcDbEntity
  8
TEXT
 62
     1
100
AcDbText
 10
348.2398855883054
 20
88.14901428913959
 30
0.0
 40
7.0
  1
5250DM0W
 41
0.8
  7
GREEKS
 72
     1
 11
370.2398855883054
 21
88.14901428913959
 31
0.0
100
AcDbText
  0
TEXT
  5
212
330
1E
100
AcDbEntity
  8
TEXT
100
AcDbText
 10
235.1296391125315
 20
51.50334417585291
 30
0.0
 40
5.0
  1
EDV-Art.Nr. 5.250.DM0C
 41
0.8
  7
GREEKS
100
AcDbText
  0
TEXT
  5
255
330
1E
100
AcDbEntity
  8
TEXT
 62
     1
100
AcDbText
 10
297.0573649355706
 20
132.2248663682012
 30
0.0
 40
7.0
  1
Werkstoff: 1.4404
 41
0.8
  7
GREEKS
100
AcDbText
  0
LINE
  5
15D2
330
1E
100
AcDbEntity
  8
MITTEL
100
AcDbLine
 10
182.1370676108392
 20
507.7416381365921
 30
0.0
 11
182.1370676108387
 21
177.7383452322624
 31
0.0
  0
LINE
  5
1606
330
1E
100
AcDbEntity
  8
STEMPEL
100
AcDbLine
 10
232.2371583026312
 20
182.7383452322619
 30
0.0
 11
132.0369769190461
 21
182.7383452322627
 31
0.0
  0
TEXT
  5
160F
330
1E
100
AcDbEntity
  8
TEXT
 62
     1
100
AcDbText
 10
172.2384517473619
 20
467.8788337007394
 30
0.0
 40
7.0
  1
DN100
 50
89.99999999999991
 41
0.8
  7
GREEKS
100
AcDbText
  0
LINE
  5
1702
330
1E
100
AcDbEntity
  8
MITTEL
100
AcDbLine
 10
330.6294916600139
 20
431.2307692814369
 30
0.0
 11
197.4086041486609
 21
298.0098817700841
 31
0.0
  0
DIMENSION
  5
170F
330
1E
100
AcDbEntity
  8
BEM
100
AcDbDimension
  2
*D1
 10
113.0344840713402
 20
282.7383452322624
 30
0.0
 11
106.5344840713402
 21
232.7383452322625
 31
0.0
 70
    32
 71
     5
 42
99.99999999999966
  3
Standard
100
AcDbAlignedDimension
 13
132.0369769190461
 23
182.7383452322626
 33
0.0
 14
182.137067610839
 24
282.7383452322623
 34
0.0
 50
89.9999999999998
100
AcDbRotatedDimension
1001
ACAD
1000
DSTYLE
1002
{
1070
    40
1040
2.0
1070
    41
1040
3.5
1070
    42
1040
1.0
1070
    43
1040
7.0
1070
    44
1040
1.0
1070
    73
1070
     0
1070
    74
1070
     0
1070
    77
1070
     1
1070
    78
1070
     8
1070
    79
1070
     2
1070
   140
1040
3.5
1070
   141
1040
1.5
1070
   146
1040
0.5142857142857144
1070
   147
1040
1.5
1070
   172
1070
     1
1070
   178
1070
     1
1070
   179
1070
     2
1070
   271
1070
     2
1070
   272
1070
     2
1070
   284
1070
     8
1070
   285
1070
     8
1070
   286
1070
     8
1002
}
  0
TEXT
  5
1905
330
1E
100
AcDbEntity
  8
VOLL
100
AcDbText
 10
525.3664702311624
 20
212.4618221180262
 30
0.0
 40
1.8
  1

  7
GREEKS
100
AcDbText
  0
LINE
  5
1A80
330
1E
100
AcDbEntity
  8
STEMPEL
100
AcDbLine
 10
236.7968505295624
 20
502.741638136592
 30
0.0
 11
127.477284692116
 21
502.7416381365927
 31
0.0
  0
LINE
  5
1A83
330
1E
100
AcDbEntity
  8
STEMPEL
100
AcDbLine
 10
131.3370676108391
 20
428.1985114599522
 30
0.0
 11
131.3370676108387
 21
190.7383452322627
 31
0.0
  0
LINE
  5
1A8A
102
{ACAD_REACTORS
330
2A3D
102
}
330
1E
100
AcDbEntity
  8
STEMPEL
100
AcDbLine
 10
232.9370676108391
 20
428.0980942313406
 30
0.0
 11
232.9370676108391
 21
396.4001380797461
 31
0.0
  0
LINE
  5
1AA1
330
1E
100
AcDbEntity
  8
HILF
100
AcDbLine
 10
231.6822928139093
 20
190.7383452322619
 30
0.0
 11
132.5918424077679
 21
190.7383452322626
 31
0.0
  0
LINE
  5
1AA2
330
1E
100
AcDbEntity
  8
STEMPEL
100
AcDbLine
 10
131.3370676108387
 20
190.7383452322627
 30
0.0
 11
132.0369769190461
 21
182.7383452322627
 31
0.0
  0
LINE
  5
1AA5
330
1E
100
AcDbEntity
  8
STEMPEL
100
AcDbLine
 10
232.9370676108387
 20
190.7383452322631
 30
0.0
 11
232.2371583026312
 21
182.7383452322619
 31
0.0
  0
DIMENSION
  5
1AB8
330
1E
100
AcDbEntity
  8
BEM
100
AcDbDimension
  2
*D2
 10
96.31597440096228
 20
182.7383452322626
 30
0.0
 11
89.81597440096226
 21
342.7399916844278
 31
0.0
 70
    32
 71
     5
 42
320.0032929043301
  3
Standard
100
AcDbAlignedDimension
 13
127.477284692116
 23
502.7416381365927
 33
0.0
 14
132.0369769190461
 24
182.7383452322626
 34
0.0
 50
89.9999999999998
100
AcDbRotatedDimension
1001
ACAD
1000
DSTYLE
1002
{
1070
    40
1040
2.0
1070
    41
1040
3.5
1070
    42
1040
1.0
1070
    43
1040
7.0
1070
    44
1040
1.0
1070
    73
1070
     0
1070
    74
1070
     0
1070
    77
1070
     1
1070
    78
1070
     8
1070
    79
1070
     2
1070
   140
1040
3.5
1070
   141
1040
1.5
1070
   146
1040
0.5142857142857144
1070
   147
1040
1.5
1070
   172
1070
     1
1070
   178
1070
     1
1070
   179
1070
     2
1070
   271
1070
     2
1070
   272
1070
     2
1070
   284
1070
     8
1070
   285
1070
     8
1070
   286
1070
     8
1002
}
  0
LINE
  5
1ACE
102
{ACAD_REACTORS
330
2A48
102
}
330
1E
100
AcDbEntity
  8
STEMPEL
100
AcDbLine
 10
232.9370676108387
 20
270.6765523847779
 30
0.0
 11
232.9370676108388
 21
190.7383452322619
 31
0.0
  0
DIMENSION
  5
1AE8
330
1E
100
AcDbEntity
  8
BEM
100
AcDbDimension
  2
*D3
 10
232.9370676108386
 20
161.6484559791852
 30
0.0
 11
182.1370676108387
 21
168.1484559791852
 31
0.0
 70
    32
  1
%%c<>
 71
     5
 42
101.5999999999999
  3
Standard
100
AcDbAlignedDimension
 13
131.3370676108387
 23
190.7383452322627
 33
0.0
 14
232.9370676108386
 24
190.7383452322619
 34
0.0
100
AcDbRotatedDimension
1001
ACAD
1000
DSTYLE
1002
{
1070
    40
1040
2.0
1070
    41
1040
3.5
1070
    42
1040
1.0
1070
    43
1040
7.0
1070
    44
1040
1.0
1070
    73
1070
     0
1070
    74
1070
     0
1070
    77
1070
     1
1070
    78
1070
     8
1070
    79
1070
     2
1070
   140
1040
3.5
1070
   141
1040
1.5
1070
   146
1040
0.5142857142857144
1070
   147
1040
1.5
1070
   172
1070
     1
1070
   178
1070
     1
1070
   179
1070
     2
1070
   271
1070
     2
1070
   272
1070
     2
1070
   284
1070
     8
1070
   285
1070
     8
1070
   286
1070
     8
1002
}
  0
TEXT
  5
1BF5
330
1E
100
AcDbEntity
  8
BEM
100
AcDbText
 10
416.5811541437437
 20
12.14804815338303
 30
0.0
 40
4.0
  1
Diese Zeichnung ist urheberrechtlich geschützt und bleibt unser Eigentum. Sie darf weder ganz noch teilweise vervielfältigt und nicht an Dritte weitergegeben werden.
 50
90.0
 41
0.8
  7
GREEKS
100
AcDbText
  0
TEXT
  5
1C10
330
1E
100
AcDbEntity
  8
TEXT
100
AcDbText
 10
192.6882715247924
 20
88.73450771838452
 30
0.0
 40
4.0
  1
DIN EN1124-3
 41
0.8
  7
GREEKS
 72
     1
 11
209.6787477152686
 21
88.73450771838452
 31
0.0
100
AcDbText
  0
TEXT
  5
1DDC
330
1E
100
AcDbEntity
  8
VOLL
100
AcDbText
 10
539.7246252213716
 20
194.5107114195854
 30
0.0
 40
1.8
  1

  7
GREEKS
100
AcDbText
  0
TEXT
  5
2359
330
1E
100
AcDbEntity
  8
VOLL
100
AcDbText
 10
531.336362752026
 20
210.077510736562
 30
0.0
 40
1.8
  1

  7
GREEKS
100
AcDbText
  0
LINE
  5
262B
330
1E
100
AcDbEntity
  8
HILF
100
AcDbLine
 10
313.6290697976502
 20
352.7014295032149
 30
0.0
 11
252.1001518817922
 21
414.2303474190733
 31
0.0
  0
LINE
  5
262C
330
1E
100
AcDbEntity
  8
HILF
100
AcDbLine
 10
318.437207664094
 20
354.7801676075654
 30
0.0
 11
254.1788899861423
 21
419.0384852855169
 31
0.0
  0
LINE
  5
262D
330
1E
100
AcDbEntity
  8
HILF
100
AcDbLine
 10
336.4863859425352
 20
371.8327763578538
 30
0.0
 11
271.2314987364307
 21
437.0876635639581
 31
0.0
  0
LINE
  5
262E
330
1E
100
AcDbEntity
  8
STEMPEL
100
AcDbLine
 10
360.5061064176017
 20
394.283086711984
 30
0.0
 11
293.681809090561
 21
461.1073840390245
 31
0.0
  0
TEXT
  5
262F
330
1E
100
AcDbEntity
  8
TEXT
 62
     1
100
AcDbText
 10
296.9366915028571
 20
421.6882792278854
 30
0.0
 40
7.0
  1
DN80
 50
44.99999999999999
 41
0.8
  7
GREEKS
100
AcDbText
  0
LINE
  5
2630
330
1E
100
AcDbEntity
  8
STEMPEL
100
AcDbLine
 10
268.5203941785252
 20
435.6604199096024
 30
0.0
 11
255.089284435732
 21
422.229310166809
 31
0.0
  0
ARC
  5
2631
330
1E
100
AcDbEntity
  8
STEMPEL
100
AcDbCircle
 10
243.3019864323338
 20
419.7758216750732
 30
0.0
 40
9.200000000000001
100
AcDbArc
 50
315.0
 51
343.9550243718593
  0
ARC
  5
2632
330
1E
100
AcDbEntity
  8
STEMPEL
100
AcDbCircle
 10
263.2917230974961
 20
414.0268715050451
 30
0.0
 40
11.6
100
AcDbArc
 50
134.9999999999999
 51
163.9550243718591
  0
LINE
  5
2633
330
1E
100
AcDbEntity
  8
STEMPEL
100
AcDbLine
 10
282.7256158097712
 20
454.8153890091541
 30
0.0
 11
277.2782850194892
 21
449.368058218872
 31
0.0
  0
ARC
  5
2634
330
1E
100
AcDbEntity
  8
STEMPEL
100
AcDbCircle
 10
294.3902691242035
 20
432.2560741141575
 30
0.0
 40
24.2
100
AcDbArc
 50
134.9999999999999
 51
159.8505023402282
  0
ARC
  5
2635
330
1E
100
AcDbEntity
  8
STEMPEL
100
AcDbCircle
 10
258.9037419543885
 20
445.2770721337394
 30
0.0
 40
13.6
100
AcDbArc
 50
315.0
 51
339.8505023402282
  0
ARC
  5
2636
330
1E
100
AcDbEntity
  8
STEMPEL
100
AcDbCircle
 10
299.8375999144855
 20
437.7034049044396
 30
0.0
 40
24.2
100
AcDbArc
 50
104.7363480579031
 51
134.9999999999999
  0
LINE
  5
2637
330
1E
100
AcDbEntity
  8
STEMPEL
100
AcDbLine
 10
335.0591422881794
 20
369.1216717999484
 30
0.0
 11
321.6280325453861
 21
355.6905620571551
 31
0.0
  0
ARC
  5
2638
330
1E
100
AcDbEntity
  8
STEMPEL
100
AcDbCircle
 10
319.1745440536504
 20
343.9032640537567
 30
0.0
 40
9.200000000000001
100
AcDbArc
 50
106.0449756281407
 51
134.9999999999999
  0
ARC
  5
2639
330
1E
100
AcDbEntity
  8
STEMPEL
100
AcDbCircle
 10
313.4255938836221
 20
363.893000718919
 30
0.0
 40
11.6
100
AcDbArc
 50
286.0449756281407
 51
315.0
  0
LINE
  5
263A
330
1E
100
AcDbEntity
  8
STEMPEL
100
AcDbLine
 10
354.214111387731
 20
383.3268934311943
 30
0.0
 11
348.766780597449
 21
377.8795626409124
 31
0.0
  0
ARC
  5
263B
330
1E
100
AcDbEntity
  8
STEMPEL
100
AcDbCircle
 10
331.6547964927346
 20
394.9915467456265
 30
0.0
 40
24.2
100
AcDbArc
 50
290.1494976597718
 51
315.0
  0
ARC
  5
263C
330
1E
100
AcDbEntity
  8
STEMPEL
100
AcDbCircle
 10
344.6757945123165
 20
359.5050195758114
 30
0.0
 40
13.6
100
AcDbArc
 50
110.1494976597717
 51
134.9999999999999
  0
ARC
  5
263D
330
1E
100
AcDbEntity
  8
STEMPEL
100
AcDbCircle
 10
337.1021272830167
 20
400.4388775359085
 30
0.0
 40
24.2
100
AcDbArc
 50
315.0
 51
345.2636519420968
  0
LINE
  5
263E
102
{ACAD_REACTORS
330
2A48
102
}
330
1E
100
AcDbEntity
  8
STEMPEL
100
AcDbLine
 10
312.669161666734
 20
350.4086464406733
 30
0.0
 11
232.9370676108387
 21
270.6765523847779
 31
0.0
  0
LINE
  5
263F
102
{ACAD_REACTORS
330
2A3D
102
}
330
1E
100
AcDbEntity
  8
STEMPEL
100
AcDbLine
 10
249.80736881925
 20
413.2704392881571
 30
0.0
 11
232.9370676108391
 21
396.4001380797461
 31
0.0
  0
DIMENSION
  5
27AA
330
1E
100
AcDbEntity
  8
BEM
100
AcDbDimension
  2
*D6
 10
219.7027414391685
 20
257.4422262131075
 30
0.0
 11
192.8680390931391
 21
293.4693167145617
 31
0.0
 70
    32
  1
%%c<>
 71
     5
 42
88.89999999999933
 51
86.99999999999999
  3
Standard
100
AcDbAlignedDimension
 13
232.9370676108391
 23
396.4001380797461
 33
0.0
 14
232.9370676108387
 24
270.6765523847779
 34
0.0
 50
315.0000000000003
100
AcDbRotatedDimension
1001
ACAD
1000
DSTYLE
1002
{
1070
    40
1040
2.0
1070
    41
1040
3.5
1070
    42
1040
1.0
1070
    43
1040
7.0
1070
    44
1040
1.0
1070
    73
1070
     0
1070
    74
1070
     0
1070
    77
1070
     1
1070
    78
1070
     8
1070
    79
1070
     2
1070
   140
1040
3.5
1070
   141
1040
1.5
1070
   146
1040
0.5142857142857144
1070
   147
1040
1.5
1070
   172
1070
     1
1070
   178
1070
     1
1070
   179
1070
     2
1070
   271
1070
     2
1070
   272
1070
     2
1070
   284
1070
     8
1070
   285
1070
     8
1070
   286
1070
     8
1002
}
  0
DIMENSION
  5
29E1
330
1E
100
AcDbEntity
  8
BEM
100
AcDbDimension
  2
*D7
 10
182.1370676108387
 20
177.7383452322624
 30
0.0
 11
277.543288076165
 21
513.0693366144091
 31
0.0
 70
    34
 71
     5
 42
0.785398163397447
  3
Standard
100
AcDb2LineAngularDimension
 13
330.6294916600139
 23
431.2307692814369
 33
0.0
 14
182.137067610839
 24
282.7383452322622
 34
0.0
 15
182.1370676108392
 25
507.7416381365921
 35
0.0
 16
303.5413018896645
 26
493.0166472571825
 36
0.0
1001
ACAD
1000
DSTYLE
1002
{
1070
    40
1040
2.0
1070
    41
1040
3.5
1070
    42
1040
1.0
1070
    43
1040
7.0
1070
    44
1040
1.0
1070
    73
1070
     0
1070
    74
1070
     0
1070
    77
1070
     1
1070
    78
1070
     8
1070
    79
1070
     2
1070
   140
1040
3.5
1070
   141
1040
1.5
1070
   146
1040
0.5142857142857144
1070
   147
1040
1.5
1070
   172
1070
     1
1070
   178
1070
     1
1070
   179
1070
     2
1070
   271
1070
     2
1070
   272
1070
     2
1070
   284
1070
     8
1070
   285
1070
     8
1070
   286
1070
     8
1002
}
  0
ELLIPSE
  5
29F1
330
1E
100
AcDbEntity
  8
STEMPEL
100
AcDbEllipse
 10
232.9370676108388
 20
307.3317894806793
 30
0.0
 11
0.0000000000000795
 21
36.65523709590138
 31
0.0
210
0.0
220
0.0
230
1.0
 40
0.7149471079130735
 41
1.570796326794896
 42
3.141592653589793
  0
ARC
  5
29F4
330
1E
100
AcDbEntity
  8
STEMPEL
100
AcDbCircle
 10
345.9885802076635
 20
314.7474744195094
 30
0.0
 40
139.4553763152991
100
AcDbArc
 50
144.1608985189704
 51
183.0482004883701
  0
ARC
  5
2A12
330
1E
100
AcDbEntity
  8
SCHRAFF
100
AcDbCircle
 10
232.937067610839
 20
396.4001380797461
 30
0.0
 40
5.0
100
AcDbArc
 50
198.1083638009669
 51
271.8570001295178
  0
ARC
  5
2A13
330
1E
100
AcDbEntity
  8
SCHRAFF
100
AcDbCircle
 10
230.082646248234
 20
392.2949853804298
 30
0.0
 40
5.0
100
AcDbArc
 50
200.1627431428675
 51
273.9113794714186
  0
ARC
  5
2A14
330
1E
100
AcDbEntity
  8
SCHRAFF
100
AcDbCircle
 10
227.3772210730379
 20
388.0901459516983
 30
0.0
 40
5.0
100
AcDbArc
 50
202.2171224847681
 51
275.9657588133189
  0
ARC
  5
2A15
330
1E
100
AcDbEntity
  8
SCHRAFF
100
AcDbCircle
 10
224.8242698885231
 20
383.7910250823246
 30
0.0
 40
5.0
100
AcDbArc
 50
204.2715018266688
 51
278.0201381552192
  0
ARC
  5
2A16
330
1E
100
AcDbEntity
  8
SCHRAFF
100
AcDbCircle
 10
222.4270744938188
 20
379.4031492591491
 30
0.0
 40
5.0
100
AcDbArc
 50
206.3258811685699
 51
280.0745174971208
  0
ARC
  5
2A17
330
1E
100
AcDbEntity
  8
SCHRAFF
100
AcDbCircle
 10
220.1887164651833
 20
374.9321590628231
 30
0.0
 40
5.0
100
AcDbArc
 50
208.3802605104705
 51
282.1288968390211
  0
ARC
  5
2A18
330
1E
100
AcDbEntity
  8
SCHRAFF
100
AcDbCircle
 10
218.1120731946615
 20
370.383801916886
 30
0.0
 40
5.0
100
AcDbArc
 50
210.4346398523708
 51
284.1832761809218
  0
ARC
  5
2A19
330
1E
100
AcDbEntity
  8
SCHRAFF
100
AcDbCircle
 10
216.1998141912193
 20
365.7639246994965
 30
0.0
 40
5.0
100
AcDbArc
 50
212.4890191942716
 51
286.2376555228223
  0
ARC
  5
2A1A
330
1E
100
AcDbEntity
  8
SCHRAFF
100
AcDbCircle
 10
214.4543976491107
 20
361.0784662273155
 30
0.0
 40
5.0
100
AcDbArc
 50
214.5433985361727
 51
288.2920348647235
  0
ARC
  5
2A1B
330
1E
100
AcDbEntity
  8
SCHRAFF
100
AcDbCircle
 10
212.8780672878875
 20
356.3334496212026
 30
0.0
 40
5.0
100
AcDbArc
 50
216.5977778780729
 51
290.3464142066238
  0
ARC
  5
2A1C
330
1E
100
AcDbEntity
  8
SCHRAFF
100
AcDbCircle
 10
211.4728494681157
 20
351.5349745635415
 30
0.0
 40
5.0
100
AcDbArc
 50
218.652157219974
 51
292.4007935485246
  0
ARC
  5
2A1D
330
1E
100
AcDbEntity
  8
SCHRAFF
100
AcDbCircle
 10
210.2405505865039
 20
346.6892094571442
 30
0.0
 40
5.0
100
AcDbArc
 50
220.7065365618742
 51
294.4551728904252
  0
ARC
  5
2A1E
330
1E
100
AcDbEntity
  8
SCHRAFF
100
AcDbCircle
 10
209.1827547537946
 20
341.8023834958168
 30
0.0
 40
5.0
100
AcDbArc
 50
222.760915903775
 51
296.5095522323261
  0
ARC
  5
2A1F
330
1E
100
AcDbEntity
  8
SCHRAFF
100
AcDbCircle
 10
208.3008217584021
 20
336.8807786567793
 30
0.0
 40
5.0
100
AcDbArc
 50
224.815295245676
 51
298.5639315742264
  0
ARC
  5
2A20
330
1E
100
AcDbEntity
  8
SCHRAFF
100
AcDbCircle
 10
207.5958853184145
 20
331.9307216252312
 30
0.0
 40
5.0
100
AcDbArc
 50
226.8696745875767
 51
300.6183109161274
  0
ARC
  5
2A21
330
1E
100
AcDbEntity
  8
SCHRAFF
100
AcDbCircle
 10
207.0688516242084
 20
326.9585756614475
 30
0.0
 40
5.0
100
AcDbArc
 50
228.9240539294774
 51
302.6726902580283
  0
ARC
  5
2A22
330
1E
100
AcDbEntity
  8
SCHRAFF
100
AcDbCircle
 10
206.7203981735474
 20
321.9707324208552
 30
0.0
 40
5.0
100
AcDbArc
 50
230.9784332713782
 51
304.7270695999291
  0
ARC
  5
2A23
330
1E
100
AcDbEntity
  8
SCHRAFF
100
AcDbCircle
 10
206.5509729006647
 20
316.9736037376103
 30
0.0
 40
5.0
100
AcDbArc
 50
233.0328126132786
 51
306.781448941829
  0
ARC
  5
2A24
330
1E
100
AcDbEntity
  8
SCHRAFF
100
AcDbCircle
 10
206.5607936004467
 20
311.973613382234
 30
0.0
 40
5.0
100
AcDbArc
 50
235.0871919551794
 51
308.8358282837305
  0
ARC
  5
2A25
330
1E
100
AcDbEntity
  8
SCHRAFF
100
AcDbCircle
 10
206.7317426757612
 20
306.9765365953866
 30
0.0
 40
5.0
100
AcDbArc
 50
235.7355440915485
 51
309.5416138711929
  0
ARC
  5
2A26
330
1E
100
AcDbEntity
  8
SCHRAFF
100
AcDbCircle
 10
207.0108818520177
 20
301.9843345441592
 30
0.0
 40
5.0
100
AcDbArc
 50
241.4117018921861
 51
315.2225865014557
  0
ARC
  5
2A27
330
1E
100
AcDbEntity
  8
SCHRAFF
100
AcDbCircle
 10
207.7837626846157
 20
297.0444301707322
 30
0.0
 40
5.0
100
AcDbArc
 50
247.3154725407802
 51
321.1313445132887
  0
ARC
  5
2A28
330
1E
100
AcDbEntity
  8
SCHRAFF
100
AcDbCircle
 10
209.0641237523284
 20
292.2111418970406
 30
0.0
 40
5.0
100
AcDbArc
 50
253.6375149432689
 51
327.4753196966762
  0
ARC
  5
2A29
330
1E
100
AcDbEntity
  8
SCHRAFF
100
AcDbCircle
 10
210.8742661502048
 20
287.5503067251612
 30
0.0
 40
5.0
100
AcDbArc
 50
260.6080568790619
 51
334.4615672743939
  0
ARC
  5
2A2A
330
1E
100
AcDbEntity
  8
SCHRAFF
100
AcDbCircle
 10
213.2438737283175
 20
283.1474712835678
 30
0.0
 40
5.0
100
AcDbArc
 50
268.5069115501129
 51
342.4094757373028
  0
ARC
  5
2A2B
330
1E
100
AcDbEntity
  8
SCHRAFF
100
AcDbCircle
 10
216.2058233823334
 20
279.1192143097546
 30
0.0
 40
5.0
100
AcDbArc
 50
277.6988739145847
 51
351.6543732565327
  0
ARC
  5
2A2C
330
1E
100
AcDbEntity
  8
SCHRAFF
100
AcDbCircle
 10
219.7844838636994
 20
275.6273395755883
 30
0.0
 40
5.0
100
AcDbArc
 50
288.5654176406116
 51
2.613396739661063
  0
ARC
  5
2A2D
330
1E
100
AcDbEntity
  8
SCHRAFF
100
AcDbCircle
 10
223.9685302614495
 20
272.889867065868
 30
0.0
 40
5.0
100
AcDbArc
 50
301.3690588101809
 51
15.52313445844223
  0
ARC
  5
2A37
102
{ACAD_REACTORS
330
2A48
102
}
330
1E
100
AcDbEntity
  8
SCHRAFF
100
AcDbCircle
 10
232.9370676108387
 20
270.6765523847779
 30
0.0
 40
3.0
100
AcDbArc
 50
270.0
 51
45.00000000000038
  0
ARC
  5
2A38
102
{ACAD_REACTORS
330
2A3D
102
}
330
1E
100
AcDbEntity
  8
SCHRAFF
100
AcDbCircle
 10
232.937067610839
 20
396.4001380797461
 30
0.0
 40
5.02426372360378
100
AcDbArc
 50
45.00000000000069
 51
89.99999999999969
  0
HATCH
  5
2A3D
330
1E
100
AcDbEntity
  8
SCHRAFF
100
AcDbHatch
 10
0.0
 20
0.0
 30
0.0
210
0.0
220
0.0
230
1.0
  2
_USER
 70
     0
 71
     1
 91
        1
 92
        7
 72
     1
 73
     1
 93
        3
 10
236.4897585602689
 20
399.9528290291759
 42
0.1989123673796591
 10
232.9370676108391
 20
401.4244018033498
 42
0.0
 10
232.9370676108391
 20
396.4001380797461
 42
0.0
 97
        3
330
2A38
330
1A8A
330
263F
 75
     0
 76
     0
 52
0.0
 41
0.1
 77
     0
 78
     1
 53
0.0
 43
0.0
 44
0.0
 45
0.0
 46
0.1
 79
     0
 47
0.0858765617369456
 98
        1
 10
233.8059249055564
 20
399.1871507641426
  0
HATCH
  5
2A48
330
1E
100
AcDbEntity
  8
SCHRAFF
100
AcDbHatch
 10
0.0
 20
0.0
 30
0.0
210
0.0
220
0.0
230
1.0
  2
_USER
 70
     0
 71
     1
 91
        1
 92
        7
 72
     1
 73
     1
 93
        3
 10
235.0583879543984
 20
272.7978727283375
 42
0.0
 10
232.9370676108387
 20
270.6765523847779
 42
0.0
 10
232.9370676108387
 20
267.6765523847779
 42
0.6681786379193048
 97
        3
330
263E
330
1ACE
330
2A37
 75
     0
 76
     0
 52
0.0
 41
0.1
 77
     0
 78
     1
 53
0.0
 43
0.0
 44
0.0
 45
0.0
 46
0.1
 79
     0
 47
0.0596365011287668
 98
        1
 10
234.1998132761523
 20
270.4235973152377
  0
LINE
  5
2A49
330
1E
100
AcDbEntity
  8
MITTEL
100
AcDbLine
 10
186.4290461017732
 20
287.0303237231964
 30
0.0
 11
182.137067610839
 21
282.7383452322622
 31
0.0
  0
LINE
  5
2A99
330
1E
100
AcDbEntity
  8
STEMPEL
100
AcDbLine
 10
240.0370676108392
 20
490.5453272189421
 30
0.0
 11
240.0370676108393
 21
471.9716381365925
 31
0.0
  0
ARC
  5
2A9A
330
1E
100
AcDbEntity
  8
STEMPEL
100
AcDbCircle
 10
248.8370676108393
 20
455.238437605911
 30
0.0
 40
12.8
100
AcDbArc
 50
153.1119523822761
 51
180.0
  0
ARC
  5
2A9B
330
1E
100
AcDbEntity
  8
STEMPEL
100
AcDbCircle
 10
240.9370676108393
 20
428.1985114599522
 30
0.0
 40
8.0
100
AcDbArc
 50
149.1404189093777
 51
180.0
  0
ARC
  5
2A9C
330
1E
100
AcDbEntity
  8
STEMPEL
100
AcDbCircle
 10
221.8370676108393
 20
439.5135457064756
 30
0.0
 40
14.2
100
AcDbArc
 50
329.3570682370604
 51
0.0
  0
LINE
  5
2A9E
330
1E
100
AcDbEntity
  8
STEMPEL
100
AcDbLine
 10
236.0370676108393
 20
455.238437605911
 30
0.0
 11
236.0370676108393
 21
439.5135457064757
 31
0.0
  0
ARC
  5
2A9F
330
1E
100
AcDbEntity
  8
STEMPEL
100
AcDbCircle
 10
215.8370676108393
 20
471.9716381365925
 30
0.0
 40
24.2
100
AcDbArc
 50
333.111952382276
 51
0.0
  0
ARC
  5
2AA0
330
1E
100
AcDbEntity
  8
STEMPEL
100
AcDbCircle
 10
215.8370676108393
 20
490.545327218942
 30
0.0
 40
24.2
100
AcDbArc
 50
0.0
 51
30.26365194209906
  0
ARC
  5
2AA1
330
1E
100
AcDbEntity
  8
STEMPEL
100
AcDbCircle
 10
115.4370676108393
 20
455.238437605911
 30
0.0
 40
12.8
100
AcDbArc
 50
0.0
 51
26.88804761772389
  0
ARC
  5
2AA2
330
1E
100
AcDbEntity
  8
STEMPEL
100
AcDbCircle
 10
148.4370676108393
 20
471.9716381365924
 30
0.0
 40
24.2
100
AcDbArc
 50
180.0
 51
206.8880476177239
  0
LINE
  5
2AA3
330
1E
100
AcDbEntity
  8
STEMPEL
100
AcDbLine
 10
124.2370676108393
 20
490.5453272189419
 30
0.0
 11
124.2370676108393
 21
471.9716381365924
 31
0.0
  0
ARC
  5
2AA4
330
1E
100
AcDbEntity
  8
STEMPEL
100
AcDbCircle
 10
123.3370676108394
 20
428.1985114599522
 30
0.0
 40
8.0
100
AcDbArc
 50
0.0
 51
30.85958109062227
  0
ARC
  5
2AA5
330
1E
100
AcDbEntity
  8
STEMPEL
100
AcDbCircle
 10
142.4370676108393
 20
439.5135457064756
 30
0.0
 40
14.2
100
AcDbArc
 50
180.0
 51
210.6429317629396
  0
LINE
  5
2AA7
330
1E
100
AcDbEntity
  8
STEMPEL
100
AcDbLine
 10
128.2370676108393
 20
455.2384376059109
 30
0.0
 11
128.2370676108393
 21
439.5135457064756
 31
0.0
  0
ARC
  5
2AA8
330
1E
100
AcDbEntity
  8
STEMPEL
100
AcDbCircle
 10
148.4370676108393
 20
490.5453272189419
 30
0.0
 40
24.2
100
AcDbArc
 50
149.7363480579009
 51
180.0
  0
LINE
  5
2AAA
330
1E
100
AcDbEntity
  8
HILF
100
AcDbLine
 10
231.9866674565809
 20
430.3269703105415
 30
0.0
 11
132.2874677650977
 21
430.3269703105415
 31
0.0
  0
LINE
  5
2AAB
330
1E
100
AcDbEntity
  8
HILF
100
AcDbLine
 10
234.2838154403541
 20
435.7614171814289
 30
0.0
 11
129.9903197813245
 21
435.7614171814289
 31
0.0
  0
LINE
  5
2AAC
330
1E
100
AcDbEntity
  8
HILF
100
AcDbLine
 10
235.1570170340401
 20
458.2143771577527
 30
0.0
 11
129.1171181876384
 21
458.2143771577528
 31
0.0
  0
DIMENSION
  5
2AD9
330
1E
100
AcDbEntity
  8
SCHRAFF
100
AcDbDimension
  2
*D8
 10
377.2687717950738
 20
377.520421334512
 30
0.0
 11
300.1941326457401
 21
309.6381703406034
 31
0.0
 70
    32
 71
     5
 42
205.0000000000001
 51
315.0
  3
Standard
100
AcDbAlignedDimension
 13
182.1370676108389
 23
282.7383452322622
 33
0.0
 14
360.5061064176017
 24
394.2830867119841
 34
0.0
 50
45.00000000000002
100
AcDbRotatedDimension
1001
ACAD
1000
DSTYLE
1002
{
1070
    40
1040
2.0
1070
    41
1040
3.5
1070
    42
1040
1.0
1070
    43
1040
7.0
1070
    44
1040
1.0
1070
    73
1070
     0
1070
    74
1070
     0
1070
    77
1070
     1
1070
    78
1070
     8
1070
    79
1070
     2
1070
   140
1040
3.5
1070
   141
1040
1.5
1070
   146
1040
0.5142857142857144
1070
   147
1040
1.5
1070
   172
1070
     1
1070
   178
1070
     1
1070
   179
1070
     2
1070
   271
1070
     2
1070
   272
1070
     2
1070
   284
1070
     8
1070
   285
1070
     8
1070
   286
1070
     8
1002
}
  0
TEXT
  5
2B05
330
1E
100
AcDbEntity
  8
TEXT
100
AcDbText
 10
170.398997108236
 20
63.10765040825732
 30
0.0
 40
4.0
  1
08.04.
 41
0.8
  7
GREEKS
 72
     1
 11
177.4085209177598
 21
63.10765040825732
 31
0.0
100
AcDbText
  0
ENDSEC
  0
SECTION
  2
OBJECTS
  0
DICTIONARY
  5
C
330
0
100
AcDbDictionary
281
     1
  3
ACAD_COLOR
350
1790
  3
ACAD_GROUP
350
D
  3
ACAD_LAYOUT
350
19
  3
ACAD_MATERIAL
350
178F
  3
ACAD_MLINESTYLE
350
16
  3
ACAD_PLOTSETTINGS
350
18
  3
ACAD_PLOTSTYLENAME
350
E
  3
AcDbVariableDictionary
350
246
  0
DICTIONARY
  5
1790
102
{ACAD_REACTORS
330
C
102
}
330
C
100
AcDbDictionary
281
     1
  0
DICTIONARY
  5
D
102
{ACAD_REACTORS
330
C
102
}
330
C
100
AcDbDictionary
281
     1
  0
DICTIONARY
  5
19
102
{ACAD_REACTORS
330
C
102
}
330
C
100
AcDbDictionary
281
     1
  3
Layout1
350
1D
  3
Model
350
21
  0
DICTIONARY
  5
178F
102
{ACAD_REACTORS
330
C
102
}
330
C
100
AcDbDictionary
281
     1
  0
DICTIONARY
  5
16
102
{ACAD_REACTORS
330
C
102
}
330
C
100
AcDbDictionary
281
     1
  3
Standard
350
17
  0
DICTIONARY
  5
18
102
{ACAD_REACTORS
330
C
102
}
330
C
100
AcDbDictionary
281
     1
  0
ACDBDICTIONARYWDFLT
  5
E
102
{ACAD_REACTORS
330
C
102
}
330
C
100
AcDbDictionary
281
     1
  3
Normal
350
F
100
AcDbDictionaryWithDefault
340
F
  0
DICTIONARY
  5
246
102
{ACAD_REACTORS
330
C
102
}
330
C
100
AcDbDictionary
281
     1
  3
DIMASSOC
350
1C0C
  3
PROJECTNAME
350
1C0D
  3
SORTENTS
350
247
  0
LAYOUT
  5
1D
102
{ACAD_REACTORS
330
19
102
}
330
19
100
AcDbPlotSettings
  1

  2
Tektronix Phaser 740
  4

  6

 40
0.0
 41
0.0
 42
0.0
 43
0.0
 44
0.0
 45
0.0
 46
0.0
 47
0.0
 48
0.0
 49
0.0
140
0.0
141
0.0
142
1.0
143
1.0
 70
   688
 72
     0
 73
     0
 74
     5
  7
monochrome.ctb
 75
    16
147
1.0
 76
     0
 77
     2
 78
   300
148
0.0
149
0.0
100
AcDbLayout
  1
Layout1
 70
     0
 71
     1
 10
0.0
 20
0.0
 11
12.0
 21
9.0
 12
0.0
 22
0.0
 32
0.0
 14
1.000000000000000E+20
 24
1.000000000000000E+20
 34
1.000000000000000E+20
 15
-1.000000000000000E+20
 25
-1.000000000000000E+20
 35
-1.000000000000000E+20
146
0.0
 13
0.0
 23
0.0
 33
0.0
 16
1.0
 26
0.0
 36
0.0
 17
0.0
 27
1.0
 37
0.0
 76
     0
330
1A
  0
LAYOUT
  5
21
102
{ACAD_REACTORS
330
19
102
}
330
19
100
AcDbPlotSettings
  1

  2
Tektronix Phaser 740
  4
A4
  6

 40
5.873749732971191
 41
6.085414409637451
 42
5.577407836914062
 43
5.662078857421875
 44
209.9733276367187
 45
296.9683227539062
 46
0.0
 47
0.0
 48
0.0
 49
0.0
140
0.0
141
0.0
142
1.0
143
1.0
 70
 11952
 72
     0
 73
     1
 74
     0
  7
monochrome.ctb
 75
     0
147
1.0
 76
     0
 77
     2
 78
   300
148
1150.120678237584
149
45.30495740799864
100
AcDbLayout
  1
Model
 70
     1
 71
     0
 10
0.0
 20
0.0
 11
12.0
 21
9.0
 12
0.0
 22
0.0
 32
0.0
 14
0.0
 24
0.0
 34
0.0
 15
0.0
 25
0.0
 35
0.0
146
0.0
 13
0.0
 23
0.0
 33
0.0
 16
1.0
 26
0.0
 36
0.0
 17
0.0
 27
1.0
 37
0.0
 76
     0
330
1E
  0
MLINESTYLE
  5
17
102
{ACAD_REACTORS
330
16
102
}
330
16
100
AcDbMlineStyle
  2
STANDARD
 70
     0
  3

 62
   256
 51
90.0
 52
90.0
 71
     2
 49
0.5
 62
   256
  6
BYLAYER
 49
-0.5
 62
   256
  6
BYLAYER
  0
ACDBPLACEHOLDER
  5
F
102
{ACAD_REACTORS
330
E
102
}
330
E
  0
DICTIONARYVAR
  5
1C0C
102
{ACAD_REACTORS
330
246
102
}
330
246
100
DictionaryVariables
280
     0
  1
1
  0
DICTIONARYVAR
  5
1C0D
102
{ACAD_REACTORS
330
246
102
}
330
246
100
DictionaryVariables
280
     0
  1

  0
DICTIONARYVAR
  5
247
102
{ACAD_REACTORS
330
246
102
}
330
246
100
DictionaryVariables
280
     0
  1
96
  0
ENDSEC
  0
EOF
