  0
SECTION
  2
HEADER
  9
$ACADVER
  1
AC1018
  9
$ACADMAINTVER
 70
     2
  9
$DWGCODEPAGE
  3
ANSI_1252
  9
$INSBASE
 10
0.0
 20
0.0
 30
0.0
  9
$EXTMIN
 10
-0.0256208784119281
 20
-0.0362352423260291
 30
-0.00000000000001
  9
$EXTMAX
 10
420.0256433713739
 20
594.0362670537999
 30
0.0000000000000053
  9
$LIMMIN
 10
0.0
 20
0.0
  9
$LIMMAX
 10
419.9999999999999
 20
594.0
  9
$ORTHOMODE
 70
     0
  9
$REGENMODE
 70
     1
  9
$FILLMODE
 70
     1
  9
$QTEXTMODE
 70
     0
  9
$MIRRTEXT
 70
     1
  9
$LTSCALE
 40
20.0
  9
$ATTMODE
 70
     1
  9
$TEXTSIZE
 40
3.5
  9
$TRACEWID
 40
0.5
  9
$TEXTSTYLE
  7
STANDARD
  9
$CLAYER
  8
SCHRAFF
  9
$CELTYPE
  6
ByLayer
  9
$CECOLOR
 62
   256
  9
$CELTSCALE
 40
1.0
  9
$DISPSILH
 70
     0
  9
$DIMSCALE
 40
2.0
  9
$DIMASZ
 40
3.5
  9
$DIMEXO
 40
1.0
  9
$DIMDLI
 40
7.0
  9
$DIMRND
 40
0.0
  9
$DIMDLE
 40
0.0
  9
$DIMEXE
 40
1.0
  9
$DIMTP
 40
0.0
  9
$DIMTM
 40
0.0
  9
$DIMTXT
 40
3.5
  9
$DIMCEN
 40
1.5
  9
$DIMTSZ
 40
0.0
  9
$DIMTOL
 70
     0
  9
$DIMLIM
 70
     0
  9
$DIMTIH
 70
     0
  9
$DIMTOH
 70
     0
  9
$DIMSE1
 70
     0
  9
$DIMSE2
 70
     0
  9
$DIMTAD
 70
     1
  9
$DIMZIN
 70
     8
  9
$DIMBLK
  1

  9
$DIMASO
 70
     1
  9
$DIMSHO
 70
     0
  9
$DIMPOST
  1

  9
$DIMAPOST
  1

  9
$DIMALT
 70
     0
  9
$DIMALTD
 70
     2
  9
$DIMALTF
 40
25.4
  9
$DIMLFAC
 40
1.0
  9
$DIMTOFL
 70
     1
  9
$DIMTVP
 40
0.0
  9
$DIMTIX
 70
     0
  9
$DIMSOXD
 70
     0
  9
$DIMSAH
 70
     0
  9
$DIMBLK1
  1

  9
$DIMBLK2
  1

  9
$DIMSTYLE
  2
Standard
  9
$DIMCLRD
 70
     0
  9
$DIMCLRE
 70
     0
  9
$DIMCLRT
 70
     1
  9
$DIMTFAC
 40
0.5142857142857144
  9
$DIMGAP
 40
1.5
  9
$DIMJUST
 70
     0
  9
$DIMSD1
 70
     0
  9
$DIMSD2
 70
     0
  9
$DIMTOLJ
 70
     1
  9
$DIMTZIN
 70
     8
  9
$DIMALTZ
 70
     8
  9
$DIMALTTZ
 70
     8
  9
$DIMUPT
 70
     0
  9
$DIMDEC
 70
     2
  9
$DIMTDEC
 70
     2
  9
$DIMALTU
 70
     2
  9
$DIMALTTD
 70
     2
  9
$DIMTXSTY
  7
STANDARD
  9
$DIMAUNIT
 70
     0
  9
$DIMADEC
 70
     2
  9
$DIMALTRND
 40
0.0
  9
$DIMAZIN
 70
     2
  9
$DIMDSEP
 70
    46
  9
$DIMATFIT
 70
     3
  9
$DIMFRAC
 70
     0
  9
$DIMLDRBLK
  1

  9
$DIMLUNIT
 70
     2
  9
$DIMLWD
 70
    -2
  9
$DIMLWE
 70
    -2
  9
$DIMTMOVE
 70
     0
  9
$LUNITS
 70
     2
  9
$LUPREC
 70
     2
  9
$SKETCHINC
 40
1.0
  9
$FILLETRAD
 40
0.0
  9
$AUNITS
 70
     1
  9
$AUPREC
 70
     3
  9
$MENU
  1
ACAD
  9
$ELEVATION
 40
0.0
  9
$PELEVATION
 40
0.0
  9
$THICKNESS
 40
0.0
  9
$LIMCHECK
 70
     0
  9
$CHAMFERA
 40
0.0
  9
$CHAMFERB
 40
0.0
  9
$CHAMFERC
 40
0.0
  9
$CHAMFERD
 40
0.0
  9
$SKPOLY
 70
     0
  9
$TDCREATE
 40
2452040.637099653
  9
$TDUCREATE
 40
2452040.553766320
  9
$TDUPDATE
 40
2455660.368082824
  9
$TDUUPDATE
 40
2455660.284749491
  9
$TDINDWG
 40
0.5935195139
  9
$TDUSRTIMER
 40
0.5935195139
  9
$USRTIMER
 70
     1
  9
$ANGBASE
 50
0.0
  9
$ANGDIR
 70
     0
  9
$PDMODE
 70
     0
  9
$PDSIZE
 40
0.0
  9
$PLINEWID
 40
0.0
  9
$SPLFRAME
 70
     0
  9
$SPLINETYPE
 70
     6
  9
$SPLINESEGS
 70
     8
  9
$HANDSEED
  5
28AA
  9
$SURFTAB1
 70
     6
  9
$SURFTAB2
 70
     6
  9
$SURFTYPE
 70
     6
  9
$SURFU
 70
     6
  9
$SURFV
 70
     6
  9
$UCSBASE
  2

  9
$UCSNAME
  2

  9
$UCSORG
 10
0.0
 20
0.0
 30
0.0
  9
$UCSXDIR
 10
1.0
 20
0.0
 30
0.0
  9
$UCSYDIR
 10
0.0
 20
1.0
 30
0.0
  9
$UCSORTHOREF
  2

  9
$UCSORTHOVIEW
 70
     0
  9
$UCSORGTOP
 10
0.0
 20
0.0
 30
0.0
  9
$UCSORGBOTTOM
 10
0.0
 20
0.0
 30
0.0
  9
$UCSORGLEFT
 10
0.0
 20
0.0
 30
0.0
  9
$UCSORGRIGHT
 10
0.0
 20
0.0
 30
0.0
  9
$UCSORGFRONT
 10
0.0
 20
0.0
 30
0.0
  9
$UCSORGBACK
 10
0.0
 20
0.0
 30
0.0
  9
$PUCSBASE
  2

  9
$PUCSNAME
  2

  9
$PUCSORG
 10
0.0
 20
0.0
 30
0.0
  9
$PUCSXDIR
 10
1.0
 20
0.0
 30
0.0
  9
$PUCSYDIR
 10
0.0
 20
1.0
 30
0.0
  9
$PUCSORTHOREF
  2

  9
$PUCSORTHOVIEW
 70
     0
  9
$PUCSORGTOP
 10
0.0
 20
0.0
 30
0.0
  9
$PUCSORGBOTTOM
 10
0.0
 20
0.0
 30
0.0
  9
$PUCSORGLEFT
 10
0.0
 20
0.0
 30
0.0
  9
$PUCSORGRIGHT
 10
0.0
 20
0.0
 30
0.0
  9
$PUCSORGFRONT
 10
0.0
 20
0.0
 30
0.0
  9
$PUCSORGBACK
 10
0.0
 20
0.0
 30
0.0
  9
$USERI1
 70
     0
  9
$USERI2
 70
     0
  9
$USERI3
 70
     0
  9
$USERI4
 70
     0
  9
$USERI5
 70
     0
  9
$USERR1
 40
0.0
  9
$USERR2
 40
0.0
  9
$USERR3
 40
0.0
  9
$USERR4
 40
0.0
  9
$USERR5
 40
0.0
  9
$WORLDVIEW
 70
     1
  9
$SHADEDGE
 70
     3
  9
$SHADEDIF
 70
    70
  9
$TILEMODE
 70
     1
  9
$MAXACTVP
 70
    16
  9
$PINSBASE
 10
0.0
 20
0.0
 30
0.0
  9
$PLIMCHECK
 70
     0
  9
$PEXTMIN
 10
1.000000000000000E+20
 20
1.000000000000000E+20
 30
1.000000000000000E+20
  9
$PEXTMAX
 10
-1.000000000000000E+20
 20
-1.000000000000000E+20
 30
-1.000000000000000E+20
  9
$PLIMMIN
 10
0.0
 20
0.0
  9
$PLIMMAX
 10
12.0
 20
9.0
  9
$UNITMODE
 70
     0
  9
$VISRETAIN
 70
     0
  9
$PLINEGEN
 70
     0
  9
$PSLTSCALE
 70
     0
  9
$TREEDEPTH
 70
  3020
  9
$CMLSTYLE
  2
Standard
  9
$CMLJUST
 70
     0
  9
$CMLSCALE
 40
1.0
  9
$PROXYGRAPHICS
 70
     1
  9
$MEASUREMENT
 70
     0
  9
$CELWEIGHT
370
    -1
  9
$ENDCAPS
280
     0
  9
$JOINSTYLE
280
     0
  9
$LWDISPLAY
290
     0
  9
$INSUNITS
 70
     0
  9
$HYPERLINKBASE
  1

  9
$STYLESHEET
  1
monochrome 1.ctb
  9
$XEDIT
290
     1
  9
$CEPSNTYPE
380
     0
  9
$PSTYLEMODE
290
     1
  9
$FINGERPRINTGUID
  2
{7AADB5C8-6110-11D8-B72B-000102183313}
  9
$VERSIONGUID
  2
{54017ECF-DE2D-4D1B-8158-C233D949DC68}
  9
$EXTNAMES
290
     1
  9
$PSVPSCALE
 40
0.0
  9
$OLESTARTUP
290
     0
  9
$SORTENTS
280
    96
  9
$INDEXCTL
280
     0
  9
$HIDETEXT
280
     0
  9
$XCLIPFRAME
290
     0
  9
$HALOGAP
280
     0
  9
$OBSCOLOR
 70
   257
  9
$OBSLTYPE
280
     0
  9
$INTERSECTIONDISPLAY
280
     0
  9
$INTERSECTIONCOLOR
 70
   257
  9
$DIMASSOC
280
     1
  9
$PROJECTNAME
  1

  0
ENDSEC
  0
SECTION
  2
CLASSES
  0
CLASS
  1
ACDBDICTIONARYWDFLT
  2
AcDbDictionaryWithDefault
  3
ObjectDBX Classes
 90
        0
 91
        1
280
     0
281
     0
  0
CLASS
  1
DICTIONARYVAR
  2
AcDbDictionaryVar
  3
ObjectDBX Classes
 90
        0
 91
        3
280
     0
281
     0
  0
ENDSEC
  0
SECTION
  2
TABLES
  0
TABLE
  2
VPORT
  5
8
330
0
100
AcDbSymbolTable
 70
     3
  0
VPORT
  5
28A9
330
8
100
AcDbSymbolTableRecord
100
AcDbViewportTableRecord
  2
*Active
 70
     0
 10
0.0
 20
0.0
 11
1.0
 21
1.0
 12
210.0
 22
297.0000000000001
 13
0.0
 23
0.0
 14
1.0
 24
1.0
 15
10.0
 25
10.0
 16
0.0
 26
0.0
 36
1.0
 17
0.0
 27
0.0
 37
0.0
 40
594.0000000000002
 41
1.334231805929919
 42
50.0
 43
0.0
 44
0.0
 50
0.0
 51
0.0
 71
     0
 72
  1500
 73
     1
 74
     0
 75
     0
 76
     0
 77
     0
 78
     0
281
     0
 65
     1
110
0.0
120
0.0
130
0.0
111
1.0
121
0.0
131
0.0
112
0.0
122
1.0
132
0.0
 79
     0
146
0.0
  0
ENDTAB
  0
TABLE
  2
LTYPE
  5
5
330
0
100
AcDbSymbolTable
 70
     2
  0
LTYPE
  5
13
330
5
100
AcDbSymbolTableRecord
100
AcDbLinetypeTableRecord
  2
ByBlock
 70
     0
  3

 72
    65
 73
     0
 40
0.0
  0
LTYPE
  5
14
330
5
100
AcDbSymbolTableRecord
100
AcDbLinetypeTableRecord
  2
ByLayer
 70
     0
  3

 72
    65
 73
     0
 40
0.0
  0
LTYPE
  5
15
330
5
100
AcDbSymbolTableRecord
100
AcDbLinetypeTableRecord
  2
Continuous
 70
     0
  3
Solid line
 72
    65
 73
     0
 40
0.0
  0
LTYPE
  5
35
330
5
100
AcDbSymbolTableRecord
100
AcDbLinetypeTableRecord
  2
STRICHPUNKT
 70
     0
  3
__ . __ . __ . __ . __ . __ . __ . __ . __ . __
 72
    65
 73
     4
 40
1.0
 49
0.5
 74
     0
 49
-0.25
 74
     0
 49
0.0
 74
     0
 49
-0.25
 74
     0
  0
ENDTAB
  0
TABLE
  2
LAYER
  5
2
330
0
100
AcDbSymbolTable
 70
     9
  0
LAYER
  5
10
330
2
100
AcDbSymbolTableRecord
100
AcDbLayerTableRecord
  2
0
 70
     0
 62
     7
  6
Continuous
370
    -3
390
F
  0
LAYER
  5
38
330
2
100
AcDbSymbolTableRecord
100
AcDbLayerTableRecord
  2
VOLL
 70
     0
 62
     1
  6
Continuous
370
    -3
390
F
  0
LAYER
  5
39
330
2
100
AcDbSymbolTableRecord
100
AcDbLayerTableRecord
  2
HILF
 70
     0
 62
     2
  6
Continuous
370
    -3
390
F
  0
LAYER
  5
3A
330
2
100
AcDbSymbolTableRecord
100
AcDbLayerTableRecord
  2
MITTEL
 70
     0
 62
     2
  6
STRICHPUNKT
370
    -3
390
F
  0
LAYER
  5
3B
330
2
100
AcDbSymbolTableRecord
100
AcDbLayerTableRecord
  2
BEM
 70
     0
 62
     7
  6
Continuous
370
    -3
390
F
  0
LAYER
  5
3C
330
2
100
AcDbSymbolTableRecord
100
AcDbLayerTableRecord
  2
STEMPEL
 70
     0
 62
     3
  6
Continuous
370
    -3
390
F
  0
LAYER
  5
3D
330
2
100
AcDbSymbolTableRecord
100
AcDbLayerTableRecord
  2
TEXT
 70
     0
 62
     7
  6
Continuous
370
    -3
390
F
  0
LAYER
  5
3E
330
2
100
AcDbSymbolTableRecord
100
AcDbLayerTableRecord
  2
DEFPOINTS
 70
     0
 62
     7
  6
Continuous
290
     0
370
    -3
390
F
  0
LAYER
  5
3F
330
2
100
AcDbSymbolTableRecord
100
AcDbLayerTableRecord
  2
SCHRAFF
 70
     0
 62
     7
  6
Continuous
370
    -3
390
F
  0
ENDTAB
  0
TABLE
  2
STYLE
  5
3
330
0
100
AcDbSymbolTable
 70
     2
  0
STYLE
  5
11
330
3
100
AcDbSymbolTableRecord
100
AcDbTextStyleTableRecord
  2
STANDARD
 70
     0
 40
0.0
 41
0.8
 50
0.0
 71
     0
 42
3.5
  3
simplex.shx
  4

  0
STYLE
  5
34
330
3
100
AcDbSymbolTableRecord
100
AcDbTextStyleTableRecord
  2
GREEKS
 70
     0
 40
0.0
 41
0.8
 50
0.0
 71
     0
 42
2.5
  3
SIMPLEX.shx
  4

  0
ENDTAB
  0
TABLE
  2
VIEW
  5
6
330
0
100
AcDbSymbolTable
 70
     0
  0
ENDTAB
  0
TABLE
  2
UCS
  5
7
330
0
100
AcDbSymbolTable
 70
     0
  0
ENDTAB
  0
TABLE
  2
APPID
  5
9
330
0
100
AcDbSymbolTable
 70
     2
  0
APPID
  5
12
330
9
100
AcDbSymbolTableRecord
100
AcDbRegAppTableRecord
  2
ACAD
 70
     0
  0
APPID
  5
1555
330
9
100
AcDbSymbolTableRecord
100
AcDbRegAppTableRecord
  2
AVE_RENDER
 70
     0
  0
ENDTAB
  0
TABLE
  2
DIMSTYLE
  5
A
330
0
100
AcDbSymbolTable
 70
     1
100
AcDbDimStyleTable
 71
     1
340
1CB
  0
DIMSTYLE
105
1CB
102
{ACAD_REACTORS
330
170F
330
1AB8
330
1AE8
330
25B5
330
25F0
330
27DB
102
}
330
A
100
AcDbSymbolTableRecord
100
AcDbDimStyleTableRecord
  2
Standard
 70
     0
340
11
  0
ENDTAB
  0
TABLE
  2
BLOCK_RECORD
  5
1
330
0
100
AcDbSymbolTable
 70
     9
  0
BLOCK_RECORD
  5
1E
330
1
100
AcDbSymbolTableRecord
100
AcDbBlockTableRecord
  2
*Model_Space
340
21
  0
BLOCK_RECORD
  5
1A
330
1
100
AcDbSymbolTableRecord
100
AcDbBlockTableRecord
  2
*Paper_Space
340
1D
  0
BLOCK_RECORD
  5
22
330
1
100
AcDbSymbolTableRecord
100
AcDbBlockTableRecord
  2
LOGO
340
0
102
{BLKREFS
331
135
102
}
  0
BLOCK_RECORD
  5
1710
330
1
100
AcDbSymbolTableRecord
100
AcDbBlockTableRecord
  2
*D1
340
0
  0
BLOCK_RECORD
  5
1AB9
330
1
100
AcDbSymbolTableRecord
100
AcDbBlockTableRecord
  2
*D2
340
0
  0
BLOCK_RECORD
  5
1AE9
330
1
100
AcDbSymbolTableRecord
100
AcDbBlockTableRecord
  2
*D3
340
0
  0
BLOCK_RECORD
  5
25B6
330
1
100
AcDbSymbolTableRecord
100
AcDbBlockTableRecord
  2
*D6
340
0
  0
BLOCK_RECORD
  5
25F1
330
1
100
AcDbSymbolTableRecord
100
AcDbBlockTableRecord
  2
*D7
340
0
  0
BLOCK_RECORD
  5
27DC
330
1
100
AcDbSymbolTableRecord
100
AcDbBlockTableRecord
  2
*D8
340
0
  0
ENDTAB
  0
ENDSEC
  0
SECTION
  2
BLOCKS
  0
BLOCK
  5
43
330
1E
100
AcDbEntity
  8
0
100
AcDbBlockBegin
  2
*Model_Space
 70
     0
 10
0.0
 20
0.0
 30
0.0
  3
*Model_Space
  1

  0
ENDBLK
  5
44
330
1E
100
AcDbEntity
  8
0
100
AcDbBlockEnd
  0
BLOCK
  5
41
330
1A
100
AcDbEntity
 67
     1
  8
0
100
AcDbBlockBegin
  2
*Paper_Space
 70
     0
 10
0.0
 20
0.0
 30
0.0
  3
*Paper_Space
  1

  0
ENDBLK
  5
42
330
1A
100
AcDbEntity
 67
     1
  8
0
100
AcDbBlockEnd
  0
BLOCK
  5
45
330
22
100
AcDbEntity
  8
0
100
AcDbBlockBegin
  2
LOGO
 70
     0
 10
0.0
 20
0.0
 30
0.0
  3
LOGO
  1

  0
ARC
  5
46
330
22
100
AcDbEntity
  8
0
100
AcDbCircle
 10
11.59973089678112
 20
-9.271599258481501
 30
0.0
 40
4.5
100
AcDbArc
 50
270.0
 51
231.0575587310159
  0
LINE
  5
47
330
22
100
AcDbEntity
  8
0
100
AcDbLine
 10
3.599730896781125
 20
-4.771599258481529
 30
0.0
 11
3.599730896781153
 21
-11.77159925848133
 31
0.0
  0
LINE
  5
48
330
22
100
AcDbEntity
  8
0
100
AcDbLine
 10
2.599730896781125
 20
-4.771599258481529
 30
0.0
 11
2.599730896781153
 21
-11.77159925848133
 31
0.0
  0
CIRCLE
  5
49
330
22
100
AcDbEntity
  8
0
100
AcDbCircle
 10
11.59973089678112
 20
-9.271599258481501
 30
0.0
 40
3.5
  0
ARC
  5
4A
330
22
100
AcDbEntity
  8
0
100
AcDbCircle
 10
31.59973089678115
 20
-9.271599258481472
 30
0.0
 40
4.5
100
AcDbArc
 50
270.0
 51
231.0575587310182
  0
LINE
  5
4B
330
22
100
AcDbEntity
  8
0
100
AcDbLine
 10
17.59973089678112
 20
-4.771599258481472
 30
0.0
 11
17.59973089678115
 21
-13.77159925848147
 31
0.0
  0
ARC
  5
4C
330
22
100
AcDbEntity
  8
0
100
AcDbCircle
 10
22.59973089678116
 20
-7.271599258481472
 30
0.0
 40
2.5
100
AcDbArc
 50
293.1161887722295
 51
90.0
  0
CIRCLE
  5
4D
330
22
100
AcDbEntity
  8
0
100
AcDbCircle
 10
31.59973089678115
 20
-9.271599258481472
 30
0.0
 40
3.5
  0
ARC
  5
4E
330
22
100
AcDbEntity
  8
0
100
AcDbCircle
 10
4.599730896781153
 20
-11.77159925848133
 30
0.0
 40
1.0
100
AcDbArc
 50
180.0
 51
270.0
  0
ARC
  5
4F
330
22
100
AcDbEntity
  8
0
100
AcDbCircle
 10
4.599730896781153
 20
-11.77159925848133
 30
0.0
 40
2.0
100
AcDbArc
 50
179.9999999999992
 51
270.0
  0
LINE
  5
50
330
22
100
AcDbEntity
  8
0
100
AcDbLine
 10
11.59973089678115
 20
-13.77159925848144
 30
0.0
 11
4.599730896781153
 21
-13.77159925848147
 31
0.0
  0
LINE
  5
51
330
22
100
AcDbEntity
  8
0
100
AcDbLine
 10
8.771303772034769
 20
-12.77159925848136
 30
0.0
 11
4.599730896781153
 21
-12.77159925848133
 31
0.0
  0
LINE
  5
52
330
22
100
AcDbEntity
  8
0
100
AcDbLine
 10
31.59973089678115
 20
-13.77159925848147
 30
0.0
 11
23.6715276665056
 21
-13.77159925848144
 31
0.0
  0
LINE
  5
53
330
22
100
AcDbEntity
  8
0
100
AcDbLine
 10
23.56565672307022
 20
-9.51278021337896
 30
0.0
 11
24.4388546544846
 21
-12.77159925848144
 31
0.0
  0
LINE
  5
54
330
22
100
AcDbEntity
  8
0
100
AcDbLine
 10
22.59973089678116
 20
-9.771599258481472
 30
0.0
 11
18.59973089678112
 21
-9.771599258481472
 31
0.0
  0
LINE
  5
55
330
22
100
AcDbEntity
  8
0
100
AcDbLine
 10
18.59973089678115
 20
-13.77159925848144
 30
0.0
 11
17.59973089678115
 21
-13.77159925848144
 31
0.0
  0
LINE
  5
56
330
22
100
AcDbEntity
  8
0
100
AcDbLine
 10
18.59973089678115
 20
-9.771599258481472
 30
0.0
 11
18.59973089678115
 21
-13.77159925848144
 31
0.0
  0
LINE
  5
57
330
22
100
AcDbEntity
  8
0
100
AcDbLine
 10
22.59973089678116
 20
-9.771599258481472
 30
0.0
 11
23.67152766650562
 21
-13.77159925848147
 31
0.0
  0
ARC
  5
58
330
22
100
AcDbEntity
  8
0
100
AcDbCircle
 10
22.59973089678116
 20
-7.271599258481472
 30
0.0
 40
2.5
100
AcDbArc
 50
270.0
 51
270.0000000000007
  0
LINE
  5
59
330
22
100
AcDbEntity
  8
0
100
AcDbLine
 10
28.77130377203494
 20
-12.77159925848147
 30
0.0
 11
24.43885465448463
 21
-12.77159925848144
 31
0.0
  0
LINE
  5
5A
330
22
100
AcDbEntity
  8
0
100
AcDbLine
 10
3.599730896781125
 20
-4.771599258481472
 30
0.0
 11
2.599730896781125
 21
-4.771599258481472
 31
0.0
  0
LINE
  5
5B
330
22
100
AcDbEntity
  8
0
100
AcDbLine
 10
22.59973089678116
 20
-8.771599258481472
 30
0.0
 11
18.59973089678115
 21
-8.771599258481472
 31
0.0
  0
LINE
  5
5C
330
22
100
AcDbEntity
  8
0
100
AcDbLine
 10
22.59973089678116
 20
-5.771599258481472
 30
0.0
 11
18.59973089678115
 21
-5.771599258481472
 31
0.0
  0
LINE
  5
5D
330
22
100
AcDbEntity
  8
0
100
AcDbLine
 10
22.59973089678116
 20
-4.771599258481472
 30
0.0
 11
17.59973089678115
 21
-4.771599258481472
 31
0.0
  0
LINE
  5
5E
330
22
100
AcDbEntity
  8
0
100
AcDbLine
 10
18.59973089678115
 20
-5.771599258481472
 30
0.0
 11
18.59973089678115
 21
-8.771599258481472
 31
0.0
  0
ARC
  5
5F
330
22
100
AcDbEntity
  8
0
100
AcDbCircle
 10
22.59973089678116
 20
-7.271599258481472
 30
0.0
 40
1.5
100
AcDbArc
 50
270.0
 51
90.0
  0
ENDBLK
  5
60
330
22
100
AcDbEntity
  8
0
100
AcDbBlockEnd
  0
BLOCK
  5
171A
330
1710
100
AcDbEntity
  8
0
100
AcDbBlockBegin
  2
*D1
 70
     1
 10
0.0
 20
0.0
 30
0.0
  3
*D1
  1

  0
LINE
  5
289F
330
1710
100
AcDbEntity
  8
BEM
 62
     0
370
    -2
100
AcDbLine
 10
133.2004867617252
 20
197.1089222436608
 30
0.0
 11
113.3884520256203
 21
197.1089222436608
 31
0.0
  0
LINE
  5
28A0
330
1710
100
AcDbEntity
  8
BEM
 62
     0
370
    -2
100
AcDbLine
 10
183.300577453518
 20
287.1089222436605
 30
0.0
 11
113.3884520256203
 21
287.1089222436605
 31
0.0
  0
LINE
  5
28A1
330
1710
100
AcDbEntity
  8
BEM
 62
     0
370
    -2
100
AcDbLine
 10
115.3884520256203
 20
204.1089222436608
 30
0.0
 11
115.3884520256203
 21
280.1089222436605
 31
0.0
  0
SOLID
  5
28A2
330
1710
100
AcDbEntity
  8
BEM
 62
     0
100
AcDbTrace
 10
114.2217853589536
 20
204.1089222436608
 30
0.0
 11
116.5551186922869
 21
204.1089222436608
 31
0.0
 12
115.3884520256203
 22
197.1089222436608
 32
0.0
 13
115.3884520256203
 23
197.1089222436608
 33
0.0
  0
SOLID
  5
28A3
330
1710
100
AcDbEntity
  8
BEM
 62
     0
100
AcDbTrace
 10
114.2217853589536
 20
280.1089222436605
 30
0.0
 11
116.555118692287
 21
280.1089222436605
 31
0.0
 12
115.3884520256203
 22
287.1089222436605
 32
0.0
 13
115.3884520256203
 23
287.1089222436605
 33
0.0
  0
MTEXT
  5
28A4
330
1710
100
AcDbEntity
  8
BEM
 62
     1
100
AcDbMText
 10
108.8884520256202
 20
242.1089222436607
 30
0.0
 40
7.0
 41
0.0
 71
     5
 72
     1
  1
\A1;90
 11
0.0000000000000001
 21
1.0
 31
0.0
 73
     1
 44
1.0
  0
POINT
  5
28A5
330
1710
100
AcDbEntity
  8
DEFPOINTS
 62
     0
100
AcDbPoint
 10
135.2004867617252
 20
197.1089222436608
 30
0.0
  0
POINT
  5
28A6
330
1710
100
AcDbEntity
  8
DEFPOINTS
 62
     0
100
AcDbPoint
 10
185.300577453518
 20
287.1089222436605
 30
0.0
  0
POINT
  5
28A7
330
1710
100
AcDbEntity
  8
DEFPOINTS
 62
     0
100
AcDbPoint
 10
115.3884520256203
 20
287.1089222436605
 30
0.0
  0
ENDBLK
  5
171B
330
1710
100
AcDbEntity
  8
0
100
AcDbBlockEnd
  0
BLOCK
  5
1AC3
330
1AB9
100
AcDbEntity
  8
0
100
AcDbBlockBegin
  2
*D2
 70
     1
 10
0.0
 20
0.0
 30
0.0
  3
*D2
  1

  0
LINE
  5
2896
330
1AB9
100
AcDbEntity
  8
BEM
 62
     0
370
    -2
100
AcDbLine
 10
128.6407945347951
 20
497.1122151479907
 30
0.0
 11
96.66994235524253
 21
497.1122151479908
 31
0.0
  0
LINE
  5
2897
330
1AB9
100
AcDbEntity
  8
BEM
 62
     0
370
    -2
100
AcDbLine
 10
133.2004867617252
 20
197.1089222436608
 30
0.0
 11
96.66994235524246
 21
197.1089222436608
 31
0.0
  0
LINE
  5
2898
330
1AB9
100
AcDbEntity
  8
BEM
 62
     0
370
    -2
100
AcDbLine
 10
98.66994235524252
 20
490.1122151479908
 30
0.0
 11
98.66994235524245
 21
204.1089222436608
 31
0.0
  0
SOLID
  5
2899
330
1AB9
100
AcDbEntity
  8
BEM
 62
     0
100
AcDbTrace
 10
97.50327568857585
 20
490.1122151479908
 30
0.0
 11
99.83660902190919
 21
490.1122151479908
 31
0.0
 12
98.66994235524252
 22
497.1122151479908
 32
0.0
 13
98.66994235524252
 23
497.1122151479908
 33
0.0
  0
SOLID
  5
289A
330
1AB9
100
AcDbEntity
  8
BEM
 62
     0
100
AcDbTrace
 10
97.50327568857578
 20
204.1089222436608
 30
0.0
 11
99.83660902190912
 21
204.1089222436608
 31
0.0
 12
98.66994235524245
 22
197.1089222436608
 32
0.0
 13
98.66994235524245
 23
197.1089222436608
 33
0.0
  0
MTEXT
  5
289B
330
1AB9
100
AcDbEntity
  8
BEM
 62
     1
100
AcDbMText
 10
92.16994235524243
 20
347.1105686958259
 30
0.0
 40
7.0
 41
0.0
 71
     5
 72
     1
  1
\A1;300
 11
0.0000000000000001
 21
1.0
 31
0.0
 73
     1
 44
1.0
  0
POINT
  5
289C
330
1AB9
100
AcDbEntity
  8
DEFPOINTS
 62
     0
100
AcDbPoint
 10
130.6407945347951
 20
497.1122151479907
 30
0.0
  0
POINT
  5
289D
330
1AB9
100
AcDbEntity
  8
DEFPOINTS
 62
     0
100
AcDbPoint
 10
135.2004867617252
 20
197.1089222436608
 30
0.0
  0
POINT
  5
289E
330
1AB9
100
AcDbEntity
  8
DEFPOINTS
 62
     0
100
AcDbPoint
 10
98.66994235524245
 20
197.1089222436608
 30
0.0
  0
ENDBLK
  5
1AC4
330
1AB9
100
AcDbEntity
  8
0
100
AcDbBlockEnd
  0
BLOCK
  5
1AF3
330
1AE9
100
AcDbEntity
  8
0
100
AcDbBlockBegin
  2
*D3
 70
     1
 10
0.0
 20
0.0
 30
0.0
  3
*D3
  1

  0
LINE
  5
27AE
330
1AE9
100
AcDbEntity
  8
BEM
 62
     0
370
    -2
100
AcDbLine
 10
134.5005774535179
 20
203.1089222436608
 30
0.0
 11
134.5005774535179
 21
174.0190329905834
 31
0.0
  0
LINE
  5
27AF
330
1AE9
100
AcDbEntity
  8
BEM
 62
     0
370
    -2
100
AcDbLine
 10
236.1005774535178
 20
203.1089222436601
 30
0.0
 11
236.1005774535178
 21
174.0190329905834
 31
0.0
  0
LINE
  5
27B0
330
1AE9
100
AcDbEntity
  8
BEM
 62
     0
370
    -2
100
AcDbLine
 10
141.5005774535179
 20
176.0190329905834
 30
0.0
 11
229.1005774535178
 21
176.0190329905834
 31
0.0
  0
SOLID
  5
27B1
330
1AE9
100
AcDbEntity
  8
BEM
 62
     0
100
AcDbTrace
 10
141.5005774535179
 20
177.1856996572501
 30
0.0
 11
141.5005774535179
 21
174.8523663239168
 31
0.0
 12
134.5005774535179
 22
176.0190329905834
 32
0.0
 13
134.5005774535179
 23
176.0190329905834
 33
0.0
  0
SOLID
  5
27B2
330
1AE9
100
AcDbEntity
  8
BEM
 62
     0
100
AcDbTrace
 10
229.1005774535178
 20
177.1856996572501
 30
0.0
 11
229.1005774535178
 21
174.8523663239168
 31
0.0
 12
236.1005774535178
 22
176.0190329905834
 32
0.0
 13
236.1005774535178
 23
176.0190329905834
 33
0.0
  0
MTEXT
  5
27B3
330
1AE9
100
AcDbEntity
  8
BEM
 62
     1
100
AcDbMText
 10
185.3005774535178
 20
182.5190329905834
 30
0.0
 40
7.0
 41
0.0
 71
     5
 72
     1
  1
\A1;%%c101.6
 73
     1
 44
1.0
  0
POINT
  5
27B4
330
1AE9
100
AcDbEntity
  8
DEFPOINTS
 62
     0
100
AcDbPoint
 10
134.5005774535179
 20
205.1089222436608
 30
0.0
  0
POINT
  5
27B5
330
1AE9
100
AcDbEntity
  8
DEFPOINTS
 62
     0
100
AcDbPoint
 10
236.1005774535178
 20
205.1089222436601
 30
0.0
  0
POINT
  5
27B6
330
1AE9
100
AcDbEntity
  8
DEFPOINTS
 62
     0
100
AcDbPoint
 10
236.1005774535178
 20
176.0190329905834
 30
0.0
  0
ENDBLK
  5
1AF4
330
1AE9
100
AcDbEntity
  8
0
100
AcDbBlockEnd
  0
BLOCK
  5
25C0
330
25B6
100
AcDbEntity
  8
0
100
AcDbBlockBegin
  2
*D6
 70
     1
 10
0.0
 20
0.0
 30
0.0
  3
*D6
  1

  0
LINE
  5
288D
330
25B6
100
AcDbEntity
  8
BEM
 62
     0
370
    -2
100
AcDbLine
 10
186.7147910158912
 20
285.6947086812874
 30
0.0
 11
228.6296447755169
 21
243.7798549216615
 31
0.0
  0
LINE
  5
288E
330
25B6
100
AcDbEntity
  8
BEM
 62
     0
370
    -2
100
AcDbLine
 10
349.5157557143444
 20
393.008534396095
 30
0.0
 11
363.6870399821477
 21
378.8372501282916
 31
0.0
  0
LINE
  5
288F
330
25B6
100
AcDbEntity
  8
BEM
 62
     0
370
    -2
100
AcDbLine
 10
232.1651786814496
 20
250.1438159523404
 30
0.0
 11
357.3230789514687
 21
375.3017162223589
 31
0.0
  0
SOLID
  5
2890
330
25B6
100
AcDbEntity
  8
BEM
 62
     0
100
AcDbTrace
 10
231.3402207700653
 20
250.9687738637247
 30
0.0
 11
232.990136592834
 21
249.3188580409561
 31
0.0
 12
227.2154312131438
 22
245.1940684840346
 32
0.0
 13
227.2154312131438
 23
245.1940684840346
 33
0.0
  0
SOLID
  5
2891
330
25B6
100
AcDbEntity
  8
BEM
 62
     0
100
AcDbTrace
 10
356.4981210400845
 20
376.1266741337432
 30
0.0
 11
358.148036862853
 21
374.4767583109746
 31
0.0
 12
362.2728264197746
 22
380.2514636906647
 32
0.0
 13
362.2728264197746
 23
380.2514636906647
 33
0.0
  0
MTEXT
  5
2892
330
25B6
100
AcDbEntity
  8
BEM
 62
     1
100
AcDbMText
 10
290.1479347387466
 20
317.3189601650622
 30
0.0
 40
7.0
 41
0.0
 71
     5
 72
     1
  1
\A1;191
 11
0.7071067811865493
 21
0.7071067811865458
 31
0.0
 73
     1
 44
1.0
  0
POINT
  5
2893
330
25B6
100
AcDbEntity
  8
DEFPOINTS
 62
     0
100
AcDbPoint
 10
185.3005774535181
 20
287.1089222436605
 30
0.0
  0
POINT
  5
2894
330
25B6
100
AcDbEntity
  8
DEFPOINTS
 62
     0
100
AcDbPoint
 10
348.1015421519713
 20
394.4227479584682
 30
0.0
  0
POINT
  5
2895
330
25B6
100
AcDbEntity
  8
DEFPOINTS
 62
     0
100
AcDbPoint
 10
362.2728264197746
 20
380.2514636906648
 30
0.0
  0
ENDBLK
  5
25C1
330
25B6
100
AcDbEntity
  8
0
100
AcDbBlockEnd
  0
BLOCK
  5
25FB
330
25F1
100
AcDbEntity
  8
0
100
AcDbBlockBegin
  2
*D7
 70
     1
 10
0.0
 20
0.0
 30
0.0
  3
*D7
  1

  0
LINE
  5
279C
330
25F1
100
AcDbEntity
  8
BEM
 62
     0
370
    -2
100
AcDbLine
 10
234.686363891145
 20
388.1135037079051
 30
0.0
 11
173.8251712679156
 21
327.2523110846754
 31
0.0
  0
LINE
  5
279D
330
25F1
100
AcDbEntity
  8
BEM
 62
     0
370
    -2
100
AcDbLine
 10
234.6863638911446
 20
284.8759136546689
 30
0.0
 11
225.4439662945336
 21
275.6335160580578
 31
0.0
  0
LINE
  5
279E
330
25F1
100
AcDbEntity
  8
BEM
 62
     0
370
    -2
100
AcDbLine
 10
180.1891322985946
 20
323.7167771787426
 30
0.0
 11
221.9084323886008
 21
281.9974770887366
 31
0.0
  0
SOLID
  5
279F
330
25F1
100
AcDbEntity
  8
BEM
 62
     0
100
AcDbTrace
 10
181.0140902099789
 20
324.541735090127
 30
0.0
 11
179.3641743872103
 21
322.8918192673583
 31
0.0
 12
175.2393848302888
 22
328.6665246470485
 32
0.0
 13
175.2393848302888
 23
328.6665246470485
 33
0.0
  0
SOLID
  5
27A0
330
25F1
100
AcDbEntity
  8
BEM
 62
     0
100
AcDbTrace
 10
222.7333902999851
 20
282.822435000121
 30
0.0
 11
221.0834744772165
 21
281.1725191773524
 31
0.0
 12
226.8581798569067
 22
277.0477296204309
 32
0.0
 13
226.8581798569067
 23
277.0477296204309
 33
0.0
  0
MTEXT
  5
27A1
330
25F1
100
AcDbEntity
  8
BEM
 62
     1
100
AcDbMText
 10
205.6449764213102
 20
307.4533212114523
 30
0.0
 40
7.0
 41
0.0
 71
     5
 72
     1
  1
\A1;%%c73
 11
0.7071067811865495
 21
-0.7071067811865456
 31
0.0
 73
     1
 44
1.0
  0
POINT
  5
27A2
330
25F1
100
AcDbEntity
  8
DEFPOINTS
 62
     0
100
AcDbPoint
 10
236.100577453518
 20
389.5277172702781
 30
0.0
  0
POINT
  5
27A3
330
25F1
100
AcDbEntity
  8
DEFPOINTS
 62
     0
100
AcDbPoint
 10
236.1005774535177
 20
286.290127217042
 30
0.0
  0
POINT
  5
27A4
330
25F1
100
AcDbEntity
  8
DEFPOINTS
 62
     0
100
AcDbPoint
 10
226.8581798569067
 20
277.0477296204308
 30
0.0
  0
ENDBLK
  5
25FC
330
25F1
100
AcDbEntity
  8
0
100
AcDbBlockEnd
  0
BLOCK
  5
27E8
330
27DC
100
AcDbEntity
  8
0
100
AcDbBlockBegin
  2
*D8
 70
     1
 10
0.0
 20
0.0
 30
0.0
  3
*D8
  1

  0
LINE
  5
27EA
330
27DC
100
AcDbEntity
  8
BEM
 62
     0
370
    -2
100
AcDbLine
 10
325.3077201284546
 20
427.1160649185969
 30
0.0
 11
353.5537455312512
 21
455.3620903213934
 31
0.0
  0
LINE
  5
27EB
330
27DC
100
AcDbEntity
  8
BEM
 62
     0
370
    -2
100
AcDbLine
 10
185.3005774535183
 20
504.1122151479902
 30
0.0
 11
185.3005774535184
 21
525.0548344514306
 31
0.0
  0
ARC
  5
27EC
330
27DC
100
AcDbEntity
  8
BEM
 62
     0
370
    -2
100
AcDbCircle
 10
185.300577453518
 20
287.1089222436607
 30
0.0
 40
235.9459122077698
100
AcDbArc
 50
46.69990301255399
 51
88.30009698744586
  0
SOLID
  5
27ED
330
27DC
100
AcDbEntity
  8
BEM
 62
     0
100
AcDbTrace
 10
347.9295348067986
 20
459.6607600071178
 30
0.0
 11
346.304275221582
 21
457.9865510222218
 31
0.0
 12
352.1395319688781
 22
453.9478767590203
 32
0.0
 13
352.1395319688781
 23
453.9478767590203
 33
0.0
  0
SOLID
  5
27EE
330
27DC
100
AcDbEntity
  8
BEM
 62
     0
100
AcDbTrace
 10
192.2825010280094
 20
521.7844587939663
 30
0.0
 11
192.3171134804577
 21
524.1175353942046
 31
0.0
 12
185.3005774535184
 22
523.0548344514304
 32
0.0
 13
185.3005774535184
 23
523.0548344514304
 33
0.0
  0
MTEXT
  5
27EF
330
27DC
100
AcDbEntity
  8
BEM
 62
     1
100
AcDbMText
 10
278.0806113000729
 20
511.0997382734473
 30
0.0
 40
7.0
 41
0.0
 71
     5
 72
     1
  1
\A1;45°
 11
0.9238795325112862
 21
-0.382683432365091
 31
0.0
 73
     1
 44
1.0
  0
POINT
  5
27F0
330
27DC
100
AcDbEntity
  8
DEFPOINTS
 62
     0
100
AcDbPoint
 10
303.2735335574032
 20
491.4440761346821
 30
0.0
  0
POINT
  5
27F1
330
27DC
100
AcDbEntity
  8
DEFPOINTS
 62
     0
100
AcDbPoint
 10
185.3005774535183
 20
502.1122151479903
 30
0.0
  0
POINT
  5
27F2
330
27DC
100
AcDbEntity
  8
DEFPOINTS
 62
     0
100
AcDbPoint
 10
323.8935065660815
 20
425.7018513562236
 30
0.0
  0
POINT
  5
27F3
330
27DC
100
AcDbEntity
  8
DEFPOINTS
 62
     0
100
AcDbPoint
 10
210.497902222605
 20
312.3062470127475
 30
0.0
  0
POINT
  5
27F4
330
27DC
100
AcDbEntity
  8
DEFPOINTS
 62
     0
100
AcDbPoint
 10
185.3005774535179
 20
192.1089222436606
 30
0.0
  0
ENDBLK
  5
27E9
330
27DC
100
AcDbEntity
  8
0
100
AcDbBlockEnd
  0
ENDSEC
  0
SECTION
  2
ENTITIES
  0
TEXT
  5
134
330
1E
100
AcDbEntity
  8
TEXT
100
AcDbText
 10
204.4216048581257
 20
63.0896391972351
 30
0.0
 40
4.0
  1
Koeh
 41
0.8
  7
GREEKS
 72
     1
 11
209.6787477152686
 21
63.0896391972351
 31
0.0
100
AcDbText
  0
INSERT
  5
135
330
1E
100
AcDbEntity
  8
STEMPEL
100
AcDbBlockReference
  2
LOGO
 10
150.9955485457794
 20
45.02105276448322
 30
0.0
 41
2.0
 42
2.0
 43
2.0
  0
LINE
  5
136
330
1E
100
AcDbEntity
  8
HILF
100
AcDbLine
 10
420.0
 20
0.0
 30
0.0
 11
0.0
 21
0.0
 31
0.0
  0
LINE
  5
137
330
1E
100
AcDbEntity
  8
HILF
100
AcDbLine
 10
419.9999999999999
 20
594.0000000000002
 30
0.0
 11
0.0
 21
594.0
 31
0.0
  0
LINE
  5
138
330
1E
100
AcDbEntity
  8
STEMPEL
100
AcDbLine
 10
410.0
 20
584.0
 30
0.0
 11
39.99999999999989
 21
584.0
 31
0.0
  0
LINE
  5
139
330
1E
100
AcDbEntity
  8
STEMPEL
100
AcDbLine
 10
410.0
 20
10.0
 30
0.0
 11
39.99999999999989
 21
10.0
 31
0.0
  0
LINE
  5
13A
330
1E
100
AcDbEntity
  8
STEMPEL
100
AcDbLine
 10
49.99999999999989
 20
10.0
 30
0.0
 11
410.0
 21
10.0
 31
0.0
  0
TEXT
  5
13B
330
1E
100
AcDbEntity
  8
TEXT
100
AcDbText
 10
202.4626584226295
 20
73.30961091915225
 30
0.0
 40
4.0
  1
Name
 41
0.8
  7
GREEKS
100
AcDbText
  0
TEXT
  5
13C
330
1E
100
AcDbEntity
  8
TEXT
100
AcDbText
 10
196.5498279101549
 20
102.6506227776589
 30
0.0
 40
5.0
  1
Zul. Abw.
 41
0.8
  7
GREEKS
 72
     4
 11
209.9783993387263
 21
105.1506227776589
 31
0.0
100
AcDbText
  0
LINE
  5
13D
330
1E
100
AcDbEntity
  8
HILF
100
AcDbLine
 10
146.0000000000001
 20
49.99999999999997
 30
0.0
 11
230.0
 21
49.99999999999997
 31
0.0
  0
LINE
  5
13E
330
1E
100
AcDbEntity
  8
HILF
100
AcDbLine
 10
146.0000000000001
 20
59.99999999999997
 30
0.0
 11
230.0
 21
59.99999999999997
 31
0.0
  0
LINE
  5
13F
330
1E
100
AcDbEntity
  8
HILF
100
AcDbLine
 10
146.0000000000001
 20
69.99999999999994
 30
0.0
 11
230.0
 21
69.99999999999994
 31
0.0
  0
LINE
  5
140
330
1E
100
AcDbEntity
  8
STEMPEL
100
AcDbLine
 10
410.0
 20
80.0
 30
0.0
 11
146.0000000000001
 21
79.99999999999994
 31
0.0
  0
LINE
  5
141
330
1E
100
AcDbEntity
  8
STEMPEL
100
AcDbLine
 10
410.0
 20
40.0
 30
0.0
 11
146.0000000000001
 21
39.99999999999997
 31
0.0
  0
LINE
  5
142
330
1E
100
AcDbEntity
  8
STEMPEL
100
AcDbLine
 10
410.0
 20
110.0
 30
0.0
 11
39.99999999999997
 21
110.0
 31
0.0
  0
LINE
  5
144
330
1E
100
AcDbEntity
  8
HILF
100
AcDbLine
 10
0.0
 20
0.0
 30
0.0
 11
-0.0000000000001137
 21
594.0
 31
0.0
  0
LINE
  5
145
330
1E
100
AcDbEntity
  8
STEMPEL
100
AcDbLine
 10
40.0
 20
10.0
 30
0.0
 11
39.99999999999989
 21
584.0
 31
0.0
  0
TEXT
  5
146
330
1E
100
AcDbEntity
  8
TEXT
100
AcDbText
 10
41.85509950977674
 20
111.6719999999999
 30
0.0
 40
5.0
  1
Erstellt mit AUTOCAD 2004
 41
0.8
  7
GREEKS
100
AcDbText
  0
TEXT
  5
147
330
1E
100
AcDbEntity
  8
TEXT
100
AcDbText
 10
67.93969678957707
 20
18.67381894984132
 30
0.0
 40
4.0
  1
Änderung
 41
0.8
  7
GREEKS
 72
     1
 11
78.68255393243422
 21
18.67381894984132
 31
0.0
100
AcDbText
  0
LINE
  5
148
330
1E
100
AcDbEntity
  8
HILF
100
AcDbLine
 10
40.00000000000008
 20
39.99999999999997
 30
0.0
 11
146.0000000000001
 21
39.99999999999997
 31
0.0
  0
LINE
  5
149
330
1E
100
AcDbEntity
  8
HILF
100
AcDbLine
 10
40.00000000000008
 20
49.99999999999997
 30
0.0
 11
146.0000000000001
 21
49.99999999999997
 31
0.0
  0
LINE
  5
14A
330
1E
100
AcDbEntity
  8
HILF
100
AcDbLine
 10
40.00000000000008
 20
59.99999999999997
 30
0.0
 11
146.0000000000001
 21
59.99999999999997
 31
0.0
  0
LINE
  5
14B
330
1E
100
AcDbEntity
  8
HILF
100
AcDbLine
 10
40.00000000000008
 20
69.99999999999994
 30
0.0
 11
146.0000000000001
 21
69.99999999999994
 31
0.0
  0
LINE
  5
14C
330
1E
100
AcDbEntity
  8
HILF
100
AcDbLine
 10
40.00000000000008
 20
79.99999999999994
 30
0.0
 11
146.0000000000001
 21
79.99999999999994
 31
0.0
  0
LINE
  5
14D
330
1E
100
AcDbEntity
  8
HILF
100
AcDbLine
 10
40.00000000000008
 20
90.00000000000005
 30
0.0
 11
146.0000000000001
 21
90.00000000000005
 31
0.0
  0
LINE
  5
14E
330
1E
100
AcDbEntity
  8
HILF
100
AcDbLine
 10
40.00000000000008
 20
100.0
 30
0.0
 11
146.0000000000001
 21
100.0
 31
0.0
  0
LINE
  5
14F
330
1E
100
AcDbEntity
  8
STEMPEL
100
AcDbLine
 10
145.9999999999999
 20
29.99999999999997
 30
0.0
 11
39.99999999999997
 21
29.99999999999997
 31
0.0
  0
TEXT
  5
150
330
1E
100
AcDbEntity
  8
TEXT
100
AcDbText
 10
48.26641107045756
 20
13.65465846027192
 30
0.0
 40
4.0
  1
Index
 50
90.0
 41
0.8
  7
GREEKS
100
AcDbText
  0
LINE
  5
151
330
1E
100
AcDbEntity
  8
VOLL
100
AcDbLine
 10
54.00000000000009
 20
110.0
 30
0.0
 11
53.99999999999997
 21
9.999999999999971
 31
0.0
  0
LINE
  5
152
330
1E
100
AcDbEntity
  8
HILF
100
AcDbLine
 10
31.08767135713856
 20
297.0
 30
0.0
 11
0.0000000000001137
 21
297.0
 31
0.0
  0
TEXT
  5
153
330
1E
100
AcDbEntity
  8
TEXT
100
AcDbText
 10
110.2820548933125
 20
18.6715626933981
 30
0.0
 40
4.0
  1
Tag
 41
0.8
  7
GREEKS
 72
     1
 11
114.0153882266458
 21
18.6715626933981
 31
0.0
100
AcDbText
  0
LINE
  5
154
330
1E
100
AcDbEntity
  8
VOLL
100
AcDbLine
 10
124.0000000000001
 20
109.9999999999999
 30
0.0
 11
124.0
 21
9.999999999999971
 31
0.0
  0
LINE
  5
155
330
1E
100
AcDbEntity
  8
VOLL
100
AcDbLine
 10
104.0000000000001
 20
109.9999999999999
 30
0.0
 11
104.0
 21
9.999999999999971
 31
0.0
  0
TEXT
  5
156
330
1E
100
AcDbEntity
  8
TEXT
100
AcDbText
 10
128.9001864118674
 20
18.59324216966408
 30
0.0
 40
4.0
  1
Name
 41
0.8
  7
GREEKS
 72
     1
 11
135.2239959356769
 21
18.59324216966408
 31
0.0
100
AcDbText
  0
LINE
  5
157
330
1E
100
AcDbEntity
  8
STEMPEL
100
AcDbLine
 10
146.0000000000001
 20
109.9999999999999
 30
0.0
 11
146.0
 21
9.999999999999971
 31
0.0
  0
TEXT
  5
159
330
1E
100
AcDbEntity
  8
TEXT
100
AcDbText
 10
172.331167315365
 20
73.31880501229926
 30
0.0
 40
4.0
  1
Tag
 41
0.8
  7
GREEKS
100
AcDbText
  0
TEXT
  5
15A
330
1E
100
AcDbEntity
  8
TEXT
100
AcDbText
 10
147.5836127167615
 20
63.62990369617964
 30
0.0
 40
4.0
  1
Gez.
 41
0.8
  7
GREEKS
100
AcDbText
  0
LINE
  5
15B
330
1E
100
AcDbEntity
  8
VOLL
100
AcDbLine
 10
164.0000000000001
 20
79.99999999999994
 30
0.0
 11
164.0000000000001
 21
39.99999999999997
 31
0.0
  0
TEXT
  5
15C
330
1E
100
AcDbEntity
  8
TEXT
100
AcDbText
 10
147.6006777387303
 20
43.52946389649807
 30
0.0
 40
4.0
  1
Norm.
 41
0.8
  7
GREEKS
100
AcDbText
  0
TEXT
  5
15D
330
1E
100
AcDbEntity
  8
TEXT
100
AcDbText
 10
147.5515086571672
 20
53.68926291428377
 30
0.0
 40
4.0
  1
Gepr.
 41
0.8
  7
GREEKS
100
AcDbText
  0
TEXT
  5
15E
330
1E
100
AcDbEntity
  8
TEXT
 62
     1
100
AcDbText
 10
160.5006306481887
 20
88.14901428913959
 30
0.0
 40
7.0
  1
1:2
 41
0.8
  7
GREEKS
100
AcDbText
  0
TEXT
  5
15F
330
1E
100
AcDbEntity
  8
TEXT
100
AcDbText
 10
153.5163572150377
 20
102.4620895087088
 30
0.0
 40
5.0
  1
Maßstab
 41
0.8
  7
GREEKS
100
AcDbText
  0
TEXT
  5
160
330
1E
100
AcDbEntity
  8
TEXT
100
AcDbText
 10
148.622109822104
 20
73.14025471151666
 30
0.0
 40
4.0
  1
2011
 41
0.8
  7
GREEKS
100
AcDbText
  0
LINE
  5
161
330
1E
100
AcDbEntity
  8
VOLL
100
AcDbLine
 10
190.0000000000001
 20
109.9999999999998
 30
0.0
 11
190.0
 21
39.99999999999997
 31
0.0
  0
LINE
  5
186
330
1E
100
AcDbEntity
  8
HILF
100
AcDbLine
 10
420.0
 20
-0.0000000000001137
 30
0.0
 11
419.9999999999999
 21
594.0
 31
0.0
  0
LINE
  5
187
330
1E
100
AcDbEntity
  8
STEMPEL
100
AcDbLine
 10
410.0
 20
10.0
 30
0.0
 11
410.0
 21
584.0
 31
0.0
  0
TEXT
  5
188
330
1E
100
AcDbEntity
  8
TEXT
100
AcDbText
 10
337.2400861497006
 20
52.07416177878602
 30
0.0
 40
5.0
  1
ersetzt durch:
 41
0.8
  7
GREEKS
100
AcDbText
  0
TEXT
  5
189
330
1E
100
AcDbEntity
  8
TEXT
100
AcDbText
 10
336.7238616296993
 20
73.1811823709997
 30
0.0
 40
5.0
  1
Ersatz für:
 41
0.8
  7
GREEKS
100
AcDbText
  0
TEXT
  5
18A
330
1E
100
AcDbEntity
  8
TEXT
100
AcDbText
 10
336.178754957634
 20
102.3132034537136
 30
0.0
 40
5.0
  1
Zeichnungs Nr.
 41
0.8
  7
GREEKS
100
AcDbText
  0
LINE
  5
18B
330
1E
100
AcDbEntity
  8
HILF
100
AcDbLine
 10
233.4909699289885
 20
14.89398258028314
 30
0.0
 11
404.8588839326728
 21
14.89398258028314
 31
0.0
  0
LINE
  5
18C
330
1E
100
AcDbEntity
  8
HILF
100
AcDbLine
 10
336.7238616296993
 20
83.77983636955827
 30
0.0
 11
404.8588839326728
 21
83.77983636955827
 31
0.0
  0
LINE
  5
18D
330
1E
100
AcDbEntity
  8
VOLL
100
AcDbLine
 10
332.0
 20
60.0
 30
0.0
 11
410.0
 21
60.0
 31
0.0
  0
TEXT
  5
18E
330
1E
100
AcDbEntity
  8
TEXT
 62
     1
100
AcDbText
 10
234.9283864320014
 20
87.41748789253779
 30
0.0
 40
7.0
  1
Red.-Abzweig DN100/70
 41
0.7
  7
GREEKS
100
AcDbText
  0
LINE
  5
18F
330
1E
100
AcDbEntity
  8
HILF
100
AcDbLine
 10
234.7736801096947
 20
49.99999999999997
 30
0.0
 11
324.835391655631
 21
49.99999999999997
 31
0.0
  0
LINE
  5
190
330
1E
100
AcDbEntity
  8
HILF
100
AcDbLine
 10
234.7736801096947
 20
59.99999999999997
 30
0.0
 11
324.835391655631
 21
59.99999999999997
 31
0.0
  0
LINE
  5
191
330
1E
100
AcDbEntity
  8
HILF
100
AcDbLine
 10
234.7736801096947
 20
69.99999999999994
 30
0.0
 11
324.835391655631
 21
69.99999999999994
 31
0.0
  0
LINE
  5
192
330
1E
100
AcDbEntity
  8
HILF
100
AcDbLine
 10
234.7736801096947
 20
84.03758247564139
 30
0.0
 11
324.8353916556311
 21
84.03758247564139
 31
0.0
  0
LINE
  5
193
330
1E
100
AcDbEntity
  8
STEMPEL
100
AcDbLine
 10
230.0
 20
110.0
 30
0.0
 11
230.0
 21
9.999999999999971
 31
0.0
  0
TEXT
  5
194
330
1E
100
AcDbEntity
  8
TEXT
100
AcDbText
 10
235.1296391125315
 20
71.50334417585288
 30
0.0
 40
5.0
  1
dünnwandig 45° 
 41
0.8
  7
GREEKS
100
AcDbText
  0
TEXT
  5
195
330
1E
100
AcDbEntity
  8
TEXT
100
AcDbText
 10
234.9837501577827
 20
42.62974153022632
 30
0.0
 40
4.0
  1
5250DC0W.DWG
 41
0.8
  7
GREEKS
100
AcDbText
  0
TEXT
  5
196
330
1E
100
AcDbEntity
  8
TEXT
100
AcDbText
 10
234.742238391136
 20
30.84560570193057
 30
0.0
 40
5.0
  1
Bauvorhaben
 41
0.8
  7
GREEKS
100
AcDbText
  0
TEXT
  5
197
330
1E
100
AcDbEntity
  8
TEXT
100
AcDbText
 10
234.877940380901
 20
102.5489328011779
 30
0.0
 40
5.0
  1
Benennung
 41
0.8
  7
GREEKS
100
AcDbText
  0
LINE
  5
198
330
1E
100
AcDbEntity
  8
STEMPEL
100
AcDbLine
 10
332.0
 20
109.9999999999997
 30
0.0
 11
332.0
 21
40.0
 31
0.0
  0
TEXT
  5
19A
330
1E
100
AcDbEntity
  8
TEXT
 62
     1
100
AcDbText
 10
348.1964162603154
 20
88.14901428913959
 30
0.0
 40
7.0
  1
5250DC0W
 41
0.8
  7
GREEKS
 72
     1
 11
369.7964162603154
 21
88.14901428913959
 31
0.0
100
AcDbText
  0
TEXT
  5
212
330
1E
100
AcDbEntity
  8
TEXT
100
AcDbText
 10
235.1296391125315
 20
51.50334417585291
 30
0.0
 40
5.0
  1
EDV-Art.Nr. 5.250.DC0C
 41
0.8
  7
GREEKS
100
AcDbText
  0
TEXT
  5
255
330
1E
100
AcDbEntity
  8
TEXT
 62
     1
100
AcDbText
 10
297.0573649355706
 20
132.2248663682012
 30
0.0
 40
7.0
  1
Werkstoff: 1.4404
 41
0.8
  7
GREEKS
100
AcDbText
  0
LINE
  5
15D2
330
1E
100
AcDbEntity
  8
MITTEL
100
AcDbLine
 10
185.3005774535183
 20
502.1122151479902
 30
0.0
 11
185.3005774535179
 21
192.1089222436606
 31
0.0
  0
LINE
  5
1606
330
1E
100
AcDbEntity
  8
STEMPEL
100
AcDbLine
 10
235.4006681453104
 20
197.10892224366
 30
0.0
 11
135.2004867617252
 21
197.1089222436608
 31
0.0
  0
TEXT
  5
160F
330
1E
100
AcDbEntity
  8
TEXT
 62
     1
100
AcDbText
 10
175.401961590041
 20
462.2494107121376
 30
0.0
 40
7.0
  1
DN100
 50
89.99999999999992
 41
0.8
  7
GREEKS
100
AcDbText
  0
TEXT
  5
16FA
330
1E
100
AcDbEntity
  8
TEXT
 62
     1
100
AcDbText
 10
297.9028600618316
 20
407.5391118235086
 30
0.0
 40
7.0
  1
DN70
 50
44.99999999999999
 41
0.8
  7
GREEKS
100
AcDbText
  0
LINE
  5
1702
330
1E
100
AcDbEntity
  8
MITTEL
100
AcDbLine
 10
323.8935065660815
 20
425.7018513562236
 30
0.0
 11
210.4979022226049
 21
312.3062470127475
 31
0.0
  0
DIMENSION
  5
170F
330
1E
100
AcDbEntity
  8
BEM
100
AcDbDimension
  2
*D1
 10
115.3884520256203
 20
287.1089222436605
 30
0.0
 11
108.8884520256202
 21
242.1089222436607
 31
0.0
 70
    32
 71
     5
 42
89.99999999999969
  3
Standard
100
AcDbAlignedDimension
 13
135.2004867617252
 23
197.1089222436608
 33
0.0
 14
185.300577453518
 24
287.1089222436605
 34
0.0
 50
90.0
100
AcDbRotatedDimension
1001
ACAD
1000
DSTYLE
1002
{
1070
    40
1040
2.0
1070
    41
1040
3.5
1070
    42
1040
1.0
1070
    43
1040
7.0
1070
    44
1040
1.0
1070
    73
1070
     0
1070
    74
1070
     0
1070
    77
1070
     1
1070
    78
1070
     8
1070
    79
1070
     2
1070
   140
1040
3.5
1070
   141
1040
1.5
1070
   146
1040
0.5142857142857144
1070
   147
1040
1.5
1070
   172
1070
     1
1070
   178
1070
     1
1070
   179
1070
     2
1070
   271
1070
     2
1070
   272
1070
     2
1070
   284
1070
     8
1070
   285
1070
     8
1070
   286
1070
     8
1002
}
  0
TEXT
  5
1905
330
1E
100
AcDbEntity
  8
VOLL
100
AcDbText
 10
525.3664702311624
 20
212.4618221180262
 30
0.0
 40
1.8
  1

  7
GREEKS
100
AcDbText
  0
LINE
  5
1A80
330
1E
100
AcDbEntity
  8
STEMPEL
100
AcDbLine
 10
239.9603603722415
 20
497.1122151479902
 30
0.0
 11
130.6407945347951
 21
497.1122151479907
 31
0.0
  0
LINE
  5
1A83
330
1E
100
AcDbEntity
  8
STEMPEL
100
AcDbLine
 10
134.5005774535182
 20
422.5690884713503
 30
0.0
 11
134.5005774535179
 21
205.1089222436608
 31
0.0
  0
LINE
  5
1A8A
102
{ACAD_REACTORS
330
277B
102
}
330
1E
100
AcDbEntity
  8
STEMPEL
100
AcDbLine
 10
236.1005774535183
 20
422.5690884713504
 30
0.0
 11
236.1005774535181
 21
389.5277172702782
 31
0.0
  0
LINE
  5
1AA1
330
1E
100
AcDbEntity
  8
HILF
100
AcDbLine
 10
234.8458026565884
 20
205.1089222436601
 30
0.0
 11
135.755352250447
 21
205.1089222436608
 31
0.0
  0
LINE
  5
1AA2
330
1E
100
AcDbEntity
  8
STEMPEL
100
AcDbLine
 10
134.5005774535179
 20
205.1089222436608
 30
0.0
 11
135.2004867617252
 21
197.1089222436608
 31
0.0
  0
LINE
  5
1AA5
330
1E
100
AcDbEntity
  8
STEMPEL
100
AcDbLine
 10
236.1005774535179
 20
205.1089222436613
 30
0.0
 11
235.4006681453104
 21
197.10892224366
 31
0.0
  0
DIMENSION
  5
1AB8
330
1E
100
AcDbEntity
  8
BEM
100
AcDbDimension
  2
*D2
 10
98.66994235524245
 20
197.1089222436608
 30
0.0
 11
92.16994235524243
 21
347.1105686958259
 31
0.0
 70
    32
 71
     5
 42
300.00329290433
  3
Standard
100
AcDbAlignedDimension
 13
130.6407945347951
 23
497.1122151479907
 33
0.0
 14
135.2004867617252
 24
197.1089222436608
 34
0.0
 50
90.0
100
AcDbRotatedDimension
1001
ACAD
1000
DSTYLE
1002
{
1070
    40
1040
2.0
1070
    41
1040
3.5
1070
    42
1040
1.0
1070
    43
1040
7.0
1070
    44
1040
1.0
1070
    73
1070
     0
1070
    74
1070
     0
1070
    77
1070
     1
1070
    78
1070
     8
1070
    79
1070
     2
1070
   140
1040
3.5
1070
   141
1040
1.5
1070
   146
1040
0.5142857142857144
1070
   147
1040
1.5
1070
   172
1070
     1
1070
   178
1070
     1
1070
   179
1070
     2
1070
   271
1070
     2
1070
   272
1070
     2
1070
   284
1070
     8
1070
   285
1070
     8
1070
   286
1070
     8
1002
}
  0
LINE
  5
1ACE
330
1E
100
AcDbEntity
  8
STEMPEL
100
AcDbLine
 10
236.1005774535177
 20
286.290127217042
 30
0.0
 11
236.1005774535179
 21
205.1089222436601
 31
0.0
  0
DIMENSION
  5
1AE8
330
1E
100
AcDbEntity
  8
BEM
100
AcDbDimension
  2
*D3
 10
236.1005774535178
 20
176.0190329905834
 30
0.0
 11
185.3005774535178
 21
182.5190329905834
 31
0.0
 70
    32
  1
%%c<>
 71
     5
 42
101.5999999999999
  3
Standard
100
AcDbAlignedDimension
 13
134.5005774535179
 23
205.1089222436608
 33
0.0
 14
236.1005774535178
 24
205.1089222436601
 34
0.0
100
AcDbRotatedDimension
1001
ACAD
1000
DSTYLE
1002
{
1070
    40
1040
2.0
1070
    41
1040
3.5
1070
    42
1040
1.0
1070
    43
1040
7.0
1070
    44
1040
1.0
1070
    73
1070
     0
1070
    74
1070
     0
1070
    77
1070
     1
1070
    78
1070
     8
1070
    79
1070
     2
1070
   140
1040
3.5
1070
   141
1040
1.5
1070
   146
1040
0.5142857142857144
1070
   147
1040
1.5
1070
   172
1070
     1
1070
   178
1070
     1
1070
   179
1070
     2
1070
   271
1070
     2
1070
   272
1070
     2
1070
   284
1070
     8
1070
   285
1070
     8
1070
   286
1070
     8
1002
}
  0
TEXT
  5
1BF5
330
1E
100
AcDbEntity
  8
BEM
100
AcDbText
 10
416.5811541437437
 20
12.14804815338303
 30
0.0
 40
4.0
  1
Diese Zeichnung ist urheberrechtlich geschützt und bleibt unser Eigentum. Sie darf weder ganz noch teilweise vervielfältigt und nicht an Dritte weitergegeben werden.
 50
90.0
 41
0.8
  7
GREEKS
100
AcDbText
  0
TEXT
  5
1C10
330
1E
100
AcDbEntity
  8
TEXT
100
AcDbText
 10
192.6882715247924
 20
88.73450771838452
 30
0.0
 40
4.0
  1
DIN EN1124-3
 41
0.8
  7
GREEKS
 72
     1
 11
209.6787477152686
 21
88.73450771838452
 31
0.0
100
AcDbText
  0
TEXT
  5
1DDC
330
1E
100
AcDbEntity
  8
VOLL
100
AcDbText
 10
539.7246252213716
 20
194.5107114195854
 30
0.0
 40
1.8
  1

  7
GREEKS
100
AcDbText
  0
TEXT
  5
2359
330
1E
100
AcDbEntity
  8
VOLL
100
AcDbText
 10
531.336362752026
 20
210.077510736562
 30
0.0
 40
1.8
  1

  7
GREEKS
100
AcDbText
  0
LINE
  5
2365
330
1E
100
AcDbEntity
  8
STEMPEL
100
AcDbLine
 10
348.1015421519713
 20
394.4227479584682
 30
0.0
 11
292.614403168326
 21
449.9098869421136
 31
0.0
  0
LINE
  5
2368
102
{ACAD_REACTORS
330
277B
102
}
330
1E
100
AcDbEntity
  8
STEMPEL
100
AcDbLine
 10
252.1936005664418
 20
405.6207403832019
 30
0.0
 11
236.1005774535181
 21
389.5277172702782
 31
0.0
  0
ARC
  5
236D
330
1E
100
AcDbEntity
  8
STEMPEL
100
AcDbCircle
 10
300.895719346909
 20
426.7456946973935
 30
0.0
 40
24.6
100
AcDbArc
 50
109.6722275782213
 51
134.9999999999999
  0
LINE
  5
236E
330
1E
100
AcDbEntity
  8
STEMPEL
100
AcDbLine
 10
283.5008925297198
 20
444.1405215145826
 30
0.0
 11
277.0618244480963
 21
437.7014534329593
 31
0.0
  0
ARC
  5
236F
330
1E
100
AcDbEntity
  8
STEMPEL
100
AcDbCircle
 10
294.4566512652855
 20
420.3066266157701
 30
0.0
 40
24.6
100
AcDbArc
 50
134.9999999999999
 51
156.2995644254084
  0
LINE
  5
2371
330
1E
100
AcDbEntity
  8
STEMPEL
100
AcDbLine
 10
269.4287935625812
 20
426.5328886415113
 30
0.0
 11
257.5137056169291
 21
414.6178006958593
 31
0.0
  0
ARC
  5
2372
330
1E
100
AcDbEntity
  8
STEMPEL
100
AcDbCircle
 10
260.9435121883428
 20
435.01817001575
 30
0.0
 40
12.0
100
AcDbArc
 50
315.0
 51
336.2995644254084
  0
ARC
  5
2375
330
1E
100
AcDbEntity
  8
STEMPEL
100
AcDbCircle
 10
245.3709059452815
 20
412.3744959608234
 30
0.0
 40
9.600000000000001
100
AcDbArc
 50
315.0
 51
343.6746569050753
  0
ARC
  5
2377
330
1E
100
AcDbEntity
  8
STEMPEL
100
AcDbCircle
 10
265.7161442786931
 20
406.4153620340952
 30
0.0
 40
11.6
100
AcDbArc
 50
134.9999999999999
 51
163.6746569050753
  0
ARC
  5
2378
330
1E
100
AcDbEntity
  8
STEMPEL
100
AcDbCircle
 10
304.6070172439532
 20
367.5244890688352
 30
0.0
 40
11.6
100
AcDbArc
 50
286.3253430949247
 51
315.0
  0
ARC
  5
237A
330
1E
100
AcDbEntity
  8
STEMPEL
100
AcDbCircle
 10
310.5661511706812
 20
347.1792507354238
 30
0.0
 40
9.600000000000001
100
AcDbArc
 50
106.3253430949246
 51
134.9999999999999
  0
ARC
  5
237D
330
1E
100
AcDbEntity
  8
STEMPEL
100
AcDbCircle
 10
333.2098252256078
 20
362.751856978485
 30
0.0
 40
12.0
100
AcDbArc
 50
113.7004355745915
 51
134.9999999999999
  0
LINE
  5
237E
330
1E
100
AcDbEntity
  8
STEMPEL
100
AcDbLine
 10
324.7245438513692
 20
371.2371383527235
 30
0.0
 11
312.8094559057172
 21
359.3220504070714
 31
0.0
  0
ARC
  5
2380
330
1E
100
AcDbEntity
  8
STEMPEL
100
AcDbCircle
 10
318.4982818256282
 20
396.2649960554276
 30
0.0
 40
24.6
100
AcDbArc
 50
293.7004355745916
 51
315.0
  0
LINE
  5
2381
330
1E
100
AcDbEntity
  8
STEMPEL
100
AcDbLine
 10
342.3321767244405
 20
385.309237319862
 30
0.0
 11
335.893108642817
 21
378.8701692382387
 31
0.0
  0
ARC
  5
2382
330
1E
100
AcDbEntity
  8
STEMPEL
100
AcDbCircle
 10
324.9373499072515
 20
402.7040641370509
 30
0.0
 40
24.6
100
AcDbArc
 50
315.0
 51
340.3277724217787
  0
LINE
  5
2387
330
1E
100
AcDbEntity
  8
STEMPEL
100
AcDbLine
 10
303.8123955930598
 20
354.001945356584
 30
0.0
 11
236.1005774535177
 21
286.290127217042
 31
0.0
  0
LINE
  5
24D5
330
1E
100
AcDbEntity
  8
HILF
100
AcDbLine
 10
325.5768100033488
 20
373.5211224416798
 30
0.0
 11
271.7127776515375
 21
427.385154793491
 31
0.0
  0
LINE
  5
24D6
330
1E
100
AcDbEntity
  8
HILF
100
AcDbLine
 10
309.6436834738026
 20
358.4254785023454
 30
0.0
 11
256.6171337122032
 21
411.4520282639448
 31
0.0
  0
LINE
  5
24D7
330
1E
100
AcDbEntity
  8
HILF
100
AcDbLine
 10
304.7976689374802
 20
356.3096731092927
 30
0.0
 11
254.5013283191505
 21
406.6060137276225
 31
0.0
  0
DIMENSION
  5
25B5
330
1E
100
AcDbEntity
  8
BEM
100
AcDbDimension
  2
*D6
 10
362.2728264197746
 20
380.2514636906648
 30
0.0
 11
290.1479347387466
 21
317.3189601650622
 31
0.0
 70
    32
 71
     5
 42
190.9999999999999
 51
357.0
  3
Standard
100
AcDbAlignedDimension
 13
185.3005774535181
 23
287.1089222436605
 33
0.0
 14
348.1015421519713
 24
394.4227479584682
 34
0.0
 50
44.99999999999985
100
AcDbRotatedDimension
1001
ACAD
1000
DSTYLE
1002
{
1070
    40
1040
2.0
1070
    41
1040
3.5
1070
    42
1040
1.0
1070
    43
1040
7.0
1070
    44
1040
1.0
1070
    73
1070
     0
1070
    74
1070
     0
1070
    77
1070
     1
1070
    78
1070
     8
1070
    79
1070
     2
1070
   140
1040
3.5
1070
   141
1040
1.5
1070
   146
1040
0.5142857142857144
1070
   147
1040
1.5
1070
   172
1070
     1
1070
   178
1070
     1
1070
   179
1070
     2
1070
   271
1070
     2
1070
   272
1070
     2
1070
   284
1070
     8
1070
   285
1070
     8
1070
   286
1070
     8
1002
}
  0
DIMENSION
  5
25F0
330
1E
100
AcDbEntity
  8
BEM
100
AcDbDimension
  2
*D7
 10
226.8581798569067
 20
277.0477296204308
 30
0.0
 11
205.6449764213101
 21
307.4533212114523
 31
0.0
 70
    32
  1
%%c<>
 71
     5
 42
72.99999999999966
 51
87.00000000000002
  3
Standard
100
AcDbAlignedDimension
 13
236.1005774535181
 23
389.5277172702782
 33
0.0
 14
236.1005774535177
 24
286.290127217042
 34
0.0
 50
315.0000000000002
100
AcDbRotatedDimension
1001
ACAD
1000
DSTYLE
1002
{
1070
    40
1040
2.0
1070
    41
1040
3.5
1070
    42
1040
1.0
1070
    43
1040
7.0
1070
    44
1040
1.0
1070
    73
1070
     0
1070
    74
1070
     0
1070
    77
1070
     1
1070
    78
1070
     8
1070
    79
1070
     2
1070
   140
1040
3.5
1070
   141
1040
1.5
1070
   146
1040
0.5142857142857144
1070
   147
1040
1.5
1070
   172
1070
     1
1070
   178
1070
     1
1070
   179
1070
     2
1070
   271
1070
     2
1070
   272
1070
     2
1070
   284
1070
     8
1070
   285
1070
     8
1070
   286
1070
     8
1002
}
  0
LINE
  5
2765
330
1E
100
AcDbEntity
  8
MITTEL
100
AcDbLine
 10
198.4557280046291
 20
300.2640727947717
 30
0.0
 11
185.300577453518
 21
287.1089222436605
 31
0.0
  0
ELLIPSE
  5
2767
330
1E
100
AcDbEntity
  8
STEMPEL
100
AcDbEllipse
 10
236.1005774535179
 20
322.4414851283424
 30
0.0
 11
0.0000000000001329
 21
36.15135791130035
 31
0.0
210
0.0
220
0.0
230
1.0
 40
0.427852175104133
 41
1.570796326794896
 42
3.141592653589793
  0
ARC
  5
2768
330
1E
100
AcDbEntity
  8
STEMPEL
100
AcDbCircle
 10
346.0602306217753
 20
328.8491552525343
 30
0.0
 40
125.5906573492814
100
AcDbArc
 50
151.1089575335973
 51
182.9245162637389
  0
ARC
  5
276D
102
{ACAD_REACTORS
330
277B
102
}
330
1E
100
AcDbEntity
  8
SCHRAFF
100
AcDbCircle
 10
236.1005774535181
 20
389.5277172702782
 30
0.0
 40
5.988010060299075
100
AcDbArc
 50
45.00000000000019
 51
89.99999999999973
  0
HATCH
  5
277B
330
1E
100
AcDbEntity
  8
SCHRAFF
100
AcDbHatch
 10
0.0
 20
0.0
 30
0.0
210
0.0
220
0.0
230
1.0
  2
_USER
 70
     0
 71
     1
 91
        1
 92
        7
 72
     1
 73
     1
 93
        3
 10
240.3347399729689
 20
393.761879789729
 42
0.1989123673796559
 10
236.1005774535181
 20
395.5157273305772
 42
0.0
 10
236.1005774535181
 20
389.5277172702782
 42
0.0
 97
        3
330
276D
330
1A8A
330
2368
 75
     0
 76
     0
 52
0.0
 41
0.1
 77
     0
 78
     1
 53
0.0
 43
17.97539668115723
 44
-37.12196285142295
 45
0.0
 46
0.1
 79
     0
 47
0.2576257463533435
 98
        1
 10
237.6195718070808
 20
392.8153171125364
  0
ARC
  5
277C
330
1E
100
AcDbEntity
  8
SCHRAFF
100
AcDbCircle
 10
236.1005774535177
 20
286.290127217042
 30
0.0
 40
2.999999999999943
100
AcDbArc
 50
270.0
 51
45.0
  0
HATCH
  5
2784
330
1E
100
AcDbEntity
  8
SCHRAFF
100
AcDbHatch
 10
0.0
 20
0.0
 30
0.0
210
0.0
220
0.0
230
1.0
  2
_USER
 70
     0
 71
     0
 91
        1
 92
        7
 72
     1
 73
     1
 93
        3
 10
238.2218977970773
 20
288.4114475606016
 42
0.0
 10
236.1005774535178
 20
286.2901272170421
 42
0.0
 10
236.1005774535178
 20
283.2901272170421
 42
0.668178637919292
 97
        0
 75
     0
 76
     0
 52
0.0
 41
0.1
 77
     0
 78
     1
 53
0.0
 43
17.97539668115723
 44
-37.12196285142295
 45
0.0
 46
0.1
 79
     0
 47
0.0400295001707195
 98
        1
 10
236.9586027637615
 20
286.3229926412425
  0
ARC
  5
2785
330
1E
100
AcDbEntity
  8
SCHRAFF
100
AcDbCircle
 10
236.1005774535181
 20
389.5277172702782
 30
0.0
 40
5.0
100
AcDbArc
 50
205.1461338339096
 51
278.896830702394
  0
ARC
  5
2787
330
1E
100
AcDbEntity
  8
SCHRAFF
100
AcDbCircle
 10
233.7724708073079
 20
385.1027969948527
 30
0.0
 40
5.0
100
AcDbArc
 50
207.4273371205197
 51
281.1780339890034
  0
ARC
  5
2788
330
1E
100
AcDbEntity
  8
SCHRAFF
100
AcDbCircle
 10
231.6223386519181
 20
380.5887155030807
 30
0.0
 40
5.0
100
AcDbArc
 50
209.7085404071289
 51
283.4592372756128
  0
ARC
  5
2789
330
1E
100
AcDbEntity
  8
SCHRAFF
100
AcDbCircle
 10
229.653588916015
 20
375.9926275494639
 30
0.0
 40
5.0
100
AcDbArc
 50
211.9897436937379
 51
285.7404405622221
  0
ARC
  5
278A
330
1E
100
AcDbEntity
  8
SCHRAFF
100
AcDbCircle
 10
227.8693420397283
 20
371.3218178675713
 30
0.0
 40
5.0
100
AcDbArc
 50
214.2709469803474
 51
288.0216438488313
  0
ARC
  5
278B
330
1E
100
AcDbEntity
  8
SCHRAFF
100
AcDbCircle
 10
226.2724260287981
 20
366.583689623841
 30
0.0
 40
5.0
100
AcDbArc
 50
216.5521502669569
 51
290.3028471354405
  0
ARC
  5
278C
330
1E
100
AcDbEntity
  8
SCHRAFF
100
AcDbCircle
 10
224.8653719722265
 20
361.7857526836671
 30
0.0
 40
5.0
100
AcDbArc
 50
218.8333535535665
 51
292.5840504220503
  0
ARC
  5
278D
330
1E
100
AcDbEntity
  8
SCHRAFF
100
AcDbCircle
 10
223.6504100305376
 20
356.9356117083708
 30
0.0
 40
5.0
100
AcDbArc
 50
221.1145568401752
 51
294.8652537086593
  0
ARC
  5
278E
330
1E
100
AcDbEntity
  8
SCHRAFF
100
AcDbCircle
 10
222.6294659010049
 20
352.0409541019215
 30
0.0
 40
5.0
100
AcDbArc
 50
223.3957601267849
 51
297.1464569952686
  0
ARC
  5
278F
330
1E
100
AcDbEntity
  8
SCHRAFF
100
AcDbCircle
 10
221.8041577654492
 20
347.1095378265108
 30
0.0
 40
5.0
100
AcDbArc
 50
225.6769634133945
 51
299.4276602818784
  0
ARC
  5
2790
330
1E
100
AcDbEntity
  8
SCHRAFF
100
AcDbCircle
 10
221.1757937254429
 20
342.1491791062944
 30
0.0
 40
5.0
100
AcDbArc
 50
227.9581667000035
 51
301.7088635684874
  0
ARC
  5
2791
330
1E
100
AcDbEntity
  8
SCHRAFF
100
AcDbCircle
 10
220.7453697289885
 20
337.1677400387883
 30
0.0
 40
5.0
100
AcDbArc
 50
230.2393699866128
 51
303.990066855097
  0
ARC
  5
2792
330
1E
100
AcDbEntity
  8
SCHRAFF
100
AcDbCircle
 10
220.5135679919545
 20
332.173116133557
 30
0.0
 40
5.0
100
AcDbArc
 50
232.5205732732218
 51
306.2712701417061
  0
ARC
  5
2793
330
1E
100
AcDbEntity
  8
SCHRAFF
100
AcDbCircle
 10
220.4807559167738
 20
327.1732237979439
 30
0.0
 40
5.0
100
AcDbArc
 50
234.8017765598318
 51
308.5524734283156
  0
ARC
  5
2794
330
1E
100
AcDbEntity
  8
SCHRAFF
100
AcDbCircle
 10
220.6335588101234
 20
322.1755592157832
 30
0.0
 40
5.0
100
AcDbArc
 50
234.6593276010967
 51
308.4236812638902
  0
ARC
  5
2795
330
1E
100
AcDbEntity
  8
SCHRAFF
100
AcDbCircle
 10
220.7979423515911
 20
317.1782621412343
 30
0.0
 40
5.0
100
AcDbArc
 50
238.1370886307643
 51
311.9063988023754
  0
ARC
  5
2796
330
1E
100
AcDbEntity
  8
SCHRAFF
100
AcDbCircle
 10
221.2667593279288
 20
312.2002895978491
 30
0.0
 40
5.0
100
AcDbArc
 50
241.8670330639369
 51
315.6401512318093
  0
ARC
  5
2797
330
1E
100
AcDbEntity
  8
SCHRAFF
100
AcDbCircle
 10
222.0623038929164
 20
307.2639844163273
 30
0.0
 40
5.0
100
AcDbArc
 50
246.0990477521536
 51
319.8932592837327
  0
ARC
  5
2798
330
1E
100
AcDbEntity
  8
SCHRAFF
100
AcDbCircle
 10
223.2271181545993
 20
302.4015562435128
 30
0.0
 40
5.0
100
AcDbArc
 50
251.2452108999947
 51
325.0631669401815
  0
ARC
  5
2799
330
1E
100
AcDbEntity
  8
SCHRAFF
100
AcDbCircle
 10
224.8360347050005
 20
297.6674895420557
 30
0.0
 40
5.0
100
AcDbArc
 50
258.0898979365922
 51
331.9973144680271
  0
ARC
  5
279A
330
1E
100
AcDbEntity
  8
SCHRAFF
100
AcDbCircle
 10
227.0228244138901
 20
293.1710519778289
 30
0.0
 40
5.0
100
AcDbArc
 50
268.4715180095821
 51
342.6806467064309
  0
ARC
  5
279B
330
1E
100
AcDbEntity
  8
SCHRAFF
100
AcDbCircle
 10
230.0382051492934
 20
289.1826338677761
 30
0.0
 40
5.0
100
AcDbArc
 50
287.2551427750464
 51
3.023751847496056
  0
DIMENSION
  5
27DB
330
1E
100
AcDbEntity
  8
BEM
100
AcDbDimension
  2
*D8
 10
185.3005774535179
 20
192.1089222436606
 30
0.0
 11
278.0806113000729
 21
511.0997382734473
 31
0.0
 70
    34
 71
     5
 42
0.7853981633974483
  3
Standard
100
AcDb2LineAngularDimension
 13
323.8935065660815
 23
425.7018513562236
 33
0.0
 14
210.4979022226049
 24
312.3062470127475
 34
0.0
 15
185.3005774535183
 25
502.1122151479902
 35
0.0
 16
303.2735335574032
 26
491.4440761346821
 36
0.0
1001
ACAD
1000
DSTYLE
1002
{
1070
    40
1040
2.0
1070
    41
1040
3.5
1070
    42
1040
1.0
1070
    43
1040
7.0
1070
    44
1040
1.0
1070
    73
1070
     0
1070
    74
1070
     0
1070
    77
1070
     1
1070
    78
1070
     8
1070
    79
1070
     2
1070
   140
1040
3.5
1070
   141
1040
1.5
1070
   146
1040
0.5142857142857144
1070
   147
1040
1.5
1070
   172
1070
     1
1070
   178
1070
     1
1070
   179
1070
     2
1070
   271
1070
     2
1070
   272
1070
     2
1070
   284
1070
     8
1070
   285
1070
     8
1070
   286
1070
     8
1002
}
  0
LINE
  5
2857
330
1E
100
AcDbEntity
  8
STEMPEL
100
AcDbLine
 10
243.2005774535183
 20
484.9159042303402
 30
0.0
 11
243.2005774535184
 21
466.3422151479906
 31
0.0
  0
ARC
  5
2858
330
1E
100
AcDbEntity
  8
STEMPEL
100
AcDbCircle
 10
252.0005774535183
 20
449.6090146173091
 30
0.0
 40
12.8
100
AcDbArc
 50
153.1119523822761
 51
180.0
  0
ARC
  5
2859
330
1E
100
AcDbEntity
  8
STEMPEL
100
AcDbCircle
 10
244.1005774535184
 20
422.5690884713503
 30
0.0
 40
8.0
100
AcDbArc
 50
149.1404189093777
 51
180.0
  0
ARC
  5
285A
330
1E
100
AcDbEntity
  8
STEMPEL
100
AcDbCircle
 10
225.0005774535183
 20
433.8841227178737
 30
0.0
 40
14.2
100
AcDbArc
 50
329.3570682370604
 51
0.0
  0
LINE
  5
285C
330
1E
100
AcDbEntity
  8
STEMPEL
100
AcDbLine
 10
239.2005774535184
 20
449.6090146173091
 30
0.0
 11
239.2005774535184
 21
433.8841227178738
 31
0.0
  0
ARC
  5
285D
330
1E
100
AcDbEntity
  8
STEMPEL
100
AcDbCircle
 10
219.0005774535183
 20
466.3422151479905
 30
0.0
 40
24.2
100
AcDbArc
 50
333.111952382276
 51
0.0
  0
ARC
  5
285E
330
1E
100
AcDbEntity
  8
STEMPEL
100
AcDbCircle
 10
219.0005774535183
 20
484.9159042303401
 30
0.0
 40
24.2
100
AcDbArc
 50
0.0
 51
30.26365194209906
  0
ARC
  5
285F
330
1E
100
AcDbEntity
  8
STEMPEL
100
AcDbCircle
 10
118.6005774535183
 20
449.6090146173091
 30
0.0
 40
12.8
100
AcDbArc
 50
0.0
 51
26.88804761772389
  0
ARC
  5
2860
330
1E
100
AcDbEntity
  8
STEMPEL
100
AcDbCircle
 10
151.6005774535183
 20
466.3422151479905
 30
0.0
 40
24.2
100
AcDbArc
 50
180.0
 51
206.8880476177239
  0
LINE
  5
2861
330
1E
100
AcDbEntity
  8
STEMPEL
100
AcDbLine
 10
127.4005774535184
 20
484.9159042303401
 30
0.0
 11
127.4005774535184
 21
466.3422151479905
 31
0.0
  0
ARC
  5
2862
330
1E
100
AcDbEntity
  8
STEMPEL
100
AcDbCircle
 10
126.5005774535184
 20
422.5690884713503
 30
0.0
 40
8.0
100
AcDbArc
 50
0.0
 51
30.85958109062227
  0
ARC
  5
2863
330
1E
100
AcDbEntity
  8
STEMPEL
100
AcDbCircle
 10
145.6005774535183
 20
433.8841227178737
 30
0.0
 40
14.2
100
AcDbArc
 50
180.0
 51
210.6429317629396
  0
LINE
  5
2865
330
1E
100
AcDbEntity
  8
STEMPEL
100
AcDbLine
 10
131.4005774535184
 20
449.609014617309
 30
0.0
 11
131.4005774535183
 21
433.8841227178737
 31
0.0
  0
ARC
  5
2866
330
1E
100
AcDbEntity
  8
STEMPEL
100
AcDbCircle
 10
151.6005774535183
 20
484.9159042303401
 30
0.0
 40
24.2
100
AcDbArc
 50
149.7363480579009
 51
180.0
  0
LINE
  5
2868
330
1E
100
AcDbEntity
  8
HILF
100
AcDbLine
 10
235.1501772992599
 20
424.6975473219396
 30
0.0
 11
135.4509776077768
 21
424.6975473219396
 31
0.0
  0
LINE
  5
2869
330
1E
100
AcDbEntity
  8
HILF
100
AcDbLine
 10
237.4473252830332
 20
430.131994192827
 30
0.0
 11
133.1538296240035
 21
430.131994192827
 31
0.0
  0
LINE
  5
286A
330
1E
100
AcDbEntity
  8
HILF
100
AcDbLine
 10
238.3205268767191
 20
452.5849541691508
 30
0.0
 11
132.2806280303175
 21
452.5849541691509
 31
0.0
  0
TEXT
  5
2882
330
1E
100
AcDbEntity
  8
TEXT
100
AcDbText
 10
170.398997108236
 20
63.10765040825732
 30
0.0
 40
4.0
  1
08.04.
 41
0.8
  7
GREEKS
 72
     1
 11
177.4085209177598
 21
63.10765040825732
 31
0.0
100
AcDbText
  0
ENDSEC
  0
SECTION
  2
OBJECTS
  0
DICTIONARY
  5
C
330
0
100
AcDbDictionary
281
     1
  3
ACAD_COLOR
350
1790
  3
ACAD_GROUP
350
D
  3
ACAD_LAYOUT
350
19
  3
ACAD_MATERIAL
350
178F
  3
ACAD_MLINESTYLE
350
16
  3
ACAD_PLOTSETTINGS
350
18
  3
ACAD_PLOTSTYLENAME
350
E
  3
AcDbVariableDictionary
350
246
  0
DICTIONARY
  5
1790
102
{ACAD_REACTORS
330
C
102
}
330
C
100
AcDbDictionary
281
     1
  0
DICTIONARY
  5
D
102
{ACAD_REACTORS
330
C
102
}
330
C
100
AcDbDictionary
281
     1
  0
DICTIONARY
  5
19
102
{ACAD_REACTORS
330
C
102
}
330
C
100
AcDbDictionary
281
     1
  3
Layout1
350
1D
  3
Model
350
21
  0
DICTIONARY
  5
178F
102
{ACAD_REACTORS
330
C
102
}
330
C
100
AcDbDictionary
281
     1
  0
DICTIONARY
  5
16
102
{ACAD_REACTORS
330
C
102
}
330
C
100
AcDbDictionary
281
     1
  3
Standard
350
17
  0
DICTIONARY
  5
18
102
{ACAD_REACTORS
330
C
102
}
330
C
100
AcDbDictionary
281
     1
  0
ACDBDICTIONARYWDFLT
  5
E
102
{ACAD_REACTORS
330
C
102
}
330
C
100
AcDbDictionary
281
     1
  3
Normal
350
F
100
AcDbDictionaryWithDefault
340
F
  0
DICTIONARY
  5
246
102
{ACAD_REACTORS
330
C
102
}
330
C
100
AcDbDictionary
281
     1
  3
DIMASSOC
350
1C0C
  3
PROJECTNAME
350
1C0D
  3
SORTENTS
350
247
  0
LAYOUT
  5
1D
102
{ACAD_REACTORS
330
19
102
}
330
19
100
AcDbPlotSettings
  1

  2
Tektronix Phaser 740
  4

  6

 40
0.0
 41
0.0
 42
0.0
 43
0.0
 44
0.0
 45
0.0
 46
0.0
 47
0.0
 48
0.0
 49
0.0
140
0.0
141
0.0
142
1.0
143
1.0
 70
   688
 72
     0
 73
     0
 74
     5
  7
monochrome.ctb
 75
    16
147
1.0
 76
     0
 77
     2
 78
   300
148
0.0
149
0.0
100
AcDbLayout
  1
Layout1
 70
     0
 71
     1
 10
0.0
 20
0.0
 11
12.0
 21
9.0
 12
0.0
 22
0.0
 32
0.0
 14
1.000000000000000E+20
 24
1.000000000000000E+20
 34
1.000000000000000E+20
 15
-1.000000000000000E+20
 25
-1.000000000000000E+20
 35
-1.000000000000000E+20
146
0.0
 13
0.0
 23
0.0
 33
0.0
 16
1.0
 26
0.0
 36
0.0
 17
0.0
 27
1.0
 37
0.0
 76
     0
330
1A
  0
LAYOUT
  5
21
102
{ACAD_REACTORS
330
19
102
}
330
19
100
AcDbPlotSettings
  1

  2
Tektronix Phaser 740
  4
A4
  6

 40
5.873749732971191
 41
6.085414409637451
 42
5.577407836914062
 43
5.662078857421875
 44
209.9733276367187
 45
296.9683227539062
 46
0.0
 47
0.0
 48
0.0
 49
0.0
140
0.0
141
0.0
142
1.0
143
1.0
 70
 11952
 72
     0
 73
     1
 74
     0
  7
monochrome.ctb
 75
     0
147
1.0
 76
     0
 77
     2
 78
   300
148
1150.120678237584
149
45.30495740799864
100
AcDbLayout
  1
Model
 70
     1
 71
     0
 10
0.0
 20
0.0
 11
12.0
 21
9.0
 12
0.0
 22
0.0
 32
0.0
 14
0.0
 24
0.0
 34
0.0
 15
0.0
 25
0.0
 35
0.0
146
0.0
 13
0.0
 23
0.0
 33
0.0
 16
1.0
 26
0.0
 36
0.0
 17
0.0
 27
1.0
 37
0.0
 76
     0
330
1E
  0
MLINESTYLE
  5
17
102
{ACAD_REACTORS
330
16
102
}
330
16
100
AcDbMlineStyle
  2
STANDARD
 70
     0
  3

 62
   256
 51
90.0
 52
90.0
 71
     2
 49
0.5
 62
   256
  6
BYLAYER
 49
-0.5
 62
   256
  6
BYLAYER
  0
ACDBPLACEHOLDER
  5
F
102
{ACAD_REACTORS
330
E
102
}
330
E
  0
DICTIONARYVAR
  5
1C0C
102
{ACAD_REACTORS
330
246
102
}
330
246
100
DictionaryVariables
280
     0
  1
1
  0
DICTIONARYVAR
  5
1C0D
102
{ACAD_REACTORS
330
246
102
}
330
246
100
DictionaryVariables
280
     0
  1

  0
DICTIONARYVAR
  5
247
102
{ACAD_REACTORS
330
246
102
}
330
246
100
DictionaryVariables
280
     0
  1
96
  0
ENDSEC
  0
EOF
