  0
SECTION
  2
HEADER
  9
$ACADVER
  1
AC1018
  9
$ACADMAINTVER
 70
     2
  9
$DWGCODEPAGE
  3
ANSI_1252
  9
$INSBASE
 10
0.0
 20
0.0
 30
0.0
  9
$EXTMIN
 10
-0.0063914794715174
 20
-0.0090393781104012
 30
-0.0000000000000094
  9
$EXTMAX
 10
420.0064159284499
 20
594.00907395595
 30
0.0000000000000059
  9
$LIMMIN
 10
0.0
 20
0.0
  9
$LIMMAX
 10
419.9999999999999
 20
594.0
  9
$ORTHOMODE
 70
     1
  9
$REGENMODE
 70
     1
  9
$FILLMODE
 70
     1
  9
$QTEXTMODE
 70
     0
  9
$MIRRTEXT
 70
     1
  9
$LTSCALE
 40
20.0
  9
$ATTMODE
 70
     1
  9
$TEXTSIZE
 40
3.5
  9
$TRACEWID
 40
0.5
  9
$TEXTSTYLE
  7
STANDARD
  9
$CLAYER
  8
SCHRAFF
  9
$CELTYPE
  6
ByLayer
  9
$CECOLOR
 62
   256
  9
$CELTSCALE
 40
1.0
  9
$DISPSILH
 70
     0
  9
$DIMSCALE
 40
2.0
  9
$DIMASZ
 40
3.5
  9
$DIMEXO
 40
1.0
  9
$DIMDLI
 40
7.0
  9
$DIMRND
 40
0.0
  9
$DIMDLE
 40
0.0
  9
$DIMEXE
 40
1.0
  9
$DIMTP
 40
0.0
  9
$DIMTM
 40
0.0
  9
$DIMTXT
 40
3.5
  9
$DIMCEN
 40
1.5
  9
$DIMTSZ
 40
0.0
  9
$DIMTOL
 70
     0
  9
$DIMLIM
 70
     0
  9
$DIMTIH
 70
     0
  9
$DIMTOH
 70
     0
  9
$DIMSE1
 70
     0
  9
$DIMSE2
 70
     0
  9
$DIMTAD
 70
     1
  9
$DIMZIN
 70
     8
  9
$DIMBLK
  1

  9
$DIMASO
 70
     1
  9
$DIMSHO
 70
     0
  9
$DIMPOST
  1

  9
$DIMAPOST
  1

  9
$DIMALT
 70
     0
  9
$DIMALTD
 70
     2
  9
$DIMALTF
 40
25.4
  9
$DIMLFAC
 40
1.0
  9
$DIMTOFL
 70
     1
  9
$DIMTVP
 40
0.0
  9
$DIMTIX
 70
     0
  9
$DIMSOXD
 70
     0
  9
$DIMSAH
 70
     0
  9
$DIMBLK1
  1

  9
$DIMBLK2
  1

  9
$DIMSTYLE
  2
Standard
  9
$DIMCLRD
 70
     0
  9
$DIMCLRE
 70
     0
  9
$DIMCLRT
 70
     1
  9
$DIMTFAC
 40
0.5142857142857144
  9
$DIMGAP
 40
1.5
  9
$DIMJUST
 70
     0
  9
$DIMSD1
 70
     0
  9
$DIMSD2
 70
     0
  9
$DIMTOLJ
 70
     1
  9
$DIMTZIN
 70
     8
  9
$DIMALTZ
 70
     8
  9
$DIMALTTZ
 70
     8
  9
$DIMUPT
 70
     0
  9
$DIMDEC
 70
     2
  9
$DIMTDEC
 70
     2
  9
$DIMALTU
 70
     2
  9
$DIMALTTD
 70
     2
  9
$DIMTXSTY
  7
STANDARD
  9
$DIMAUNIT
 70
     0
  9
$DIMADEC
 70
     2
  9
$DIMALTRND
 40
0.0
  9
$DIMAZIN
 70
     2
  9
$DIMDSEP
 70
    46
  9
$DIMATFIT
 70
     3
  9
$DIMFRAC
 70
     0
  9
$DIMLDRBLK
  1

  9
$DIMLUNIT
 70
     2
  9
$DIMLWD
 70
    -2
  9
$DIMLWE
 70
    -2
  9
$DIMTMOVE
 70
     0
  9
$LUNITS
 70
     2
  9
$LUPREC
 70
     2
  9
$SKETCHINC
 40
1.0
  9
$FILLETRAD
 40
0.0
  9
$AUNITS
 70
     1
  9
$AUPREC
 70
     3
  9
$MENU
  1
ACAD
  9
$ELEVATION
 40
0.0
  9
$PELEVATION
 40
0.0
  9
$THICKNESS
 40
0.0
  9
$LIMCHECK
 70
     0
  9
$CHAMFERA
 40
0.0
  9
$CHAMFERB
 40
0.0
  9
$CHAMFERC
 40
0.0
  9
$CHAMFERD
 40
0.0
  9
$SKPOLY
 70
     0
  9
$TDCREATE
 40
2452040.637099653
  9
$TDUCREATE
 40
2452040.553766320
  9
$TDUPDATE
 40
2455660.365229491
  9
$TDUUPDATE
 40
2455660.281896157
  9
$TDINDWG
 40
0.3689674074
  9
$TDUSRTIMER
 40
0.3689674074
  9
$USRTIMER
 70
     1
  9
$ANGBASE
 50
0.0
  9
$ANGDIR
 70
     0
  9
$PDMODE
 70
     0
  9
$PDSIZE
 40
0.0
  9
$PLINEWID
 40
0.0
  9
$SPLFRAME
 70
     0
  9
$SPLINETYPE
 70
     6
  9
$SPLINESEGS
 70
     8
  9
$HANDSEED
  5
1761
  9
$SURFTAB1
 70
     6
  9
$SURFTAB2
 70
     6
  9
$SURFTYPE
 70
     6
  9
$SURFU
 70
     6
  9
$SURFV
 70
     6
  9
$UCSBASE
  2

  9
$UCSNAME
  2

  9
$UCSORG
 10
0.0
 20
0.0
 30
0.0
  9
$UCSXDIR
 10
1.0
 20
0.0
 30
0.0
  9
$UCSYDIR
 10
0.0
 20
1.0
 30
0.0
  9
$UCSORTHOREF
  2

  9
$UCSORTHOVIEW
 70
     0
  9
$UCSORGTOP
 10
0.0
 20
0.0
 30
0.0
  9
$UCSORGBOTTOM
 10
0.0
 20
0.0
 30
0.0
  9
$UCSORGLEFT
 10
0.0
 20
0.0
 30
0.0
  9
$UCSORGRIGHT
 10
0.0
 20
0.0
 30
0.0
  9
$UCSORGFRONT
 10
0.0
 20
0.0
 30
0.0
  9
$UCSORGBACK
 10
0.0
 20
0.0
 30
0.0
  9
$PUCSBASE
  2

  9
$PUCSNAME
  2

  9
$PUCSORG
 10
0.0
 20
0.0
 30
0.0
  9
$PUCSXDIR
 10
1.0
 20
0.0
 30
0.0
  9
$PUCSYDIR
 10
0.0
 20
1.0
 30
0.0
  9
$PUCSORTHOREF
  2

  9
$PUCSORTHOVIEW
 70
     0
  9
$PUCSORGTOP
 10
0.0
 20
0.0
 30
0.0
  9
$PUCSORGBOTTOM
 10
0.0
 20
0.0
 30
0.0
  9
$PUCSORGLEFT
 10
0.0
 20
0.0
 30
0.0
  9
$PUCSORGRIGHT
 10
0.0
 20
0.0
 30
0.0
  9
$PUCSORGFRONT
 10
0.0
 20
0.0
 30
0.0
  9
$PUCSORGBACK
 10
0.0
 20
0.0
 30
0.0
  9
$USERI1
 70
     0
  9
$USERI2
 70
     0
  9
$USERI3
 70
     0
  9
$USERI4
 70
     0
  9
$USERI5
 70
     0
  9
$USERR1
 40
0.0
  9
$USERR2
 40
0.0
  9
$USERR3
 40
0.0
  9
$USERR4
 40
0.0
  9
$USERR5
 40
0.0
  9
$WORLDVIEW
 70
     1
  9
$SHADEDGE
 70
     3
  9
$SHADEDIF
 70
    70
  9
$TILEMODE
 70
     1
  9
$MAXACTVP
 70
    16
  9
$PINSBASE
 10
0.0
 20
0.0
 30
0.0
  9
$PLIMCHECK
 70
     0
  9
$PEXTMIN
 10
1.000000000000000E+20
 20
1.000000000000000E+20
 30
1.000000000000000E+20
  9
$PEXTMAX
 10
-1.000000000000000E+20
 20
-1.000000000000000E+20
 30
-1.000000000000000E+20
  9
$PLIMMIN
 10
0.0
 20
0.0
  9
$PLIMMAX
 10
12.0
 20
9.0
  9
$UNITMODE
 70
     0
  9
$VISRETAIN
 70
     0
  9
$PLINEGEN
 70
     0
  9
$PSLTSCALE
 70
     0
  9
$TREEDEPTH
 70
  3020
  9
$CMLSTYLE
  2
Standard
  9
$CMLJUST
 70
     0
  9
$CMLSCALE
 40
1.0
  9
$PROXYGRAPHICS
 70
     1
  9
$MEASUREMENT
 70
     0
  9
$CELWEIGHT
370
    -1
  9
$ENDCAPS
280
     0
  9
$JOINSTYLE
280
     0
  9
$LWDISPLAY
290
     0
  9
$INSUNITS
 70
     0
  9
$HYPERLINKBASE
  1

  9
$STYLESHEET
  1
monochrome 1.ctb
  9
$XEDIT
290
     1
  9
$CEPSNTYPE
380
     0
  9
$PSTYLEMODE
290
     1
  9
$FINGERPRINTGUID
  2
{7AADB5C8-6110-11D8-B72B-000102183313}
  9
$VERSIONGUID
  2
{18A308E6-4560-4724-8C80-10D191D96E53}
  9
$EXTNAMES
290
     1
  9
$PSVPSCALE
 40
0.0
  9
$OLESTARTUP
290
     0
  9
$SORTENTS
280
    96
  9
$INDEXCTL
280
     0
  9
$HIDETEXT
280
     0
  9
$XCLIPFRAME
290
     0
  9
$HALOGAP
280
     0
  9
$OBSCOLOR
 70
   257
  9
$OBSLTYPE
280
     0
  9
$INTERSECTIONDISPLAY
280
     0
  9
$INTERSECTIONCOLOR
 70
   257
  9
$DIMASSOC
280
     1
  9
$PROJECTNAME
  1

  0
ENDSEC
  0
SECTION
  2
CLASSES
  0
CLASS
  1
ACDBDICTIONARYWDFLT
  2
AcDbDictionaryWithDefault
  3
ObjectDBX Classes
 90
        0
 91
        1
280
     0
281
     0
  0
CLASS
  1
DICTIONARYVAR
  2
AcDbDictionaryVar
  3
ObjectDBX Classes
 90
        0
 91
        3
280
     0
281
     0
  0
ENDSEC
  0
SECTION
  2
TABLES
  0
TABLE
  2
VPORT
  5
8
330
0
100
AcDbSymbolTable
 70
     3
  0
VPORT
  5
1760
330
8
100
AcDbSymbolTableRecord
100
AcDbViewportTableRecord
  2
*Active
 70
     0
 10
0.0
 20
0.0
 11
1.0
 21
1.0
 12
210.0
 22
297.0
 13
0.0
 23
0.0
 14
1.0
 24
1.0
 15
10.0
 25
10.0
 16
0.0
 26
0.0
 36
1.0
 17
0.0
 27
0.0
 37
0.0
 40
594.0
 41
1.334231805929919
 42
50.0
 43
0.0
 44
0.0
 50
0.0
 51
0.0
 71
     0
 72
  1500
 73
     1
 74
     0
 75
     0
 76
     0
 77
     0
 78
     0
281
     0
 65
     1
110
0.0
120
0.0
130
0.0
111
1.0
121
0.0
131
0.0
112
0.0
122
1.0
132
0.0
 79
     0
146
0.0
  0
ENDTAB
  0
TABLE
  2
LTYPE
  5
5
330
0
100
AcDbSymbolTable
 70
     2
  0
LTYPE
  5
13
330
5
100
AcDbSymbolTableRecord
100
AcDbLinetypeTableRecord
  2
ByBlock
 70
     0
  3

 72
    65
 73
     0
 40
0.0
  0
LTYPE
  5
14
330
5
100
AcDbSymbolTableRecord
100
AcDbLinetypeTableRecord
  2
ByLayer
 70
     0
  3

 72
    65
 73
     0
 40
0.0
  0
LTYPE
  5
15
330
5
100
AcDbSymbolTableRecord
100
AcDbLinetypeTableRecord
  2
Continuous
 70
     0
  3
Solid line
 72
    65
 73
     0
 40
0.0
  0
LTYPE
  5
35
330
5
100
AcDbSymbolTableRecord
100
AcDbLinetypeTableRecord
  2
STRICHPUNKT
 70
     0
  3
__ . __ . __ . __ . __ . __ . __ . __ . __ . __
 72
    65
 73
     4
 40
1.0
 49
0.5
 74
     0
 49
-0.25
 74
     0
 49
0.0
 74
     0
 49
-0.25
 74
     0
  0
ENDTAB
  0
TABLE
  2
LAYER
  5
2
330
0
100
AcDbSymbolTable
 70
     9
  0
LAYER
  5
10
330
2
100
AcDbSymbolTableRecord
100
AcDbLayerTableRecord
  2
0
 70
     0
 62
     7
  6
Continuous
370
    -3
390
F
  0
LAYER
  5
38
330
2
100
AcDbSymbolTableRecord
100
AcDbLayerTableRecord
  2
VOLL
 70
     0
 62
     1
  6
Continuous
370
    -3
390
F
  0
LAYER
  5
39
330
2
100
AcDbSymbolTableRecord
100
AcDbLayerTableRecord
  2
HILF
 70
     0
 62
     2
  6
Continuous
370
    -3
390
F
  0
LAYER
  5
3A
330
2
100
AcDbSymbolTableRecord
100
AcDbLayerTableRecord
  2
MITTEL
 70
     0
 62
     2
  6
STRICHPUNKT
370
    -3
390
F
  0
LAYER
  5
3B
330
2
100
AcDbSymbolTableRecord
100
AcDbLayerTableRecord
  2
BEM
 70
     0
 62
     7
  6
Continuous
370
    -3
390
F
  0
LAYER
  5
3C
330
2
100
AcDbSymbolTableRecord
100
AcDbLayerTableRecord
  2
STEMPEL
 70
     0
 62
     3
  6
Continuous
370
    -3
390
F
  0
LAYER
  5
3D
330
2
100
AcDbSymbolTableRecord
100
AcDbLayerTableRecord
  2
TEXT
 70
     0
 62
     7
  6
Continuous
370
    -3
390
F
  0
LAYER
  5
3E
330
2
100
AcDbSymbolTableRecord
100
AcDbLayerTableRecord
  2
DEFPOINTS
 70
     0
 62
     7
  6
Continuous
290
     0
370
    -3
390
F
  0
LAYER
  5
3F
330
2
100
AcDbSymbolTableRecord
100
AcDbLayerTableRecord
  2
SCHRAFF
 70
     0
 62
     7
  6
Continuous
370
    -3
390
F
  0
ENDTAB
  0
TABLE
  2
STYLE
  5
3
330
0
100
AcDbSymbolTable
 70
     2
  0
STYLE
  5
11
330
3
100
AcDbSymbolTableRecord
100
AcDbTextStyleTableRecord
  2
STANDARD
 70
     0
 40
0.0
 41
0.8
 50
0.0
 71
     0
 42
3.5
  3
simplex.shx
  4

  0
STYLE
  5
34
330
3
100
AcDbSymbolTableRecord
100
AcDbTextStyleTableRecord
  2
GREEKS
 70
     0
 40
0.0
 41
0.8
 50
0.0
 71
     0
 42
2.5
  3
SIMPLEX.shx
  4

  0
ENDTAB
  0
TABLE
  2
VIEW
  5
6
330
0
100
AcDbSymbolTable
 70
     0
  0
ENDTAB
  0
TABLE
  2
UCS
  5
7
330
0
100
AcDbSymbolTable
 70
     0
  0
ENDTAB
  0
TABLE
  2
APPID
  5
9
330
0
100
AcDbSymbolTable
 70
     1
  0
APPID
  5
12
330
9
100
AcDbSymbolTableRecord
100
AcDbRegAppTableRecord
  2
ACAD
 70
     0
  0
ENDTAB
  0
TABLE
  2
DIMSTYLE
  5
A
330
0
100
AcDbSymbolTable
 70
     1
100
AcDbDimStyleTable
 71
     1
340
1CB
  0
DIMSTYLE
105
1CB
102
{ACAD_REACTORS
330
1DB
330
D41
330
1209
330
1596
330
15C0
330
16F5
102
}
330
A
100
AcDbSymbolTableRecord
100
AcDbDimStyleTableRecord
  2
Standard
 70
     0
340
11
  0
ENDTAB
  0
TABLE
  2
BLOCK_RECORD
  5
1
330
0
100
AcDbSymbolTable
 70
     9
  0
BLOCK_RECORD
  5
1E
330
1
100
AcDbSymbolTableRecord
100
AcDbBlockTableRecord
  2
*Model_Space
340
21
  0
BLOCK_RECORD
  5
1A
330
1
100
AcDbSymbolTableRecord
100
AcDbBlockTableRecord
  2
*Paper_Space
340
1D
  0
BLOCK_RECORD
  5
22
330
1
100
AcDbSymbolTableRecord
100
AcDbBlockTableRecord
  2
LOGO
340
0
102
{BLKREFS
331
135
102
}
  0
BLOCK_RECORD
  5
1DC
330
1
100
AcDbSymbolTableRecord
100
AcDbBlockTableRecord
  2
*D1
340
0
  0
BLOCK_RECORD
  5
D42
330
1
100
AcDbSymbolTableRecord
100
AcDbBlockTableRecord
  2
*D3
340
0
  0
BLOCK_RECORD
  5
120A
330
1
100
AcDbSymbolTableRecord
100
AcDbBlockTableRecord
  2
*D5
340
0
  0
BLOCK_RECORD
  5
1597
330
1
100
AcDbSymbolTableRecord
100
AcDbBlockTableRecord
  2
*D6
340
0
  0
BLOCK_RECORD
  5
15C1
330
1
100
AcDbSymbolTableRecord
100
AcDbBlockTableRecord
  2
*D7
340
0
  0
BLOCK_RECORD
  5
16F6
330
1
100
AcDbSymbolTableRecord
100
AcDbBlockTableRecord
  2
*D8
340
0
  0
ENDTAB
  0
ENDSEC
  0
SECTION
  2
BLOCKS
  0
BLOCK
  5
43
330
1E
100
AcDbEntity
  8
0
100
AcDbBlockBegin
  2
*Model_Space
 70
     0
 10
0.0
 20
0.0
 30
0.0
  3
*Model_Space
  1

  0
ENDBLK
  5
44
330
1E
100
AcDbEntity
  8
0
100
AcDbBlockEnd
  0
BLOCK
  5
41
330
1A
100
AcDbEntity
 67
     1
  8
0
100
AcDbBlockBegin
  2
*Paper_Space
 70
     0
 10
0.0
 20
0.0
 30
0.0
  3
*Paper_Space
  1

  0
ENDBLK
  5
42
330
1A
100
AcDbEntity
 67
     1
  8
0
100
AcDbBlockEnd
  0
BLOCK
  5
45
330
22
100
AcDbEntity
  8
0
100
AcDbBlockBegin
  2
LOGO
 70
     0
 10
0.0
 20
0.0
 30
0.0
  3
LOGO
  1

  0
ARC
  5
46
330
22
100
AcDbEntity
  8
0
100
AcDbCircle
 10
11.59973089678112
 20
-9.271599258481501
 30
0.0
 40
4.5
100
AcDbArc
 50
270.0
 51
231.0575587310159
  0
LINE
  5
47
330
22
100
AcDbEntity
  8
0
100
AcDbLine
 10
3.599730896781125
 20
-4.771599258481529
 30
0.0
 11
3.599730896781153
 21
-11.77159925848133
 31
0.0
  0
LINE
  5
48
330
22
100
AcDbEntity
  8
0
100
AcDbLine
 10
2.599730896781125
 20
-4.771599258481529
 30
0.0
 11
2.599730896781153
 21
-11.77159925848133
 31
0.0
  0
CIRCLE
  5
49
330
22
100
AcDbEntity
  8
0
100
AcDbCircle
 10
11.59973089678112
 20
-9.271599258481501
 30
0.0
 40
3.5
  0
ARC
  5
4A
330
22
100
AcDbEntity
  8
0
100
AcDbCircle
 10
31.59973089678115
 20
-9.271599258481472
 30
0.0
 40
4.5
100
AcDbArc
 50
270.0
 51
231.0575587310182
  0
LINE
  5
4B
330
22
100
AcDbEntity
  8
0
100
AcDbLine
 10
17.59973089678112
 20
-4.771599258481472
 30
0.0
 11
17.59973089678115
 21
-13.77159925848147
 31
0.0
  0
ARC
  5
4C
330
22
100
AcDbEntity
  8
0
100
AcDbCircle
 10
22.59973089678116
 20
-7.271599258481472
 30
0.0
 40
2.5
100
AcDbArc
 50
293.1161887722295
 51
90.0
  0
CIRCLE
  5
4D
330
22
100
AcDbEntity
  8
0
100
AcDbCircle
 10
31.59973089678115
 20
-9.271599258481472
 30
0.0
 40
3.5
  0
ARC
  5
4E
330
22
100
AcDbEntity
  8
0
100
AcDbCircle
 10
4.599730896781153
 20
-11.77159925848133
 30
0.0
 40
1.0
100
AcDbArc
 50
180.0
 51
270.0
  0
ARC
  5
4F
330
22
100
AcDbEntity
  8
0
100
AcDbCircle
 10
4.599730896781153
 20
-11.77159925848133
 30
0.0
 40
2.0
100
AcDbArc
 50
179.9999999999992
 51
270.0
  0
LINE
  5
50
330
22
100
AcDbEntity
  8
0
100
AcDbLine
 10
11.59973089678115
 20
-13.77159925848144
 30
0.0
 11
4.599730896781153
 21
-13.77159925848147
 31
0.0
  0
LINE
  5
51
330
22
100
AcDbEntity
  8
0
100
AcDbLine
 10
8.771303772034769
 20
-12.77159925848136
 30
0.0
 11
4.599730896781153
 21
-12.77159925848133
 31
0.0
  0
LINE
  5
52
330
22
100
AcDbEntity
  8
0
100
AcDbLine
 10
31.59973089678115
 20
-13.77159925848147
 30
0.0
 11
23.6715276665056
 21
-13.77159925848144
 31
0.0
  0
LINE
  5
53
330
22
100
AcDbEntity
  8
0
100
AcDbLine
 10
23.56565672307022
 20
-9.51278021337896
 30
0.0
 11
24.4388546544846
 21
-12.77159925848144
 31
0.0
  0
LINE
  5
54
330
22
100
AcDbEntity
  8
0
100
AcDbLine
 10
22.59973089678116
 20
-9.771599258481472
 30
0.0
 11
18.59973089678112
 21
-9.771599258481472
 31
0.0
  0
LINE
  5
55
330
22
100
AcDbEntity
  8
0
100
AcDbLine
 10
18.59973089678115
 20
-13.77159925848144
 30
0.0
 11
17.59973089678115
 21
-13.77159925848144
 31
0.0
  0
LINE
  5
56
330
22
100
AcDbEntity
  8
0
100
AcDbLine
 10
18.59973089678115
 20
-9.771599258481472
 30
0.0
 11
18.59973089678115
 21
-13.77159925848144
 31
0.0
  0
LINE
  5
57
330
22
100
AcDbEntity
  8
0
100
AcDbLine
 10
22.59973089678116
 20
-9.771599258481472
 30
0.0
 11
23.67152766650562
 21
-13.77159925848147
 31
0.0
  0
ARC
  5
58
330
22
100
AcDbEntity
  8
0
100
AcDbCircle
 10
22.59973089678116
 20
-7.271599258481472
 30
0.0
 40
2.5
100
AcDbArc
 50
270.0
 51
270.0000000000007
  0
LINE
  5
59
330
22
100
AcDbEntity
  8
0
100
AcDbLine
 10
28.77130377203494
 20
-12.77159925848147
 30
0.0
 11
24.43885465448463
 21
-12.77159925848144
 31
0.0
  0
LINE
  5
5A
330
22
100
AcDbEntity
  8
0
100
AcDbLine
 10
3.599730896781125
 20
-4.771599258481472
 30
0.0
 11
2.599730896781125
 21
-4.771599258481472
 31
0.0
  0
LINE
  5
5B
330
22
100
AcDbEntity
  8
0
100
AcDbLine
 10
22.59973089678116
 20
-8.771599258481472
 30
0.0
 11
18.59973089678115
 21
-8.771599258481472
 31
0.0
  0
LINE
  5
5C
330
22
100
AcDbEntity
  8
0
100
AcDbLine
 10
22.59973089678116
 20
-5.771599258481472
 30
0.0
 11
18.59973089678115
 21
-5.771599258481472
 31
0.0
  0
LINE
  5
5D
330
22
100
AcDbEntity
  8
0
100
AcDbLine
 10
22.59973089678116
 20
-4.771599258481472
 30
0.0
 11
17.59973089678115
 21
-4.771599258481472
 31
0.0
  0
LINE
  5
5E
330
22
100
AcDbEntity
  8
0
100
AcDbLine
 10
18.59973089678115
 20
-5.771599258481472
 30
0.0
 11
18.59973089678115
 21
-8.771599258481472
 31
0.0
  0
ARC
  5
5F
330
22
100
AcDbEntity
  8
0
100
AcDbCircle
 10
22.59973089678116
 20
-7.271599258481472
 30
0.0
 40
1.5
100
AcDbArc
 50
270.0
 51
90.0
  0
ENDBLK
  5
60
330
22
100
AcDbEntity
  8
0
100
AcDbBlockEnd
  0
BLOCK
  5
1E6
330
1DC
100
AcDbEntity
  8
0
100
AcDbBlockBegin
  2
*D1
 70
     1
 10
0.0
 20
0.0
 30
0.0
  3
*D1
  1

  0
LINE
  5
16E3
330
1DC
100
AcDbEntity
  8
BEM
 62
     0
370
    -2
100
AcDbLine
 10
167.8547697854888
 20
242.4432522357021
 30
0.0
 11
136.9848925399412
 21
242.4432522357021
 31
0.0
  0
LINE
  5
16E4
330
1DC
100
AcDbEntity
  8
BEM
 62
     0
370
    -2
100
AcDbLine
 10
164.6266885792788
 20
472.4465451400321
 30
0.0
 11
136.9848925399412
 21
472.4465451400321
 31
0.0
  0
LINE
  5
16E5
330
1DC
100
AcDbEntity
  8
BEM
 62
     0
370
    -2
100
AcDbLine
 10
138.9848925399412
 20
249.4432522357021
 30
0.0
 11
138.9848925399412
 21
465.4465451400321
 31
0.0
  0
SOLID
  5
16E6
330
1DC
100
AcDbEntity
  8
BEM
 62
     0
100
AcDbTrace
 10
137.8182258732745
 20
249.4432522357021
 30
0.0
 11
140.1515592066078
 21
249.4432522357021
 31
0.0
 12
138.9848925399412
 22
242.4432522357021
 32
0.0
 13
138.9848925399412
 23
242.4432522357021
 33
0.0
  0
SOLID
  5
16E7
330
1DC
100
AcDbEntity
  8
BEM
 62
     0
100
AcDbTrace
 10
137.8182258732746
 20
465.4465451400321
 30
0.0
 11
140.1515592066079
 21
465.4465451400321
 31
0.0
 12
138.9848925399412
 22
472.4465451400321
 32
0.0
 13
138.9848925399412
 23
472.4465451400321
 33
0.0
  0
MTEXT
  5
16E8
330
1DC
100
AcDbEntity
  8
BEM
 62
     1
100
AcDbMText
 10
132.4848925399412
 20
357.4448986878672
 30
0.0
 40
7.0
 41
0.0
 71
     5
 72
     1
  1
\A1;230
 11
0.0000000000000001
 21
1.0
 31
0.0
 73
     1
 44
1.0
  0
POINT
  5
16E9
330
1DC
100
AcDbEntity
  8
DEFPOINTS
 62
     0
100
AcDbPoint
 10
169.8547697854888
 20
242.4432522357021
 30
0.0
  0
POINT
  5
16EA
330
1DC
100
AcDbEntity
  8
DEFPOINTS
 62
     0
100
AcDbPoint
 10
166.6266885792788
 20
472.4465451400321
 30
0.0
  0
POINT
  5
16EB
330
1DC
100
AcDbEntity
  8
DEFPOINTS
 62
     0
100
AcDbPoint
 10
138.9848925399412
 20
472.4465451400321
 30
0.0
  0
ENDBLK
  5
1E7
330
1DC
100
AcDbEntity
  8
0
100
AcDbBlockEnd
  0
BLOCK
  5
D4C
330
D42
100
AcDbEntity
  8
0
100
AcDbBlockBegin
  2
*D3
 70
     1
 10
0.0
 20
0.0
 30
0.0
  3
*D3
  1

  0
LINE
  5
1196
330
D42
100
AcDbEntity
  8
BEM
 62
     0
370
    -2
100
AcDbLine
 10
169.4173264678592
 20
245.4432522357023
 30
0.0
 11
169.4173264678592
 21
219.5276242962932
 31
0.0
  0
LINE
  5
1197
330
D42
100
AcDbEntity
  8
BEM
 62
     0
370
    -2
100
AcDbLine
 10
242.4173264678592
 20
245.4432522357026
 30
0.0
 11
242.4173264678592
 21
219.5276242962932
 31
0.0
  0
LINE
  5
1198
330
D42
100
AcDbEntity
  8
BEM
 62
     0
370
    -2
100
AcDbLine
 10
176.4173264678592
 20
221.5276242962932
 30
0.0
 11
235.4173264678592
 21
221.5276242962932
 31
0.0
  0
SOLID
  5
1199
330
D42
100
AcDbEntity
  8
BEM
 62
     0
100
AcDbTrace
 10
176.4173264678592
 20
222.6942909629598
 30
0.0
 11
176.4173264678592
 21
220.3609576296265
 31
0.0
 12
169.4173264678592
 22
221.5276242962932
 32
0.0
 13
169.4173264678592
 23
221.5276242962932
 33
0.0
  0
SOLID
  5
119A
330
D42
100
AcDbEntity
  8
BEM
 62
     0
100
AcDbTrace
 10
235.4173264678592
 20
222.6942909629598
 30
0.0
 11
235.4173264678592
 21
220.3609576296265
 31
0.0
 12
242.4173264678592
 22
221.5276242962932
 32
0.0
 13
242.4173264678592
 23
221.5276242962932
 33
0.0
  0
MTEXT
  5
119B
330
D42
100
AcDbEntity
  8
BEM
 62
     1
100
AcDbMText
 10
205.9173264678592
 20
228.0276242962932
 30
0.0
 40
7.0
 41
0.0
 71
     5
 72
     1
  1
\A1;%%c73
 73
     1
 44
1.0
  0
POINT
  5
119C
330
D42
100
AcDbEntity
  8
DEFPOINTS
 62
     0
100
AcDbPoint
 10
169.4173264678592
 20
247.4432522357023
 30
0.0
  0
POINT
  5
119D
330
D42
100
AcDbEntity
  8
DEFPOINTS
 62
     0
100
AcDbPoint
 10
242.4173264678592
 20
247.4432522357026
 30
0.0
  0
POINT
  5
119E
330
D42
100
AcDbEntity
  8
DEFPOINTS
 62
     0
100
AcDbPoint
 10
242.4173264678592
 20
221.5276242962932
 30
0.0
  0
ENDBLK
  5
D4D
330
D42
100
AcDbEntity
  8
0
100
AcDbBlockEnd
  0
BLOCK
  5
1214
330
120A
100
AcDbEntity
  8
0
100
AcDbBlockBegin
  2
*D5
 70
     1
 10
0.0
 20
0.0
 30
0.0
  3
*D5
  1

  0
LINE
  5
1581
330
120A
100
AcDbEntity
  8
BEM
 62
     0
370
    -2
100
AcDbLine
 10
167.8547697854888
 20
242.4432522357021
 30
0.0
 11
151.2050708516767
 21
242.4432522357021
 31
0.0
  0
LINE
  5
1582
330
120A
100
AcDbEntity
  8
BEM
 62
     0
370
    -2
100
AcDbLine
 10
203.9173264678592
 20
317.4432522357022
 30
0.0
 11
151.2050708516767
 21
317.4432522357022
 31
0.0
  0
LINE
  5
1583
330
120A
100
AcDbEntity
  8
BEM
 62
     0
370
    -2
100
AcDbLine
 10
153.2050708516767
 20
249.443252235702
 30
0.0
 11
153.2050708516767
 21
310.4432522357023
 31
0.0
  0
SOLID
  5
1584
330
120A
100
AcDbEntity
  8
BEM
 62
     0
100
AcDbTrace
 10
152.0384041850101
 20
249.443252235702
 30
0.0
 11
154.3717375183434
 21
249.443252235702
 31
0.0
 12
153.2050708516767
 22
242.4432522357021
 32
0.0
 13
153.2050708516767
 23
242.4432522357021
 33
0.0
  0
SOLID
  5
1585
330
120A
100
AcDbEntity
  8
BEM
 62
     0
100
AcDbTrace
 10
152.0384041850101
 20
310.4432522357023
 30
0.0
 11
154.3717375183434
 21
310.4432522357023
 31
0.0
 12
153.2050708516767
 22
317.4432522357022
 32
0.0
 13
153.2050708516767
 23
317.4432522357022
 33
0.0
  0
MTEXT
  5
1586
330
120A
100
AcDbEntity
  8
BEM
 62
     1
100
AcDbMText
 10
146.7050708516767
 20
279.9432522357022
 30
0.0
 40
7.0
 41
0.0
 71
     5
 72
     1
  1
\A1;75
 11
0.0000000000000001
 21
1.0
 31
0.0
 73
     1
 44
1.0
  0
POINT
  5
1587
330
120A
100
AcDbEntity
  8
DEFPOINTS
 62
     0
100
AcDbPoint
 10
169.8547697854888
 20
242.4432522357021
 30
0.0
  0
POINT
  5
1588
330
120A
100
AcDbEntity
  8
DEFPOINTS
 62
     0
100
AcDbPoint
 10
205.9173264678592
 20
317.4432522357022
 30
0.0
  0
POINT
  5
1589
330
120A
100
AcDbEntity
  8
DEFPOINTS
 62
     0
100
AcDbPoint
 10
153.2050708516767
 20
317.4432522357022
 30
0.0
  0
ENDBLK
  5
1215
330
120A
100
AcDbEntity
  8
0
100
AcDbBlockEnd
  0
BLOCK
  5
15A3
330
1597
100
AcDbEntity
  8
0
100
AcDbBlockBegin
  2
*D6
 70
     1
 10
0.0
 20
0.0
 30
0.0
  3
*D6
  1

  0
LINE
  5
1598
330
1597
100
AcDbEntity
  8
BEM
 62
     0
370
    -2
100
AcDbLine
 10
312.6904504270277
 20
424.2163761948708
 30
0.0
 11
337.6802831992368
 21
449.2062089670799
 31
0.0
  0
LINE
  5
1599
330
1597
100
AcDbEntity
  8
BEM
 62
     0
370
    -2
100
AcDbLine
 10
205.9173264678592
 20
479.4465451400322
 30
0.0
 11
205.9173264678591
 21
503.7842126635957
 31
0.0
  0
ARC
  5
159A
330
1597
100
AcDbEntity
  8
BEM
 62
     0
370
    -2
100
AcDbCircle
 10
205.9173264678592
 20
317.4432522357022
 30
0.0
 40
184.3409604278935
100
AcDbArc
 50
47.17582981289735
 51
87.82417018710271
  0
SOLID
  5
159B
330
1597
100
AcDbEntity
  8
BEM
 62
     0
100
AcDbTrace
 10
332.0323818501698
 20
453.4873442821602
 30
0.0
 11
330.4140896621683
 21
451.8063996552619
 31
0.0
 12
336.2660696368637
 22
447.7919954047067
 32
0.0
 13
336.2660696368637
 23
447.7919954047067
 33
0.0
  0
SOLID
  5
159C
330
1597
100
AcDbEntity
  8
BEM
 62
     0
100
AcDbTrace
 10
212.8939136593257
 20
500.4848504081123
 30
0.0
 11
212.9382156237276
 21
502.8177631326682
 31
0.0
 12
205.9173264678591
 22
501.7842126635956
 32
0.0
 13
205.9173264678591
 23
501.7842126635956
 33
0.0
  0
MTEXT
  5
159D
330
1597
100
AcDbEntity
  8
BEM
 62
     1
100
AcDbMText
 10
278.9490002402557
 20
493.7573095398295
 30
0.0
 40
7.0
 41
0.0
 71
     5
 72
     1
  1
\A1;45°
 11
0.9238795325112871
 21
-0.3826834323650891
 31
0.0
 73
     1
 44
1.0
  0
POINT
  5
159E
330
1597
100
AcDbEntity
  8
DEFPOINTS
 62
     0
100
AcDbPoint
 10
298.0878066818059
 20
477.0872069242799
 30
0.0
  0
POINT
  5
159F
330
1597
100
AcDbEntity
  8
DEFPOINTS
 62
     0
100
AcDbPoint
 10
205.9173264678592
 20
477.4465451400321
 30
0.0
  0
POINT
  5
15A0
330
1597
100
AcDbEntity
  8
DEFPOINTS
 62
     0
100
AcDbPoint
 10
311.2762368646546
 20
422.8021626324977
 30
0.0
  0
POINT
  5
15A1
330
1597
100
AcDbEntity
  8
DEFPOINTS
 62
     0
100
AcDbPoint
 10
205.9173264678592
 20
317.4432522357021
 30
0.0
  0
POINT
  5
15A2
330
1597
100
AcDbEntity
  8
DEFPOINTS
 62
     0
100
AcDbPoint
 10
205.9173264678593
 20
237.4432522357023
 30
0.0
  0
ENDBLK
  5
15A4
330
1597
100
AcDbEntity
  8
0
100
AcDbBlockEnd
  0
BLOCK
  5
15CB
330
15C1
100
AcDbEntity
  8
0
100
AcDbBlockBegin
  2
*D7
 70
     1
 10
0.0
 20
0.0
 30
0.0
  3
*D7
  1

  0
LINE
  5
15C2
330
15C1
100
AcDbEntity
  8
BEM
 62
     0
370
    -2
100
AcDbLine
 10
241.0031129054861
 20
390.0056980762162
 30
0.0
 11
193.4435749082598
 21
342.4461600789901
 31
0.0
  0
LINE
  5
15C3
330
15C1
100
AcDbEntity
  8
BEM
 62
     0
370
    -2
100
AcDbLine
 10
241.003112905486
 20
315.0523792704421
 30
0.0
 11
230.9202343111468
 21
304.9695006761029
 31
0.0
  0
LINE
  5
15C4
330
15C1
100
AcDbEntity
  8
BEM
 62
     0
370
    -2
100
AcDbLine
 10
199.8075359389387
 20
338.9106261730574
 30
0.0
 11
227.3847004052142
 21
311.3334617067819
 31
0.0
  0
SOLID
  5
15C5
330
15C1
100
AcDbEntity
  8
BEM
 62
     0
100
AcDbTrace
 10
200.632493850323
 20
339.7355840844417
 30
0.0
 11
198.9825780275544
 21
338.0856682616731
 31
0.0
 12
194.8577884706329
 22
343.8603736413632
 32
0.0
 13
194.8577884706329
 23
343.8603736413632
 33
0.0
  0
SOLID
  5
15C6
330
15C1
100
AcDbEntity
  8
BEM
 62
     0
100
AcDbTrace
 10
228.2096583165985
 20
312.1584196181662
 30
0.0
 11
226.5597424938298
 21
310.5085037953975
 31
0.0
 12
232.33444787352
 22
306.383714238476
 32
0.0
 13
232.33444787352
 23
306.383714238476
 33
0.0
  0
MTEXT
  5
15C7
330
15C1
100
AcDbEntity
  8
BEM
 62
     1
100
AcDbMText
 10
218.192312249789
 20
329.7182380176322
 30
0.0
 40
7.0
 41
0.0
 71
     5
 72
     1
  1
\A1;53
 11
0.7071067811865463
 21
-0.7071067811865488
 31
0.0
 73
     1
 44
1.0
  0
POINT
  5
15C8
330
15C1
100
AcDbEntity
  8
DEFPOINTS
 62
     0
100
AcDbPoint
 10
242.4173264678592
 20
391.4199116385893
 30
0.0
  0
POINT
  5
15C9
330
15C1
100
AcDbEntity
  8
DEFPOINTS
 62
     0
100
AcDbPoint
 10
242.4173264678591
 20
316.4665928328152
 30
0.0
  0
POINT
  5
15CA
330
15C1
100
AcDbEntity
  8
DEFPOINTS
 62
     0
100
AcDbPoint
 10
232.33444787352
 20
306.383714238476
 30
0.0
  0
ENDBLK
  5
15CC
330
15C1
100
AcDbEntity
  8
0
100
AcDbBlockEnd
  0
BLOCK
  5
1700
330
16F6
100
AcDbEntity
  8
0
100
AcDbBlockBegin
  2
*D8
 70
     1
 10
0.0
 20
0.0
 30
0.0
  3
*D8
  1

  0
LINE
  5
1756
330
16F6
100
AcDbEntity
  8
BEM
 62
     0
370
    -2
100
AcDbLine
 10
207.3315400302321
 20
316.029038673329
 30
0.0
 11
243.2893891520385
 21
280.0711895515224
 31
0.0
  0
LINE
  5
1757
330
16F6
100
AcDbEntity
  8
BEM
 62
     0
370
    -2
100
AcDbLine
 10
329.6732056541252
 20
397.334126031162
 30
0.0
 11
345.1127656429018
 21
381.8945660423853
 31
0.0
  0
LINE
  5
1758
330
16F6
100
AcDbEntity
  8
BEM
 62
     0
370
    -2
100
AcDbLine
 10
246.8249230579714
 20
286.4351505822014
 30
0.0
 11
338.7488046122229
 21
378.3590321364526
 31
0.0
  0
SOLID
  5
1759
330
16F6
100
AcDbEntity
  8
BEM
 62
     0
100
AcDbTrace
 10
245.999965146587
 20
287.2601084935857
 30
0.0
 11
247.6498809693556
 21
285.610192670817
 31
0.0
 12
241.8751755896655
 22
281.4854031138955
 32
0.0
 13
241.8751755896655
 23
281.4854031138955
 33
0.0
  0
SOLID
  5
175A
330
16F6
100
AcDbEntity
  8
BEM
 62
     0
100
AcDbTrace
 10
337.9238467008386
 20
379.1839900478369
 30
0.0
 11
339.5737625236072
 21
377.5340742250683
 31
0.0
 12
343.6985520805287
 22
383.3087796047584
 32
0.0
 13
343.6985520805287
 23
383.3087796047584
 33
0.0
  0
MTEXT
  5
175B
330
16F6
100
AcDbEntity
  8
BEM
 62
     1
100
AcDbMText
 10
288.1906697573846
 20
336.9932854370395
 30
0.0
 40
7.0
 41
0.0
 71
     5
 72
     1
  1
\A1;144
 11
0.7071067811865488
 21
0.7071067811865463
 31
0.0
 73
     1
 44
1.0
  0
POINT
  5
175C
330
16F6
100
AcDbEntity
  8
DEFPOINTS
 62
     0
100
AcDbPoint
 10
205.9173264678591
 20
317.4432522357021
 30
0.0
  0
POINT
  5
175D
330
16F6
100
AcDbEntity
  8
DEFPOINTS
 62
     0
100
AcDbPoint
 10
328.2589920917521
 20
398.7483395935351
 30
0.0
  0
POINT
  5
175E
330
16F6
100
AcDbEntity
  8
DEFPOINTS
 62
     0
100
AcDbPoint
 10
343.6985520805288
 20
383.3087796047583
 30
0.0
  0
ENDBLK
  5
1701
330
16F6
100
AcDbEntity
  8
0
100
AcDbBlockEnd
  0
ENDSEC
  0
SECTION
  2
ENTITIES
  0
LINE
  5
12A
330
1E
100
AcDbEntity
  8
STEMPEL
100
AcDbLine
 10
245.2079643564395
 20
472.4465451400321
 30
0.0
 11
166.6266885792788
 21
472.4465451400321
 31
0.0
  0
TEXT
  5
134
330
1E
100
AcDbEntity
  8
TEXT
100
AcDbText
 10
204.4216048581257
 20
63.0896391972351
 30
0.0
 40
4.0
  1
Koeh
 41
0.8
  7
GREEKS
 72
     1
 11
209.6787477152686
 21
63.0896391972351
 31
0.0
100
AcDbText
  0
INSERT
  5
135
330
1E
100
AcDbEntity
  8
STEMPEL
100
AcDbBlockReference
  2
LOGO
 10
150.9955485457794
 20
45.02105276448322
 30
0.0
 41
2.0
 42
2.0
 43
2.0
  0
LINE
  5
136
330
1E
100
AcDbEntity
  8
HILF
100
AcDbLine
 10
420.0
 20
0.0
 30
0.0
 11
0.0
 21
0.0
 31
0.0
  0
LINE
  5
137
330
1E
100
AcDbEntity
  8
HILF
100
AcDbLine
 10
419.9999999999999
 20
594.0000000000002
 30
0.0
 11
0.0
 21
594.0
 31
0.0
  0
LINE
  5
138
330
1E
100
AcDbEntity
  8
STEMPEL
100
AcDbLine
 10
410.0
 20
584.0
 30
0.0
 11
39.99999999999989
 21
584.0
 31
0.0
  0
LINE
  5
139
330
1E
100
AcDbEntity
  8
STEMPEL
100
AcDbLine
 10
410.0
 20
10.0
 30
0.0
 11
39.99999999999989
 21
10.0
 31
0.0
  0
LINE
  5
13A
330
1E
100
AcDbEntity
  8
STEMPEL
100
AcDbLine
 10
49.99999999999989
 20
10.0
 30
0.0
 11
410.0
 21
10.0
 31
0.0
  0
TEXT
  5
13B
330
1E
100
AcDbEntity
  8
TEXT
100
AcDbText
 10
202.4626584226295
 20
73.30961091915225
 30
0.0
 40
4.0
  1
Name
 41
0.8
  7
GREEKS
100
AcDbText
  0
TEXT
  5
13C
330
1E
100
AcDbEntity
  8
TEXT
100
AcDbText
 10
196.5498279101549
 20
102.6506227776589
 30
0.0
 40
5.0
  1
Zul. Abw.
 41
0.8
  7
GREEKS
 72
     4
 11
209.9783993387263
 21
105.1506227776589
 31
0.0
100
AcDbText
  0
LINE
  5
13D
330
1E
100
AcDbEntity
  8
HILF
100
AcDbLine
 10
146.0000000000001
 20
49.99999999999997
 30
0.0
 11
230.0
 21
49.99999999999997
 31
0.0
  0
LINE
  5
13E
330
1E
100
AcDbEntity
  8
HILF
100
AcDbLine
 10
146.0000000000001
 20
59.99999999999997
 30
0.0
 11
230.0
 21
59.99999999999997
 31
0.0
  0
LINE
  5
13F
330
1E
100
AcDbEntity
  8
HILF
100
AcDbLine
 10
146.0000000000001
 20
69.99999999999994
 30
0.0
 11
230.0
 21
69.99999999999994
 31
0.0
  0
LINE
  5
140
330
1E
100
AcDbEntity
  8
STEMPEL
100
AcDbLine
 10
410.0
 20
80.0
 30
0.0
 11
146.0000000000001
 21
79.99999999999994
 31
0.0
  0
LINE
  5
141
330
1E
100
AcDbEntity
  8
STEMPEL
100
AcDbLine
 10
410.0
 20
40.0
 30
0.0
 11
146.0000000000001
 21
39.99999999999997
 31
0.0
  0
LINE
  5
142
330
1E
100
AcDbEntity
  8
STEMPEL
100
AcDbLine
 10
410.0
 20
110.0
 30
0.0
 11
39.99999999999997
 21
110.0
 31
0.0
  0
LINE
  5
143
330
1E
100
AcDbEntity
  8
MITTEL
100
AcDbLine
 10
205.9173264678592
 20
477.4465451400321
 30
0.0
 11
205.9173264678593
 21
237.4432522357023
 31
0.0
  0
LINE
  5
144
330
1E
100
AcDbEntity
  8
HILF
100
AcDbLine
 10
0.0
 20
0.0
 30
0.0
 11
-0.0000000000001137
 21
594.0
 31
0.0
  0
LINE
  5
145
330
1E
100
AcDbEntity
  8
STEMPEL
100
AcDbLine
 10
40.0
 20
10.0
 30
0.0
 11
39.99999999999989
 21
584.0
 31
0.0
  0
LINE
  5
148
330
1E
100
AcDbEntity
  8
HILF
100
AcDbLine
 10
40.00000000000008
 20
39.99999999999997
 30
0.0
 11
146.0000000000001
 21
39.99999999999997
 31
0.0
  0
LINE
  5
149
330
1E
100
AcDbEntity
  8
HILF
100
AcDbLine
 10
40.00000000000008
 20
49.99999999999997
 30
0.0
 11
146.0000000000001
 21
49.99999999999997
 31
0.0
  0
LINE
  5
14A
330
1E
100
AcDbEntity
  8
HILF
100
AcDbLine
 10
40.00000000000008
 20
59.99999999999997
 30
0.0
 11
146.0000000000001
 21
59.99999999999997
 31
0.0
  0
LINE
  5
14B
330
1E
100
AcDbEntity
  8
HILF
100
AcDbLine
 10
40.00000000000008
 20
69.99999999999994
 30
0.0
 11
146.0000000000001
 21
69.99999999999994
 31
0.0
  0
LINE
  5
14C
330
1E
100
AcDbEntity
  8
HILF
100
AcDbLine
 10
40.00000000000008
 20
79.99999999999994
 30
0.0
 11
146.0000000000001
 21
79.99999999999994
 31
0.0
  0
LINE
  5
14D
330
1E
100
AcDbEntity
  8
HILF
100
AcDbLine
 10
40.00000000000008
 20
90.00000000000005
 30
0.0
 11
146.0000000000001
 21
90.00000000000005
 31
0.0
  0
LINE
  5
14E
330
1E
100
AcDbEntity
  8
HILF
100
AcDbLine
 10
40.00000000000008
 20
100.0
 30
0.0
 11
146.0000000000001
 21
100.0
 31
0.0
  0
LINE
  5
14F
330
1E
100
AcDbEntity
  8
STEMPEL
100
AcDbLine
 10
145.9999999999999
 20
29.99999999999997
 30
0.0
 11
39.99999999999997
 21
29.99999999999997
 31
0.0
  0
TEXT
  5
150
330
1E
100
AcDbEntity
  8
TEXT
100
AcDbText
 10
48.26641107045756
 20
13.65465846027192
 30
0.0
 40
4.0
  1
Index
 50
90.0
 41
0.8
  7
GREEKS
100
AcDbText
  0
LINE
  5
151
330
1E
100
AcDbEntity
  8
VOLL
100
AcDbLine
 10
54.00000000000009
 20
110.0
 30
0.0
 11
53.99999999999997
 21
9.999999999999971
 31
0.0
  0
LINE
  5
152
330
1E
100
AcDbEntity
  8
HILF
100
AcDbLine
 10
31.08767135713856
 20
297.0
 30
0.0
 11
0.0000000000001137
 21
297.0
 31
0.0
  0
LINE
  5
154
330
1E
100
AcDbEntity
  8
VOLL
100
AcDbLine
 10
124.0000000000001
 20
109.9999999999999
 30
0.0
 11
124.0
 21
9.999999999999971
 31
0.0
  0
LINE
  5
155
330
1E
100
AcDbEntity
  8
VOLL
100
AcDbLine
 10
104.0000000000001
 20
109.9999999999999
 30
0.0
 11
104.0
 21
9.999999999999971
 31
0.0
  0
LINE
  5
157
330
1E
100
AcDbEntity
  8
STEMPEL
100
AcDbLine
 10
146.0000000000001
 20
109.9999999999999
 30
0.0
 11
146.0
 21
9.999999999999971
 31
0.0
  0
TEXT
  5
159
330
1E
100
AcDbEntity
  8
TEXT
100
AcDbText
 10
172.331167315365
 20
73.31880501229926
 30
0.0
 40
4.0
  1
Tag
 41
0.8
  7
GREEKS
100
AcDbText
  0
TEXT
  5
15A
330
1E
100
AcDbEntity
  8
TEXT
100
AcDbText
 10
147.5836127167615
 20
63.62990369617964
 30
0.0
 40
4.0
  1
Gez.
 41
0.8
  7
GREEKS
100
AcDbText
  0
LINE
  5
15B
330
1E
100
AcDbEntity
  8
VOLL
100
AcDbLine
 10
164.0000000000001
 20
79.99999999999994
 30
0.0
 11
164.0000000000001
 21
39.99999999999997
 31
0.0
  0
TEXT
  5
15C
330
1E
100
AcDbEntity
  8
TEXT
100
AcDbText
 10
147.6006777387303
 20
43.52946389649807
 30
0.0
 40
4.0
  1
Norm.
 41
0.8
  7
GREEKS
100
AcDbText
  0
TEXT
  5
15D
330
1E
100
AcDbEntity
  8
TEXT
100
AcDbText
 10
147.5515086571672
 20
53.68926291428377
 30
0.0
 40
4.0
  1
Gepr.
 41
0.8
  7
GREEKS
100
AcDbText
  0
TEXT
  5
15E
330
1E
100
AcDbEntity
  8
TEXT
 62
     1
100
AcDbText
 10
160.5006306481887
 20
88.14901428913959
 30
0.0
 40
7.0
  1
1:2
 41
0.8
  7
GREEKS
100
AcDbText
  0
TEXT
  5
15F
330
1E
100
AcDbEntity
  8
TEXT
100
AcDbText
 10
153.5163572150377
 20
102.4620895087088
 30
0.0
 40
5.0
  1
Massstab
 41
0.8
  7
GREEKS
100
AcDbText
  0
TEXT
  5
160
330
1E
100
AcDbEntity
  8
TEXT
100
AcDbText
 10
148.622109822104
 20
73.14025471151666
 30
0.0
 40
4.0
  1
2011
 41
0.8
  7
GREEKS
100
AcDbText
  0
LINE
  5
161
330
1E
100
AcDbEntity
  8
VOLL
100
AcDbLine
 10
190.0000000000001
 20
109.9999999999998
 30
0.0
 11
190.0
 21
39.99999999999997
 31
0.0
  0
LINE
  5
186
330
1E
100
AcDbEntity
  8
HILF
100
AcDbLine
 10
420.0
 20
-0.0000000000001137
 30
0.0
 11
419.9999999999999
 21
594.0
 31
0.0
  0
LINE
  5
187
330
1E
100
AcDbEntity
  8
STEMPEL
100
AcDbLine
 10
410.0
 20
10.0
 30
0.0
 11
410.0
 21
584.0
 31
0.0
  0
TEXT
  5
188
330
1E
100
AcDbEntity
  8
TEXT
100
AcDbText
 10
337.2400861497006
 20
52.07416177878602
 30
0.0
 40
5.0
  1
ersetzt durch:
 41
0.8
  7
GREEKS
100
AcDbText
  0
TEXT
  5
189
330
1E
100
AcDbEntity
  8
TEXT
100
AcDbText
 10
336.7238616296993
 20
73.1811823709997
 30
0.0
 40
5.0
  1
Ersatz für:
 41
0.8
  7
GREEKS
100
AcDbText
  0
TEXT
  5
18A
330
1E
100
AcDbEntity
  8
TEXT
100
AcDbText
 10
336.178754957634
 20
102.3132034537136
 30
0.0
 40
5.0
  1
Zeichnungs Nr.
 41
0.8
  7
GREEKS
100
AcDbText
  0
LINE
  5
18B
330
1E
100
AcDbEntity
  8
HILF
100
AcDbLine
 10
233.4909699289885
 20
14.89398258028314
 30
0.0
 11
404.8588839326728
 21
14.89398258028314
 31
0.0
  0
LINE
  5
18C
330
1E
100
AcDbEntity
  8
HILF
100
AcDbLine
 10
336.7238616296993
 20
83.77983636955827
 30
0.0
 11
404.8588839326728
 21
83.77983636955827
 31
0.0
  0
LINE
  5
18D
330
1E
100
AcDbEntity
  8
VOLL
100
AcDbLine
 10
332.0
 20
60.0
 30
0.0
 11
410.0
 21
60.0
 31
0.0
  0
TEXT
  5
18E
330
1E
100
AcDbEntity
  8
TEXT
 62
     1
100
AcDbText
 10
234.9283864320014
 20
87.41748789253779
 30
0.0
 40
7.0
  1
Red.-Abzweig DN70/50
 41
0.7
  7
GREEKS
100
AcDbText
  0
LINE
  5
18F
330
1E
100
AcDbEntity
  8
HILF
100
AcDbLine
 10
234.7736801096947
 20
49.99999999999997
 30
0.0
 11
324.835391655631
 21
49.99999999999997
 31
0.0
  0
LINE
  5
190
330
1E
100
AcDbEntity
  8
HILF
100
AcDbLine
 10
234.7736801096947
 20
59.99999999999997
 30
0.0
 11
324.835391655631
 21
59.99999999999997
 31
0.0
  0
LINE
  5
191
330
1E
100
AcDbEntity
  8
HILF
100
AcDbLine
 10
234.7736801096947
 20
69.99999999999994
 30
0.0
 11
324.835391655631
 21
69.99999999999994
 31
0.0
  0
LINE
  5
192
330
1E
100
AcDbEntity
  8
HILF
100
AcDbLine
 10
234.7736801096947
 20
84.03758247564139
 30
0.0
 11
324.8353916556311
 21
84.03758247564139
 31
0.0
  0
LINE
  5
193
330
1E
100
AcDbEntity
  8
STEMPEL
100
AcDbLine
 10
230.0
 20
110.0
 30
0.0
 11
230.0
 21
9.999999999999971
 31
0.0
  0
TEXT
  5
194
330
1E
100
AcDbEntity
  8
TEXT
100
AcDbText
 10
235.1296391125315
 20
71.50334417585288
 30
0.0
 40
5.0
  1
dünnwandig 45°
 41
0.8
  7
GREEKS
100
AcDbText
  0
TEXT
  5
195
330
1E
100
AcDbEntity
  8
TEXT
100
AcDbText
 10
234.9837501577827
 20
42.62974153022632
 30
0.0
 40
4.0
  1
5250CB0W.DWG
 41
0.8
  7
GREEKS
100
AcDbText
  0
TEXT
  5
196
330
1E
100
AcDbEntity
  8
TEXT
100
AcDbText
 10
234.742238391136
 20
30.84560570193057
 30
0.0
 40
5.0
  1
Bauvorhaben
 41
0.8
  7
GREEKS
100
AcDbText
  0
TEXT
  5
197
330
1E
100
AcDbEntity
  8
TEXT
100
AcDbText
 10
234.877940380901
 20
102.5489328011779
 30
0.0
 40
5.0
  1
Benennung
 41
0.8
  7
GREEKS
100
AcDbText
  0
LINE
  5
198
330
1E
100
AcDbEntity
  8
STEMPEL
100
AcDbLine
 10
332.0
 20
109.9999999999997
 30
0.0
 11
332.0
 21
40.0
 31
0.0
  0
TEXT
  5
19A
330
1E
100
AcDbEntity
  8
TEXT
 62
     1
100
AcDbText
 10
346.6451227808903
 20
88.14901428913959
 30
0.0
 40
7.0
  1
5250CB0W
 41
0.8
  7
GREEKS
 72
     1
 11
368.2451227808903
 21
88.14901428913959
 31
0.0
100
AcDbText
  0
LINE
  5
1D4
330
1E
100
AcDbEntity
  8
STEMPEL
100
AcDbLine
 10
241.9798831502296
 20
242.4432522357023
 30
0.0
 11
169.8547697854888
 21
242.4432522357021
 31
0.0
  0
LINE
  5
1D7
330
1E
100
AcDbEntity
  8
STEMPEL
100
AcDbLine
 10
169.4173264678592
 20
247.443252235702
 30
0.0
 11
169.8547697854888
 21
242.4432522357021
 31
0.0
  0
LINE
  5
1D8
330
1E
100
AcDbEntity
  8
STEMPEL
100
AcDbLine
 10
242.4173264678592
 20
247.4432522357028
 30
0.0
 11
241.9798831502296
 21
242.4432522357023
 31
0.0
  0
DIMENSION
  5
1DB
330
1E
100
AcDbEntity
  8
BEM
100
AcDbDimension
  2
*D1
 10
138.9848925399412
 20
472.4465451400321
 30
0.0
 11
132.4848925399412
 21
357.4448986878672
 31
0.0
 70
    32
 71
     5
 42
230.0032929043301
  3
Standard
100
AcDbAlignedDimension
 13
169.8547697854888
 23
242.4432522357021
 33
0.0
 14
166.6266885792788
 24
472.4465451400321
 34
0.0
 50
90.0
100
AcDbRotatedDimension
1001
ACAD
1000
DSTYLE
1002
{
1070
    40
1040
2.0
1070
    41
1040
3.5
1070
    42
1040
1.0
1070
    43
1040
7.0
1070
    44
1040
1.0
1070
    73
1070
     0
1070
    74
1070
     0
1070
    77
1070
     1
1070
    78
1070
     8
1070
    79
1070
     2
1070
   140
1040
3.5
1070
   141
1040
1.5
1070
   146
1040
0.5142857142857144
1070
   147
1040
1.5
1070
   172
1070
     1
1070
   178
1070
     1
1070
   179
1070
     2
1070
   271
1070
     2
1070
   272
1070
     2
1070
   284
1070
     8
1070
   285
1070
     8
1070
   286
1070
     8
1002
}
  0
TEXT
  5
212
330
1E
100
AcDbEntity
  8
TEXT
100
AcDbText
 10
235.1296391125315
 20
51.50334417585291
 30
0.0
 40
5.0
  1
EDV-Art.Nr. 5.250.CB0C
 41
0.8
  7
GREEKS
100
AcDbText
  0
TEXT
  5
255
330
1E
100
AcDbEntity
  8
TEXT
 62
     1
100
AcDbText
 10
297.0573649355706
 20
132.2248663682012
 30
0.0
 40
7.0
  1
Werkstoff: 1.4404
 41
0.8
  7
GREEKS
100
AcDbText
  0
TEXT
  5
25D
330
1E
100
AcDbEntity
  8
TEXT
 62
     1
100
AcDbText
 10
177.1004389562267
 20
451.9672935512928
 30
0.0
 40
7.0
  1
DN70
 41
0.8
  7
GREEKS
100
AcDbText
  0
LINE
  5
B5C
330
1E
100
AcDbEntity
  8
HILF
  6
Continuous
100
AcDbLine
 10
168.3389378886346
 20
420.0917394498001
 30
0.0
 11
243.4957150470839
 21
420.0917394498001
 31
0.0
  0
LINE
  5
B5D
330
1E
100
AcDbEntity
  8
HILF
  6
Continuous
100
AcDbLine
 10
167.7856148415295
 20
441.9485394036964
 30
0.0
 11
244.0490380941888
 21
441.9485394036964
 31
0.0
  0
LINE
  5
B61
330
1E
100
AcDbEntity
  8
HILF
  6
Continuous
100
AcDbLine
 10
170.2437708733738
 20
415.5700175260877
 30
0.0
 11
241.5908820623446
 21
415.5700175260876
 31
0.0
  0
ARC
  5
B7A
330
1E
100
AcDbEntity
  8
STEMPEL
100
AcDbCircle
 10
222.9173399436219
 20
461.9227357875827
 30
0.0
 40
24.65
100
AcDbArc
 50
359.9385097298969
 51
25.27284846783625
  0
LINE
  5
B7B
330
1E
100
AcDbEntity
  8
STEMPEL
100
AcDbLine
 10
247.5673264678591
 20
461.9478488422685
 30
0.0
 11
247.5673264678591
 21
452.8848251882229
 31
0.0
  0
ARC
  5
B7C
330
1E
100
AcDbEntity
  8
STEMPEL
100
AcDbCircle
 10
222.9173264678592
 20
452.8187662223075
 30
0.0
 40
24.65009324312573
100
AcDbArc
 50
338.8168456069657
 51
0.1617474312555988
  0
ARC
  5
B7D
330
1E
100
AcDbEntity
  8
STEMPEL
100
AcDbCircle
 10
257.4173264678592
 20
439.4487662223075
 30
0.0
 40
12.35
100
AcDbArc
 50
158.8168456069657
 51
180.0
  0
LINE
  5
B7E
330
1E
100
AcDbEntity
  8
STEMPEL
100
AcDbLine
 10
245.0673264678592
 20
439.4487662223075
 30
0.0
 11
245.0673264678592
 21
422.6580760696052
 31
0.0
  0
ARC
  5
B85
330
1E
100
AcDbEntity
  8
STEMPEL
100
AcDbCircle
 10
233.417326467859
 20
422.6580760696052
 30
0.0
 40
11.65
100
AcDbArc
 50
329.8986894531991
 51
0.0
  0
ARC
  5
B86
330
1E
100
AcDbEntity
  8
STEMPEL
100
AcDbCircle
 10
250.4173264678592
 20
412.8030012347803
 30
0.0
 40
8.0
100
AcDbArc
 50
149.8986894531977
 51
180.0
  0
ARC
  5
B96
330
1E
100
AcDbEntity
  8
STEMPEL
100
AcDbCircle
 10
161.4173264678592
 20
412.8030012347803
 30
0.0
 40
8.0
100
AcDbArc
 50
0.0
 51
30.10131054680232
  0
LINE
  5
B99
330
1E
100
AcDbEntity
  8
STEMPEL
100
AcDbLine
 10
164.2673264678592
 20
461.9478488422685
 30
0.0
 11
164.2673264678592
 21
452.8848251882229
 31
0.0
  0
LINE
  5
B9B
330
1E
100
AcDbEntity
  8
STEMPEL
100
AcDbLine
 10
166.7673264678592
 20
439.4487662223075
 30
0.0
 11
166.7673264678592
 21
422.6580760696052
 31
0.0
  0
ARC
  5
B9E
330
1E
100
AcDbEntity
  8
STEMPEL
100
AcDbCircle
 10
178.4173264678593
 20
422.6580760696052
 30
0.0
 40
11.65
100
AcDbArc
 50
180.0
 51
210.1013105468009
  0
ARC
  5
B9F
330
1E
100
AcDbEntity
  8
STEMPEL
100
AcDbCircle
 10
188.9173264678591
 20
452.8187662223075
 30
0.0
 40
24.65009324312573
100
AcDbArc
 50
179.8382525687444
 51
201.1831543930343
  0
ARC
  5
BA1
330
1E
100
AcDbEntity
  8
STEMPEL
100
AcDbCircle
 10
154.4173264678591
 20
439.4487662223075
 30
0.0
 40
12.35
100
AcDbArc
 50
0.0
 51
21.1831543930343
  0
ARC
  5
BA3
330
1E
100
AcDbEntity
  8
STEMPEL
100
AcDbCircle
 10
188.9173129920964
 20
461.9227357875827
 30
0.0
 40
24.65
100
AcDbArc
 50
154.7271515321637
 51
180.0614902701031
  0
LINE
  5
CE5
330
1E
100
AcDbEntity
  8
HILF
100
AcDbLine
 10
241.1673264678592
 20
247.4432522357024
 30
0.0
 11
170.6673264678592
 21
247.4432522357024
 31
0.0
  0
DIMENSION
  5
D41
330
1E
100
AcDbEntity
  8
BEM
100
AcDbDimension
  2
*D3
 10
242.4173264678592
 20
221.5276242962932
 30
0.0
 11
205.9173264678592
 21
228.0276242962932
 31
0.0
 70
    32
  1
%%c<>
 71
     5
 42
72.99999999999997
  3
Standard
100
AcDbAlignedDimension
 13
169.4173264678592
 23
247.4432522357023
 33
0.0
 14
242.4173264678592
 24
247.4432522357026
 34
0.0
100
AcDbRotatedDimension
1001
ACAD
1000
DSTYLE
1002
{
1070
    40
1040
2.0
1070
    41
1040
3.5
1070
    42
1040
1.0
1070
    43
1040
7.0
1070
    44
1040
1.0
1070
    73
1070
     0
1070
    74
1070
     0
1070
    77
1070
     1
1070
    78
1070
     8
1070
    79
1070
     2
1070
   140
1040
3.5
1070
   141
1040
1.5
1070
   146
1040
0.5142857142857144
1070
   147
1040
1.5
1070
   172
1070
     1
1070
   178
1070
     1
1070
   179
1070
     2
1070
   271
1070
     2
1070
   272
1070
     2
1070
   284
1070
     8
1070
   285
1070
     8
1070
   286
1070
     8
1002
}
  0
LINE
  5
D69
330
1E
100
AcDbEntity
  8
STEMPEL
100
AcDbLine
 10
169.4173264678591
 20
412.8030012347803
 30
0.0
 11
169.4173264678592
 21
247.4432522357023
 31
0.0
  0
LINE
  5
110E
102
{ACAD_REACTORS
330
16B9
102
}
330
1E
100
AcDbEntity
  8
STEMPEL
100
AcDbLine
 10
242.4173264678593
 20
412.8030012347803
 30
0.0
 11
242.4173264678592
 21
391.4199116385894
 31
0.0
  0
TEXT
  5
11BC
330
1E
100
AcDbEntity
  8
TEXT
 62
     1
100
AcDbText
 10
279.6644448802378
 20
426.456468377679
 30
0.0
 40
7.0
  1
DN50
 50
315.0
 41
0.8
  7
GREEKS
100
AcDbText
  0
DIMENSION
  5
1209
330
1E
100
AcDbEntity
  8
BEM
100
AcDbDimension
  2
*D5
 10
153.2050708516767
 20
317.4432522357022
 30
0.0
 11
146.7050708516767
 21
279.9432522357022
 31
0.0
 70
    32
 71
     5
 42
75.0000000000002
  3
Standard
100
AcDbAlignedDimension
 13
169.8547697854888
 23
242.4432522357021
 33
0.0
 14
205.9173264678592
 24
317.4432522357022
 34
0.0
 50
90.0
100
AcDbRotatedDimension
1001
ACAD
1000
DSTYLE
1002
{
1070
    40
1040
2.0
1070
    41
1040
3.5
1070
    42
1040
1.0
1070
    43
1040
7.0
1070
    44
1040
1.0
1070
    73
1070
     0
1070
    74
1070
     0
1070
    77
1070
     1
1070
    78
1070
     8
1070
    79
1070
     2
1070
   140
1040
3.5
1070
   141
1040
1.5
1070
   146
1040
0.5142857142857144
1070
   147
1040
1.5
1070
   172
1070
     1
1070
   178
1070
     1
1070
   179
1070
     2
1070
   271
1070
     2
1070
   272
1070
     2
1070
   284
1070
     8
1070
   285
1070
     8
1070
   286
1070
     8
1002
}
  0
LINE
  5
13A5
330
1E
100
AcDbEntity
  8
HILF
100
AcDbLine
 10
271.9458197496503
 20
423.1623262313945
 30
0.0
 11
311.6364004635514
 21
383.4717455174935
 31
0.0
  0
LINE
  5
13A6
330
1E
100
AcDbEntity
  8
HILF
100
AcDbLine
 10
263.2443618867359
 20
413.7626920730635
 30
0.0
 11
302.2367663052202
 21
374.7702876545791
 31
0.0
  0
LINE
  5
13A7
330
1E
100
AcDbEntity
  8
HILF
100
AcDbLine
 10
261.3037277099669
 20
409.2899455798026
 30
0.0
 11
297.7640198119594
 21
372.8296534778099
 31
0.0
  0
LINE
  5
13A8
330
1E
100
AcDbEntity
  8
STEMPEL
100
AcDbLine
 10
328.258992091752
 20
398.748339593535
 30
0.0
 11
287.2224138256919
 21
439.7849178595953
 31
0.0
  0
LINE
  5
13BD
330
1E
100
AcDbEntity
  8
MITTEL
100
AcDbLine
 10
311.2762368646546
 20
422.8021626324978
 30
0.0
 11
222.7851956173533
 21
334.3111213851963
 31
0.0
  0
ARC
  5
13DC
330
1E
100
AcDbEntity
  8
STEMPEL
100
AcDbCircle
 10
272.2787279438769
 20
408.4119696970118
 30
0.0
 40
11.5
100
AcDbArc
 50
135.0
 51
163.7266053481421
  0
ARC
  5
13DF
330
1E
100
AcDbEntity
  8
STEMPEL
100
AcDbCircle
 10
262.5565796409016
 20
429.8025197662446
 30
0.0
 40
10.5
100
AcDbArc
 50
315.0
 51
334.4630994446876
  0
LINE
  5
13E5
330
1E
100
AcDbEntity
  8
STEMPEL
100
AcDbLine
 10
280.0601515252123
 20
435.285276370384
 30
0.0
 11
276.7852415715745
 21
432.0103664167462
 31
0.0
  0
LINE
  5
13E7
330
1E
100
AcDbEntity
  8
STEMPEL
100
AcDbLine
 10
269.9812008433603
 20
422.3778985637858
 30
0.0
 11
264.1469999602316
 21
416.5436976806571
 31
0.0
  0
ARC
  5
13E8
330
1E
100
AcDbEntity
  8
STEMPEL
100
AcDbCircle
 10
294.1373827022552
 20
414.7142752692861
 30
0.0
 40
24.5000320571282
100
AcDbArc
 50
134.9053619552029
 51
154.4630994446876
  0
ARC
  5
13E9
330
1E
100
AcDbEntity
  8
STEMPEL
100
AcDbCircle
 10
293.4951803677566
 20
421.8502475278395
 30
0.0
 40
19.0
100
AcDbArc
 50
109.2776135078173
 51
135.0
  0
LINE
  5
13ED
102
{ACAD_REACTORS
330
16B9
102
}
330
1E
100
AcDbEntity
  8
STEMPEL
100
AcDbLine
 10
259.216839624767
 20
408.2194247954971
 30
0.0
 11
242.4173264678592
 21
391.4199116385894
 31
0.0
  0
ARC
  5
13EF
330
1E
100
AcDbEntity
  8
STEMPEL
100
AcDbCircle
 10
253.5599853752746
 20
413.8762790449895
 30
0.0
 40
8.0
100
AcDbArc
 50
315.0
 51
343.7266053481408
  0
LINE
  5
1419
330
1E
100
AcDbEntity
  8
STEMPEL
100
AcDbLine
 10
323.7593506025409
 20
391.5860772930555
 30
0.0
 11
320.484440648903
 21
388.3111673394176
 31
0.0
  0
ARC
  5
1424
330
1E
100
AcDbEntity
  8
STEMPEL
100
AcDbCircle
 10
296.8860439291688
 20
383.8046537117201
 30
0.0
 40
11.5
100
AcDbArc
 50
286.2733946518592
 51
315.0
  0
LINE
  5
1425
102
{ACAD_REACTORS
330
16C5
102
}
330
1E
100
AcDbEntity
  8
STEMPEL
100
AcDbLine
 10
296.6934990276541
 20
370.7427653926101
 30
0.0
 11
242.4173264678592
 21
316.4665928328152
 31
0.0
  0
ARC
  5
1428
330
1E
100
AcDbEntity
  8
STEMPEL
100
AcDbCircle
 10
302.3503532771465
 20
365.0859111431177
 30
0.0
 40
8.0
100
AcDbArc
 50
106.2733946518592
 51
135.0
  0
ARC
  5
142F
330
1E
100
AcDbEntity
  8
STEMPEL
100
AcDbCircle
 10
318.2765939984015
 20
374.0825054087447
 30
0.0
 40
10.5
100
AcDbArc
 50
115.5369005553123
 51
135.0
  0
LINE
  5
1430
330
1E
100
AcDbEntity
  8
STEMPEL
100
AcDbLine
 10
310.8519727959428
 20
381.5071266112034
 30
0.0
 11
305.0177719128141
 21
375.6729257280748
 31
0.0
  0
ARC
  5
1431
330
1E
100
AcDbEntity
  8
STEMPEL
100
AcDbCircle
 10
303.188349501443
 20
405.6633084700983
 30
0.0
 40
24.5000320571282
100
AcDbArc
 50
295.5369005553123
 51
315.094638044797
  0
ARC
  5
1435
330
1E
100
AcDbEntity
  8
STEMPEL
100
AcDbCircle
 10
310.3243217599966
 20
405.0211061355999
 30
0.0
 40
19.0
100
AcDbArc
 50
315.0
 51
340.7223864921884
  0
LINE
  5
1595
102
{ACAD_REACTORS
330
16C5
102
}
330
1E
100
AcDbEntity
  8
STEMPEL
100
AcDbLine
 10
242.4173264678592
 20
316.4665928328152
 30
0.0
 11
242.4173264678592
 21
247.4432522357026
 31
0.0
  0
DIMENSION
  5
1596
330
1E
100
AcDbEntity
  8
BEM
100
AcDbDimension
  2
*D6
 10
205.9173264678593
 20
237.4432522357023
 30
0.0
 11
278.9490002402558
 21
493.7573095398295
 31
0.0
 70
    34
 71
     5
 42
0.7853981633974483
  3
Standard
100
AcDb2LineAngularDimension
 13
311.2762368646546
 23
422.8021626324978
 33
0.0
 14
205.9173264678592
 24
317.4432522357022
 34
0.0
 15
205.9173264678592
 25
477.4465451400321
 35
0.0
 16
298.0878066818059
 26
477.0872069242799
 36
0.0
1001
ACAD
1000
DSTYLE
1002
{
1070
    40
1040
2.0
1070
    41
1040
3.5
1070
    42
1040
1.0
1070
    43
1040
7.0
1070
    44
1040
1.0
1070
    73
1070
     0
1070
    74
1070
     0
1070
    77
1070
     1
1070
    78
1070
     8
1070
    79
1070
     2
1070
   140
1040
3.5
1070
   141
1040
1.5
1070
   146
1040
0.5142857142857144
1070
   147
1040
1.5
1070
   172
1070
     1
1070
   178
1070
     1
1070
   179
1070
     2
1070
   271
1070
     2
1070
   272
1070
     2
1070
   284
1070
     8
1070
   285
1070
     8
1070
   286
1070
     8
1002
}
  0
DIMENSION
  5
15C0
330
1E
100
AcDbEntity
  8
BEM
100
AcDbDimension
  2
*D7
 10
232.33444787352
 20
306.383714238476
 30
0.0
 11
218.192312249789
 21
329.7182380176321
 31
0.0
 70
    32
 71
     5
 42
53.00000000000014
 51
45.00000000000009
  3
Standard
100
AcDbAlignedDimension
 13
242.4173264678592
 23
391.4199116385894
 33
0.0
 14
242.4173264678592
 24
316.4665928328152
 34
0.0
 50
314.9999999999999
100
AcDbRotatedDimension
1001
ACAD
1000
DSTYLE
1002
{
1070
    40
1040
2.0
1070
    41
1040
3.5
1070
    42
1040
1.0
1070
    43
1040
7.0
1070
    44
1040
1.0
1070
    73
1070
     0
1070
    74
1070
     0
1070
    77
1070
     1
1070
    78
1070
     8
1070
    79
1070
     2
1070
   140
1040
3.5
1070
   141
1040
1.5
1070
   146
1040
0.5142857142857144
1070
   147
1040
1.5
1070
   172
1070
     1
1070
   178
1070
     1
1070
   179
1070
     2
1070
   271
1070
     2
1070
   272
1070
     2
1070
   284
1070
     8
1070
   285
1070
     8
1070
   286
1070
     8
1002
}
  0
ELLIPSE
  5
15D4
330
1E
100
AcDbEntity
  8
STEMPEL
100
AcDbEllipse
 10
242.4173264678592
 20
342.5430530317245
 30
0.0
 11
0.0
 21
-26.07646019890928
 31
0.0
210
0.0
220
0.0
230
1.0
 40
0.4371835409030921
 41
4.712388980384689
 42
6.283185307179586
  0
ARC
  5
15D6
330
1E
100
AcDbEntity
  8
STEMPEL
100
AcDbCircle
 10
337.2860402871109
 20
343.5244816319902
 30
0.0
 40
106.2734448356508
100
AcDbArc
 50
153.2126107997862
 51
180.5291304529042
  0
ARC
  5
15D7
330
1E
100
AcDbEntity
  8
SCHRAFF
100
AcDbCircle
 10
231.0234455399991
 20
345.0430450475892
 30
0.0
 40
5.0
100
AcDbArc
 50
246.7884519562332
 51
293.9651732528627
  0
ARC
  5
15D8
330
1E
100
AcDbEntity
  8
SCHRAFF
100
AcDbCircle
 10
231.0696315892542
 20
340.0432583672543
 30
0.0
 40
5.0
100
AcDbArc
 50
251.0867474492322
 51
298.2865749575757
  0
ARC
  5
15D9
330
1E
100
AcDbEntity
  8
SCHRAFF
100
AcDbCircle
 10
231.496413105708
 20
335.0615059108176
 30
0.0
 40
5.0
100
AcDbArc
 50
256.4260024499372
 51
303.6385243673164
  0
ARC
  5
15DA
330
1E
100
AcDbEntity
  8
SCHRAFF
100
AcDbCircle
 10
232.3888416913121
 20
330.1417933969001
 30
0.0
 40
5.0
100
AcDbArc
 50
262.945805579358
 51
310.2104635608065
  0
ARC
  5
15DB
330
1E
100
AcDbEntity
  8
SCHRAFF
100
AcDbCircle
 10
233.843028631462
 20
325.3579309048234
 30
0.0
 40
5.0
100
AcDbArc
 50
272.2004220804477
 51
319.6304880667307
  0
ARC
  5
15DC
330
1E
100
AcDbEntity
  8
SCHRAFF
100
AcDbCircle
 10
236.0704950554339
 20
320.8815045030966
 30
0.0
 40
5.0
100
AcDbArc
 50
288.8431563254899
 51
337.3788884318194
  0
ARC
  5
15DE
330
1E
100
AcDbEntity
  8
SCHRAFF
100
AcDbCircle
 10
231.2124809074731
 20
350.0394703327149
 30
0.0
 40
5.0
100
AcDbArc
 50
244.1368067610905
 51
291.3047929838673
  0
ARC
  5
15DF
330
1E
100
AcDbEntity
  8
SCHRAFF
100
AcDbCircle
 10
231.6363160270604
 20
355.0214743262304
 30
0.0
 40
5.0
100
AcDbArc
 50
241.4408809165148
 51
288.6088671392913
  0
ARC
  5
15E0
330
1E
100
AcDbEntity
  8
SCHRAFF
100
AcDbCircle
 10
232.2940127160357
 20
359.9780290838529
 30
0.0
 40
5.0
100
AcDbArc
 50
238.7449550719388
 51
285.9129412947154
  0
ARC
  5
15E1
330
1E
100
AcDbEntity
  8
SCHRAFF
100
AcDbCircle
 10
233.1841151260194
 20
364.8981629946058
 30
0.0
 40
5.0
100
AcDbArc
 50
236.0490292273631
 51
283.2170154501397
  0
ARC
  5
15E2
330
1E
100
AcDbEntity
  8
SCHRAFF
100
AcDbCircle
 10
234.3046529655795
 20
369.7709850670926
 30
0.0
 40
5.0
100
AcDbArc
 50
233.3531033827873
 51
280.5210896055642
  0
ARC
  5
15E3
330
1E
100
AcDbEntity
  8
SCHRAFF
100
AcDbCircle
 10
235.6531458615815
 20
374.5857090373148
 30
0.0
 40
5.0
100
AcDbArc
 50
230.6571775382111
 51
277.8251637609878
  0
ARC
  5
15E4
330
1E
100
AcDbEntity
  8
SCHRAFF
100
AcDbCircle
 10
237.226608849633
 20
379.3316772446706
 30
0.0
 40
5.0
100
AcDbArc
 50
227.9612516936352
 51
275.1292379164121
  0
ARC
  5
15E5
330
1E
100
AcDbEntity
  8
SCHRAFF
100
AcDbCircle
 10
239.0215589814696
 20
383.998384223282
 30
0.0
 40
5.0
100
AcDbArc
 50
225.2653258490592
 51
272.4333120718359
  0
ARC
  5
15E6
330
1E
100
AcDbEntity
  8
SCHRAFF
100
AcDbCircle
 10
241.0340230346551
 20
388.5754999564305
 30
0.0
 40
5.0
100
AcDbArc
 50
222.5694000044835
 51
269.7373862272603
  0
ARC
  5
15E7
330
1E
100
AcDbEntity
  8
SCHRAFF
100
AcDbCircle
 10
243.762701581047
 20
392.7652867517771
 30
0.0
 40
5.0
100
AcDbArc
 50
212.3331852135258
 51
260.0452478327099
  0
LINE
  5
165A
330
1E
100
AcDbEntity
  8
MITTEL
100
AcDbLine
 10
210.7992822556475
 20
322.3252080234904
 30
0.0
 11
205.9173264678592
 21
317.4432522357022
 31
0.0
  0
ARC
  5
16B3
102
{ACAD_REACTORS
330
16B9
102
}
330
1E
100
AcDbEntity
  8
SCHRAFF
100
AcDbCircle
 10
242.2894185559124
 20
390.9163657733771
 30
0.0
 40
4.792827771730916
100
AcDbArc
 50
48.1769314025787
 51
88.47074544085606
  0
HATCH
  5
16B9
330
1E
100
AcDbEntity
  8
SCHRAFF
100
AcDbHatch
 10
0.0
 20
0.0
 30
0.0
210
0.0
220
0.0
230
1.0
  2
_USER
 70
     0
 71
     1
 91
        1
 92
        7
 72
     1
 73
     1
 93
        3
 10
242.4173264678592
 20
395.7074864789674
 42
0.0
 10
242.4173264678592
 20
391.4199116385894
 42
0.0
 10
245.4854321780874
 20
394.4880173488176
 42
0.1776491449975142
 97
        3
330
110E
330
13ED
330
16B3
 75
     0
 76
     0
 52
0.0
 41
0.1
 77
     0
 78
     1
 53
0.0
 43
0.0
 44
0.0
 45
0.0
 46
0.1
 79
     0
 47
0.044988979714871
 98
        1
 10
243.7819986113668
 20
394.7106455697567
  0
ARC
  5
16BB
102
{ACAD_REACTORS
330
16C5
102
}
330
1E
100
AcDbEntity
  8
SCHRAFF
100
AcDbCircle
 10
240.472934149054
 20
317.2719865018384
 30
0.0
 40
3.413340757619125
100
AcDbArc
 50
304.7254706173832
 51
10.27452938261606
  0
HATCH
  5
16C5
330
1E
100
AcDbEntity
  8
SCHRAFF
100
AcDbHatch
 10
0.0
 20
0.0
 30
0.0
210
0.0
220
0.0
230
1.0
  2
_USER
 70
     0
 71
     1
 91
        1
 92
        7
 72
     1
 73
     1
 93
        3
 10
243.8315400302323
 20
317.8808063951884
 42
0.0
 10
242.4173264678593
 20
316.4665928328153
 42
0.0
 10
242.4173264678593
 20
314.4665928328152
 42
0.2940744943384406
 97
        3
330
1425
330
1595
330
16BB
 75
     0
 76
     0
 52
0.0
 41
0.1
 77
     0
 78
     1
 53
0.0
 43
0.0
 44
0.0
 45
0.0
 46
0.1
 79
     0
 47
0.0610386199865355
 98
        1
 10
243.1628184091278
 20
316.302296719653
  0
TEXT
  5
16DD
330
1E
100
AcDbEntity
  8
TEXT
100
AcDbText
 10
41.85509950977674
 20
111.6719999999999
 30
0.0
 40
5.0
  1
Erstellt mit AUTOCAD 2004
 41
0.8
  7
GREEKS
100
AcDbText
  0
TEXT
  5
16DE
330
1E
100
AcDbEntity
  8
TEXT
100
AcDbText
 10
66.99867878482315
 20
18.67381894984132
 30
0.0
 40
4.0
  1
Änderung
 41
0.8
  7
GREEKS
 72
     1
 11
77.7415359276803
 21
18.67381894984132
 31
0.0
100
AcDbText
  0
TEXT
  5
16DF
330
1E
100
AcDbEntity
  8
TEXT
100
AcDbText
 10
110.3496319666763
 20
18.6715626933981
 30
0.0
 40
4.0
  1
Tag
 41
0.8
  7
GREEKS
 72
     1
 11
114.0829653000096
 21
18.6715626933981
 31
0.0
100
AcDbText
  0
TEXT
  5
16E0
330
1E
100
AcDbEntity
  8
TEXT
100
AcDbText
 10
129.2391668299012
 20
18.59324216966408
 30
0.0
 40
4.0
  1
Name
 41
0.8
  7
GREEKS
 72
     1
 11
135.5629763537107
 21
18.59324216966408
 31
0.0
100
AcDbText
  0
TEXT
  5
16E1
330
1E
100
AcDbEntity
  8
TEXT
100
AcDbText
 10
192.6882715247924
 20
89.00646370679282
 30
0.0
 40
4.0
  1
DIN EN1124-3
 41
0.8
  7
GREEKS
 72
     1
 11
209.6787477152686
 21
89.00646370679282
 31
0.0
100
AcDbText
  0
TEXT
  5
16E2
330
1E
100
AcDbEntity
  8
BEM
100
AcDbText
 10
416.5811541437437
 20
12.14804815338303
 30
0.0
 40
4.0
  1
Diese Zeichnung ist urheberrechtlich geschützt und bleibt unser Eigentum. Sie darf weder ganz noch teilweise vervielfältigt und nicht an Dritte weitergegeben werden.
 50
90.0
 41
0.8
  7
GREEKS
100
AcDbText
  0
DIMENSION
  5
16F5
330
1E
100
AcDbEntity
  8
BEM
100
AcDbDimension
  2
*D8
 10
343.6985520805288
 20
383.3087796047583
 30
0.0
 11
288.1906697573845
 21
336.9932854370396
 31
0.0
 70
    32
 71
     5
 42
144.0000000000003
 51
45.00000000000009
  3
Standard
100
AcDbAlignedDimension
 13
205.9173264678591
 23
317.4432522357021
 33
0.0
 14
328.2589920917521
 24
398.7483395935351
 34
0.0
 50
45.00000000000057
100
AcDbRotatedDimension
1001
ACAD
1000
DSTYLE
1002
{
1070
    40
1040
2.0
1070
    41
1040
3.5
1070
    42
1040
1.0
1070
    43
1040
7.0
1070
    44
1040
1.0
1070
    73
1070
     0
1070
    74
1070
     0
1070
    77
1070
     1
1070
    78
1070
     8
1070
    79
1070
     2
1070
   140
1040
3.5
1070
   141
1040
1.5
1070
   146
1040
0.5142857142857144
1070
   147
1040
1.5
1070
   172
1070
     1
1070
   178
1070
     1
1070
   179
1070
     2
1070
   271
1070
     2
1070
   272
1070
     2
1070
   284
1070
     8
1070
   285
1070
     8
1070
   286
1070
     8
1002
}
  0
TEXT
  5
174B
330
1E
100
AcDbEntity
  8
TEXT
100
AcDbText
 10
170.398997108236
 20
63.10765040825732
 30
0.0
 40
4.0
  1
08.04.
 41
0.8
  7
GREEKS
 72
     1
 11
177.4085209177598
 21
63.10765040825732
 31
0.0
100
AcDbText
  0
ENDSEC
  0
SECTION
  2
OBJECTS
  0
DICTIONARY
  5
C
330
0
100
AcDbDictionary
281
     1
  3
ACAD_COLOR
350
16D1
  3
ACAD_GROUP
350
D
  3
ACAD_LAYOUT
350
19
  3
ACAD_MATERIAL
350
16D0
  3
ACAD_MLINESTYLE
350
16
  3
ACAD_PLOTSETTINGS
350
18
  3
ACAD_PLOTSTYLENAME
350
E
  3
AcDbVariableDictionary
350
246
  0
DICTIONARY
  5
16D1
102
{ACAD_REACTORS
330
C
102
}
330
C
100
AcDbDictionary
281
     1
  0
DICTIONARY
  5
D
102
{ACAD_REACTORS
330
C
102
}
330
C
100
AcDbDictionary
281
     1
  0
DICTIONARY
  5
19
102
{ACAD_REACTORS
330
C
102
}
330
C
100
AcDbDictionary
281
     1
  3
Layout1
350
1D
  3
Model
350
21
  0
DICTIONARY
  5
16D0
102
{ACAD_REACTORS
330
C
102
}
330
C
100
AcDbDictionary
281
     1
  0
DICTIONARY
  5
16
102
{ACAD_REACTORS
330
C
102
}
330
C
100
AcDbDictionary
281
     1
  3
Standard
350
17
  0
DICTIONARY
  5
18
102
{ACAD_REACTORS
330
C
102
}
330
C
100
AcDbDictionary
281
     1
  0
ACDBDICTIONARYWDFLT
  5
E
102
{ACAD_REACTORS
330
C
102
}
330
C
100
AcDbDictionary
281
     1
  3
Normal
350
F
100
AcDbDictionaryWithDefault
340
F
  0
DICTIONARY
  5
246
102
{ACAD_REACTORS
330
C
102
}
330
C
100
AcDbDictionary
281
     1
  3
DIMASSOC
350
171C
  3
PROJECTNAME
350
171D
  3
SORTENTS
350
247
  0
LAYOUT
  5
1D
102
{ACAD_REACTORS
330
19
102
}
330
19
100
AcDbPlotSettings
  1

  2
Tektronix Phaser 740
  4

  6

 40
0.0
 41
0.0
 42
0.0
 43
0.0
 44
0.0
 45
0.0
 46
0.0
 47
0.0
 48
0.0
 49
0.0
140
0.0
141
0.0
142
1.0
143
1.0
 70
   688
 72
     0
 73
     0
 74
     5
  7
monochrome.ctb
 75
    16
147
1.0
 76
     0
 77
     2
 78
   300
148
0.0
149
0.0
100
AcDbLayout
  1
Layout1
 70
     0
 71
     1
 10
0.0
 20
0.0
 11
12.0
 21
9.0
 12
0.0
 22
0.0
 32
0.0
 14
1.000000000000000E+20
 24
1.000000000000000E+20
 34
1.000000000000000E+20
 15
-1.000000000000000E+20
 25
-1.000000000000000E+20
 35
-1.000000000000000E+20
146
0.0
 13
0.0
 23
0.0
 33
0.0
 16
1.0
 26
0.0
 36
0.0
 17
0.0
 27
1.0
 37
0.0
 76
     0
330
1A
  0
LAYOUT
  5
21
102
{ACAD_REACTORS
330
19
102
}
330
19
100
AcDbPlotSettings
  1

  2
Tektronix Phaser 740
  4
A4
  6

 40
5.873749732971191
 41
6.085414409637451
 42
5.577407836914062
 43
5.662078857421875
 44
209.9733276367187
 45
296.9683227539062
 46
0.0
 47
0.0
 48
0.0
 49
0.0
140
0.0
141
0.0
142
1.0
143
1.0
 70
 11952
 72
     0
 73
     1
 74
     0
  7
monochrome.ctb
 75
     0
147
1.0
 76
     0
 77
     2
 78
   300
148
1150.120678237584
149
45.30495740799864
100
AcDbLayout
  1
Model
 70
     1
 71
     0
 10
0.0
 20
0.0
 11
12.0
 21
9.0
 12
0.0
 22
0.0
 32
0.0
 14
0.0
 24
0.0
 34
0.0
 15
0.0
 25
0.0
 35
0.0
146
0.0
 13
0.0
 23
0.0
 33
0.0
 16
1.0
 26
0.0
 36
0.0
 17
0.0
 27
1.0
 37
0.0
 76
     0
330
1E
  0
MLINESTYLE
  5
17
102
{ACAD_REACTORS
330
16
102
}
330
16
100
AcDbMlineStyle
  2
STANDARD
 70
     0
  3

 62
   256
 51
90.0
 52
90.0
 71
     2
 49
0.5
 62
   256
  6
BYLAYER
 49
-0.5
 62
   256
  6
BYLAYER
  0
ACDBPLACEHOLDER
  5
F
102
{ACAD_REACTORS
330
E
102
}
330
E
  0
DICTIONARYVAR
  5
171C
102
{ACAD_REACTORS
330
246
102
}
330
246
100
DictionaryVariables
280
     0
  1
1
  0
DICTIONARYVAR
  5
171D
102
{ACAD_REACTORS
330
246
102
}
330
246
100
DictionaryVariables
280
     0
  1

  0
DICTIONARYVAR
  5
247
102
{ACAD_REACTORS
330
246
102
}
330
246
100
DictionaryVariables
280
     0
  1
96
  0
ENDSEC
  0
EOF
