  0
SECTION
  2
HEADER
  9
$ACADVER
  1
AC1018
  9
$ACADMAINTVER
 70
     2
  9
$DWGCODEPAGE
  3
ANSI_1252
  9
$INSBASE
 10
0.0
 20
0.0
 30
0.0
  9
$EXTMIN
 10
-0.0063971522074553
 20
-0.0090483683025013
 30
-0.0000000000000023
  9
$EXTMAX
 10
431.992129490587
 20
594.0090698065175
 30
0.000000000000013
  9
$LIMMIN
 10
0.0
 20
0.0
  9
$LIMMAX
 10
419.9999999999999
 20
594.0
  9
$ORTHOMODE
 70
     1
  9
$REGENMODE
 70
     1
  9
$FILLMODE
 70
     1
  9
$QTEXTMODE
 70
     0
  9
$MIRRTEXT
 70
     1
  9
$LTSCALE
 40
20.0
  9
$ATTMODE
 70
     1
  9
$TEXTSIZE
 40
3.5
  9
$TRACEWID
 40
0.5
  9
$TEXTSTYLE
  7
STANDARD
  9
$CLAYER
  8
SCHRAFF
  9
$CELTYPE
  6
ByLayer
  9
$CECOLOR
 62
   256
  9
$CELTSCALE
 40
1.0
  9
$DISPSILH
 70
     0
  9
$DIMSCALE
 40
2.0
  9
$DIMASZ
 40
3.5
  9
$DIMEXO
 40
1.0
  9
$DIMDLI
 40
7.0
  9
$DIMRND
 40
0.0
  9
$DIMDLE
 40
0.0
  9
$DIMEXE
 40
1.0
  9
$DIMTP
 40
0.0
  9
$DIMTM
 40
0.0
  9
$DIMTXT
 40
3.5
  9
$DIMCEN
 40
1.5
  9
$DIMTSZ
 40
0.0
  9
$DIMTOL
 70
     0
  9
$DIMLIM
 70
     0
  9
$DIMTIH
 70
     0
  9
$DIMTOH
 70
     0
  9
$DIMSE1
 70
     0
  9
$DIMSE2
 70
     0
  9
$DIMTAD
 70
     1
  9
$DIMZIN
 70
     8
  9
$DIMBLK
  1

  9
$DIMASO
 70
     1
  9
$DIMSHO
 70
     0
  9
$DIMPOST
  1

  9
$DIMAPOST
  1

  9
$DIMALT
 70
     0
  9
$DIMALTD
 70
     2
  9
$DIMALTF
 40
25.4
  9
$DIMLFAC
 40
1.0
  9
$DIMTOFL
 70
     1
  9
$DIMTVP
 40
0.0
  9
$DIMTIX
 70
     0
  9
$DIMSOXD
 70
     0
  9
$DIMSAH
 70
     0
  9
$DIMBLK1
  1

  9
$DIMBLK2
  1

  9
$DIMSTYLE
  2
Standard
  9
$DIMCLRD
 70
     0
  9
$DIMCLRE
 70
     0
  9
$DIMCLRT
 70
     1
  9
$DIMTFAC
 40
0.5
  9
$DIMGAP
 40
1.5
  9
$DIMJUST
 70
     0
  9
$DIMSD1
 70
     0
  9
$DIMSD2
 70
     0
  9
$DIMTOLJ
 70
     1
  9
$DIMTZIN
 70
     8
  9
$DIMALTZ
 70
     8
  9
$DIMALTTZ
 70
     8
  9
$DIMUPT
 70
     0
  9
$DIMDEC
 70
     2
  9
$DIMTDEC
 70
     2
  9
$DIMALTU
 70
     2
  9
$DIMALTTD
 70
     2
  9
$DIMTXSTY
  7
STANDARD
  9
$DIMAUNIT
 70
     0
  9
$DIMADEC
 70
     2
  9
$DIMALTRND
 40
0.0
  9
$DIMAZIN
 70
     2
  9
$DIMDSEP
 70
    46
  9
$DIMATFIT
 70
     3
  9
$DIMFRAC
 70
     0
  9
$DIMLDRBLK
  1

  9
$DIMLUNIT
 70
     2
  9
$DIMLWD
 70
    -2
  9
$DIMLWE
 70
    -2
  9
$DIMTMOVE
 70
     0
  9
$LUNITS
 70
     2
  9
$LUPREC
 70
     2
  9
$SKETCHINC
 40
1.0
  9
$FILLETRAD
 40
0.0
  9
$AUNITS
 70
     1
  9
$AUPREC
 70
     3
  9
$MENU
  1
ACAD
  9
$ELEVATION
 40
0.0
  9
$PELEVATION
 40
0.0
  9
$THICKNESS
 40
0.0
  9
$LIMCHECK
 70
     0
  9
$CHAMFERA
 40
0.0
  9
$CHAMFERB
 40
0.0
  9
$CHAMFERC
 40
0.0
  9
$CHAMFERD
 40
0.0
  9
$SKPOLY
 70
     0
  9
$TDCREATE
 40
2452040.637099653
  9
$TDUCREATE
 40
2452040.553766320
  9
$TDUPDATE
 40
2455660.352873519
  9
$TDUUPDATE
 40
2455660.269540185
  9
$TDINDWG
 40
0.4047504861
  9
$TDUSRTIMER
 40
0.4047504861
  9
$USRTIMER
 70
     1
  9
$ANGBASE
 50
0.0
  9
$ANGDIR
 70
     0
  9
$PDMODE
 70
     0
  9
$PDSIZE
 40
0.0
  9
$PLINEWID
 40
0.0
  9
$SPLFRAME
 70
     0
  9
$SPLINETYPE
 70
     6
  9
$SPLINESEGS
 70
     8
  9
$HANDSEED
  5
1EAD
  9
$SURFTAB1
 70
     6
  9
$SURFTAB2
 70
     6
  9
$SURFTYPE
 70
     6
  9
$SURFU
 70
     6
  9
$SURFV
 70
     6
  9
$UCSBASE
  2

  9
$UCSNAME
  2

  9
$UCSORG
 10
0.0
 20
0.0
 30
0.0
  9
$UCSXDIR
 10
1.0
 20
0.0
 30
0.0
  9
$UCSYDIR
 10
0.0
 20
1.0
 30
0.0
  9
$UCSORTHOREF
  2

  9
$UCSORTHOVIEW
 70
     0
  9
$UCSORGTOP
 10
0.0
 20
0.0
 30
0.0
  9
$UCSORGBOTTOM
 10
0.0
 20
0.0
 30
0.0
  9
$UCSORGLEFT
 10
0.0
 20
0.0
 30
0.0
  9
$UCSORGRIGHT
 10
0.0
 20
0.0
 30
0.0
  9
$UCSORGFRONT
 10
0.0
 20
0.0
 30
0.0
  9
$UCSORGBACK
 10
0.0
 20
0.0
 30
0.0
  9
$PUCSBASE
  2

  9
$PUCSNAME
  2

  9
$PUCSORG
 10
0.0
 20
0.0
 30
0.0
  9
$PUCSXDIR
 10
1.0
 20
0.0
 30
0.0
  9
$PUCSYDIR
 10
0.0
 20
1.0
 30
0.0
  9
$PUCSORTHOREF
  2

  9
$PUCSORTHOVIEW
 70
     0
  9
$PUCSORGTOP
 10
0.0
 20
0.0
 30
0.0
  9
$PUCSORGBOTTOM
 10
0.0
 20
0.0
 30
0.0
  9
$PUCSORGLEFT
 10
0.0
 20
0.0
 30
0.0
  9
$PUCSORGRIGHT
 10
0.0
 20
0.0
 30
0.0
  9
$PUCSORGFRONT
 10
0.0
 20
0.0
 30
0.0
  9
$PUCSORGBACK
 10
0.0
 20
0.0
 30
0.0
  9
$USERI1
 70
     0
  9
$USERI2
 70
     0
  9
$USERI3
 70
     0
  9
$USERI4
 70
     0
  9
$USERI5
 70
     0
  9
$USERR1
 40
0.0
  9
$USERR2
 40
0.0
  9
$USERR3
 40
0.0
  9
$USERR4
 40
0.0
  9
$USERR5
 40
0.0
  9
$WORLDVIEW
 70
     1
  9
$SHADEDGE
 70
     3
  9
$SHADEDIF
 70
    70
  9
$TILEMODE
 70
     1
  9
$MAXACTVP
 70
    16
  9
$PINSBASE
 10
0.0
 20
0.0
 30
0.0
  9
$PLIMCHECK
 70
     0
  9
$PEXTMIN
 10
1.000000000000000E+20
 20
1.000000000000000E+20
 30
1.000000000000000E+20
  9
$PEXTMAX
 10
-1.000000000000000E+20
 20
-1.000000000000000E+20
 30
-1.000000000000000E+20
  9
$PLIMMIN
 10
0.0
 20
0.0
  9
$PLIMMAX
 10
12.0
 20
9.0
  9
$UNITMODE
 70
     0
  9
$VISRETAIN
 70
     0
  9
$PLINEGEN
 70
     0
  9
$PSLTSCALE
 70
     0
  9
$TREEDEPTH
 70
  3020
  9
$CMLSTYLE
  2
Standard
  9
$CMLJUST
 70
     0
  9
$CMLSCALE
 40
1.0
  9
$PROXYGRAPHICS
 70
     1
  9
$MEASUREMENT
 70
     0
  9
$CELWEIGHT
370
    -1
  9
$ENDCAPS
280
     0
  9
$JOINSTYLE
280
     0
  9
$LWDISPLAY
290
     0
  9
$INSUNITS
 70
     0
  9
$HYPERLINKBASE
  1

  9
$STYLESHEET
  1
monochrome 1.ctb
  9
$XEDIT
290
     1
  9
$CEPSNTYPE
380
     0
  9
$PSTYLEMODE
290
     1
  9
$FINGERPRINTGUID
  2
{7AADB5C8-6110-11D8-B72B-000102183313}
  9
$VERSIONGUID
  2
{B099ABF2-57B6-4E21-B0EF-575B0DE19753}
  9
$EXTNAMES
290
     1
  9
$PSVPSCALE
 40
0.0
  9
$OLESTARTUP
290
     0
  9
$SORTENTS
280
    96
  9
$INDEXCTL
280
     0
  9
$HIDETEXT
280
     0
  9
$XCLIPFRAME
290
     0
  9
$HALOGAP
280
     0
  9
$OBSCOLOR
 70
   257
  9
$OBSLTYPE
280
     0
  9
$INTERSECTIONDISPLAY
280
     0
  9
$INTERSECTIONCOLOR
 70
   257
  9
$DIMASSOC
280
     1
  9
$PROJECTNAME
  1

  0
ENDSEC
  0
SECTION
  2
CLASSES
  0
CLASS
  1
ACDBDICTIONARYWDFLT
  2
AcDbDictionaryWithDefault
  3
ObjectDBX Classes
 90
        0
 91
        1
280
     0
281
     0
  0
CLASS
  1
DICTIONARYVAR
  2
AcDbDictionaryVar
  3
ObjectDBX Classes
 90
        0
 91
        3
280
     0
281
     0
  0
ENDSEC
  0
SECTION
  2
TABLES
  0
TABLE
  2
VPORT
  5
8
330
0
100
AcDbSymbolTable
 70
     3
  0
VPORT
  5
1EAC
330
8
100
AcDbSymbolTableRecord
100
AcDbViewportTableRecord
  2
*Active
 70
     0
 10
0.0
 20
0.0
 11
1.0
 21
1.0
 12
210.0
 22
297.0
 13
0.0
 23
0.0
 14
1.0
 24
1.0
 15
10.0
 25
10.0
 16
0.0
 26
0.0
 36
1.0
 17
0.0
 27
0.0
 37
0.0
 40
594.0
 41
1.334231805929919
 42
50.0
 43
0.0
 44
0.0
 50
0.0
 51
0.0
 71
     0
 72
  1500
 73
     1
 74
     0
 75
     0
 76
     0
 77
     0
 78
     0
281
     0
 65
     1
110
0.0
120
0.0
130
0.0
111
1.0
121
0.0
131
0.0
112
0.0
122
1.0
132
0.0
 79
     0
146
0.0
  0
ENDTAB
  0
TABLE
  2
LTYPE
  5
5
330
0
100
AcDbSymbolTable
 70
     2
  0
LTYPE
  5
13
330
5
100
AcDbSymbolTableRecord
100
AcDbLinetypeTableRecord
  2
ByBlock
 70
     0
  3

 72
    65
 73
     0
 40
0.0
  0
LTYPE
  5
14
330
5
100
AcDbSymbolTableRecord
100
AcDbLinetypeTableRecord
  2
ByLayer
 70
     0
  3

 72
    65
 73
     0
 40
0.0
  0
LTYPE
  5
15
330
5
100
AcDbSymbolTableRecord
100
AcDbLinetypeTableRecord
  2
Continuous
 70
     0
  3
Solid line
 72
    65
 73
     0
 40
0.0
  0
LTYPE
  5
35
330
5
100
AcDbSymbolTableRecord
100
AcDbLinetypeTableRecord
  2
STRICHPUNKT
 70
     0
  3
__ . __ . __ . __ . __ . __ . __ . __ . __ . __
 72
    65
 73
     4
 40
1.0
 49
0.5
 74
     0
 49
-0.25
 74
     0
 49
0.0
 74
     0
 49
-0.25
 74
     0
  0
ENDTAB
  0
TABLE
  2
LAYER
  5
2
330
0
100
AcDbSymbolTable
 70
     9
  0
LAYER
  5
10
330
2
100
AcDbSymbolTableRecord
100
AcDbLayerTableRecord
  2
0
 70
     0
 62
     7
  6
Continuous
370
    -3
390
F
  0
LAYER
  5
38
330
2
100
AcDbSymbolTableRecord
100
AcDbLayerTableRecord
  2
VOLL
 70
     0
 62
     1
  6
Continuous
370
    -3
390
F
  0
LAYER
  5
39
330
2
100
AcDbSymbolTableRecord
100
AcDbLayerTableRecord
  2
HILF
 70
     0
 62
     2
  6
Continuous
370
    -3
390
F
  0
LAYER
  5
3A
330
2
100
AcDbSymbolTableRecord
100
AcDbLayerTableRecord
  2
MITTEL
 70
     0
 62
     2
  6
STRICHPUNKT
370
    -3
390
F
  0
LAYER
  5
3B
330
2
100
AcDbSymbolTableRecord
100
AcDbLayerTableRecord
  2
BEM
 70
     0
 62
     7
  6
Continuous
370
    -3
390
F
  0
LAYER
  5
3C
330
2
100
AcDbSymbolTableRecord
100
AcDbLayerTableRecord
  2
STEMPEL
 70
     0
 62
     3
  6
Continuous
370
    -3
390
F
  0
LAYER
  5
3D
330
2
100
AcDbSymbolTableRecord
100
AcDbLayerTableRecord
  2
TEXT
 70
     0
 62
     7
  6
Continuous
370
    -3
390
F
  0
LAYER
  5
3E
330
2
100
AcDbSymbolTableRecord
100
AcDbLayerTableRecord
  2
DEFPOINTS
 70
     0
 62
     7
  6
Continuous
290
     0
370
    -3
390
F
  0
LAYER
  5
3F
330
2
100
AcDbSymbolTableRecord
100
AcDbLayerTableRecord
  2
SCHRAFF
 70
     0
 62
     7
  6
Continuous
370
    -3
390
F
  0
ENDTAB
  0
TABLE
  2
STYLE
  5
3
330
0
100
AcDbSymbolTable
 70
     2
  0
STYLE
  5
11
330
3
100
AcDbSymbolTableRecord
100
AcDbTextStyleTableRecord
  2
STANDARD
 70
     0
 40
0.0
 41
0.8
 50
0.0
 71
     0
 42
3.5
  3
simplex.shx
  4

  0
STYLE
  5
34
330
3
100
AcDbSymbolTableRecord
100
AcDbTextStyleTableRecord
  2
GREEKS
 70
     0
 40
0.0
 41
0.8
 50
0.0
 71
     0
 42
2.5
  3
SIMPLEX.shx
  4

  0
ENDTAB
  0
TABLE
  2
VIEW
  5
6
330
0
100
AcDbSymbolTable
 70
     0
  0
ENDTAB
  0
TABLE
  2
UCS
  5
7
330
0
100
AcDbSymbolTable
 70
     0
  0
ENDTAB
  0
TABLE
  2
APPID
  5
9
330
0
100
AcDbSymbolTable
 70
     1
  0
APPID
  5
12
330
9
100
AcDbSymbolTableRecord
100
AcDbRegAppTableRecord
  2
ACAD
 70
     0
  0
ENDTAB
  0
TABLE
  2
DIMSTYLE
  5
A
330
0
100
AcDbSymbolTable
 70
     1
100
AcDbDimStyleTable
 71
     1
340
1CB
  0
DIMSTYLE
105
1CB
102
{ACAD_REACTORS
330
195C
330
1E8
330
DBF
330
1D45
330
1D53
330
1DF1
102
}
330
A
100
AcDbSymbolTableRecord
100
AcDbDimStyleTableRecord
  2
Standard
 70
     0
340
11
  0
ENDTAB
  0
TABLE
  2
BLOCK_RECORD
  5
1
330
0
100
AcDbSymbolTable
 70
     9
  0
BLOCK_RECORD
  5
1E
330
1
100
AcDbSymbolTableRecord
100
AcDbBlockTableRecord
  2
*Model_Space
340
21
  0
BLOCK_RECORD
  5
1A
330
1
100
AcDbSymbolTableRecord
100
AcDbBlockTableRecord
  2
*Paper_Space
340
1D
  0
BLOCK_RECORD
  5
22
330
1
100
AcDbSymbolTableRecord
100
AcDbBlockTableRecord
  2
LOGO
340
0
102
{BLKREFS
331
135
102
}
  0
BLOCK_RECORD
  5
1E9
330
1
100
AcDbSymbolTableRecord
100
AcDbBlockTableRecord
  2
*D1
340
0
  0
BLOCK_RECORD
  5
DC0
330
1
100
AcDbSymbolTableRecord
100
AcDbBlockTableRecord
  2
*D2
340
0
  0
BLOCK_RECORD
  5
195D
330
1
100
AcDbSymbolTableRecord
100
AcDbBlockTableRecord
  2
*D3
340
0
  0
BLOCK_RECORD
  5
1D46
330
1
100
AcDbSymbolTableRecord
100
AcDbBlockTableRecord
  2
*D6
340
0
  0
BLOCK_RECORD
  5
1D54
330
1
100
AcDbSymbolTableRecord
100
AcDbBlockTableRecord
  2
*D7
340
0
  0
BLOCK_RECORD
  5
1DF2
330
1
100
AcDbSymbolTableRecord
100
AcDbBlockTableRecord
  2
*D8
340
0
  0
ENDTAB
  0
ENDSEC
  0
SECTION
  2
BLOCKS
  0
BLOCK
  5
43
330
1E
100
AcDbEntity
  8
0
100
AcDbBlockBegin
  2
*Model_Space
 70
     0
 10
0.0
 20
0.0
 30
0.0
  3
*Model_Space
  1

  0
ENDBLK
  5
44
330
1E
100
AcDbEntity
  8
0
100
AcDbBlockEnd
  0
BLOCK
  5
41
330
1A
100
AcDbEntity
 67
     1
  8
0
100
AcDbBlockBegin
  2
*Paper_Space
 70
     0
 10
0.0
 20
0.0
 30
0.0
  3
*Paper_Space
  1

  0
ENDBLK
  5
42
330
1A
100
AcDbEntity
 67
     1
  8
0
100
AcDbBlockEnd
  0
BLOCK
  5
45
330
22
100
AcDbEntity
  8
0
100
AcDbBlockBegin
  2
LOGO
 70
     0
 10
0.0
 20
0.0
 30
0.0
  3
LOGO
  1

  0
ARC
  5
46
330
22
100
AcDbEntity
  8
0
100
AcDbCircle
 10
11.59973089678112
 20
-9.271599258481501
 30
0.0
 40
4.5
100
AcDbArc
 50
270.0
 51
231.0575587310159
  0
LINE
  5
47
330
22
100
AcDbEntity
  8
0
100
AcDbLine
 10
3.599730896781125
 20
-4.771599258481529
 30
0.0
 11
3.599730896781153
 21
-11.77159925848133
 31
0.0
  0
LINE
  5
48
330
22
100
AcDbEntity
  8
0
100
AcDbLine
 10
2.599730896781125
 20
-4.771599258481529
 30
0.0
 11
2.599730896781153
 21
-11.77159925848133
 31
0.0
  0
CIRCLE
  5
49
330
22
100
AcDbEntity
  8
0
100
AcDbCircle
 10
11.59973089678112
 20
-9.271599258481501
 30
0.0
 40
3.5
  0
ARC
  5
4A
330
22
100
AcDbEntity
  8
0
100
AcDbCircle
 10
31.59973089678115
 20
-9.271599258481472
 30
0.0
 40
4.5
100
AcDbArc
 50
270.0
 51
231.0575587310182
  0
LINE
  5
4B
330
22
100
AcDbEntity
  8
0
100
AcDbLine
 10
17.59973089678112
 20
-4.771599258481472
 30
0.0
 11
17.59973089678115
 21
-13.77159925848147
 31
0.0
  0
ARC
  5
4C
330
22
100
AcDbEntity
  8
0
100
AcDbCircle
 10
22.59973089678116
 20
-7.271599258481472
 30
0.0
 40
2.5
100
AcDbArc
 50
293.1161887722295
 51
90.0
  0
CIRCLE
  5
4D
330
22
100
AcDbEntity
  8
0
100
AcDbCircle
 10
31.59973089678115
 20
-9.271599258481472
 30
0.0
 40
3.5
  0
ARC
  5
4E
330
22
100
AcDbEntity
  8
0
100
AcDbCircle
 10
4.599730896781153
 20
-11.77159925848133
 30
0.0
 40
1.0
100
AcDbArc
 50
180.0
 51
270.0
  0
ARC
  5
4F
330
22
100
AcDbEntity
  8
0
100
AcDbCircle
 10
4.599730896781153
 20
-11.77159925848133
 30
0.0
 40
2.0
100
AcDbArc
 50
179.9999999999992
 51
270.0
  0
LINE
  5
50
330
22
100
AcDbEntity
  8
0
100
AcDbLine
 10
11.59973089678115
 20
-13.77159925848144
 30
0.0
 11
4.599730896781153
 21
-13.77159925848147
 31
0.0
  0
LINE
  5
51
330
22
100
AcDbEntity
  8
0
100
AcDbLine
 10
8.771303772034769
 20
-12.77159925848136
 30
0.0
 11
4.599730896781153
 21
-12.77159925848133
 31
0.0
  0
LINE
  5
52
330
22
100
AcDbEntity
  8
0
100
AcDbLine
 10
31.59973089678115
 20
-13.77159925848147
 30
0.0
 11
23.6715276665056
 21
-13.77159925848144
 31
0.0
  0
LINE
  5
53
330
22
100
AcDbEntity
  8
0
100
AcDbLine
 10
23.56565672307022
 20
-9.51278021337896
 30
0.0
 11
24.4388546544846
 21
-12.77159925848144
 31
0.0
  0
LINE
  5
54
330
22
100
AcDbEntity
  8
0
100
AcDbLine
 10
22.59973089678116
 20
-9.771599258481472
 30
0.0
 11
18.59973089678112
 21
-9.771599258481472
 31
0.0
  0
LINE
  5
55
330
22
100
AcDbEntity
  8
0
100
AcDbLine
 10
18.59973089678115
 20
-13.77159925848144
 30
0.0
 11
17.59973089678115
 21
-13.77159925848144
 31
0.0
  0
LINE
  5
56
330
22
100
AcDbEntity
  8
0
100
AcDbLine
 10
18.59973089678115
 20
-9.771599258481472
 30
0.0
 11
18.59973089678115
 21
-13.77159925848144
 31
0.0
  0
LINE
  5
57
330
22
100
AcDbEntity
  8
0
100
AcDbLine
 10
22.59973089678116
 20
-9.771599258481472
 30
0.0
 11
23.67152766650562
 21
-13.77159925848147
 31
0.0
  0
ARC
  5
58
330
22
100
AcDbEntity
  8
0
100
AcDbCircle
 10
22.59973089678116
 20
-7.271599258481472
 30
0.0
 40
2.5
100
AcDbArc
 50
270.0
 51
270.0000000000007
  0
LINE
  5
59
330
22
100
AcDbEntity
  8
0
100
AcDbLine
 10
28.77130377203494
 20
-12.77159925848147
 30
0.0
 11
24.43885465448463
 21
-12.77159925848144
 31
0.0
  0
LINE
  5
5A
330
22
100
AcDbEntity
  8
0
100
AcDbLine
 10
3.599730896781125
 20
-4.771599258481472
 30
0.0
 11
2.599730896781125
 21
-4.771599258481472
 31
0.0
  0
LINE
  5
5B
330
22
100
AcDbEntity
  8
0
100
AcDbLine
 10
22.59973089678116
 20
-8.771599258481472
 30
0.0
 11
18.59973089678115
 21
-8.771599258481472
 31
0.0
  0
LINE
  5
5C
330
22
100
AcDbEntity
  8
0
100
AcDbLine
 10
22.59973089678116
 20
-5.771599258481472
 30
0.0
 11
18.59973089678115
 21
-5.771599258481472
 31
0.0
  0
LINE
  5
5D
330
22
100
AcDbEntity
  8
0
100
AcDbLine
 10
22.59973089678116
 20
-4.771599258481472
 30
0.0
 11
17.59973089678115
 21
-4.771599258481472
 31
0.0
  0
LINE
  5
5E
330
22
100
AcDbEntity
  8
0
100
AcDbLine
 10
18.59973089678115
 20
-5.771599258481472
 30
0.0
 11
18.59973089678115
 21
-8.771599258481472
 31
0.0
  0
ARC
  5
5F
330
22
100
AcDbEntity
  8
0
100
AcDbCircle
 10
22.59973089678116
 20
-7.271599258481472
 30
0.0
 40
1.5
100
AcDbArc
 50
270.0
 51
90.0
  0
ENDBLK
  5
60
330
22
100
AcDbEntity
  8
0
100
AcDbBlockEnd
  0
BLOCK
  5
1F3
330
1E9
100
AcDbEntity
  8
0
100
AcDbBlockBegin
  2
*D1
 70
     1
 10
0.0
 20
0.0
 30
0.0
  3
*D1
  1

  0
LINE
  5
1CCA
330
1E9
100
AcDbEntity
  8
BEM
 62
     0
370
    -2
100
AcDbLine
 10
131.3023813166187
 20
192.2348170877904
 30
0.0
 11
131.3023813166187
 21
156.110874105122
 31
0.0
  0
LINE
  5
1CCB
330
1E9
100
AcDbEntity
  8
BEM
 62
     0
370
    -2
100
AcDbLine
 10
264.3023813166192
 20
192.2348170877907
 30
0.0
 11
264.3023813166192
 21
156.110874105122
 31
0.0
  0
LINE
  5
1CCC
330
1E9
100
AcDbEntity
  8
BEM
 62
     0
370
    -2
100
AcDbLine
 10
138.3023813166187
 20
158.110874105122
 30
0.0
 11
257.3023813166192
 21
158.110874105122
 31
0.0
  0
SOLID
  5
1CCD
330
1E9
100
AcDbEntity
  8
BEM
 62
     0
100
AcDbTrace
 10
138.3023813166187
 20
159.2775407717886
 30
0.0
 11
138.3023813166187
 21
156.9442074384553
 31
0.0
 12
131.3023813166187
 22
158.110874105122
 32
0.0
 13
131.3023813166187
 23
158.110874105122
 33
0.0
  0
SOLID
  5
1CCE
330
1E9
100
AcDbEntity
  8
BEM
 62
     0
100
AcDbTrace
 10
257.3023813166192
 20
159.2775407717886
 30
0.0
 11
257.3023813166192
 21
156.9442074384553
 31
0.0
 12
264.3023813166192
 22
158.110874105122
 32
0.0
 13
264.3023813166192
 23
158.110874105122
 33
0.0
  0
MTEXT
  5
1CCF
330
1E9
100
AcDbEntity
  8
BEM
 62
     1
100
AcDbMText
 10
197.8023813166189
 20
164.610874105122
 30
0.0
 40
7.0
 41
0.0
 71
     5
 72
     1
  1
\A1;%%c133
 73
     1
 44
1.0
  0
POINT
  5
1CD0
330
1E9
100
AcDbEntity
  8
DEFPOINTS
 62
     0
100
AcDbPoint
 10
131.3023813166187
 20
194.2348170877904
 30
0.0
  0
POINT
  5
1CD1
330
1E9
100
AcDbEntity
  8
DEFPOINTS
 62
     0
100
AcDbPoint
 10
264.3023813166192
 20
194.2348170877907
 30
0.0
  0
POINT
  5
1CD2
330
1E9
100
AcDbEntity
  8
DEFPOINTS
 62
     0
100
AcDbPoint
 10
264.3023813166192
 20
158.110874105122
 30
0.0
  0
ENDBLK
  5
1F4
330
1E9
100
AcDbEntity
  8
0
100
AcDbBlockEnd
  0
BLOCK
  5
DCA
330
DC0
100
AcDbEntity
  8
0
100
AcDbBlockBegin
  2
*D2
 70
     1
 10
0.0
 20
0.0
 30
0.0
  3
*D2
  1

  0
LINE
  5
1D02
330
DC0
100
AcDbEntity
  8
BEM
 62
     0
370
    -2
100
AcDbLine
 10
130.1772679518779
 20
184.2348170877904
 30
0.0
 11
103.4725126536091
 21
184.2348170877904
 31
0.0
  0
LINE
  5
1D03
330
DC0
100
AcDbEntity
  8
BEM
 62
     0
370
    -2
100
AcDbLine
 10
195.8023813166186
 20
339.2348170877906
 30
0.0
 11
103.4725126536091
 21
339.2348170877907
 31
0.0
  0
LINE
  5
1D04
330
DC0
100
AcDbEntity
  8
BEM
 62
     0
370
    -2
100
AcDbLine
 10
105.4725126536091
 20
191.2348170877904
 30
0.0
 11
105.4725126536091
 21
332.2348170877906
 31
0.0
  0
SOLID
  5
1D05
330
DC0
100
AcDbEntity
  8
BEM
 62
     0
100
AcDbTrace
 10
104.3058459869424
 20
191.2348170877904
 30
0.0
 11
106.6391793202757
 21
191.2348170877904
 31
0.0
 12
105.4725126536091
 22
184.2348170877904
 32
0.0
 13
105.4725126536091
 23
184.2348170877904
 33
0.0
  0
SOLID
  5
1D06
330
DC0
100
AcDbEntity
  8
BEM
 62
     0
100
AcDbTrace
 10
104.3058459869424
 20
332.2348170877906
 30
0.0
 11
106.6391793202758
 21
332.2348170877906
 31
0.0
 12
105.4725126536091
 22
339.2348170877907
 32
0.0
 13
105.4725126536091
 23
339.2348170877907
 33
0.0
  0
MTEXT
  5
1D07
330
DC0
100
AcDbEntity
  8
BEM
 62
     1
100
AcDbMText
 10
98.97251265360907
 20
261.7348170877905
 30
0.0
 40
7.0
 41
0.0
 71
     5
 72
     1
  1
\A1;155
 11
0.0000000000000001
 21
1.0
 31
0.0
 73
     1
 44
1.0
  0
POINT
  5
1D08
330
DC0
100
AcDbEntity
  8
DEFPOINTS
 62
     0
100
AcDbPoint
 10
132.1772679518779
 20
184.2348170877904
 30
0.0
  0
POINT
  5
1D09
330
DC0
100
AcDbEntity
  8
DEFPOINTS
 62
     0
100
AcDbPoint
 10
197.8023813166186
 20
339.2348170877906
 30
0.0
  0
POINT
  5
1D0A
330
DC0
100
AcDbEntity
  8
DEFPOINTS
 62
     0
100
AcDbPoint
 10
105.4725126536091
 20
339.2348170877907
 30
0.0
  0
ENDBLK
  5
DCB
330
DC0
100
AcDbEntity
  8
0
100
AcDbBlockEnd
  0
BLOCK
  5
1969
330
195D
100
AcDbEntity
  8
0
100
AcDbBlockBegin
  2
*D3
 70
     1
 10
0.0
 20
0.0
 30
0.0
  3
*D3
  1

  0
LINE
  5
1CD3
330
195D
100
AcDbEntity
  8
BEM
 62
     0
370
    -2
100
AcDbLine
 10
379.5529566419511
 20
348.7599611240063
 30
0.0
 11
399.8388778911764
 21
349.823101207389
 31
0.0
  0
LINE
  5
1CD4
330
195D
100
AcDbEntity
  8
BEM
 62
     0
370
    -2
100
AcDbLine
 10
197.8023813166187
 20
521.2381099921206
 30
0.0
 11
197.802381316619
 21
541.5485776398563
 31
0.0
  0
ARC
  5
1CD5
330
195D
100
AcDbEntity
  8
BEM
 62
     0
370
    -2
100
AcDbCircle
 10
197.8023813166187
 20
339.2348170877906
 30
0.0
 40
200.3137605520657
100
AcDbArc
 50
5.002313098784402
 51
87.99768690121551
  0
SOLID
  5
1CD6
330
195D
100
AcDbEntity
  8
BEM
 62
     0
100
AcDbTrace
 10
398.5170056329022
 20
356.782773833947
 30
0.0
 11
396.1893594682806
 21
356.6199617435885
 31
0.0
 12
397.8416188216672
 22
349.7184292949031
 32
0.0
 13
397.8416188216672
 23
349.7184292949031
 33
0.0
  0
SOLID
  5
1CD7
330
195D
100
AcDbEntity
  8
BEM
 62
     0
100
AcDbTrace
 10
204.7809280281641
 20
538.2597809507338
 30
0.0
 11
204.8216974023906
 21
540.5927580836198
 31
0.0
 12
197.8023813166189
 22
539.5485776398563
 32
0.0
 13
197.8023813166189
 23
539.5485776398563
 33
0.0
  0
MTEXT
  5
1CD8
330
195D
100
AcDbEntity
  8
BEM
 62
     1
100
AcDbMText
 10
340.1635797090655
 20
489.252218564931
 30
0.0
 40
7.0
 41
0.0
 71
     5
 72
     1
  1
\A1;87°
 11
0.7253743710122878
 21
-0.6883545756937539
 31
0.0
 73
     1
 44
1.0
  0
POINT
  5
1CD9
330
195D
100
AcDbEntity
  8
DEFPOINTS
 62
     0
100
AcDbPoint
 10
367.6780845867322
 20
445.3849376953275
 30
0.0
  0
POINT
  5
1CDA
330
195D
100
AcDbEntity
  8
DEFPOINTS
 62
     0
100
AcDbPoint
 10
197.8023813166186
 20
519.2381099921205
 30
0.0
  0
POINT
  5
1CDB
330
195D
100
AcDbEntity
  8
DEFPOINTS
 62
     0
100
AcDbPoint
 10
377.5556975724418
 20
348.6552892115204
 30
0.0
  0
POINT
  5
1CDC
330
195D
100
AcDbEntity
  8
DEFPOINTS
 62
     0
100
AcDbPoint
 10
197.8023813166187
 20
339.2348170877906
 30
0.0
  0
POINT
  5
1CDD
330
195D
100
AcDbEntity
  8
DEFPOINTS
 62
     0
100
AcDbPoint
 10
197.8023813166186
 20
179.2348170877907
 30
0.0
  0
ENDBLK
  5
196A
330
195D
100
AcDbEntity
  8
0
100
AcDbBlockEnd
  0
BLOCK
  5
1D50
330
1D46
100
AcDbEntity
  8
0
100
AcDbBlockBegin
  2
*D6
 70
     1
 10
0.0
 20
0.0
 30
0.0
  3
*D6
  1

  0
LINE
  5
1DCA
330
1D46
100
AcDbEntity
  8
BEM
 62
     0
370
    -2
100
AcDbLine
 10
262.3051222471094
 20
393.4849776743211
 30
0.0
 11
210.0147316279566
 21
390.7445544241287
 31
0.0
  0
LINE
  5
1DCB
330
1D46
100
AcDbEntity
  8
BEM
 62
     0
370
    -2
100
AcDbLine
 10
262.3051222471096
 20
291.7455473209323
 30
0.0
 11
215.3320647822393
 21
289.2837936930639
 31
0.0
  0
LINE
  5
1DCC
330
1D46
100
AcDbEntity
  8
BEM
 62
     0
370
    -2
100
AcDbLine
 10
212.3783423911663
 20
383.8588195933326
 30
0.0
 11
216.9629721580479
 21
296.3788723488318
 31
0.0
  0
SOLID
  5
1DCD
330
1D46
100
AcDbEntity
  8
BEM
 62
     0
100
AcDbTrace
 10
213.5434101817133
 20
383.9198782089493
 30
0.0
 11
211.2132746006194
 21
383.7977609777158
 31
0.0
 12
212.0119906974657
 22
390.8492263366146
 32
0.0
 13
212.0119906974657
 23
390.8492263366146
 33
0.0
  0
SOLID
  5
1DCE
330
1D46
100
AcDbEntity
  8
BEM
 62
     0
100
AcDbTrace
 10
218.1280399485949
 20
296.4399309644485
 30
0.0
 11
215.7979043675009
 21
296.317813733215
 31
0.0
 12
217.3293238517485
 22
289.3884656055498
 32
0.0
 13
217.3293238517485
 23
289.3884656055498
 33
0.0
  0
MTEXT
  5
1DCF
330
1D46
100
AcDbEntity
  8
BEM
 62
     1
100
AcDbMText
 10
221.1617492505118
 20
340.4590296866613
 30
0.0
 40
7.0
 41
0.0
 71
     5
 72
     1
  1
\A1;%%c101.6
 11
0.0523359562429406
 21
-0.9986295347545739
 31
0.0
 73
     1
 44
1.0
  0
POINT
  5
1DD0
330
1D46
100
AcDbEntity
  8
DEFPOINTS
 62
     0
100
AcDbPoint
 10
264.3023813166185
 20
393.589649586807
 30
0.0
  0
POINT
  5
1DD1
330
1D46
100
AcDbEntity
  8
DEFPOINTS
 62
     0
100
AcDbPoint
 10
264.3023813166187
 20
291.8502192334182
 30
0.0
  0
POINT
  5
1DD2
330
1D46
100
AcDbEntity
  8
DEFPOINTS
 62
     0
100
AcDbPoint
 10
217.3293238517485
 20
289.3884656055498
 30
0.0
  0
ENDBLK
  5
1D51
330
1D46
100
AcDbEntity
  8
0
100
AcDbBlockEnd
  0
BLOCK
  5
1D5E
330
1D54
100
AcDbEntity
  8
0
100
AcDbBlockBegin
  2
*D7
 70
     1
 10
0.0
 20
0.0
 30
0.0
  3
*D7
  1

  0
LINE
  5
1D60
330
1D54
100
AcDbEntity
  8
BEM
 62
     0
370
    -2
100
AcDbLine
 10
197.9070532291044
 20
337.2375580182815
 30
0.0
 11
203.2420008554515
 21
235.4406931380736
 31
0.0
  0
LINE
  5
1D61
330
1D54
100
AcDbEntity
  8
BEM
 62
     0
370
    -2
100
AcDbLine
 10
375.5278938182379
 20
291.8114767748857
 30
0.0
 11
378.0021694375021
 21
244.5994854805883
 31
0.0
  0
LINE
  5
1D62
330
1D54
100
AcDbEntity
  8
BEM
 62
     0
370
    -2
100
AcDbLine
 10
210.1277356862476
 20
237.8043039012834
 30
0.0
 11
370.9070907817342
 21
246.2303928563968
 31
0.0
  0
SOLID
  5
1D63
330
1D54
100
AcDbEntity
  8
BEM
 62
     0
100
AcDbTrace
 10
210.0666770706309
 20
238.9693716918304
 30
0.0
 11
210.1887943018645
 21
236.6392361107364
 31
0.0
 12
203.1373289429657
 22
237.4379522075828
 32
0.0
 13
203.1373289429657
 23
237.4379522075828
 33
0.0
  0
SOLID
  5
1D64
330
1D54
100
AcDbEntity
  8
BEM
 62
     0
100
AcDbTrace
 10
370.8460321661174
 20
247.3954606469438
 30
0.0
 11
370.9681493973509
 21
245.0653250658498
 31
0.0
 12
377.8974975250162
 22
246.5967445500974
 32
0.0
 13
377.8974975250162
 23
246.5967445500974
 33
0.0
  0
MTEXT
  5
1D65
330
1D54
100
AcDbEntity
  8
BEM
 62
     1
100
AcDbMText
 10
290.1772295184118
 20
248.5084403547448
 30
0.0
 40
7.0
 41
0.0
 71
     5
 72
     1
  1
\A1;175
 11
0.9986295347545739
 21
0.0523359562429406
 31
0.0
 73
     1
 44
1.0
  0
POINT
  5
1D66
330
1D54
100
AcDbEntity
  8
DEFPOINTS
 62
     0
100
AcDbPoint
 10
197.8023813166186
 20
339.2348170877907
 30
0.0
  0
POINT
  5
1D67
330
1D54
100
AcDbEntity
  8
DEFPOINTS
 62
     0
100
AcDbPoint
 10
375.4232219057521
 20
293.8087358443949
 30
0.0
  0
POINT
  5
1D68
330
1D54
100
AcDbEntity
  8
DEFPOINTS
 62
     0
100
AcDbPoint
 10
377.8974975250163
 20
246.5967445500973
 30
0.0
  0
ENDBLK
  5
1D5F
330
1D54
100
AcDbEntity
  8
0
100
AcDbBlockEnd
  0
BLOCK
  5
1DFC
330
1DF2
100
AcDbEntity
  8
0
100
AcDbBlockBegin
  2
*D8
 70
     1
 10
0.0
 20
0.0
 30
0.0
  3
*D8
  1

  0
LINE
  5
1DFE
330
1DF2
100
AcDbEntity
  8
BEM
 62
     0
370
    -2
100
AcDbLine
 10
124.1473144381749
 20
514.2381099921205
 30
0.0
 11
84.57395877778534
 21
514.2381099921205
 31
0.0
  0
LINE
  5
1DFF
330
1DF2
100
AcDbEntity
  8
BEM
 62
     0
370
    -2
100
AcDbLine
 10
130.1772679518779
 20
184.2348170877904
 30
0.0
 11
84.57395877778527
 21
184.2348170877904
 31
0.0
  0
LINE
  5
1E00
330
1DF2
100
AcDbEntity
  8
BEM
 62
     0
370
    -2
100
AcDbLine
 10
86.57395877778533
 20
507.2381099921206
 30
0.0
 11
86.57395877778526
 21
191.2348170877904
 31
0.0
  0
SOLID
  5
1E01
330
1DF2
100
AcDbEntity
  8
BEM
 62
     0
100
AcDbTrace
 10
85.40729211111866
 20
507.2381099921206
 30
0.0
 11
87.740625444452
 21
507.2381099921206
 31
0.0
 12
86.57395877778533
 22
514.2381099921205
 32
0.0
 13
86.57395877778533
 23
514.2381099921205
 33
0.0
  0
SOLID
  5
1E02
330
1DF2
100
AcDbEntity
  8
BEM
 62
     0
100
AcDbTrace
 10
85.40729211111859
 20
191.2348170877904
 30
0.0
 11
87.74062544445193
 21
191.2348170877904
 31
0.0
 12
86.57395877778526
 22
184.2348170877904
 32
0.0
 13
86.57395877778526
 23
184.2348170877904
 33
0.0
  0
MTEXT
  5
1E03
330
1DF2
100
AcDbEntity
  8
BEM
 62
     1
100
AcDbMText
 10
80.07395877778526
 20
349.2364635399555
 30
0.0
 40
7.0
 41
0.0
 71
     5
 72
     1
  1
\A1;330
 11
0.0000000000000001
 21
1.0
 31
0.0
 73
     1
 44
1.0
  0
POINT
  5
1E04
330
1DF2
100
AcDbEntity
  8
DEFPOINTS
 62
     0
100
AcDbPoint
 10
126.1473144381749
 20
514.2381099921205
 30
0.0
  0
POINT
  5
1E05
330
1DF2
100
AcDbEntity
  8
DEFPOINTS
 62
     0
100
AcDbPoint
 10
132.1772679518779
 20
184.2348170877904
 30
0.0
  0
POINT
  5
1E06
330
1DF2
100
AcDbEntity
  8
DEFPOINTS
 62
     0
100
AcDbPoint
 10
86.57395877778526
 20
184.2348170877904
 30
0.0
  0
ENDBLK
  5
1DFD
330
1DF2
100
AcDbEntity
  8
0
100
AcDbBlockEnd
  0
ENDSEC
  0
SECTION
  2
ENTITIES
  0
LINE
  5
12A
330
1E
100
AcDbEntity
  8
STEMPEL
100
AcDbLine
 10
269.4574481950626
 20
514.2381099921205
 30
0.0
 11
126.1473144381749
 21
514.2381099921205
 31
0.0
  0
TEXT
  5
134
330
1E
100
AcDbEntity
  8
TEXT
100
AcDbText
 10
204.4216048581257
 20
63.0896391972351
 30
0.0
 40
4.0
  1
Koeh
 41
0.8
  7
GREEKS
 72
     1
 11
209.6787477152686
 21
63.0896391972351
 31
0.0
100
AcDbText
  0
INSERT
  5
135
330
1E
100
AcDbEntity
  8
STEMPEL
100
AcDbBlockReference
  2
LOGO
 10
150.9955485457794
 20
45.02105276448322
 30
0.0
 41
2.0
 42
2.0
 43
2.0
  0
LINE
  5
136
330
1E
100
AcDbEntity
  8
HILF
100
AcDbLine
 10
420.0
 20
0.0
 30
0.0
 11
0.0
 21
0.0
 31
0.0
  0
LINE
  5
137
330
1E
100
AcDbEntity
  8
HILF
100
AcDbLine
 10
419.9999999999999
 20
594.0000000000002
 30
0.0
 11
0.0
 21
594.0
 31
0.0
  0
LINE
  5
138
330
1E
100
AcDbEntity
  8
STEMPEL
100
AcDbLine
 10
410.0
 20
584.0
 30
0.0
 11
39.99999999999989
 21
584.0
 31
0.0
  0
LINE
  5
139
330
1E
100
AcDbEntity
  8
STEMPEL
100
AcDbLine
 10
410.0
 20
10.0
 30
0.0
 11
39.99999999999989
 21
10.0
 31
0.0
  0
LINE
  5
13A
330
1E
100
AcDbEntity
  8
STEMPEL
100
AcDbLine
 10
49.99999999999989
 20
10.0
 30
0.0
 11
410.0
 21
10.0
 31
0.0
  0
TEXT
  5
13B
330
1E
100
AcDbEntity
  8
TEXT
100
AcDbText
 10
202.4626584226295
 20
73.30961091915225
 30
0.0
 40
4.0
  1
Name
 41
0.8
  7
GREEKS
100
AcDbText
  0
TEXT
  5
13C
330
1E
100
AcDbEntity
  8
TEXT
100
AcDbText
 10
196.5498279101549
 20
102.6506227776589
 30
0.0
 40
5.0
  1
Zul. Abw.
 41
0.8
  7
GREEKS
 72
     4
 11
209.9783993387263
 21
105.1506227776589
 31
0.0
100
AcDbText
  0
LINE
  5
13D
330
1E
100
AcDbEntity
  8
HILF
100
AcDbLine
 10
146.0000000000001
 20
49.99999999999997
 30
0.0
 11
230.0
 21
49.99999999999997
 31
0.0
  0
LINE
  5
13E
330
1E
100
AcDbEntity
  8
HILF
100
AcDbLine
 10
146.0000000000001
 20
59.99999999999997
 30
0.0
 11
230.0
 21
59.99999999999997
 31
0.0
  0
LINE
  5
13F
330
1E
100
AcDbEntity
  8
HILF
100
AcDbLine
 10
146.0000000000001
 20
69.99999999999994
 30
0.0
 11
230.0
 21
69.99999999999994
 31
0.0
  0
LINE
  5
140
330
1E
100
AcDbEntity
  8
STEMPEL
100
AcDbLine
 10
410.0
 20
80.0
 30
0.0
 11
146.0000000000001
 21
79.99999999999994
 31
0.0
  0
LINE
  5
141
330
1E
100
AcDbEntity
  8
STEMPEL
100
AcDbLine
 10
410.0
 20
40.0
 30
0.0
 11
146.0000000000001
 21
39.99999999999997
 31
0.0
  0
LINE
  5
142
330
1E
100
AcDbEntity
  8
STEMPEL
100
AcDbLine
 10
410.0
 20
110.0
 30
0.0
 11
39.99999999999997
 21
110.0
 31
0.0
  0
LINE
  5
143
330
1E
100
AcDbEntity
  8
MITTEL
100
AcDbLine
 10
197.8023813166186
 20
519.2381099921205
 30
0.0
 11
197.8023813166186
 21
179.2348170877907
 31
0.0
  0
LINE
  5
144
330
1E
100
AcDbEntity
  8
HILF
100
AcDbLine
 10
0.0
 20
0.0
 30
0.0
 11
-0.0000000000001137
 21
594.0
 31
0.0
  0
LINE
  5
145
330
1E
100
AcDbEntity
  8
STEMPEL
100
AcDbLine
 10
40.0
 20
10.0
 30
0.0
 11
39.99999999999989
 21
584.0
 31
0.0
  0
TEXT
  5
146
330
1E
100
AcDbEntity
  8
TEXT
100
AcDbText
 10
41.85509950977674
 20
111.6719999999999
 30
0.0
 40
5.0
  1
Erstellt mit AUTOCAD 2004
 41
0.8
  7
GREEKS
100
AcDbText
  0
TEXT
  5
147
330
1E
100
AcDbEntity
  8
TEXT
100
AcDbText
 10
68.287353390798
 20
18.67381894984132
 30
0.0
 40
4.0
  1
Änderung
 41
0.8
  7
GREEKS
 72
     1
 11
79.03021053365515
 21
18.67381894984132
 31
0.0
100
AcDbText
  0
LINE
  5
148
330
1E
100
AcDbEntity
  8
HILF
100
AcDbLine
 10
40.00000000000008
 20
39.99999999999997
 30
0.0
 11
146.0000000000001
 21
39.99999999999997
 31
0.0
  0
LINE
  5
149
330
1E
100
AcDbEntity
  8
HILF
100
AcDbLine
 10
40.00000000000008
 20
49.99999999999997
 30
0.0
 11
146.0000000000001
 21
49.99999999999997
 31
0.0
  0
LINE
  5
14A
330
1E
100
AcDbEntity
  8
HILF
100
AcDbLine
 10
40.00000000000008
 20
59.99999999999997
 30
0.0
 11
146.0000000000001
 21
59.99999999999997
 31
0.0
  0
LINE
  5
14B
330
1E
100
AcDbEntity
  8
HILF
100
AcDbLine
 10
40.00000000000008
 20
69.99999999999994
 30
0.0
 11
146.0000000000001
 21
69.99999999999994
 31
0.0
  0
LINE
  5
14C
330
1E
100
AcDbEntity
  8
HILF
100
AcDbLine
 10
40.00000000000008
 20
79.99999999999994
 30
0.0
 11
146.0000000000001
 21
79.99999999999994
 31
0.0
  0
LINE
  5
14D
330
1E
100
AcDbEntity
  8
HILF
100
AcDbLine
 10
40.00000000000008
 20
90.00000000000005
 30
0.0
 11
146.0000000000001
 21
90.00000000000005
 31
0.0
  0
LINE
  5
14E
330
1E
100
AcDbEntity
  8
HILF
100
AcDbLine
 10
40.00000000000008
 20
100.0
 30
0.0
 11
146.0000000000001
 21
100.0
 31
0.0
  0
LINE
  5
14F
330
1E
100
AcDbEntity
  8
STEMPEL
100
AcDbLine
 10
145.9999999999999
 20
29.99999999999997
 30
0.0
 11
39.99999999999997
 21
29.99999999999997
 31
0.0
  0
TEXT
  5
150
330
1E
100
AcDbEntity
  8
TEXT
100
AcDbText
 10
48.26641107045756
 20
13.65465846027192
 30
0.0
 40
4.0
  1
Index
 50
90.0
 41
0.8
  7
GREEKS
100
AcDbText
  0
LINE
  5
151
330
1E
100
AcDbEntity
  8
VOLL
100
AcDbLine
 10
54.00000000000009
 20
110.0
 30
0.0
 11
53.99999999999997
 21
9.999999999999971
 31
0.0
  0
LINE
  5
152
330
1E
100
AcDbEntity
  8
HILF
100
AcDbLine
 10
31.08767135713856
 20
297.0
 30
0.0
 11
0.0000000000001137
 21
297.0
 31
0.0
  0
TEXT
  5
153
330
1E
100
AcDbEntity
  8
TEXT
100
AcDbText
 10
110.1284856085497
 20
18.6715626933981
 30
0.0
 40
4.0
  1
Tag
 41
0.8
  7
GREEKS
 72
     1
 11
113.861818941883
 21
18.6715626933981
 31
0.0
100
AcDbText
  0
LINE
  5
154
330
1E
100
AcDbEntity
  8
VOLL
100
AcDbLine
 10
124.0000000000001
 20
109.9999999999999
 30
0.0
 11
124.0
 21
9.999999999999971
 31
0.0
  0
LINE
  5
155
330
1E
100
AcDbEntity
  8
VOLL
100
AcDbLine
 10
104.0000000000001
 20
109.9999999999999
 30
0.0
 11
104.0
 21
9.999999999999971
 31
0.0
  0
TEXT
  5
156
330
1E
100
AcDbEntity
  8
TEXT
100
AcDbText
 10
129.0495427568086
 20
18.59324216966408
 30
0.0
 40
4.0
  1
Name
 41
0.8
  7
GREEKS
 72
     1
 11
135.3733522806181
 21
18.59324216966408
 31
0.0
100
AcDbText
  0
LINE
  5
157
330
1E
100
AcDbEntity
  8
STEMPEL
100
AcDbLine
 10
146.0000000000001
 20
109.9999999999999
 30
0.0
 11
146.0
 21
9.999999999999971
 31
0.0
  0
TEXT
  5
159
330
1E
100
AcDbEntity
  8
TEXT
100
AcDbText
 10
172.331167315365
 20
73.31880501229926
 30
0.0
 40
4.0
  1
Tag
 41
0.8
  7
GREEKS
100
AcDbText
  0
TEXT
  5
15A
330
1E
100
AcDbEntity
  8
TEXT
100
AcDbText
 10
147.5836127167615
 20
63.62990369617964
 30
0.0
 40
4.0
  1
Gez.
 41
0.8
  7
GREEKS
100
AcDbText
  0
LINE
  5
15B
330
1E
100
AcDbEntity
  8
VOLL
100
AcDbLine
 10
164.0000000000001
 20
79.99999999999994
 30
0.0
 11
164.0000000000001
 21
39.99999999999997
 31
0.0
  0
TEXT
  5
15C
330
1E
100
AcDbEntity
  8
TEXT
100
AcDbText
 10
147.6006777387303
 20
43.52946389649807
 30
0.0
 40
4.0
  1
Norm.
 41
0.8
  7
GREEKS
100
AcDbText
  0
TEXT
  5
15D
330
1E
100
AcDbEntity
  8
TEXT
100
AcDbText
 10
147.5515086571672
 20
53.68926291428377
 30
0.0
 40
4.0
  1
Gepr.
 41
0.8
  7
GREEKS
100
AcDbText
  0
TEXT
  5
15E
330
1E
100
AcDbEntity
  8
TEXT
 62
     1
100
AcDbText
 10
160.5006306481887
 20
88.14901428913959
 30
0.0
 40
7.0
  1
1:2
 41
0.8
  7
GREEKS
100
AcDbText
  0
TEXT
  5
15F
330
1E
100
AcDbEntity
  8
TEXT
100
AcDbText
 10
153.5163572150377
 20
102.4620895087088
 30
0.0
 40
5.0
  1
Maßstab
 41
0.8
  7
GREEKS
100
AcDbText
  0
TEXT
  5
160
330
1E
100
AcDbEntity
  8
TEXT
100
AcDbText
 10
148.622109822104
 20
73.14025471151666
 30
0.0
 40
4.0
  1
2011
 41
0.8
  7
GREEKS
100
AcDbText
  0
LINE
  5
161
330
1E
100
AcDbEntity
  8
VOLL
100
AcDbLine
 10
190.0000000000001
 20
109.9999999999998
 30
0.0
 11
190.0
 21
39.99999999999997
 31
0.0
  0
LINE
  5
186
330
1E
100
AcDbEntity
  8
HILF
100
AcDbLine
 10
420.0
 20
-0.0000000000001137
 30
0.0
 11
419.9999999999999
 21
594.0
 31
0.0
  0
LINE
  5
187
330
1E
100
AcDbEntity
  8
STEMPEL
100
AcDbLine
 10
410.0
 20
10.0
 30
0.0
 11
410.0
 21
584.0
 31
0.0
  0
TEXT
  5
188
330
1E
100
AcDbEntity
  8
TEXT
100
AcDbText
 10
337.2400861497006
 20
52.07416177878602
 30
0.0
 40
5.0
  1
ersetzt durch:
 41
0.8
  7
GREEKS
100
AcDbText
  0
TEXT
  5
189
330
1E
100
AcDbEntity
  8
TEXT
100
AcDbText
 10
336.7238616296993
 20
73.1811823709997
 30
0.0
 40
5.0
  1
Ersatz für:
 41
0.8
  7
GREEKS
100
AcDbText
  0
TEXT
  5
18A
330
1E
100
AcDbEntity
  8
TEXT
100
AcDbText
 10
336.178754957634
 20
102.3132034537136
 30
0.0
 40
5.0
  1
Zeichnungs Nr.
 41
0.8
  7
GREEKS
100
AcDbText
  0
LINE
  5
18B
330
1E
100
AcDbEntity
  8
HILF
100
AcDbLine
 10
233.4909699289885
 20
14.89398258028314
 30
0.0
 11
404.8588839326728
 21
14.89398258028314
 31
0.0
  0
LINE
  5
18C
330
1E
100
AcDbEntity
  8
HILF
100
AcDbLine
 10
336.7238616296993
 20
83.77983636955827
 30
0.0
 11
404.8588839326728
 21
83.77983636955827
 31
0.0
  0
LINE
  5
18D
330
1E
100
AcDbEntity
  8
VOLL
100
AcDbLine
 10
332.0
 20
60.0
 30
0.0
 11
410.0
 21
60.0
 31
0.0
  0
TEXT
  5
18E
330
1E
100
AcDbEntity
  8
TEXT
 62
     1
100
AcDbText
 10
234.9283864320014
 20
87.41748789253779
 30
0.0
 40
7.0
  1
Red.-Abzweig DN125/100
 41
0.65
  7
GREEKS
100
AcDbText
  0
LINE
  5
18F
330
1E
100
AcDbEntity
  8
HILF
100
AcDbLine
 10
234.7736801096947
 20
49.99999999999997
 30
0.0
 11
324.835391655631
 21
49.99999999999997
 31
0.0
  0
LINE
  5
190
330
1E
100
AcDbEntity
  8
HILF
100
AcDbLine
 10
234.7736801096947
 20
59.99999999999997
 30
0.0
 11
324.835391655631
 21
59.99999999999997
 31
0.0
  0
LINE
  5
191
330
1E
100
AcDbEntity
  8
HILF
100
AcDbLine
 10
234.7736801096947
 20
69.99999999999994
 30
0.0
 11
324.835391655631
 21
69.99999999999994
 31
0.0
  0
LINE
  5
192
330
1E
100
AcDbEntity
  8
HILF
100
AcDbLine
 10
234.7736801096947
 20
84.03758247564139
 30
0.0
 11
324.8353916556311
 21
84.03758247564139
 31
0.0
  0
LINE
  5
193
330
1E
100
AcDbEntity
  8
STEMPEL
100
AcDbLine
 10
230.0
 20
110.0
 30
0.0
 11
230.0
 21
9.999999999999971
 31
0.0
  0
TEXT
  5
194
330
1E
100
AcDbEntity
  8
TEXT
100
AcDbText
 10
235.1296391125315
 20
71.50334417585288
 30
0.0
 40
5.0
  1
dünnwandig 87°
 41
0.8
  7
GREEKS
100
AcDbText
  0
TEXT
  5
195
330
1E
100
AcDbEntity
  8
TEXT
100
AcDbText
 10
234.9837501577827
 20
42.62974153022632
 30
0.0
 40
4.0
  1
5230ED0W.DWG
 41
0.8
  7
GREEKS
100
AcDbText
  0
TEXT
  5
196
330
1E
100
AcDbEntity
  8
TEXT
100
AcDbText
 10
234.742238391136
 20
30.84560570193057
 30
0.0
 40
5.0
  1
Bauvorhaben
 41
0.8
  7
GREEKS
100
AcDbText
  0
TEXT
  5
197
330
1E
100
AcDbEntity
  8
TEXT
100
AcDbText
 10
234.877940380901
 20
102.5489328011779
 30
0.0
 40
5.0
  1
Benennung
 41
0.8
  7
GREEKS
100
AcDbText
  0
LINE
  5
198
330
1E
100
AcDbEntity
  8
STEMPEL
100
AcDbLine
 10
332.0
 20
109.9999999999997
 30
0.0
 11
332.0
 21
40.0
 31
0.0
  0
TEXT
  5
19A
330
1E
100
AcDbEntity
  8
TEXT
 62
     1
100
AcDbText
 10
347.8607158481921
 20
88.14901428913959
 30
0.0
 40
7.0
  1
5230ED0W
 41
0.8
  7
GREEKS
 72
     1
 11
369.1940491815254
 21
88.14901428913959
 31
0.0
100
AcDbText
  0
LINE
  5
1D4
330
1E
100
AcDbEntity
  8
STEMPEL
100
AcDbLine
 10
263.4274946813596
 20
184.2348170877907
 30
0.0
 11
132.1772679518779
 21
184.2348170877904
 31
0.0
  0
LINE
  5
1D6
330
1E
100
AcDbEntity
  8
HILF
100
AcDbLine
 10
262.8023813166187
 20
194.2348170877907
 30
0.0
 11
132.8023813166186
 21
194.2348170877907
 31
0.0
  0
LINE
  5
1D7
330
1E
100
AcDbEntity
  8
STEMPEL
100
AcDbLine
 10
131.3023813166187
 20
194.2348170877904
 30
0.0
 11
132.1772679518779
 21
184.2348170877904
 31
0.0
  0
LINE
  5
1D8
330
1E
100
AcDbEntity
  8
STEMPEL
100
AcDbLine
 10
264.3023813166187
 20
194.2348170877912
 30
0.0
 11
263.4274946813596
 21
184.2348170877907
 31
0.0
  0
DIMENSION
  5
1E8
330
1E
100
AcDbEntity
  8
BEM
100
AcDbDimension
  2
*D1
 10
264.3023813166192
 20
158.110874105122
 30
0.0
 11
197.8023813166189
 21
164.610874105122
 31
0.0
 70
    32
  1
%%c<>
 71
     5
 42
133.0000000000005
  3
Standard
100
AcDbAlignedDimension
 13
131.3023813166187
 23
194.2348170877904
 33
0.0
 14
264.3023813166192
 24
194.2348170877907
 34
0.0
100
AcDbRotatedDimension
1001
ACAD
1000
DSTYLE
1002
{
1070
    40
1040
2.0
1070
    41
1040
3.5
1070
    42
1040
1.0
1070
    43
1040
7.0
1070
    44
1040
1.0
1070
    73
1070
     0
1070
    74
1070
     0
1070
    77
1070
     1
1070
    78
1070
     8
1070
    79
1070
     2
1070
   140
1040
3.5
1070
   141
1040
1.5
1070
   146
1040
0.5
1070
   147
1040
1.5
1070
   172
1070
     1
1070
   178
1070
     1
1070
   179
1070
     2
1070
   271
1070
     2
1070
   272
1070
     2
1070
   284
1070
     8
1070
   285
1070
     8
1070
   286
1070
     8
1002
}
  0
TEXT
  5
212
330
1E
100
AcDbEntity
  8
TEXT
100
AcDbText
 10
235.1296391125315
 20
51.50334417585291
 30
0.0
 40
5.0
  1
EDV-Art.Nr. 5.230.ED0C
 41
0.8
  7
GREEKS
100
AcDbText
  0
TEXT
  5
255
330
1E
100
AcDbEntity
  8
TEXT
 62
     1
100
AcDbText
 10
297.9974873842989
 20
131.2276367653921
 30
0.0
 40
7.0
  1
Werkstoff: 1.4404
 41
0.8
  7
GREEKS
100
AcDbText
  0
TEXT
  5
25D
330
1E
100
AcDbEntity
  8
TEXT
 62
     1
100
AcDbText
 10
165.0011920442148
 20
488.7820138500205
 30
0.0
 40
7.0
  1
DN125
 41
0.8
  7
GREEKS
100
AcDbText
  0
LINE
  5
7B6
330
1E
100
AcDbEntity
  8
STEMPEL
100
AcDbLine
 10
269.4574481950624
 20
514.2381099921205
 30
0.0
 11
270.0853071406815
 21
512.8916621381367
 31
0.0
  0
ARC
  5
7B7
330
1E
100
AcDbEntity
  8
STEMPEL
100
AcDbCircle
 10
243.8023813166187
 20
500.6357325476563
 30
0.0
 40
29.0
100
AcDbArc
 50
0.0
 51
24.99999999999304
  0
LINE
  5
7B8
330
1E
100
AcDbEntity
  8
STEMPEL
100
AcDbLine
 10
272.8023813166187
 20
500.6357325476563
 30
0.0
 11
272.8023813166187
 21
481.5291099921205
 31
0.0
  0
ARC
  5
7B9
330
1E
100
AcDbEntity
  8
STEMPEL
100
AcDbCircle
 10
243.8023813166187
 20
481.5291099921205
 30
0.0
 40
29.0
100
AcDbArc
 50
334.8288522569422
 51
0.0
  0
ARC
  5
7BA
330
1E
100
AcDbEntity
  8
STEMPEL
100
AcDbCircle
 10
287.3023813166187
 20
461.2381099921206
 30
0.0
 40
19.0
100
AcDbArc
 50
154.772855634092
 51
180.0
  0
LINE
  5
7BB
330
1E
100
AcDbEntity
  8
STEMPEL
100
AcDbLine
 10
268.3023813166187
 20
461.2381099921206
 30
0.0
 11
268.3023813166187
 21
447.7013372700512
 31
0.0
  0
ARC
  5
7C0
330
1E
100
AcDbEntity
  8
STEMPEL
100
AcDbCircle
 10
251.3023813166188
 20
447.7013372700512
 30
0.0
 40
17.0
100
AcDbArc
 50
328.4136619034719
 51
0.0
  0
ARC
  5
7C1
330
1E
100
AcDbEntity
  8
STEMPEL
100
AcDbCircle
 10
274.3023813166187
 20
433.5592016463202
 30
0.0
 40
10.0
100
AcDbArc
 50
148.413661903472
 51
180.0
  0
ARC
  5
7F3
330
1E
100
AcDbEntity
  8
STEMPEL
100
AcDbCircle
 10
151.8023813166186
 20
481.5291099921205
 30
0.0
 40
29.0
100
AcDbArc
 50
180.0
 51
205.1711477430577
  0
ARC
  5
7F7
330
1E
100
AcDbEntity
  8
STEMPEL
100
AcDbCircle
 10
108.3023813166186
 20
461.2381099921206
 30
0.0
 40
19.0
100
AcDbArc
 50
0.0
 51
25.22714436590793
  0
LINE
  5
7F8
330
1E
100
AcDbEntity
  8
STEMPEL
100
AcDbLine
 10
127.3023813166186
 20
461.2381099921206
 30
0.0
 11
127.3023813166186
 21
447.7013372700512
 31
0.0
  0
ARC
  5
7FB
330
1E
100
AcDbEntity
  8
STEMPEL
100
AcDbCircle
 10
144.3023813166186
 20
447.7013372700512
 30
0.0
 40
17.0
100
AcDbArc
 50
180.0
 51
211.5863380965281
  0
ARC
  5
7FC
330
1E
100
AcDbEntity
  8
STEMPEL
100
AcDbCircle
 10
121.3023813166186
 20
433.5592016463202
 30
0.0
 40
10.0
100
AcDbArc
 50
0.0
 51
31.586338096528
  0
LINE
  5
7FF
330
1E
100
AcDbEntity
  8
STEMPEL
100
AcDbLine
 10
126.147314438175
 20
514.2381099921205
 30
0.0
 11
125.519455492556
 21
512.8916621381367
 31
0.0
  0
POINT
  5
802
330
1E
100
AcDbEntity
  8
STEMPEL
100
AcDbPoint
 10
127.8023813166186
 20
514.2381099921205
 30
0.0
  0
ARC
  5
803
330
1E
100
AcDbEntity
  8
STEMPEL
100
AcDbCircle
 10
151.8023813166186
 20
500.6357325476563
 30
0.0
 40
29.0
100
AcDbArc
 50
155.0000000000069
 51
180.0
  0
LINE
  5
804
330
1E
100
AcDbEntity
  8
STEMPEL
100
AcDbLine
 10
122.8023813166189
 20
500.6357325476563
 30
0.0
 11
122.8023813166189
 21
481.5291099921205
 31
0.0
  0
LINE
  5
806
330
1E
100
AcDbEntity
  8
HILF
100
AcDbLine
 10
266.2172632706841
 20
443.4827716019245
 30
0.0
 11
129.3874993625533
 21
443.4827716019245
 31
0.0
  0
LINE
  5
807
330
1E
100
AcDbEntity
  8
HILF
100
AcDbLine
 10
263.2365011571508
 20
436.6891052065432
 30
0.0
 11
132.3682614760865
 21
436.689105206543
 31
0.0
  0
LINE
  5
808
330
1E
100
AcDbEntity
  8
HILF
100
AcDbLine
 10
267.2971475672416
 20
465.7147853916539
 30
0.0
 11
128.3076150659956
 21
465.7147853916539
 31
0.0
  0
LINE
  5
952
330
1E
100
AcDbEntity
  8
STEMPEL
100
AcDbLine
 10
131.3023813166186
 20
433.5592016463202
 30
0.0
 11
131.3023813166186
 21
194.2348170877905
 31
0.0
  0
LINE
  5
953
330
1E
100
AcDbEntity
  8
STEMPEL
100
AcDbLine
 10
264.3023813166186
 20
433.5592016463202
 30
0.0
 11
264.3023813166185
 21
393.5896495868069
 31
0.0
  0
DIMENSION
  5
DBF
330
1E
100
AcDbEntity
  8
BEM
100
AcDbDimension
  2
*D2
 10
105.4725126536091
 20
339.2348170877907
 30
0.0
 11
98.97251265360907
 21
261.7348170877905
 31
0.0
 70
    32
 71
     5
 42
155.0000000000002
  3
Standard
100
AcDbAlignedDimension
 13
132.1772679518779
 23
184.2348170877904
 33
0.0
 14
197.8023813166186
 24
339.2348170877906
 34
0.0
 50
90.0
100
AcDbRotatedDimension
1001
ACAD
1000
DSTYLE
1002
{
1070
    40
1040
2.0
1070
    41
1040
3.5
1070
    42
1040
1.0
1070
    43
1040
7.0
1070
    44
1040
1.0
1070
    73
1070
     0
1070
    74
1070
     0
1070
    77
1070
     1
1070
    78
1070
     8
1070
    79
1070
     2
1070
   140
1040
3.5
1070
   141
1040
1.5
1070
   146
1040
0.5
1070
   147
1040
1.5
1070
   172
1070
     1
1070
   178
1070
     1
1070
   179
1070
     2
1070
   271
1070
     2
1070
   272
1070
     2
1070
   284
1070
     8
1070
   285
1070
     8
1070
   286
1070
     8
1002
}
  0
LINE
  5
E03
330
1E
100
AcDbEntity
  8
STEMPEL
100
AcDbLine
 10
264.3023813166187
 20
291.8502192334183
 30
0.0
 11
264.3023813166187
 21
194.2348170877909
 31
0.0
  0
LINE
  5
16F3
330
1E
100
AcDbEntity
  8
MITTEL
  6
STRICHPUNKT
100
AcDbLine
 10
377.5556975724418
 20
348.6552892115204
 30
0.0
 11
227.5745493525449
 21
340.795110298995
 31
0.0
  0
DIMENSION
  5
195C
330
1E
100
AcDbEntity
  8
BEM
100
AcDbDimension
  2
*D3
 10
197.8023813166186
 20
179.2348170877907
 30
0.0
 11
340.1635797090655
 21
489.2522185649308
 31
0.0
 70
    34
 71
     5
 42
1.518436449235065
  3
Standard
100
AcDb2LineAngularDimension
 13
377.5556975724418
 23
348.6552892115204
 33
0.0
 14
197.8023813166186
 24
339.2348170877906
 34
0.0
 15
197.8023813166186
 25
519.2381099921205
 35
0.0
 16
367.6780845867322
 26
445.3849376953275
 36
0.0
1001
ACAD
1000
DSTYLE
1002
{
1070
    40
1040
2.0
1070
    41
1040
3.5
1070
    42
1040
1.0
1070
    43
1040
7.0
1070
    44
1040
1.0
1070
    73
1070
     0
1070
    74
1070
     0
1070
    77
1070
     1
1070
    78
1070
     8
1070
    79
1070
     2
1070
   140
1040
3.5
1070
   141
1040
1.5
1070
   146
1040
0.5
1070
   147
1040
1.5
1070
   172
1070
     1
1070
   178
1070
     1
1070
   179
1070
     2
1070
   271
1070
     2
1070
   272
1070
     2
1070
   284
1070
     8
1070
   285
1070
     8
1070
   286
1070
     8
1002
}
  0
LINE
  5
1BD0
330
1E
100
AcDbEntity
  8
STEMPEL
100
AcDbLine
 10
375.423221905752
 20
293.8087358443949
 30
0.0
 11
369.7018778915861
 21
402.9784830162161
 31
0.0
  0
TEXT
  5
1BDB
330
1E
100
AcDbEntity
  8
TEXT
 62
     1
100
AcDbText
 10
336.7749426294424
 20
362.1899392943603
 30
0.0
 40
7.0
  1
DN100
 50
2.99999999999909
 41
0.8
  7
GREEKS
100
AcDbText
  0
ELLIPSE
  5
1BE7
330
1E
100
AcDbEntity
  8
STEMPEL
100
AcDbEllipse
 10
264.3023813166186
 20
341.4838436755258
 30
0.0
 11
0.0
 21
-52.10580591128115
 31
0.0
210
0.0
220
0.0
230
1.0
 40
0.4526562031350279
 41
3.141592653589793
 42
4.712388980384689
  0
ELLIPSE
  5
1BE8
330
1E
100
AcDbEntity
  8
STEMPEL
100
AcDbEllipse
 10
264.3023813166186
 20
341.4838436755258
 30
0.0
 11
-0.0000000000001196
 21
49.63362444210758
 31
0.0
210
0.0
220
0.0
230
1.0
 40
0.4752023760143045
 41
1.570796326794896
 42
3.141592653589793
  0
DIMENSION
  5
1D45
330
1E
100
AcDbEntity
  8
BEM
100
AcDbDimension
  2
*D6
 10
217.3293238517485
 20
289.3884656055498
 30
0.0
 11
221.1617492505118
 21
340.4590296866613
 31
0.0
 70
    32
  1
%%c<>
 71
     5
 42
101.6000000000001
 51
87.00000000000018
  3
Standard
100
AcDbAlignedDimension
 13
264.3023813166185
 23
393.589649586807
 33
0.0
 14
264.3023813166187
 24
291.8502192334181
 34
0.0
 50
272.9999999999998
100
AcDbRotatedDimension
1001
ACAD
1000
DSTYLE
1002
{
1070
    40
1040
2.0
1070
    41
1040
3.5
1070
    42
1040
1.0
1070
    43
1040
7.0
1070
    44
1040
1.0
1070
    73
1070
     0
1070
    74
1070
     0
1070
    77
1070
     1
1070
    78
1070
     8
1070
    79
1070
     2
1070
   140
1040
3.5
1070
   141
1040
1.5
1070
   146
1040
0.5
1070
   147
1040
1.5
1070
   172
1070
     1
1070
   178
1070
     1
1070
   179
1070
     2
1070
   271
1070
     2
1070
   272
1070
     2
1070
   284
1070
     8
1070
   285
1070
     8
1070
   286
1070
     8
1002
}
  0
DIMENSION
  5
1D53
330
1E
100
AcDbEntity
  8
BEM
100
AcDbDimension
  2
*D7
 10
377.8974975250163
 20
246.5967445500973
 30
0.0
 11
290.1772295184118
 21
248.5084403547448
 31
0.0
 70
    32
 71
     5
 42
175.0000000000001
 51
87.00000000000018
  3
Standard
100
AcDbAlignedDimension
 13
197.8023813166186
 23
339.2348170877907
 33
0.0
 14
375.423221905752
 24
293.8087358443949
 34
0.0
 50
2.999999999999829
100
AcDbRotatedDimension
1001
ACAD
1000
DSTYLE
1002
{
1070
    40
1040
2.0
1070
    41
1040
3.5
1070
    42
1040
1.0
1070
    43
1040
7.0
1070
    44
1040
1.0
1070
    73
1070
     0
1070
    74
1070
     0
1070
    77
1070
     1
1070
    78
1070
     8
1070
    79
1070
     2
1070
   140
1040
3.5
1070
   141
1040
1.5
1070
   146
1040
0.5
1070
   147
1040
1.5
1070
   172
1070
     1
1070
   178
1070
     1
1070
   179
1070
     2
1070
   271
1070
     2
1070
   272
1070
     2
1070
   284
1070
     8
1070
   285
1070
     8
1070
   286
1070
     8
1002
}
  0
LINE
  5
1D72
330
1E
100
AcDbEntity
  8
MITTEL
  6
STRICHPUNKT
100
AcDbLine
 10
212.4721634447159
 20
340.0036277916903
 30
0.0
 11
197.8023813166186
 21
339.2348170877907
 31
0.0
  0
ARC
  5
1D81
330
1E
100
AcDbEntity
  8
SCHRAFF
100
AcDbCircle
 10
264.3023813166186
 20
393.589649586807
 30
0.0
 40
5.0
100
AcDbArc
 50
153.0457459484161
 51
228.12330034507
  0
ARC
  5
1D82
330
1E
100
AcDbEntity
  8
SCHRAFF
100
AcDbCircle
 10
259.4303072119429
 20
392.465864056313
 30
0.0
 40
5.0
100
AcDbArc
 50
175.5104204989702
 51
249.8655897353571
  0
ARC
  5
1D83
330
1E
100
AcDbEntity
  8
SCHRAFF
100
AcDbCircle
 10
255.3012927333565
 20
389.6460698376466
 30
0.0
 40
5.0
100
AcDbArc
 50
190.2761479362925
 51
264.27598139524
  0
ARC
  5
1D84
330
1E
100
AcDbEntity
  8
SCHRAFF
100
AcDbCircle
 10
251.9779839600958
 20
385.9103478461745
 30
0.0
 40
5.0
100
AcDbArc
 50
199.933047572008
 51
273.8003651247908
  0
ARC
  5
1D85
330
1E
100
AcDbEntity
  8
SCHRAFF
100
AcDbCircle
 10
249.2990652649413
 20
381.6885716056863
 30
0.0
 40
5.0
100
AcDbArc
 50
206.7483465713781
 51
280.555436920716
  0
ARC
  5
1D86
330
1E
100
AcDbEntity
  8
SCHRAFF
100
AcDbCircle
 10
247.1233906453667
 20
377.1867453151972
 30
0.0
 40
5.0
100
AcDbArc
 50
211.9386928427776
 51
285.7236129430787
  0
ARC
  5
1D87
330
1E
100
AcDbEntity
  8
SCHRAFF
100
AcDbCircle
 10
245.3536183274642
 20
372.5104320298424
 30
0.0
 40
5.0
100
AcDbArc
 50
216.1339103405807
 51
289.9024325169303
  0
ARC
  5
1D88
330
1E
100
AcDbEntity
  8
SCHRAFF
100
AcDbCircle
 10
243.9241760216521
 20
367.7191175239521
 30
0.0
 40
5.0
100
AcDbArc
 50
219.6899634991688
 51
293.4541365307763
  0
ARC
  5
1D89
330
1E
100
AcDbEntity
  8
SCHRAFF
100
AcDbCircle
 10
242.7903538874757
 20
362.8493693407242
 30
0.0
 40
5.0
100
AcDbArc
 50
222.8228330645929
 51
296.578620117618
  0
ARC
  5
1D8A
330
1E
100
AcDbEntity
  8
SCHRAFF
100
AcDbCircle
 10
241.9213444829574
 20
357.9254661476406
 30
0.0
 40
5.0
100
AcDbArc
 50
225.6676944306975
 51
299.4254063472068
  0
ARC
  5
1D8B
330
1E
100
AcDbEntity
  8
SCHRAFF
100
AcDbCircle
 10
241.2960238177739
 20
352.9647228499387
 30
0.0
 40
5.0
100
AcDbArc
 50
228.3302025364166
 51
302.0818673604011
  0
ARC
  5
1D8C
330
1E
100
AcDbEntity
  8
SCHRAFF
100
AcDbCircle
 10
240.9004067873672
 20
347.9803987066619
 30
0.0
 40
5.0
100
AcDbArc
 50
230.876556185937
 51
304.6289608428659
  0
ARC
  5
1D8D
330
1E
100
AcDbEntity
  8
SCHRAFF
100
AcDbCircle
 10
240.7261349295535
 20
342.9834366976434
 30
0.0
 40
5.0
100
AcDbArc
 50
233.4118244322066
 51
307.1671158212035
  0
ARC
  5
1D8F
330
1E
100
AcDbEntity
  8
SCHRAFF
100
AcDbCircle
 10
241.0641304051319
 20
332.9920379948235
 30
0.0
 40
5.0
100
AcDbArc
 50
238.9926720134465
 51
312.7516331272188
  0
ARC
  5
1D90
330
1E
100
AcDbEntity
  8
SCHRAFF
100
AcDbCircle
 10
241.6006061175614
 20
328.0209019264812
 30
0.0
 40
5.0
100
AcDbArc
 50
241.9730809794992
 51
315.7325403297519
  0
ARC
  5
1D91
330
1E
100
AcDbEntity
  8
SCHRAFF
100
AcDbCircle
 10
242.3967979216049
 20
323.0847010988027
 30
0.0
 40
5.0
100
AcDbArc
 50
245.1927109882143
 51
318.9595042465029
  0
ARC
  5
1D92
330
1E
100
AcDbEntity
  8
SCHRAFF
100
AcDbCircle
 10
243.4722502069144
 20
318.2017304474448
 30
0.0
 40
5.0
100
AcDbArc
 50
248.7893152047469
 51
322.5660362873152
  0
ARC
  5
1D93
330
1E
100
AcDbEntity
  8
SCHRAFF
100
AcDbCircle
 10
244.8560468043987
 20
313.3970341014943
 30
0.0
 40
5.0
100
AcDbArc
 50
252.9376625536189
 51
326.7213363558745
  0
ARC
  5
1D94
330
1E
100
AcDbEntity
  8
SCHRAFF
100
AcDbCircle
 10
246.5905845445573
 20
308.7075374517497
 30
0.0
 40
5.0
100
AcDbArc
 50
257.9376900559501
 51
331.7555825569628
  0
ARC
  5
1D95
330
1E
100
AcDbEntity
  8
SCHRAFF
100
AcDbCircle
 10
248.7376683697195
 20
304.1920052519168
 30
0.0
 40
5.0
100
AcDbArc
 50
264.2947542642188
 51
338.1629830793555
  0
ARC
  5
1D96
330
1E
100
AcDbEntity
  8
SCHRAFF
100
AcDbCircle
 10
251.3876747360827
 20
299.9520210233808
 30
0.0
 40
5.0
100
AcDbArc
 50
272.9114562217398
 51
346.9019461333202
  0
ARC
  5
1D97
330
1E
100
AcDbEntity
  8
SCHRAFF
100
AcDbCircle
 10
254.6687530415345
 20
296.1791540559943
 30
0.0
 40
5.0
100
AcDbArc
 50
285.4292273750117
 51
359.7364806585458
  0
ARC
  5
1D98
330
1E
100
AcDbEntity
  8
SCHRAFF
100
AcDbCircle
 10
258.726175814187
 20
293.2572847151627
 30
0.0
 40
5.0
100
AcDbArc
 50
304.1868258830885
 51
19.11194724800698
  0
ARC
  5
1D99
330
1E
100
AcDbEntity
  8
SCHRAFF
100
AcDbCircle
 10
264.3023813166185
 20
393.589649586807
 30
0.0
 40
3.0
100
AcDbArc
 50
2.99999999999909
 51
90.00000000000108
  0
ARC
  5
1D9A
330
1E
100
AcDbEntity
  8
SCHRAFF
100
AcDbCircle
 10
240.7750857472501
 20
337.9836763216407
 30
0.0
 40
5.0
100
AcDbArc
 50
236.1560384234159
 51
309.9122346900553
  0
ARC
  5
1D9C
330
1E
100
AcDbEntity
  8
SCHRAFF
100
AcDbCircle
 10
241.0641304051319
 20
332.9920379948235
 30
0.0
 40
5.0
100
AcDbArc
 50
90.56094401261772
 51
93.31405540674708
  0
ARC
  5
1D9D
330
1E
100
AcDbEntity
  8
SCHRAFF
100
AcDbCircle
 10
264.3023813166187
 20
291.8502192334182
 30
0.0
 40
2.999999999999943
100
AcDbArc
 50
270.0
 51
3.000000000001314
  0
HATCH
  5
1DC9
330
1E
100
AcDbEntity
  8
SCHRAFF
100
AcDbHatch
 10
0.0
 20
0.0
 30
0.0
210
0.0
220
0.0
230
1.0
  2
_USER
 70
     0
 71
     0
 91
        2
 92
        7
 72
     1
 73
     1
 93
        3
 10
264.3023813166185
 20
396.589649586807
 42
0.0
 10
264.3023813166186
 20
393.589649586807
 42
0.0
 10
267.2982699208823
 20
393.7466574555358
 42
0.3989595459737134
 97
        0
 92
        7
 72
     1
 73
     1
 93
        3
 10
267.2982699208823
 20
292.0072271021471
 42
0.0
 10
264.3023813166187
 20
291.8502192334182
 42
0.0
 10
264.3023813166187
 20
288.8502192334183
 42
0.4296339059668371
 97
        0
 75
     0
 76
     0
 52
0.0
 41
0.1
 77
     0
 78
     1
 53
0.0
 43
0.0
 44
0.0
 45
0.0
 46
0.1
 79
     0
 47
0.4329125549198988
 98
        2
 10
265.3653288124128
 20
394.8771314712578
 10
265.7985581223384
 20
291.4110304968369
  0
TEXT
  5
1DD4
330
1E
100
AcDbEntity
  8
BEM
100
AcDbText
 10
416.5811541437437
 20
12.14804815338303
 30
0.0
 40
4.0
  1
Diese Zeichnung ist urheberrechtlich geschützt und bleibt unser Eigentum. Sie darf weder ganz noch teilweise vervielfältigt und nicht an Dritte weitergegeben werden.
 50
90.0
 41
0.8
  7
GREEKS
100
AcDbText
  0
TEXT
  5
1DD5
330
1E
100
AcDbEntity
  8
TEXT
100
AcDbText
 10
192.6882715247924
 20
88.21335626043197
 30
0.0
 40
4.0
  1
DIN EN1124-3
 41
0.8
  7
GREEKS
 72
     1
 11
209.6787477152686
 21
88.21335626043197
 31
0.0
100
AcDbText
  0
DIMENSION
  5
1DF1
330
1E
100
AcDbEntity
  8
BEM
100
AcDbDimension
  2
*D8
 10
86.57395877778526
 20
184.2348170877904
 30
0.0
 11
80.07395877778526
 21
349.2364635399555
 31
0.0
 70
    32
 71
     5
 42
330.0032929043301
  3
Standard
100
AcDbAlignedDimension
 13
126.1473144381749
 23
514.2381099921205
 33
0.0
 14
132.1772679518779
 24
184.2348170877904
 34
0.0
 50
90.0
100
AcDbRotatedDimension
1001
ACAD
1000
DSTYLE
1002
{
1070
    40
1040
2.0
1070
    41
1040
3.5
1070
    42
1040
1.0
1070
    43
1040
7.0
1070
    44
1040
1.0
1070
    73
1070
     0
1070
    74
1070
     0
1070
    77
1070
     1
1070
    78
1070
     8
1070
    79
1070
     2
1070
   140
1040
3.5
1070
   141
1040
1.5
1070
   146
1040
0.5
1070
   147
1040
1.5
1070
   172
1070
     1
1070
   178
1070
     1
1070
   179
1070
     2
1070
   271
1070
     2
1070
   272
1070
     2
1070
   284
1070
     8
1070
   285
1070
     8
1070
   286
1070
     8
1002
}
  0
ARC
  5
1E5B
330
1E
100
AcDbEntity
  8
STEMPEL
100
AcDbCircle
 10
295.0442277593394
 20
403.2117402579136
 30
0.0
 40
8.0
100
AcDbArc
 50
273.0
 51
303.8595810906223
  0
LINE
  5
1E5D
330
1E
100
AcDbEntity
  8
STEMPEL
100
AcDbLine
 10
295.3626357989934
 20
395.2174485481944
 30
0.0
 11
264.3023813166185
 21
393.5896495868069
 31
0.0
  0
ARC
  5
1E61
330
1E
100
AcDbEntity
  8
STEMPEL
100
AcDbCircle
 10
307.3433719089174
 20
384.7300992813148
 30
0.0
 40
14.2
100
AcDbArc
 50
93.0
 51
123.6429317629395
  0
LINE
  5
1E62
330
1E
100
AcDbEntity
  8
STEMPEL
100
AcDbLine
 10
322.3035428118667
 20
399.7336159292036
 30
0.0
 11
306.6002013302675
 21
398.9106386748297
 31
0.0
  0
ARC
  5
1E63
330
1E
100
AcDbEntity
  8
STEMPEL
100
AcDbCircle
 10
321.6336425719571
 20
412.5160739740621
 30
0.0
 40
12.8
100
AcDbArc
 50
273.0
 51
299.8880476177246
  0
ARC
  5
1E64
330
1E
100
AcDbEntity
  8
STEMPEL
100
AcDbCircle
 10
340.0709973888837
 20
380.4370473779394
 30
0.0
 40
24.2
100
AcDbArc
 50
93.0
 51
119.8880476177246
  0
LINE
  5
1E65
330
1E
100
AcDbEntity
  8
STEMPEL
100
AcDbLine
 10
357.3527017347872
 20
405.5759538980839
 30
0.0
 11
338.8044672478043
 21
404.603882119
 31
0.0
  0
ARC
  5
1E66
330
1E
100
AcDbEntity
  8
STEMPEL
100
AcDbCircle
 10
358.6192318758664
 20
381.4091191570233
 30
0.0
 40
24.2
100
AcDbArc
 50
62.73634805790176
 51
93.0
  0
ARC
  5
1E67
330
1E
100
AcDbEntity
  8
STEMPEL
100
AcDbCircle
 10
362.1466753266409
 20
314.1014885145651
 30
0.0
 40
24.2
100
AcDbArc
 50
273.0
 51
303.2636519420983
  0
LINE
  5
1E68
330
1E
100
AcDbEntity
  8
STEMPEL
100
AcDbLine
 10
363.4132054677202
 20
289.9346537735045
 30
0.0
 11
344.8649709807373
 21
288.9625819944205
 31
0.0
  0
ARC
  5
1E69
330
1E
100
AcDbEntity
  8
STEMPEL
100
AcDbCircle
 10
343.5984408396582
 20
313.1294167354811
 30
0.0
 40
24.2
100
AcDbArc
 50
246.1119523822754
 51
273.0
  0
ARC
  5
1E6A
330
1E
100
AcDbEntity
  8
STEMPEL
100
AcDbCircle
 10
328.6152591347658
 20
279.298894037802
 30
0.0
 40
12.8
100
AcDbArc
 50
66.11195238227537
 51
93.0
  0
LINE
  5
1E6B
330
1E
100
AcDbEntity
  8
STEMPEL
100
AcDbLine
 10
327.945358894856
 20
292.0813520826606
 30
0.0
 11
312.2420174132571
 21
291.2583748282867
 31
0.0
  0
ARC
  5
1E6C
330
1E
100
AcDbEntity
  8
STEMPEL
100
AcDbCircle
 10
311.4988468346073
 20
305.4389142218017
 30
0.0
 40
14.2
100
AcDbArc
 50
242.3570682370605
 51
273.0
  0
LINE
  5
1E70
330
1E
100
AcDbEntity
  8
STEMPEL
100
AcDbLine
 10
300.6799689532766
 20
293.7566878171298
 30
0.0
 11
264.3023813166187
 21
291.8502192334183
 31
0.0
  0
ARC
  5
1E72
330
1E
100
AcDbEntity
  8
STEMPEL
100
AcDbCircle
 10
301.1989362135097
 20
285.7729069707758
 30
0.0
 40
8.0
100
AcDbArc
 50
62.14041890937775
 51
93.0
  0
LINE
  5
1E7A
330
1E
100
AcDbEntity
  8
HILF
100
AcDbLine
 10
330.8711617364906
 20
293.1159452228969
 30
0.0
 11
325.3214622304592
 21
399.010520073301
 31
0.0
  0
LINE
  5
1E7B
330
1E
100
AcDbEntity
  8
HILF
100
AcDbLine
 10
308.4032729210729
 20
292.812852993301
 30
0.0
 11
302.9449730958383
 21
396.9634180412059
 31
0.0
  0
LINE
  5
1E7C
330
1E
100
AcDbEntity
  8
HILF
100
AcDbLine
 10
302.8560503343877
 20
294.8224358419595
 30
0.0
 11
297.6381973818777
 21
394.3850012452687
 31
0.0
  0
TEXT
  5
1EA0
330
1E
100
AcDbEntity
  8
TEXT
100
AcDbText
 10
170.398997108236
 20
63.10765040825732
 30
0.0
 40
4.0
  1
08.04.
 41
0.8
  7
GREEKS
 72
     1
 11
177.4085209177598
 21
63.10765040825732
 31
0.0
100
AcDbText
  0
ENDSEC
  0
SECTION
  2
OBJECTS
  0
DICTIONARY
  5
C
330
0
100
AcDbDictionary
281
     1
  3
ACAD_COLOR
350
1A21
  3
ACAD_GROUP
350
D
  3
ACAD_LAYOUT
350
19
  3
ACAD_MATERIAL
350
1A20
  3
ACAD_MLINESTYLE
350
16
  3
ACAD_PLOTSETTINGS
350
18
  3
ACAD_PLOTSTYLENAME
350
E
  3
AcDbVariableDictionary
350
246
  0
DICTIONARY
  5
1A21
102
{ACAD_REACTORS
330
C
102
}
330
C
100
AcDbDictionary
281
     1
  0
DICTIONARY
  5
D
102
{ACAD_REACTORS
330
C
102
}
330
C
100
AcDbDictionary
281
     1
  0
DICTIONARY
  5
19
102
{ACAD_REACTORS
330
C
102
}
330
C
100
AcDbDictionary
281
     1
  3
Layout1
350
1D
  3
Model
350
21
  0
DICTIONARY
  5
1A20
102
{ACAD_REACTORS
330
C
102
}
330
C
100
AcDbDictionary
281
     1
  0
DICTIONARY
  5
16
102
{ACAD_REACTORS
330
C
102
}
330
C
100
AcDbDictionary
281
     1
  3
Standard
350
17
  0
DICTIONARY
  5
18
102
{ACAD_REACTORS
330
C
102
}
330
C
100
AcDbDictionary
281
     1
  0
ACDBDICTIONARYWDFLT
  5
E
102
{ACAD_REACTORS
330
C
102
}
330
C
100
AcDbDictionary
281
     1
  3
Normal
350
F
100
AcDbDictionaryWithDefault
340
F
  0
DICTIONARY
  5
246
102
{ACAD_REACTORS
330
C
102
}
330
C
100
AcDbDictionary
281
     1
  3
DIMASSOC
350
1DED
  3
PROJECTNAME
350
1DEE
  3
SORTENTS
350
247
  0
LAYOUT
  5
1D
102
{ACAD_REACTORS
330
19
102
}
330
19
100
AcDbPlotSettings
  1

  2
Tektronix Phaser 740
  4

  6

 40
0.0
 41
0.0
 42
0.0
 43
0.0
 44
0.0
 45
0.0
 46
0.0
 47
0.0
 48
0.0
 49
0.0
140
0.0
141
0.0
142
1.0
143
1.0
 70
   688
 72
     0
 73
     0
 74
     5
  7
monochrome.ctb
 75
    16
147
1.0
 76
     0
 77
     2
 78
   300
148
0.0
149
0.0
100
AcDbLayout
  1
Layout1
 70
     0
 71
     1
 10
0.0
 20
0.0
 11
12.0
 21
9.0
 12
0.0
 22
0.0
 32
0.0
 14
1.000000000000000E+20
 24
1.000000000000000E+20
 34
1.000000000000000E+20
 15
-1.000000000000000E+20
 25
-1.000000000000000E+20
 35
-1.000000000000000E+20
146
0.0
 13
0.0
 23
0.0
 33
0.0
 16
1.0
 26
0.0
 36
0.0
 17
0.0
 27
1.0
 37
0.0
 76
     0
330
1A
  0
LAYOUT
  5
21
102
{ACAD_REACTORS
330
19
102
}
330
19
100
AcDbPlotSettings
  1

  2
Tektronix Phaser 740
  4
A4
  6

 40
5.873749732971191
 41
6.085414409637451
 42
5.577407836914062
 43
5.662078857421875
 44
209.9733276367187
 45
296.9683227539062
 46
0.0
 47
0.0
 48
0.0
 49
0.0
140
0.0
141
0.0
142
1.0
143
1.0
 70
 11952
 72
     0
 73
     1
 74
     0
  7
monochrome.ctb
 75
     0
147
1.0
 76
     0
 77
     2
 78
   300
148
1150.120678237584
149
45.30495740799864
100
AcDbLayout
  1
Model
 70
     1
 71
     0
 10
0.0
 20
0.0
 11
12.0
 21
9.0
 12
0.0
 22
0.0
 32
0.0
 14
0.0
 24
0.0
 34
0.0
 15
0.0
 25
0.0
 35
0.0
146
0.0
 13
0.0
 23
0.0
 33
0.0
 16
1.0
 26
0.0
 36
0.0
 17
0.0
 27
1.0
 37
0.0
 76
     0
330
1E
  0
MLINESTYLE
  5
17
102
{ACAD_REACTORS
330
16
102
}
330
16
100
AcDbMlineStyle
  2
STANDARD
 70
     0
  3

 62
   256
 51
90.0
 52
90.0
 71
     2
 49
0.5
 62
   256
  6
BYLAYER
 49
-0.5
 62
   256
  6
BYLAYER
  0
ACDBPLACEHOLDER
  5
F
102
{ACAD_REACTORS
330
E
102
}
330
E
  0
DICTIONARYVAR
  5
1DED
102
{ACAD_REACTORS
330
246
102
}
330
246
100
DictionaryVariables
280
     0
  1
1
  0
DICTIONARYVAR
  5
1DEE
102
{ACAD_REACTORS
330
246
102
}
330
246
100
DictionaryVariables
280
     0
  1

  0
DICTIONARYVAR
  5
247
102
{ACAD_REACTORS
330
246
102
}
330
246
100
DictionaryVariables
280
     0
  1
96
  0
ENDSEC
  0
EOF
