  0
SECTION
  2
HEADER
  9
$ACADVER
  1
AC1018
  9
$ACADMAINTVER
 70
     2
  9
$DWGCODEPAGE
  3
ANSI_1252
  9
$INSBASE
 10
0.0
 20
0.0
 30
0.0
  9
$EXTMIN
 10
-0.025627235270008
 20
-0.0362442327398185
 30
-0.0000000000000099
  9
$EXTMAX
 10
420.0256404375887
 20
594.0362629045889
 30
0.0000000000000054
  9
$LIMMIN
 10
0.0
 20
0.0
  9
$LIMMAX
 10
419.9999999999999
 20
594.0
  9
$ORTHOMODE
 70
     1
  9
$REGENMODE
 70
     1
  9
$FILLMODE
 70
     1
  9
$QTEXTMODE
 70
     0
  9
$MIRRTEXT
 70
     1
  9
$LTSCALE
 40
20.0
  9
$ATTMODE
 70
     1
  9
$TEXTSIZE
 40
3.5
  9
$TRACEWID
 40
0.5
  9
$TEXTSTYLE
  7
STANDARD
  9
$CLAYER
  8
SCHRAFF
  9
$CELTYPE
  6
ByLayer
  9
$CECOLOR
 62
   256
  9
$CELTSCALE
 40
1.0
  9
$DISPSILH
 70
     0
  9
$DIMSCALE
 40
2.0
  9
$DIMASZ
 40
3.5
  9
$DIMEXO
 40
1.0
  9
$DIMDLI
 40
7.0
  9
$DIMRND
 40
0.0
  9
$DIMDLE
 40
0.0
  9
$DIMEXE
 40
1.0
  9
$DIMTP
 40
0.0
  9
$DIMTM
 40
0.0
  9
$DIMTXT
 40
3.5
  9
$DIMCEN
 40
1.5
  9
$DIMTSZ
 40
0.0
  9
$DIMTOL
 70
     0
  9
$DIMLIM
 70
     0
  9
$DIMTIH
 70
     0
  9
$DIMTOH
 70
     0
  9
$DIMSE1
 70
     0
  9
$DIMSE2
 70
     0
  9
$DIMTAD
 70
     1
  9
$DIMZIN
 70
     8
  9
$DIMBLK
  1

  9
$DIMASO
 70
     1
  9
$DIMSHO
 70
     0
  9
$DIMPOST
  1

  9
$DIMAPOST
  1

  9
$DIMALT
 70
     0
  9
$DIMALTD
 70
     2
  9
$DIMALTF
 40
25.4
  9
$DIMLFAC
 40
1.0
  9
$DIMTOFL
 70
     1
  9
$DIMTVP
 40
0.0
  9
$DIMTIX
 70
     0
  9
$DIMSOXD
 70
     0
  9
$DIMSAH
 70
     0
  9
$DIMBLK1
  1

  9
$DIMBLK2
  1

  9
$DIMSTYLE
  2
Standard
  9
$DIMCLRD
 70
     0
  9
$DIMCLRE
 70
     0
  9
$DIMCLRT
 70
     1
  9
$DIMTFAC
 40
0.5142857142857144
  9
$DIMGAP
 40
1.5
  9
$DIMJUST
 70
     0
  9
$DIMSD1
 70
     0
  9
$DIMSD2
 70
     0
  9
$DIMTOLJ
 70
     1
  9
$DIMTZIN
 70
     8
  9
$DIMALTZ
 70
     8
  9
$DIMALTTZ
 70
     8
  9
$DIMUPT
 70
     0
  9
$DIMDEC
 70
     2
  9
$DIMTDEC
 70
     2
  9
$DIMALTU
 70
     2
  9
$DIMALTTD
 70
     2
  9
$DIMTXSTY
  7
STANDARD
  9
$DIMAUNIT
 70
     0
  9
$DIMADEC
 70
     2
  9
$DIMALTRND
 40
0.0
  9
$DIMAZIN
 70
     2
  9
$DIMDSEP
 70
    46
  9
$DIMATFIT
 70
     3
  9
$DIMFRAC
 70
     0
  9
$DIMLDRBLK
  1

  9
$DIMLUNIT
 70
     2
  9
$DIMLWD
 70
    -2
  9
$DIMLWE
 70
    -2
  9
$DIMTMOVE
 70
     0
  9
$LUNITS
 70
     2
  9
$LUPREC
 70
     2
  9
$SKETCHINC
 40
1.0
  9
$FILLETRAD
 40
0.0
  9
$AUNITS
 70
     1
  9
$AUPREC
 70
     3
  9
$MENU
  1
ACAD
  9
$ELEVATION
 40
0.0
  9
$PELEVATION
 40
0.0
  9
$THICKNESS
 40
0.0
  9
$LIMCHECK
 70
     0
  9
$CHAMFERA
 40
0.0
  9
$CHAMFERB
 40
0.0
  9
$CHAMFERC
 40
0.0
  9
$CHAMFERD
 40
0.0
  9
$SKPOLY
 70
     0
  9
$TDCREATE
 40
2452040.637099653
  9
$TDUCREATE
 40
2452040.553766320
  9
$TDUPDATE
 40
2455660.350680833
  9
$TDUUPDATE
 40
2455660.267347500
  9
$TDINDWG
 40
0.2668933449
  9
$TDUSRTIMER
 40
0.2668933449
  9
$USRTIMER
 70
     1
  9
$ANGBASE
 50
0.0
  9
$ANGDIR
 70
     0
  9
$PDMODE
 70
     0
  9
$PDSIZE
 40
0.0
  9
$PLINEWID
 40
0.0
  9
$SPLFRAME
 70
     0
  9
$SPLINETYPE
 70
     6
  9
$SPLINESEGS
 70
     8
  9
$HANDSEED
  5
14F2
  9
$SURFTAB1
 70
     6
  9
$SURFTAB2
 70
     6
  9
$SURFTYPE
 70
     6
  9
$SURFU
 70
     6
  9
$SURFV
 70
     6
  9
$UCSBASE
  2

  9
$UCSNAME
  2

  9
$UCSORG
 10
0.0
 20
0.0
 30
0.0
  9
$UCSXDIR
 10
1.0
 20
0.0
 30
0.0
  9
$UCSYDIR
 10
0.0
 20
1.0
 30
0.0
  9
$UCSORTHOREF
  2

  9
$UCSORTHOVIEW
 70
     0
  9
$UCSORGTOP
 10
0.0
 20
0.0
 30
0.0
  9
$UCSORGBOTTOM
 10
0.0
 20
0.0
 30
0.0
  9
$UCSORGLEFT
 10
0.0
 20
0.0
 30
0.0
  9
$UCSORGRIGHT
 10
0.0
 20
0.0
 30
0.0
  9
$UCSORGFRONT
 10
0.0
 20
0.0
 30
0.0
  9
$UCSORGBACK
 10
0.0
 20
0.0
 30
0.0
  9
$PUCSBASE
  2

  9
$PUCSNAME
  2

  9
$PUCSORG
 10
0.0
 20
0.0
 30
0.0
  9
$PUCSXDIR
 10
1.0
 20
0.0
 30
0.0
  9
$PUCSYDIR
 10
0.0
 20
1.0
 30
0.0
  9
$PUCSORTHOREF
  2

  9
$PUCSORTHOVIEW
 70
     0
  9
$PUCSORGTOP
 10
0.0
 20
0.0
 30
0.0
  9
$PUCSORGBOTTOM
 10
0.0
 20
0.0
 30
0.0
  9
$PUCSORGLEFT
 10
0.0
 20
0.0
 30
0.0
  9
$PUCSORGRIGHT
 10
0.0
 20
0.0
 30
0.0
  9
$PUCSORGFRONT
 10
0.0
 20
0.0
 30
0.0
  9
$PUCSORGBACK
 10
0.0
 20
0.0
 30
0.0
  9
$USERI1
 70
     0
  9
$USERI2
 70
     0
  9
$USERI3
 70
     0
  9
$USERI4
 70
     0
  9
$USERI5
 70
     0
  9
$USERR1
 40
0.0
  9
$USERR2
 40
0.0
  9
$USERR3
 40
0.0
  9
$USERR4
 40
0.0
  9
$USERR5
 40
0.0
  9
$WORLDVIEW
 70
     1
  9
$SHADEDGE
 70
     3
  9
$SHADEDIF
 70
    70
  9
$TILEMODE
 70
     1
  9
$MAXACTVP
 70
    16
  9
$PINSBASE
 10
0.0
 20
0.0
 30
0.0
  9
$PLIMCHECK
 70
     0
  9
$PEXTMIN
 10
1.000000000000000E+20
 20
1.000000000000000E+20
 30
1.000000000000000E+20
  9
$PEXTMAX
 10
-1.000000000000000E+20
 20
-1.000000000000000E+20
 30
-1.000000000000000E+20
  9
$PLIMMIN
 10
0.0
 20
0.0
  9
$PLIMMAX
 10
12.0
 20
9.0
  9
$UNITMODE
 70
     0
  9
$VISRETAIN
 70
     0
  9
$PLINEGEN
 70
     0
  9
$PSLTSCALE
 70
     0
  9
$TREEDEPTH
 70
  3020
  9
$CMLSTYLE
  2
Standard
  9
$CMLJUST
 70
     0
  9
$CMLSCALE
 40
1.0
  9
$PROXYGRAPHICS
 70
     1
  9
$MEASUREMENT
 70
     0
  9
$CELWEIGHT
370
    -1
  9
$ENDCAPS
280
     0
  9
$JOINSTYLE
280
     0
  9
$LWDISPLAY
290
     0
  9
$INSUNITS
 70
     0
  9
$HYPERLINKBASE
  1

  9
$STYLESHEET
  1
monochrome 1.ctb
  9
$XEDIT
290
     1
  9
$CEPSNTYPE
380
     0
  9
$PSTYLEMODE
290
     1
  9
$FINGERPRINTGUID
  2
{7AADB5C8-6110-11D8-B72B-000102183313}
  9
$VERSIONGUID
  2
{AFFECCE7-E961-41BA-8CDF-DE62B8EB4F6B}
  9
$EXTNAMES
290
     1
  9
$PSVPSCALE
 40
0.0
  9
$OLESTARTUP
290
     0
  9
$SORTENTS
280
    96
  9
$INDEXCTL
280
     0
  9
$HIDETEXT
280
     0
  9
$XCLIPFRAME
290
     0
  9
$HALOGAP
280
     0
  9
$OBSCOLOR
 70
   257
  9
$OBSLTYPE
280
     0
  9
$INTERSECTIONDISPLAY
280
     0
  9
$INTERSECTIONCOLOR
 70
   257
  9
$DIMASSOC
280
     1
  9
$PROJECTNAME
  1

  0
ENDSEC
  0
SECTION
  2
CLASSES
  0
CLASS
  1
ACDBDICTIONARYWDFLT
  2
AcDbDictionaryWithDefault
  3
ObjectDBX Classes
 90
        0
 91
        1
280
     0
281
     0
  0
CLASS
  1
DICTIONARYVAR
  2
AcDbDictionaryVar
  3
ObjectDBX Classes
 90
        0
 91
        3
280
     0
281
     0
  0
ENDSEC
  0
SECTION
  2
TABLES
  0
TABLE
  2
VPORT
  5
8
330
0
100
AcDbSymbolTable
 70
     3
  0
VPORT
  5
14F1
330
8
100
AcDbSymbolTableRecord
100
AcDbViewportTableRecord
  2
*Active
 70
     0
 10
0.0
 20
0.0
 11
1.0
 21
1.0
 12
210.0
 22
297.0
 13
0.0
 23
0.0
 14
1.0
 24
1.0
 15
10.0
 25
10.0
 16
0.0
 26
0.0
 36
1.0
 17
0.0
 27
0.0
 37
0.0
 40
594.0
 41
1.334231805929919
 42
50.0
 43
0.0
 44
0.0
 50
0.0
 51
0.0
 71
     0
 72
  1500
 73
     1
 74
     0
 75
     0
 76
     0
 77
     0
 78
     0
281
     0
 65
     1
110
0.0
120
0.0
130
0.0
111
1.0
121
0.0
131
0.0
112
0.0
122
1.0
132
0.0
 79
     0
146
0.0
  0
ENDTAB
  0
TABLE
  2
LTYPE
  5
5
330
0
100
AcDbSymbolTable
 70
     2
  0
LTYPE
  5
13
330
5
100
AcDbSymbolTableRecord
100
AcDbLinetypeTableRecord
  2
ByBlock
 70
     0
  3

 72
    65
 73
     0
 40
0.0
  0
LTYPE
  5
14
330
5
100
AcDbSymbolTableRecord
100
AcDbLinetypeTableRecord
  2
ByLayer
 70
     0
  3

 72
    65
 73
     0
 40
0.0
  0
LTYPE
  5
15
330
5
100
AcDbSymbolTableRecord
100
AcDbLinetypeTableRecord
  2
Continuous
 70
     0
  3
Solid line
 72
    65
 73
     0
 40
0.0
  0
LTYPE
  5
35
330
5
100
AcDbSymbolTableRecord
100
AcDbLinetypeTableRecord
  2
STRICHPUNKT
 70
     0
  3
__ . __ . __ . __ . __ . __ . __ . __ . __ . __
 72
    65
 73
     4
 40
1.0
 49
0.5
 74
     0
 49
-0.25
 74
     0
 49
0.0
 74
     0
 49
-0.25
 74
     0
  0
ENDTAB
  0
TABLE
  2
LAYER
  5
2
330
0
100
AcDbSymbolTable
 70
     9
  0
LAYER
  5
10
330
2
100
AcDbSymbolTableRecord
100
AcDbLayerTableRecord
  2
0
 70
     0
 62
     7
  6
Continuous
370
    -3
390
F
  0
LAYER
  5
38
330
2
100
AcDbSymbolTableRecord
100
AcDbLayerTableRecord
  2
VOLL
 70
     0
 62
     1
  6
Continuous
370
    -3
390
F
  0
LAYER
  5
39
330
2
100
AcDbSymbolTableRecord
100
AcDbLayerTableRecord
  2
HILF
 70
     0
 62
     2
  6
Continuous
370
    -3
390
F
  0
LAYER
  5
3A
330
2
100
AcDbSymbolTableRecord
100
AcDbLayerTableRecord
  2
MITTEL
 70
     0
 62
     2
  6
STRICHPUNKT
370
    -3
390
F
  0
LAYER
  5
3B
330
2
100
AcDbSymbolTableRecord
100
AcDbLayerTableRecord
  2
BEM
 70
     0
 62
     7
  6
Continuous
370
    -3
390
F
  0
LAYER
  5
3C
330
2
100
AcDbSymbolTableRecord
100
AcDbLayerTableRecord
  2
STEMPEL
 70
     0
 62
     3
  6
Continuous
370
    -3
390
F
  0
LAYER
  5
3D
330
2
100
AcDbSymbolTableRecord
100
AcDbLayerTableRecord
  2
TEXT
 70
     0
 62
     7
  6
Continuous
370
    -3
390
F
  0
LAYER
  5
3E
330
2
100
AcDbSymbolTableRecord
100
AcDbLayerTableRecord
  2
DEFPOINTS
 70
     0
 62
     7
  6
Continuous
290
     0
370
    -3
390
F
  0
LAYER
  5
3F
330
2
100
AcDbSymbolTableRecord
100
AcDbLayerTableRecord
  2
SCHRAFF
 70
     0
 62
     7
  6
Continuous
370
    -3
390
F
  0
ENDTAB
  0
TABLE
  2
STYLE
  5
3
330
0
100
AcDbSymbolTable
 70
     2
  0
STYLE
  5
11
330
3
100
AcDbSymbolTableRecord
100
AcDbTextStyleTableRecord
  2
STANDARD
 70
     0
 40
0.0
 41
0.8
 50
0.0
 71
     0
 42
3.5
  3
simplex.shx
  4

  0
STYLE
  5
34
330
3
100
AcDbSymbolTableRecord
100
AcDbTextStyleTableRecord
  2
GREEKS
 70
     0
 40
0.0
 41
0.8
 50
0.0
 71
     0
 42
2.5
  3
SIMPLEX.shx
  4

  0
ENDTAB
  0
TABLE
  2
VIEW
  5
6
330
0
100
AcDbSymbolTable
 70
     0
  0
ENDTAB
  0
TABLE
  2
UCS
  5
7
330
0
100
AcDbSymbolTable
 70
     0
  0
ENDTAB
  0
TABLE
  2
APPID
  5
9
330
0
100
AcDbSymbolTable
 70
     1
  0
APPID
  5
12
330
9
100
AcDbSymbolTableRecord
100
AcDbRegAppTableRecord
  2
ACAD
 70
     0
  0
ENDTAB
  0
TABLE
  2
DIMSTYLE
  5
A
330
0
100
AcDbSymbolTable
 70
     1
100
AcDbDimStyleTable
 71
     1
340
1CB
  0
DIMSTYLE
105
1CB
102
{ACAD_REACTORS
330
1DB
330
1E8
330
DBF
330
133D
330
1360
330
1376
102
}
330
A
100
AcDbSymbolTableRecord
100
AcDbDimStyleTableRecord
  2
Standard
 70
     0
340
11
  0
ENDTAB
  0
TABLE
  2
BLOCK_RECORD
  5
1
330
0
100
AcDbSymbolTable
 70
     9
  0
BLOCK_RECORD
  5
1E
330
1
100
AcDbSymbolTableRecord
100
AcDbBlockTableRecord
  2
*Model_Space
340
21
  0
BLOCK_RECORD
  5
1A
330
1
100
AcDbSymbolTableRecord
100
AcDbBlockTableRecord
  2
*Paper_Space
340
1D
  0
BLOCK_RECORD
  5
22
330
1
100
AcDbSymbolTableRecord
100
AcDbBlockTableRecord
  2
LOGO
340
0
102
{BLKREFS
331
135
102
}
  0
BLOCK_RECORD
  5
1DC
330
1
100
AcDbSymbolTableRecord
100
AcDbBlockTableRecord
  2
*D1
340
0
  0
BLOCK_RECORD
  5
1E9
330
1
100
AcDbSymbolTableRecord
100
AcDbBlockTableRecord
  2
*D2
340
0
  0
BLOCK_RECORD
  5
DC0
330
1
100
AcDbSymbolTableRecord
100
AcDbBlockTableRecord
  2
*D4
340
0
  0
BLOCK_RECORD
  5
133E
330
1
100
AcDbSymbolTableRecord
100
AcDbBlockTableRecord
  2
*D6
340
0
  0
BLOCK_RECORD
  5
1361
330
1
100
AcDbSymbolTableRecord
100
AcDbBlockTableRecord
  2
*D7
340
0
  0
BLOCK_RECORD
  5
1377
330
1
100
AcDbSymbolTableRecord
100
AcDbBlockTableRecord
  2
*D8
340
0
  0
ENDTAB
  0
ENDSEC
  0
SECTION
  2
BLOCKS
  0
BLOCK
  5
43
330
1E
100
AcDbEntity
  8
0
100
AcDbBlockBegin
  2
*Model_Space
 70
     0
 10
0.0
 20
0.0
 30
0.0
  3
*Model_Space
  1

  0
ENDBLK
  5
44
330
1E
100
AcDbEntity
  8
0
100
AcDbBlockEnd
  0
BLOCK
  5
41
330
1A
100
AcDbEntity
 67
     1
  8
0
100
AcDbBlockBegin
  2
*Paper_Space
 70
     0
 10
0.0
 20
0.0
 30
0.0
  3
*Paper_Space
  1

  0
ENDBLK
  5
42
330
1A
100
AcDbEntity
 67
     1
  8
0
100
AcDbBlockEnd
  0
BLOCK
  5
45
330
22
100
AcDbEntity
  8
0
100
AcDbBlockBegin
  2
LOGO
 70
     0
 10
0.0
 20
0.0
 30
0.0
  3
LOGO
  1

  0
ARC
  5
46
330
22
100
AcDbEntity
  8
0
100
AcDbCircle
 10
11.59973089678112
 20
-9.271599258481501
 30
0.0
 40
4.5
100
AcDbArc
 50
270.0
 51
231.0575587310159
  0
LINE
  5
47
330
22
100
AcDbEntity
  8
0
100
AcDbLine
 10
3.599730896781125
 20
-4.771599258481529
 30
0.0
 11
3.599730896781153
 21
-11.77159925848133
 31
0.0
  0
LINE
  5
48
330
22
100
AcDbEntity
  8
0
100
AcDbLine
 10
2.599730896781125
 20
-4.771599258481529
 30
0.0
 11
2.599730896781153
 21
-11.77159925848133
 31
0.0
  0
CIRCLE
  5
49
330
22
100
AcDbEntity
  8
0
100
AcDbCircle
 10
11.59973089678112
 20
-9.271599258481501
 30
0.0
 40
3.5
  0
ARC
  5
4A
330
22
100
AcDbEntity
  8
0
100
AcDbCircle
 10
31.59973089678115
 20
-9.271599258481472
 30
0.0
 40
4.5
100
AcDbArc
 50
270.0
 51
231.0575587310182
  0
LINE
  5
4B
330
22
100
AcDbEntity
  8
0
100
AcDbLine
 10
17.59973089678112
 20
-4.771599258481472
 30
0.0
 11
17.59973089678115
 21
-13.77159925848147
 31
0.0
  0
ARC
  5
4C
330
22
100
AcDbEntity
  8
0
100
AcDbCircle
 10
22.59973089678116
 20
-7.271599258481472
 30
0.0
 40
2.5
100
AcDbArc
 50
293.1161887722295
 51
90.0
  0
CIRCLE
  5
4D
330
22
100
AcDbEntity
  8
0
100
AcDbCircle
 10
31.59973089678115
 20
-9.271599258481472
 30
0.0
 40
3.5
  0
ARC
  5
4E
330
22
100
AcDbEntity
  8
0
100
AcDbCircle
 10
4.599730896781153
 20
-11.77159925848133
 30
0.0
 40
1.0
100
AcDbArc
 50
180.0
 51
270.0
  0
ARC
  5
4F
330
22
100
AcDbEntity
  8
0
100
AcDbCircle
 10
4.599730896781153
 20
-11.77159925848133
 30
0.0
 40
2.0
100
AcDbArc
 50
179.9999999999992
 51
270.0
  0
LINE
  5
50
330
22
100
AcDbEntity
  8
0
100
AcDbLine
 10
11.59973089678115
 20
-13.77159925848144
 30
0.0
 11
4.599730896781153
 21
-13.77159925848147
 31
0.0
  0
LINE
  5
51
330
22
100
AcDbEntity
  8
0
100
AcDbLine
 10
8.771303772034769
 20
-12.77159925848136
 30
0.0
 11
4.599730896781153
 21
-12.77159925848133
 31
0.0
  0
LINE
  5
52
330
22
100
AcDbEntity
  8
0
100
AcDbLine
 10
31.59973089678115
 20
-13.77159925848147
 30
0.0
 11
23.6715276665056
 21
-13.77159925848144
 31
0.0
  0
LINE
  5
53
330
22
100
AcDbEntity
  8
0
100
AcDbLine
 10
23.56565672307022
 20
-9.51278021337896
 30
0.0
 11
24.4388546544846
 21
-12.77159925848144
 31
0.0
  0
LINE
  5
54
330
22
100
AcDbEntity
  8
0
100
AcDbLine
 10
22.59973089678116
 20
-9.771599258481472
 30
0.0
 11
18.59973089678112
 21
-9.771599258481472
 31
0.0
  0
LINE
  5
55
330
22
100
AcDbEntity
  8
0
100
AcDbLine
 10
18.59973089678115
 20
-13.77159925848144
 30
0.0
 11
17.59973089678115
 21
-13.77159925848144
 31
0.0
  0
LINE
  5
56
330
22
100
AcDbEntity
  8
0
100
AcDbLine
 10
18.59973089678115
 20
-9.771599258481472
 30
0.0
 11
18.59973089678115
 21
-13.77159925848144
 31
0.0
  0
LINE
  5
57
330
22
100
AcDbEntity
  8
0
100
AcDbLine
 10
22.59973089678116
 20
-9.771599258481472
 30
0.0
 11
23.67152766650562
 21
-13.77159925848147
 31
0.0
  0
ARC
  5
58
330
22
100
AcDbEntity
  8
0
100
AcDbCircle
 10
22.59973089678116
 20
-7.271599258481472
 30
0.0
 40
2.5
100
AcDbArc
 50
270.0
 51
270.0000000000007
  0
LINE
  5
59
330
22
100
AcDbEntity
  8
0
100
AcDbLine
 10
28.77130377203494
 20
-12.77159925848147
 30
0.0
 11
24.43885465448463
 21
-12.77159925848144
 31
0.0
  0
LINE
  5
5A
330
22
100
AcDbEntity
  8
0
100
AcDbLine
 10
3.599730896781125
 20
-4.771599258481472
 30
0.0
 11
2.599730896781125
 21
-4.771599258481472
 31
0.0
  0
LINE
  5
5B
330
22
100
AcDbEntity
  8
0
100
AcDbLine
 10
22.59973089678116
 20
-8.771599258481472
 30
0.0
 11
18.59973089678115
 21
-8.771599258481472
 31
0.0
  0
LINE
  5
5C
330
22
100
AcDbEntity
  8
0
100
AcDbLine
 10
22.59973089678116
 20
-5.771599258481472
 30
0.0
 11
18.59973089678115
 21
-5.771599258481472
 31
0.0
  0
LINE
  5
5D
330
22
100
AcDbEntity
  8
0
100
AcDbLine
 10
22.59973089678116
 20
-4.771599258481472
 30
0.0
 11
17.59973089678115
 21
-4.771599258481472
 31
0.0
  0
LINE
  5
5E
330
22
100
AcDbEntity
  8
0
100
AcDbLine
 10
18.59973089678115
 20
-5.771599258481472
 30
0.0
 11
18.59973089678115
 21
-8.771599258481472
 31
0.0
  0
ARC
  5
5F
330
22
100
AcDbEntity
  8
0
100
AcDbCircle
 10
22.59973089678116
 20
-7.271599258481472
 30
0.0
 40
1.5
100
AcDbArc
 50
270.0
 51
90.0
  0
ENDBLK
  5
60
330
22
100
AcDbEntity
  8
0
100
AcDbBlockEnd
  0
BLOCK
  5
1E6
330
1DC
100
AcDbEntity
  8
0
100
AcDbBlockBegin
  2
*D1
 70
     1
 10
0.0
 20
0.0
 30
0.0
  3
*D1
  1

  0
LINE
  5
14E7
330
1DC
100
AcDbEntity
  8
BEM
 62
     0
370
    -2
100
AcDbLine
 10
115.4230395158891
 20
213.9324536215266
 30
0.0
 11
80.58950404259119
 21
213.9324536215266
 31
0.0
  0
LINE
  5
14E8
330
1DC
100
AcDbEntity
  8
BEM
 62
     0
370
    -2
100
AcDbLine
 10
109.3930860021861
 20
513.9357465258568
 30
0.0
 11
80.58950404259126
 21
513.9357465258568
 31
0.0
  0
LINE
  5
14E9
330
1DC
100
AcDbEntity
  8
BEM
 62
     0
370
    -2
100
AcDbLine
 10
82.58950404259119
 20
220.9324536215266
 30
0.0
 11
82.58950404259126
 21
506.9357465258567
 31
0.0
  0
SOLID
  5
14EA
330
1DC
100
AcDbEntity
  8
BEM
 62
     0
100
AcDbTrace
 10
81.42283737592451
 20
220.9324536215266
 30
0.0
 11
83.75617070925786
 21
220.9324536215266
 31
0.0
 12
82.58950404259119
 22
213.9324536215266
 32
0.0
 13
82.58950404259119
 23
213.9324536215266
 33
0.0
  0
SOLID
  5
14EB
330
1DC
100
AcDbEntity
  8
BEM
 62
     0
100
AcDbTrace
 10
81.42283737592459
 20
506.9357465258567
 30
0.0
 11
83.75617070925793
 21
506.9357465258567
 31
0.0
 12
82.58950404259126
 22
513.9357465258568
 32
0.0
 13
82.58950404259126
 23
513.9357465258568
 33
0.0
  0
MTEXT
  5
14EC
330
1DC
100
AcDbEntity
  8
BEM
 62
     1
100
AcDbMText
 10
76.08950404259117
 20
363.9341000736917
 30
0.0
 40
7.0
 41
0.0
 71
     5
 72
     1
  1
\A1;300
 11
0.0000000000000001
 21
1.0
 31
0.0
 73
     1
 44
1.0
  0
POINT
  5
14ED
330
1DC
100
AcDbEntity
  8
DEFPOINTS
 62
     0
100
AcDbPoint
 10
117.4230395158891
 20
213.9324536215266
 30
0.0
  0
POINT
  5
14EE
330
1DC
100
AcDbEntity
  8
DEFPOINTS
 62
     0
100
AcDbPoint
 10
111.3930860021861
 20
513.9357465258568
 30
0.0
  0
POINT
  5
14EF
330
1DC
100
AcDbEntity
  8
DEFPOINTS
 62
     0
100
AcDbPoint
 10
82.58950404259126
 20
513.9357465258568
 30
0.0
  0
ENDBLK
  5
1E7
330
1DC
100
AcDbEntity
  8
0
100
AcDbBlockEnd
  0
BLOCK
  5
1F3
330
1E9
100
AcDbEntity
  8
0
100
AcDbBlockBegin
  2
*D2
 70
     1
 10
0.0
 20
0.0
 30
0.0
  3
*D2
  1

  0
LINE
  5
14D5
330
1E9
100
AcDbEntity
  8
BEM
 62
     0
370
    -2
100
AcDbLine
 10
116.5481528806299
 20
221.9324536215266
 30
0.0
 11
116.5481528806299
 21
185.8085106388581
 31
0.0
  0
LINE
  5
14D6
330
1E9
100
AcDbEntity
  8
BEM
 62
     0
370
    -2
100
AcDbLine
 10
249.5481528806304
 20
221.9324536215269
 30
0.0
 11
249.5481528806304
 21
185.8085106388581
 31
0.0
  0
LINE
  5
14D7
330
1E9
100
AcDbEntity
  8
BEM
 62
     0
370
    -2
100
AcDbLine
 10
123.5481528806299
 20
187.8085106388581
 30
0.0
 11
242.5481528806304
 21
187.8085106388581
 31
0.0
  0
SOLID
  5
14D8
330
1E9
100
AcDbEntity
  8
BEM
 62
     0
100
AcDbTrace
 10
123.5481528806299
 20
188.9751773055248
 30
0.0
 11
123.5481528806299
 21
186.6418439721915
 31
0.0
 12
116.5481528806299
 22
187.8085106388581
 32
0.0
 13
116.5481528806299
 23
187.8085106388581
 33
0.0
  0
SOLID
  5
14D9
330
1E9
100
AcDbEntity
  8
BEM
 62
     0
100
AcDbTrace
 10
242.5481528806304
 20
188.9751773055248
 30
0.0
 11
242.5481528806304
 21
186.6418439721915
 31
0.0
 12
249.5481528806304
 22
187.8085106388581
 32
0.0
 13
249.5481528806304
 23
187.8085106388581
 33
0.0
  0
MTEXT
  5
14DA
330
1E9
100
AcDbEntity
  8
BEM
 62
     1
100
AcDbMText
 10
183.0481528806301
 20
194.3085106388581
 30
0.0
 40
7.0
 41
0.0
 71
     5
 72
     1
  1
\A1;%%c133
 73
     1
 44
1.0
  0
POINT
  5
14DB
330
1E9
100
AcDbEntity
  8
DEFPOINTS
 62
     0
100
AcDbPoint
 10
116.5481528806299
 20
223.9324536215266
 30
0.0
  0
POINT
  5
14DC
330
1E9
100
AcDbEntity
  8
DEFPOINTS
 62
     0
100
AcDbPoint
 10
249.5481528806304
 20
223.9324536215269
 30
0.0
  0
POINT
  5
14DD
330
1E9
100
AcDbEntity
  8
DEFPOINTS
 62
     0
100
AcDbPoint
 10
249.5481528806304
 20
187.8085106388581
 30
0.0
  0
ENDBLK
  5
1F4
330
1E9
100
AcDbEntity
  8
0
100
AcDbBlockEnd
  0
BLOCK
  5
DCA
330
DC0
100
AcDbEntity
  8
0
100
AcDbBlockBegin
  2
*D4
 70
     1
 10
0.0
 20
0.0
 30
0.0
  3
*D4
  1

  0
LINE
  5
14DE
330
DC0
100
AcDbEntity
  8
BEM
 62
     0
370
    -2
100
AcDbLine
 10
115.4230395158891
 20
213.9324536215266
 30
0.0
 11
97.10654611867491
 21
213.9324536215266
 31
0.0
  0
LINE
  5
14DF
330
DC0
100
AcDbEntity
  8
BEM
 62
     0
370
    -2
100
AcDbLine
 10
181.0481528806298
 20
353.9324536215267
 30
0.0
 11
97.10654611867497
 21
353.9324536215268
 31
0.0
  0
LINE
  5
14E0
330
DC0
100
AcDbEntity
  8
BEM
 62
     0
370
    -2
100
AcDbLine
 10
99.10654611867492
 20
220.9324536215266
 30
0.0
 11
99.10654611867494
 21
346.9324536215268
 31
0.0
  0
SOLID
  5
14E1
330
DC0
100
AcDbEntity
  8
BEM
 62
     0
100
AcDbTrace
 10
97.93987945200825
 20
220.9324536215266
 30
0.0
 11
100.2732127853416
 21
220.9324536215266
 31
0.0
 12
99.10654611867492
 22
213.9324536215266
 32
0.0
 13
99.10654611867492
 23
213.9324536215266
 33
0.0
  0
SOLID
  5
14E2
330
DC0
100
AcDbEntity
  8
BEM
 62
     0
100
AcDbTrace
 10
97.93987945200827
 20
346.9324536215268
 30
0.0
 11
100.2732127853416
 21
346.9324536215268
 31
0.0
 12
99.10654611867496
 22
353.9324536215268
 32
0.0
 13
99.10654611867496
 23
353.9324536215268
 33
0.0
  0
MTEXT
  5
14E3
330
DC0
100
AcDbEntity
  8
BEM
 62
     1
100
AcDbMText
 10
92.60654611867488
 20
283.9324536215267
 30
0.0
 40
7.0
 41
0.0
 71
     5
 72
     1
  1
\A1;140
 11
0.0000000000000001
 21
1.0
 31
0.0
 73
     1
 44
1.0
  0
POINT
  5
14E4
330
DC0
100
AcDbEntity
  8
DEFPOINTS
 62
     0
100
AcDbPoint
 10
117.4230395158891
 20
213.9324536215266
 30
0.0
  0
POINT
  5
14E5
330
DC0
100
AcDbEntity
  8
DEFPOINTS
 62
     0
100
AcDbPoint
 10
183.0481528806298
 20
353.9324536215267
 30
0.0
  0
POINT
  5
14E6
330
DC0
100
AcDbEntity
  8
DEFPOINTS
 62
     0
100
AcDbPoint
 10
99.10654611867496
 20
353.9324536215268
 30
0.0
  0
ENDBLK
  5
DCB
330
DC0
100
AcDbEntity
  8
0
100
AcDbBlockEnd
  0
BLOCK
  5
1348
330
133E
100
AcDbEntity
  8
0
100
AcDbBlockBegin
  2
*D6
 70
     1
 10
0.0
 20
0.0
 30
0.0
  3
*D6
  1

  0
LINE
  5
14B8
330
133E
100
AcDbEntity
  8
BEM
 62
     0
370
    -2
100
AcDbLine
 10
183.1528247931157
 20
351.9351945520177
 30
0.0
 11
186.09520038378
 21
295.7913237199198
 31
0.0
  0
LINE
  5
14B9
330
133E
100
AcDbEntity
  8
BEM
 62
     0
370
    -2
100
AcDbLine
 10
334.9890826736585
 20
320.8251951748431
 30
0.0
 11
335.8896305969661
 21
303.6417171563616
 31
0.0
  0
LINE
  5
14BA
330
133E
100
AcDbEntity
  8
BEM
 62
     0
370
    -2
100
AcDbLine
 10
192.9809352145761
 20
298.1549344831296
 30
0.0
 11
328.7945519411982
 21
305.2726245321701
 31
0.0
  0
SOLID
  5
14BB
330
133E
100
AcDbEntity
  8
BEM
 62
     0
100
AcDbTrace
 10
192.9198765989593
 20
299.3200022736766
 30
0.0
 11
193.0419938301929
 21
296.9898666925825
 31
0.0
 12
185.9905284712941
 22
297.788582789429
 32
0.0
 13
185.9905284712941
 23
297.788582789429
 33
0.0
  0
SOLID
  5
14BC
330
133E
100
AcDbEntity
  8
BEM
 62
     0
100
AcDbTrace
 10
328.7334933255814
 20
306.4376923227172
 30
0.0
 11
328.855610556815
 21
304.1075567416231
 31
0.0
 12
335.7849586844802
 22
305.6389762258707
 32
0.0
 13
335.7849586844802
 23
305.6389762258707
 33
0.0
  0
MTEXT
  5
14BD
330
133E
100
AcDbEntity
  8
BEM
 62
     1
100
AcDbMText
 10
267.1796988746423
 20
308.5524471610875
 30
0.0
 40
7.0
 41
0.0
 71
     5
 72
     1
  1
\A1;150
 11
0.9986295347545738
 21
0.0523359562429453
 31
0.0
 73
     1
 44
1.0
  0
POINT
  5
14BE
330
133E
100
AcDbEntity
  8
DEFPOINTS
 62
     0
100
AcDbPoint
 10
183.0481528806298
 20
353.9324536215268
 30
0.0
  0
POINT
  5
14BF
330
133E
100
AcDbEntity
  8
DEFPOINTS
 62
     0
100
AcDbPoint
 10
334.8844107611726
 20
322.8224542443523
 30
0.0
  0
POINT
  5
14C0
330
133E
100
AcDbEntity
  8
DEFPOINTS
 62
     0
100
AcDbPoint
 10
335.7849586844802
 20
305.6389762258707
 30
0.0
  0
ENDBLK
  5
1349
330
133E
100
AcDbEntity
  8
0
100
AcDbBlockEnd
  0
BLOCK
  5
136B
330
1361
100
AcDbEntity
  8
0
100
AcDbBlockBegin
  2
*D7
 70
     1
 10
0.0
 20
0.0
 30
0.0
  3
*D7
  1

  0
LINE
  5
14CC
330
1361
100
AcDbEntity
  8
BEM
 62
     0
370
    -2
100
AcDbLine
 10
247.5508938111206
 20
393.8629896602872
 30
0.0
 11
203.9966612332727
 21
391.5804090525051
 31
0.0
  0
LINE
  5
14CD
330
1361
100
AcDbEntity
  8
BEM
 62
     0
370
    -2
100
AcDbLine
 10
247.5508938111206
 20
320.7628084024392
 30
0.0
 11
207.8171860390076
 21
318.6804530154213
 31
0.0
  0
LINE
  5
14CE
330
1361
100
AcDbEntity
  8
BEM
 62
     0
370
    -2
100
AcDbLine
 10
206.3602719964825
 20
384.694674221709
 30
0.0
 11
209.4480934148161
 21
325.7755316711893
 31
0.0
  0
SOLID
  5
14CF
330
1361
100
AcDbEntity
  8
BEM
 62
     0
100
AcDbTrace
 10
207.5253397870294
 20
384.7557328373257
 30
0.0
 11
205.1952042059355
 21
384.6336156060922
 31
0.0
 12
205.9939203027818
 22
391.685080964991
 32
0.0
 13
205.9939203027818
 23
391.685080964991
 33
0.0
  0
SOLID
  5
14D0
330
1361
100
AcDbEntity
  8
BEM
 62
     0
100
AcDbTrace
 10
210.6131612053632
 20
325.836590286806
 30
0.0
 11
208.2830256242691
 21
325.7144730555725
 31
0.0
 12
209.8144451085168
 22
318.7851249279073
 32
0.0
 13
209.8144451085168
 23
318.7851249279073
 33
0.0
  0
MTEXT
  5
14D1
330
1361
100
AcDbEntity
  8
BEM
 62
     1
100
AcDbMText
 10
214.3952746815541
 20
355.5752866620283
 30
0.0
 40
7.0
 41
0.0
 71
     5
 72
     1
  1
\A1;%%c73
 11
0.0523359562429442
 21
-0.9986295347545739
 31
0.0
 73
     1
 44
1.0
  0
POINT
  5
14D2
330
1361
100
AcDbEntity
  8
DEFPOINTS
 62
     0
100
AcDbPoint
 10
249.5481528806298
 20
393.9676615727731
 30
0.0
  0
POINT
  5
14D3
330
1361
100
AcDbEntity
  8
DEFPOINTS
 62
     0
100
AcDbPoint
 10
249.5481528806298
 20
320.867480314925
 30
0.0
  0
POINT
  5
14D4
330
1361
100
AcDbEntity
  8
DEFPOINTS
 62
     0
100
AcDbPoint
 10
209.8144451085168
 20
318.7851249279073
 30
0.0
  0
ENDBLK
  5
136C
330
1361
100
AcDbEntity
  8
0
100
AcDbBlockEnd
  0
BLOCK
  5
1383
330
1377
100
AcDbEntity
  8
0
100
AcDbBlockBegin
  2
*D8
 70
     1
 10
0.0
 20
0.0
 30
0.0
  3
*D8
  1

  0
LINE
  5
14C1
330
1377
100
AcDbEntity
  8
BEM
 62
     0
370
    -2
100
AcDbLine
 10
339.832989837098
 20
362.1491987516689
 30
0.0
 11
373.1435042685605
 21
363.8949288397977
 31
0.0
  0
LINE
  5
14C2
330
1377
100
AcDbEntity
  8
BEM
 62
     0
370
    -2
100
AcDbLine
 10
183.0481528806298
 20
520.9357465258566
 30
0.0
 11
183.0481528806299
 21
544.2886816041582
 31
0.0
  0
ARC
  5
14C3
330
1377
100
AcDbEntity
  8
BEM
 62
     0
370
    -2
100
AcDbCircle
 10
183.0481528806298
 20
353.9324536215269
 30
0.0
 40
188.3562279826314
100
AcDbArc
 50
5.129441351591302
 51
87.87055864840869
  0
SOLID
  5
14C4
330
1377
100
AcDbEntity
  8
BEM
 62
     0
100
AcDbTrace
 10
371.8137943891827
 20
370.8553463952426
 30
0.0
 11
369.486330281198
 21
370.6899521072889
 31
0.0
 12
371.1462451990514
 22
363.7902569273118
 32
0.0
 13
371.1462451990514
 23
363.7902569273118
 33
0.0
  0
SOLID
  5
14C5
330
1377
100
AcDbEntity
  8
BEM
 62
     0
100
AcDbTrace
 10
190.0252655026666
 20
540.9921436870389
 30
0.0
 11
190.0686230637844
 21
543.3250741545708
 31
0.0
 12
183.0481528806299
 22
542.2886816041581
 32
0.0
 13
183.0481528806299
 23
542.2886816041581
 33
0.0
  0
MTEXT
  5
14C6
330
1377
100
AcDbEntity
  8
BEM
 62
     1
100
AcDbMText
 10
317.1783290148995
 20
495.2761674322549
 30
0.0
 40
7.0
 41
0.0
 71
     5
 72
     1
  1
\A1;87°
 11
0.725374371012287
 21
-0.6883545756937547
 31
0.0
 73
     1
 44
1.0
  0
POINT
  5
14C7
330
1377
100
AcDbEntity
  8
DEFPOINTS
 62
     0
100
AcDbPoint
 10
342.7832934205061
 20
453.7460473678246
 30
0.0
  0
POINT
  5
14C8
330
1377
100
AcDbEntity
  8
DEFPOINTS
 62
     0
100
AcDbPoint
 10
183.0481528806298
 20
518.9357465258566
 30
0.0
  0
POINT
  5
14C9
330
1377
100
AcDbEntity
  8
DEFPOINTS
 62
     0
100
AcDbPoint
 10
337.8357307675888
 20
362.0445268391831
 30
0.0
  0
POINT
  5
14CA
330
1377
100
AcDbEntity
  8
DEFPOINTS
 62
     0
100
AcDbPoint
 10
183.0481528806299
 20
353.9324536215268
 30
0.0
  0
POINT
  5
14CB
330
1377
100
AcDbEntity
  8
DEFPOINTS
 62
     0
100
AcDbPoint
 10
183.0481528806299
 20
208.9324536215269
 30
0.0
  0
ENDBLK
  5
1384
330
1377
100
AcDbEntity
  8
0
100
AcDbBlockEnd
  0
ENDSEC
  0
SECTION
  2
ENTITIES
  0
LINE
  5
12A
330
1E
100
AcDbEntity
  8
STEMPEL
100
AcDbLine
 10
254.7032197590738
 20
513.9357465258568
 30
0.0
 11
111.3930860021861
 21
513.9357465258568
 31
0.0
  0
TEXT
  5
134
330
1E
100
AcDbEntity
  8
TEXT
100
AcDbText
 10
204.4216048581257
 20
63.0896391972351
 30
0.0
 40
4.0
  1
Koeh
 41
0.8
  7
GREEKS
 72
     1
 11
209.6787477152686
 21
63.0896391972351
 31
0.0
100
AcDbText
  0
INSERT
  5
135
330
1E
100
AcDbEntity
  8
STEMPEL
100
AcDbBlockReference
  2
LOGO
 10
150.9955485457794
 20
45.02105276448322
 30
0.0
 41
2.0
 42
2.0
 43
2.0
  0
LINE
  5
136
330
1E
100
AcDbEntity
  8
HILF
100
AcDbLine
 10
420.0
 20
0.0
 30
0.0
 11
0.0
 21
0.0
 31
0.0
  0
LINE
  5
137
330
1E
100
AcDbEntity
  8
HILF
100
AcDbLine
 10
419.9999999999999
 20
594.0000000000002
 30
0.0
 11
0.0
 21
594.0
 31
0.0
  0
LINE
  5
138
330
1E
100
AcDbEntity
  8
STEMPEL
100
AcDbLine
 10
410.0
 20
584.0
 30
0.0
 11
39.99999999999989
 21
584.0
 31
0.0
  0
LINE
  5
139
330
1E
100
AcDbEntity
  8
STEMPEL
100
AcDbLine
 10
410.0
 20
10.0
 30
0.0
 11
39.99999999999989
 21
10.0
 31
0.0
  0
LINE
  5
13A
330
1E
100
AcDbEntity
  8
STEMPEL
100
AcDbLine
 10
49.99999999999989
 20
10.0
 30
0.0
 11
410.0
 21
10.0
 31
0.0
  0
TEXT
  5
13B
330
1E
100
AcDbEntity
  8
TEXT
100
AcDbText
 10
202.4626584226295
 20
73.30961091915225
 30
0.0
 40
4.0
  1
Name
 41
0.8
  7
GREEKS
100
AcDbText
  0
TEXT
  5
13C
330
1E
100
AcDbEntity
  8
TEXT
100
AcDbText
 10
196.5498279101549
 20
102.6506227776589
 30
0.0
 40
5.0
  1
Zul. Abw.
 41
0.8
  7
GREEKS
 72
     4
 11
209.9783993387263
 21
105.1506227776589
 31
0.0
100
AcDbText
  0
LINE
  5
13D
330
1E
100
AcDbEntity
  8
HILF
100
AcDbLine
 10
146.0000000000001
 20
49.99999999999997
 30
0.0
 11
230.0
 21
49.99999999999997
 31
0.0
  0
LINE
  5
13E
330
1E
100
AcDbEntity
  8
HILF
100
AcDbLine
 10
146.0000000000001
 20
59.99999999999997
 30
0.0
 11
230.0
 21
59.99999999999997
 31
0.0
  0
LINE
  5
13F
330
1E
100
AcDbEntity
  8
HILF
100
AcDbLine
 10
146.0000000000001
 20
69.99999999999994
 30
0.0
 11
230.0
 21
69.99999999999994
 31
0.0
  0
LINE
  5
140
330
1E
100
AcDbEntity
  8
STEMPEL
100
AcDbLine
 10
410.0
 20
80.0
 30
0.0
 11
146.0000000000001
 21
79.99999999999994
 31
0.0
  0
LINE
  5
141
330
1E
100
AcDbEntity
  8
STEMPEL
100
AcDbLine
 10
410.0
 20
40.0
 30
0.0
 11
146.0000000000001
 21
39.99999999999997
 31
0.0
  0
LINE
  5
142
330
1E
100
AcDbEntity
  8
STEMPEL
100
AcDbLine
 10
410.0
 20
110.0
 30
0.0
 11
39.99999999999997
 21
110.0
 31
0.0
  0
LINE
  5
143
330
1E
100
AcDbEntity
  8
MITTEL
100
AcDbLine
 10
183.0481528806298
 20
518.9357465258567
 30
0.0
 11
183.0481528806298
 21
208.9324536215269
 31
0.0
  0
LINE
  5
144
330
1E
100
AcDbEntity
  8
HILF
100
AcDbLine
 10
0.0
 20
0.0
 30
0.0
 11
-0.0000000000001137
 21
594.0
 31
0.0
  0
LINE
  5
145
330
1E
100
AcDbEntity
  8
STEMPEL
100
AcDbLine
 10
40.0
 20
10.0
 30
0.0
 11
39.99999999999989
 21
584.0
 31
0.0
  0
LINE
  5
148
330
1E
100
AcDbEntity
  8
HILF
100
AcDbLine
 10
40.00000000000008
 20
39.99999999999997
 30
0.0
 11
146.0000000000001
 21
39.99999999999997
 31
0.0
  0
LINE
  5
149
330
1E
100
AcDbEntity
  8
HILF
100
AcDbLine
 10
40.00000000000008
 20
49.99999999999997
 30
0.0
 11
146.0000000000001
 21
49.99999999999997
 31
0.0
  0
LINE
  5
14A
330
1E
100
AcDbEntity
  8
HILF
100
AcDbLine
 10
40.00000000000008
 20
59.99999999999997
 30
0.0
 11
146.0000000000001
 21
59.99999999999997
 31
0.0
  0
LINE
  5
14B
330
1E
100
AcDbEntity
  8
HILF
100
AcDbLine
 10
40.00000000000008
 20
69.99999999999994
 30
0.0
 11
146.0000000000001
 21
69.99999999999994
 31
0.0
  0
LINE
  5
14C
330
1E
100
AcDbEntity
  8
HILF
100
AcDbLine
 10
40.00000000000008
 20
79.99999999999994
 30
0.0
 11
146.0000000000001
 21
79.99999999999994
 31
0.0
  0
LINE
  5
14D
330
1E
100
AcDbEntity
  8
HILF
100
AcDbLine
 10
40.00000000000008
 20
90.00000000000005
 30
0.0
 11
146.0000000000001
 21
90.00000000000005
 31
0.0
  0
LINE
  5
14E
330
1E
100
AcDbEntity
  8
HILF
100
AcDbLine
 10
40.00000000000008
 20
100.0
 30
0.0
 11
146.0000000000001
 21
100.0
 31
0.0
  0
LINE
  5
14F
330
1E
100
AcDbEntity
  8
STEMPEL
100
AcDbLine
 10
145.9999999999999
 20
29.99999999999997
 30
0.0
 11
39.99999999999997
 21
29.99999999999997
 31
0.0
  0
TEXT
  5
150
330
1E
100
AcDbEntity
  8
TEXT
100
AcDbText
 10
48.26641107045756
 20
13.65465846027192
 30
0.0
 40
4.0
  1
Index
 50
90.0
 41
0.8
  7
GREEKS
100
AcDbText
  0
LINE
  5
151
330
1E
100
AcDbEntity
  8
VOLL
100
AcDbLine
 10
54.00000000000009
 20
110.0
 30
0.0
 11
53.99999999999997
 21
9.999999999999971
 31
0.0
  0
LINE
  5
152
330
1E
100
AcDbEntity
  8
HILF
100
AcDbLine
 10
31.08767135713856
 20
297.0
 30
0.0
 11
0.0000000000001137
 21
297.0
 31
0.0
  0
LINE
  5
154
330
1E
100
AcDbEntity
  8
VOLL
100
AcDbLine
 10
124.0000000000001
 20
109.9999999999999
 30
0.0
 11
124.0
 21
9.999999999999971
 31
0.0
  0
LINE
  5
155
330
1E
100
AcDbEntity
  8
VOLL
100
AcDbLine
 10
104.0000000000001
 20
109.9999999999999
 30
0.0
 11
104.0
 21
9.999999999999971
 31
0.0
  0
LINE
  5
157
330
1E
100
AcDbEntity
  8
STEMPEL
100
AcDbLine
 10
146.0000000000001
 20
109.9999999999999
 30
0.0
 11
146.0
 21
9.999999999999971
 31
0.0
  0
TEXT
  5
159
330
1E
100
AcDbEntity
  8
TEXT
100
AcDbText
 10
172.331167315365
 20
73.31880501229926
 30
0.0
 40
4.0
  1
Tag
 41
0.8
  7
GREEKS
100
AcDbText
  0
TEXT
  5
15A
330
1E
100
AcDbEntity
  8
TEXT
100
AcDbText
 10
147.5836127167615
 20
63.62990369617964
 30
0.0
 40
4.0
  1
Gez.
 41
0.8
  7
GREEKS
100
AcDbText
  0
LINE
  5
15B
330
1E
100
AcDbEntity
  8
VOLL
100
AcDbLine
 10
164.0000000000001
 20
79.99999999999994
 30
0.0
 11
164.0000000000001
 21
39.99999999999997
 31
0.0
  0
TEXT
  5
15C
330
1E
100
AcDbEntity
  8
TEXT
100
AcDbText
 10
147.6006777387303
 20
43.52946389649807
 30
0.0
 40
4.0
  1
Norm.
 41
0.8
  7
GREEKS
100
AcDbText
  0
TEXT
  5
15D
330
1E
100
AcDbEntity
  8
TEXT
100
AcDbText
 10
147.5515086571672
 20
53.68926291428377
 30
0.0
 40
4.0
  1
Gepr.
 41
0.8
  7
GREEKS
100
AcDbText
  0
TEXT
  5
15E
330
1E
100
AcDbEntity
  8
TEXT
 62
     1
100
AcDbText
 10
160.5006306481887
 20
88.14901428913959
 30
0.0
 40
7.0
  1
1:2
 41
0.8
  7
GREEKS
100
AcDbText
  0
TEXT
  5
160
330
1E
100
AcDbEntity
  8
TEXT
100
AcDbText
 10
148.622109822104
 20
73.14025471151666
 30
0.0
 40
4.0
  1
2011
 41
0.8
  7
GREEKS
100
AcDbText
  0
LINE
  5
161
330
1E
100
AcDbEntity
  8
VOLL
100
AcDbLine
 10
190.0000000000001
 20
109.9999999999998
 30
0.0
 11
190.0
 21
39.99999999999997
 31
0.0
  0
LINE
  5
186
330
1E
100
AcDbEntity
  8
HILF
100
AcDbLine
 10
420.0
 20
-0.0000000000001137
 30
0.0
 11
419.9999999999999
 21
594.0
 31
0.0
  0
LINE
  5
187
330
1E
100
AcDbEntity
  8
STEMPEL
100
AcDbLine
 10
410.0
 20
10.0
 30
0.0
 11
410.0
 21
584.0
 31
0.0
  0
TEXT
  5
188
330
1E
100
AcDbEntity
  8
TEXT
100
AcDbText
 10
337.2400861497006
 20
52.07416177878602
 30
0.0
 40
5.0
  1
ersetzt durch:
 41
0.8
  7
GREEKS
100
AcDbText
  0
TEXT
  5
18A
330
1E
100
AcDbEntity
  8
TEXT
100
AcDbText
 10
336.178754957634
 20
102.3132034537136
 30
0.0
 40
5.0
  1
Zeichnungs Nr.
 41
0.8
  7
GREEKS
100
AcDbText
  0
LINE
  5
18B
330
1E
100
AcDbEntity
  8
HILF
100
AcDbLine
 10
233.4909699289885
 20
14.89398258028314
 30
0.0
 11
404.8588839326728
 21
14.89398258028314
 31
0.0
  0
LINE
  5
18C
330
1E
100
AcDbEntity
  8
HILF
100
AcDbLine
 10
336.7238616296993
 20
83.77983636955827
 30
0.0
 11
404.8588839326728
 21
83.77983636955827
 31
0.0
  0
LINE
  5
18D
330
1E
100
AcDbEntity
  8
VOLL
100
AcDbLine
 10
332.0
 20
60.0
 30
0.0
 11
410.0
 21
60.0
 31
0.0
  0
TEXT
  5
18E
330
1E
100
AcDbEntity
  8
TEXT
 62
     1
100
AcDbText
 10
234.9283864320014
 20
87.41748789253779
 30
0.0
 40
7.0
  1
Red.-Abzweig DN125/70
 41
0.65
  7
GREEKS
100
AcDbText
  0
LINE
  5
18F
330
1E
100
AcDbEntity
  8
HILF
100
AcDbLine
 10
234.7736801096947
 20
49.99999999999997
 30
0.0
 11
324.835391655631
 21
49.99999999999997
 31
0.0
  0
LINE
  5
190
330
1E
100
AcDbEntity
  8
HILF
100
AcDbLine
 10
234.7736801096947
 20
59.99999999999997
 30
0.0
 11
324.835391655631
 21
59.99999999999997
 31
0.0
  0
LINE
  5
191
330
1E
100
AcDbEntity
  8
HILF
100
AcDbLine
 10
234.7736801096947
 20
69.99999999999994
 30
0.0
 11
324.835391655631
 21
69.99999999999994
 31
0.0
  0
LINE
  5
192
330
1E
100
AcDbEntity
  8
HILF
100
AcDbLine
 10
234.7736801096947
 20
84.03758247564139
 30
0.0
 11
324.8353916556311
 21
84.03758247564139
 31
0.0
  0
LINE
  5
193
330
1E
100
AcDbEntity
  8
STEMPEL
100
AcDbLine
 10
230.0
 20
110.0
 30
0.0
 11
230.0
 21
9.999999999999971
 31
0.0
  0
TEXT
  5
194
330
1E
100
AcDbEntity
  8
TEXT
100
AcDbText
 10
235.1296391125315
 20
71.50334417585288
 30
0.0
 40
5.0
  1
dünnwandig 87°
 41
0.8
  7
GREEKS
100
AcDbText
  0
TEXT
  5
195
330
1E
100
AcDbEntity
  8
TEXT
100
AcDbText
 10
234.9837501577827
 20
42.62974153022632
 30
0.0
 40
4.0
  1
5230EC0W.DWG
 41
0.8
  7
GREEKS
100
AcDbText
  0
TEXT
  5
196
330
1E
100
AcDbEntity
  8
TEXT
100
AcDbText
 10
234.742238391136
 20
30.84560570193057
 30
0.0
 40
5.0
  1
Bauvorhaben
 41
0.8
  7
GREEKS
100
AcDbText
  0
TEXT
  5
197
330
1E
100
AcDbEntity
  8
TEXT
100
AcDbText
 10
234.877940380901
 20
102.5489328011779
 30
0.0
 40
5.0
  1
Benennung
 41
0.8
  7
GREEKS
100
AcDbText
  0
LINE
  5
198
330
1E
100
AcDbEntity
  8
STEMPEL
100
AcDbLine
 10
332.0
 20
109.9999999999997
 30
0.0
 11
332.0
 21
40.0
 31
0.0
  0
TEXT
  5
19A
330
1E
100
AcDbEntity
  8
TEXT
 62
     1
100
AcDbText
 10
348.4006167605337
 20
88.14901428913959
 30
0.0
 40
7.0
  1
5230EC0W
 41
0.8
  7
GREEKS
 72
     1
 11
369.7339500938671
 21
88.14901428913959
 31
0.0
100
AcDbText
  0
LINE
  5
1D4
330
1E
100
AcDbEntity
  8
STEMPEL
100
AcDbLine
 10
248.6732662453708
 20
213.9324536215269
 30
0.0
 11
117.4230395158891
 21
213.9324536215266
 31
0.0
  0
LINE
  5
1D6
330
1E
100
AcDbEntity
  8
HILF
100
AcDbLine
 10
248.0481528806299
 20
223.9324536215269
 30
0.0
 11
118.0481528806298
 21
223.9324536215269
 31
0.0
  0
LINE
  5
1D7
330
1E
100
AcDbEntity
  8
STEMPEL
100
AcDbLine
 10
116.5481528806299
 20
223.9324536215266
 30
0.0
 11
117.4230395158891
 21
213.9324536215266
 31
0.0
  0
LINE
  5
1D8
330
1E
100
AcDbEntity
  8
STEMPEL
100
AcDbLine
 10
249.5481528806299
 20
223.9324536215274
 30
0.0
 11
248.6732662453708
 21
213.9324536215269
 31
0.0
  0
DIMENSION
  5
1DB
330
1E
100
AcDbEntity
  8
BEM
100
AcDbDimension
  2
*D1
 10
82.58950404259126
 20
513.9357465258568
 30
0.0
 11
76.08950404259117
 21
363.9341000736917
 31
0.0
 70
    32
 71
     5
 42
300.0032929043301
  3
Standard
100
AcDbAlignedDimension
 13
117.4230395158891
 23
213.9324536215266
 33
0.0
 14
111.3930860021861
 24
513.9357465258568
 34
0.0
 50
90.0
100
AcDbRotatedDimension
1001
ACAD
1000
DSTYLE
1002
{
1070
    40
1040
2.0
1070
    41
1040
3.5
1070
    42
1040
1.0
1070
    43
1040
7.0
1070
    44
1040
1.0
1070
    73
1070
     0
1070
    74
1070
     0
1070
    77
1070
     1
1070
    78
1070
     8
1070
    79
1070
     2
1070
   140
1040
3.5
1070
   141
1040
1.5
1070
   146
1040
0.5142857142857144
1070
   147
1040
1.5
1070
   172
1070
     1
1070
   178
1070
     1
1070
   179
1070
     2
1070
   271
1070
     2
1070
   272
1070
     2
1070
   284
1070
     8
1070
   285
1070
     8
1070
   286
1070
     8
1002
}
  0
DIMENSION
  5
1E8
330
1E
100
AcDbEntity
  8
BEM
100
AcDbDimension
  2
*D2
 10
249.5481528806304
 20
187.8085106388581
 30
0.0
 11
183.0481528806301
 21
194.3085106388581
 31
0.0
 70
    32
  1
%%c<>
 71
     5
 42
133.0000000000005
  3
Standard
100
AcDbAlignedDimension
 13
116.5481528806299
 23
223.9324536215266
 33
0.0
 14
249.5481528806304
 24
223.9324536215269
 34
0.0
100
AcDbRotatedDimension
1001
ACAD
1000
DSTYLE
1002
{
1070
    40
1040
2.0
1070
    41
1040
3.5
1070
    42
1040
1.0
1070
    43
1040
7.0
1070
    44
1040
1.0
1070
    73
1070
     0
1070
    74
1070
     0
1070
    77
1070
     1
1070
    78
1070
     8
1070
    79
1070
     2
1070
   140
1040
3.5
1070
   141
1040
1.5
1070
   146
1040
0.5142857142857144
1070
   147
1040
1.5
1070
   172
1070
     1
1070
   178
1070
     1
1070
   179
1070
     2
1070
   271
1070
     2
1070
   272
1070
     2
1070
   284
1070
     8
1070
   285
1070
     8
1070
   286
1070
     8
1002
}
  0
TEXT
  5
212
330
1E
100
AcDbEntity
  8
TEXT
100
AcDbText
 10
235.1296391125315
 20
51.50334417585291
 30
0.0
 40
5.0
  1
EDV-Art.Nr. 5.230EC0C
 41
0.8
  7
GREEKS
100
AcDbText
  0
TEXT
  5
255
330
1E
100
AcDbEntity
  8
TEXT
 62
     1
100
AcDbText
 10
297.9974873842989
 20
131.2276367653921
 30
0.0
 40
7.0
  1
Werkstoff: 1.4404
 41
0.8
  7
GREEKS
100
AcDbText
  0
TEXT
  5
25D
330
1E
100
AcDbEntity
  8
TEXT
 62
     1
100
AcDbText
 10
150.246963608226
 20
488.4796503837567
 30
0.0
 40
7.0
  1
DN125
 41
0.8
  7
GREEKS
100
AcDbText
  0
LINE
  5
7B6
330
1E
100
AcDbEntity
  8
STEMPEL
100
AcDbLine
 10
254.7032197590736
 20
513.9357465258568
 30
0.0
 11
255.3310787046927
 21
512.5892986718728
 31
0.0
  0
ARC
  5
7B7
330
1E
100
AcDbEntity
  8
STEMPEL
100
AcDbCircle
 10
229.0481528806298
 20
500.3333690813924
 30
0.0
 40
29.0
100
AcDbArc
 50
0.0
 51
24.99999999999304
  0
LINE
  5
7B8
330
1E
100
AcDbEntity
  8
STEMPEL
100
AcDbLine
 10
258.0481528806298
 20
500.3333690813924
 30
0.0
 11
258.0481528806298
 21
481.2267465258567
 31
0.0
  0
ARC
  5
7B9
330
1E
100
AcDbEntity
  8
STEMPEL
100
AcDbCircle
 10
229.0481528806298
 20
481.2267465258567
 30
0.0
 40
29.0
100
AcDbArc
 50
334.8288522569422
 51
0.0
  0
ARC
  5
7BA
330
1E
100
AcDbEntity
  8
STEMPEL
100
AcDbCircle
 10
272.5481528806299
 20
460.9357465258567
 30
0.0
 40
19.0
100
AcDbArc
 50
154.772855634092
 51
180.0
  0
LINE
  5
7BB
330
1E
100
AcDbEntity
  8
STEMPEL
100
AcDbLine
 10
253.5481528806299
 20
460.9357465258567
 30
0.0
 11
253.5481528806299
 21
447.3989738037873
 31
0.0
  0
ARC
  5
7C0
330
1E
100
AcDbEntity
  8
STEMPEL
100
AcDbCircle
 10
236.54815288063
 20
447.3989738037873
 30
0.0
 40
17.0
100
AcDbArc
 50
328.4136619034719
 51
0.0
  0
ARC
  5
7C1
330
1E
100
AcDbEntity
  8
STEMPEL
100
AcDbCircle
 10
259.5481528806299
 20
433.2568381800564
 30
0.0
 40
10.0
100
AcDbArc
 50
148.413661903472
 51
180.0
  0
ARC
  5
7F3
330
1E
100
AcDbEntity
  8
STEMPEL
100
AcDbCircle
 10
137.0481528806298
 20
481.2267465258567
 30
0.0
 40
29.0
100
AcDbArc
 50
180.0
 51
205.1711477430577
  0
ARC
  5
7F7
330
1E
100
AcDbEntity
  8
STEMPEL
100
AcDbCircle
 10
93.54815288062985
 20
460.9357465258567
 30
0.0
 40
19.0
100
AcDbArc
 50
0.0
 51
25.22714436590793
  0
LINE
  5
7F8
330
1E
100
AcDbEntity
  8
STEMPEL
100
AcDbLine
 10
112.5481528806298
 20
460.9357465258567
 30
0.0
 11
112.5481528806298
 21
447.3989738037873
 31
0.0
  0
ARC
  5
7FB
330
1E
100
AcDbEntity
  8
STEMPEL
100
AcDbCircle
 10
129.5481528806298
 20
447.3989738037873
 30
0.0
 40
17.0
100
AcDbArc
 50
180.0
 51
211.5863380965281
  0
ARC
  5
7FC
330
1E
100
AcDbEntity
  8
STEMPEL
100
AcDbCircle
 10
106.5481528806298
 20
433.2568381800564
 30
0.0
 40
10.0
100
AcDbArc
 50
0.0
 51
31.586338096528
  0
LINE
  5
7FF
330
1E
100
AcDbEntity
  8
STEMPEL
100
AcDbLine
 10
111.3930860021862
 20
513.9357465258568
 30
0.0
 11
110.7652270565672
 21
512.5892986718728
 31
0.0
  0
POINT
  5
802
330
1E
100
AcDbEntity
  8
STEMPEL
100
AcDbPoint
 10
113.0481528806298
 20
513.9357465258568
 30
0.0
  0
ARC
  5
803
330
1E
100
AcDbEntity
  8
STEMPEL
100
AcDbCircle
 10
137.0481528806298
 20
500.3333690813924
 30
0.0
 40
29.0
100
AcDbArc
 50
155.0000000000069
 51
180.0
  0
LINE
  5
804
330
1E
100
AcDbEntity
  8
STEMPEL
100
AcDbLine
 10
108.04815288063
 20
500.3333690813924
 30
0.0
 11
108.04815288063
 21
481.2267465258567
 31
0.0
  0
LINE
  5
806
330
1E
100
AcDbEntity
  8
HILF
100
AcDbLine
 10
251.4630348346953
 20
443.1804081356607
 30
0.0
 11
114.6332709265645
 21
443.1804081356607
 31
0.0
  0
LINE
  5
807
330
1E
100
AcDbEntity
  8
HILF
100
AcDbLine
 10
248.482272721162
 20
436.3867417402794
 30
0.0
 11
117.6140330400977
 21
436.3867417402793
 31
0.0
  0
LINE
  5
808
330
1E
100
AcDbEntity
  8
HILF
100
AcDbLine
 10
252.5429191312529
 20
465.41242192539
 30
0.0
 11
113.5533866300068
 21
465.41242192539
 31
0.0
  0
LINE
  5
952
330
1E
100
AcDbEntity
  8
STEMPEL
100
AcDbLine
 10
116.5481528806298
 20
433.2568381800564
 30
0.0
 11
116.5481528806298
 21
223.9324536215267
 31
0.0
  0
LINE
  5
953
102
{ACAD_REACTORS
330
13EB
102
}
330
1E
100
AcDbEntity
  8
STEMPEL
100
AcDbLine
 10
249.5481528806298
 20
433.2568381800564
 30
0.0
 11
249.5481528806298
 21
393.9676615727733
 31
0.0
  0
DIMENSION
  5
DBF
330
1E
100
AcDbEntity
  8
BEM
100
AcDbDimension
  2
*D4
 10
99.10654611867496
 20
353.9324536215268
 30
0.0
 11
92.60654611867488
 21
283.9324536215267
 31
0.0
 70
    32
 71
     5
 42
140.0000000000002
  3
Standard
100
AcDbAlignedDimension
 13
117.4230395158891
 23
213.9324536215266
 33
0.0
 14
183.0481528806298
 24
353.9324536215267
 34
0.0
 50
90.0
100
AcDbRotatedDimension
1001
ACAD
1000
DSTYLE
1002
{
1070
    40
1040
2.0
1070
    41
1040
3.5
1070
    42
1040
1.0
1070
    43
1040
7.0
1070
    44
1040
1.0
1070
    73
1070
     0
1070
    74
1070
     0
1070
    77
1070
     1
1070
    78
1070
     8
1070
    79
1070
     2
1070
   140
1040
3.5
1070
   141
1040
1.5
1070
   146
1040
0.5142857142857144
1070
   147
1040
1.5
1070
   172
1070
     1
1070
   178
1070
     1
1070
   179
1070
     2
1070
   271
1070
     2
1070
   272
1070
     2
1070
   284
1070
     8
1070
   285
1070
     8
1070
   286
1070
     8
1002
}
  0
LINE
  5
E03
102
{ACAD_REACTORS
330
13EB
102
}
330
1E
100
AcDbEntity
  8
STEMPEL
100
AcDbLine
 10
249.5481528806299
 20
320.867480314925
 30
0.0
 11
249.5481528806299
 21
223.9324536215271
 31
0.0
  0
TEXT
  5
EB4
330
1E
100
AcDbEntity
  8
TEXT
 62
     1
100
AcDbText
 10
307.4315488301468
 20
365.4583206798843
 30
0.0
 40
7.0
  1
DN70
 50
3.0
 41
0.8
  7
GREEKS
100
AcDbText
  0
LINE
  5
1050
330
1E
100
AcDbEntity
  8
MITTEL
100
AcDbLine
 10
337.8357307675888
 20
362.0445268391832
 30
0.0
 11
220.0666525627925
 21
355.872510982259
 31
0.0
  0
LINE
  5
1081
102
{ACAD_REACTORS
330
13EB
102
}
330
1E
100
AcDbEntity
  8
STEMPEL
100
AcDbLine
 10
275.1910409954677
 20
322.2113671354272
 30
0.0
 11
249.5481528806299
 21
320.867480314925
 31
0.0
  0
LINE
  5
1085
330
1E
100
AcDbEntity
  8
STEMPEL
100
AcDbLine
 10
334.89889619911
 20
322.5460556230851
 30
0.0
 11
330.8007554264594
 21
400.7432398715844
 31
0.0
  0
LINE
  5
1086
330
1E
100
AcDbEntity
  8
HILF
  6
Continuous
100
AcDbLine
 10
278.5928269448508
 20
396.5696969419544
 30
0.0
 11
282.526228745576
 21
321.5159195345588
 31
0.0
  0
LINE
  5
1087
330
1E
100
AcDbEntity
  8
HILF
  6
Continuous
100
AcDbLine
 10
300.3907142232526
 20
398.2661582050517
 30
0.0
 11
304.3820334055409
 21
322.1072513234574
 31
0.0
  0
LINE
  5
108B
330
1E
100
AcDbEntity
  8
HILF
  6
Continuous
100
AcDbLine
 10
274.1769931396237
 20
394.4308258238768
 30
0.0
 11
277.91101242887
 21
323.1814933711521
 31
0.0
  0
ARC
  5
10A4
330
1E
100
AcDbEntity
  8
STEMPEL
100
AcDbCircle
 10
323.2229082177304
 20
344.2553578840671
 30
0.0
 40
24.65
100
AcDbArc
 50
272.9385097298969
 51
298.2728484678363
  0
LINE
  5
10A5
330
1E
100
AcDbEntity
  8
STEMPEL
100
AcDbLine
 10
324.5380674719691
 20
319.6404676253928
 30
0.0
 11
315.4874643768601
 21
319.1661456160059
 31
0.0
  0
ARC
  5
10A6
330
1E
100
AcDbEntity
  8
STEMPEL
100
AcDbCircle
 10
314.1314146210729
 20
343.7789063885565
 30
0.0
 40
24.65009324312573
100
AcDbArc
 50
251.8168456069657
 51
273.1617474312556
  0
ARC
  5
10A7
330
1E
100
AcDbEntity
  8
STEMPEL
100
AcDbCircle
 10
302.585328231786
 20
308.6264557045555
 30
0.0
 40
12.35
100
AcDbArc
 50
71.8168456069657
 51
93.0
  0
LINE
  5
10A8
330
1E
100
AcDbEntity
  8
STEMPEL
100
AcDbLine
 10
301.9389791721856
 20
320.9595304587746
 30
0.0
 11
285.1713000767842
 21
320.0807736336539
 31
0.0
  0
ARC
  5
10AF
330
1E
100
AcDbEntity
  8
STEMPEL
100
AcDbCircle
 10
284.5615861865539
 20
331.7148077135447
 30
0.0
 40
11.65
100
AcDbArc
 50
242.8986894531991
 51
273.0
  0
ARC
  5
10B0
330
1E
100
AcDbEntity
  8
STEMPEL
100
AcDbCircle
 10
275.6097286454113
 20
314.2223308573905
 30
0.0
 40
8.0
100
AcDbArc
 50
62.89868945319767
 51
93.0
  0
ARC
  5
10C0
330
1E
100
AcDbEntity
  8
STEMPEL
100
AcDbCircle
 10
270.9518285397892
 20
403.1003594505476
 30
0.0
 40
8.0
100
AcDbArc
 50
273.0
 51
303.1013105468023
  0
LINE
  5
10C2
102
{ACAD_REACTORS
330
13EB
102
}
330
1E
100
AcDbEntity
  8
STEMPEL
100
AcDbLine
 10
271.3705161897329
 20
395.1113231725111
 30
0.0
 11
249.5481528806298
 21
393.9676615727733
 31
0.0
  0
LINE
  5
10C3
330
1E
100
AcDbEntity
  8
STEMPEL
100
AcDbLine
 10
320.1784823169319
 20
402.8263078704488
 30
0.0
 11
311.1278792218227
 21
402.3519858610618
 31
0.0
  0
LINE
  5
10C5
330
1E
100
AcDbEntity
  8
STEMPEL
100
AcDbLine
 10
297.8410737983631
 20
399.1522230300576
 30
0.0
 11
281.0733947029617
 21
398.273466204937
 31
0.0
  0
ARC
  5
10C8
330
1E
100
AcDbEntity
  8
STEMPEL
100
AcDbCircle
 10
281.6831085931921
 20
386.639432125046
 30
0.0
 40
11.65
100
AcDbArc
 50
93.0
 51
123.1013105468009
  0
ARC
  5
10C9
330
1E
100
AcDbEntity
  8
STEMPEL
100
AcDbCircle
 10
312.3519921088129
 20
377.732310570212
 30
0.0
 40
24.65009324312573
100
AcDbArc
 50
92.83825256874438
 51
114.1831543930343
  0
ARC
  5
10CB
330
1E
100
AcDbEntity
  8
STEMPEL
100
AcDbCircle
 10
297.1947247387628
 20
411.4852977842765
 30
0.0
 40
12.35
100
AcDbArc
 50
273.0
 51
294.1831543930343
  0
ARC
  5
10CD
330
1E
100
AcDbEntity
  8
STEMPEL
100
AcDbCircle
 10
321.4434842949365
 20
378.208788980312
 30
0.0
 40
24.65
100
AcDbArc
 50
67.72715153216374
 51
93.06149027010318
  0
DIMENSION
  5
133D
330
1E
100
AcDbEntity
  8
BEM
100
AcDbDimension
  2
*D6
 10
335.7849586844802
 20
305.6389762258707
 30
0.0
 11
267.5198825902214
 21
302.0613551851827
 31
0.0
 70
   160
 71
     5
 42
150.0
 51
356.9999999999999
  3
Standard
100
AcDbAlignedDimension
 13
183.0481528806298
 23
353.9324536215267
 33
0.0
 14
334.8844107611726
 24
322.8224542443523
 34
0.0
 50
2.999999999999088
100
AcDbRotatedDimension
1001
ACAD
1000
DSTYLE
1002
{
1070
    40
1040
2.0
1070
    41
1040
3.5
1070
    42
1040
1.0
1070
    43
1040
7.0
1070
    44
1040
1.0
1070
    73
1070
     0
1070
    74
1070
     0
1070
    77
1070
     1
1070
    78
1070
     8
1070
    79
1070
     2
1070
   140
1040
3.5
1070
   141
1040
1.5
1070
   146
1040
0.5142857142857144
1070
   147
1040
1.5
1070
   172
1070
     1
1070
   178
1070
     1
1070
   179
1070
     2
1070
   271
1070
     2
1070
   272
1070
     2
1070
   284
1070
     8
1070
   285
1070
     8
1070
   286
1070
     8
1002
}
  0
DIMENSION
  5
1360
330
1E
100
AcDbEntity
  8
BEM
100
AcDbDimension
  2
*D7
 10
209.8144451085168
 20
318.7851249279073
 30
0.0
 11
214.3952746815541
 21
355.5752866620283
 31
0.0
 70
    32
  1
%%c<>
 71
     5
 42
72.99999999999989
 51
86.99999999999999
  3
Standard
100
AcDbAlignedDimension
 13
249.5481528806299
 23
393.9676615727732
 33
0.0
 14
249.5481528806299
 24
320.867480314925
 34
0.0
 50
273.0000000000001
100
AcDbRotatedDimension
1001
ACAD
1000
DSTYLE
1002
{
1070
    40
1040
2.0
1070
    41
1040
3.5
1070
    42
1040
1.0
1070
    43
1040
7.0
1070
    44
1040
1.0
1070
    73
1070
     0
1070
    74
1070
     0
1070
    77
1070
     1
1070
    78
1070
     8
1070
    79
1070
     2
1070
   140
1040
3.5
1070
   141
1040
1.5
1070
   146
1040
0.5142857142857144
1070
   147
1040
1.5
1070
   172
1070
     1
1070
   178
1070
     1
1070
   179
1070
     2
1070
   271
1070
     2
1070
   272
1070
     2
1070
   284
1070
     8
1070
   285
1070
     8
1070
   286
1070
     8
1002
}
  0
DIMENSION
  5
1376
330
1E
100
AcDbEntity
  8
BEM
100
AcDbDimension
  2
*D8
 10
183.0481528806299
 20
208.9324536215269
 30
0.0
 11
317.1783290148995
 21
495.2761674322549
 31
0.0
 70
    34
 71
     5
 42
1.518436449235065
 51
86.99999999999999
  3
Standard
100
AcDb2LineAngularDimension
 13
337.8357307675888
 23
362.0445268391832
 33
0.0
 14
183.0481528806299
 24
353.9324536215269
 34
0.0
 15
183.0481528806298
 25
518.9357465258567
 35
0.0
 16
342.7832934205061
 26
453.7460473678246
 36
0.0
1001
ACAD
1000
DSTYLE
1002
{
1070
    40
1040
2.0
1070
    41
1040
3.5
1070
    42
1040
1.0
1070
    43
1040
7.0
1070
    44
1040
1.0
1070
    73
1070
     0
1070
    74
1070
     0
1070
    77
1070
     1
1070
    78
1070
     8
1070
    79
1070
     2
1070
   140
1040
3.5
1070
   141
1040
1.5
1070
   146
1040
0.5142857142857144
1070
   147
1040
1.5
1070
   172
1070
     1
1070
   178
1070
     1
1070
   179
1070
     2
1070
   271
1070
     2
1070
   272
1070
     2
1070
   284
1070
     8
1070
   285
1070
     8
1070
   286
1070
     8
1002
}
  0
ELLIPSE
  5
13DF
330
1E
100
AcDbEntity
  8
STEMPEL
100
AcDbEllipse
 10
249.5481528806297
 20
356.8456851207015
 30
0.0
 11
0.0
 21
-35.9782048057765
 31
0.0
210
0.0
220
0.0
230
1.0
 40
0.3033011685869035
 41
4.712388980384689
 42
6.283185307179586
  0
ELLIPSE
  5
13E0
330
1E
100
AcDbEntity
  8
STEMPEL
100
AcDbEllipse
 10
249.5481528806297
 20
356.8456851207015
 30
0.0
 11
0.0
 21
-37.12197645207175
 31
0.0
210
0.0
220
0.0
230
1.0
 40
0.2939561037473251
 41
3.141592653589793
 42
4.712388980384689
  0
ARC
  5
13E1
102
{ACAD_REACTORS
330
13EB
102
}
330
1E
100
AcDbEntity
  8
SCHRAFF
100
AcDbCircle
 10
249.5481528806297
 20
393.9676615727733
 30
0.0
 40
2.5
100
AcDbArc
 50
3.000000000000391
 51
89.99999999999806
  0
ARC
  5
13E2
102
{ACAD_REACTORS
330
13EB
102
}
330
1E
100
AcDbEntity
  8
SCHRAFF
100
AcDbCircle
 10
249.5481528806299
 20
320.867480314925
 30
0.0
 40
2.5
100
AcDbArc
 50
270.0
 51
3.000000000000391
  0
HATCH
  5
13EB
330
1E
100
AcDbEntity
  8
SCHRAFF
100
AcDbHatch
 10
0.0
 20
0.0
 30
0.0
210
0.0
220
0.0
230
1.0
  2
_USER
 70
     0
 71
     1
 91
        2
 92
        7
 72
     1
 73
     1
 93
        3
 10
249.5481528806298
 20
393.9676615727733
 42
0.0
 10
252.0447267175161
 20
394.0985014633807
 42
0.3989595459737043
 10
249.5481528806298
 20
396.4676615727733
 42
0.0
 97
        3
330
953
330
10C2
330
13E1
 92
        7
 72
     1
 73
     1
 93
        3
 10
249.5481528806299
 20
318.367480314925
 42
0.4296339059668347
 10
252.0447267175163
 20
320.9983202055324
 42
0.0
 10
249.5481528806299
 20
320.867480314925
 42
0.0
 97
        3
330
1081
330
E03
330
13E2
 75
     0
 76
     0
 52
0.0
 41
0.1
 77
     0
 78
     1
 53
0.0
 43
5.598117531438219
 44
0.0
 45
0.0
 46
0.1
 79
     0
 47
0.2986691274328787
 98
        2
 10
250.1544959381249
 20
395.200092072663
 10
250.4533759950841
 20
319.6368021405953
  0
ARC
  5
140E
330
1E
100
AcDbEntity
  8
SCHRAFF
100
AcDbCircle
 10
246.2491232578304
 20
392.8191671395083
 30
0.0
 40
4.142647907803147
100
AcDbArc
 50
203.1372081384844
 51
277.4020718577222
  0
ARC
  5
140F
330
1E
100
AcDbEntity
  8
SCHRAFF
100
AcDbCircle
 10
243.4395811743353
 20
387.3817725382312
 30
0.0
 40
3.518051743489629
100
AcDbArc
 50
201.5499881229233
 51
292.4091042063993
  0
ARC
  5
1410
330
1E
100
AcDbEntity
  8
SCHRAFF
100
AcDbCircle
 10
241.8112075659684
 20
382.5979089201663
 30
0.0
 40
3.657619310741113
100
AcDbArc
 50
209.7336553778912
 51
296.2070349294032
  0
ARC
  5
1411
330
1E
100
AcDbEntity
  8
SCHRAFF
100
AcDbCircle
 10
240.5206397738558
 20
377.0520205887596
 30
0.0
 40
3.281943995483008
100
AcDbArc
 50
206.782902493094
 51
306.3664908017525
  0
ARC
  5
1412
330
1E
100
AcDbEntity
  8
SCHRAFF
100
AcDbCircle
 10
239.622348053842
 20
371.7764350300034
 30
0.0
 40
3.183248897265291
100
AcDbArc
 50
209.5013409984492
 51
313.1486882478839
  0
ARC
  5
1413
330
1E
100
AcDbEntity
  8
SCHRAFF
100
AcDbCircle
 10
239.0842365780846
 20
366.5359590699793
 30
0.0
 40
3.082268268968272
100
AcDbArc
 50
209.4010035811284
 51
317.965921735138
  0
ARC
  5
1414
330
1E
100
AcDbEntity
  8
SCHRAFF
100
AcDbCircle
 10
238.7462251754632
 20
361.5662796393153
 30
0.0
 40
3.195717227838192
100
AcDbArc
 50
216.1968738282168
 51
319.1625478204487
  0
ARC
  5
1415
330
1E
100
AcDbEntity
  8
SCHRAFF
100
AcDbCircle
 10
238.6300035714743
 20
355.9581030671978
 30
0.0
 40
2.931990251154272
100
AcDbArc
 50
212.6431511726169
 51
329.6483776529795
  0
ARC
  5
1416
330
1E
100
AcDbEntity
  8
SCHRAFF
100
AcDbCircle
 10
238.6970483940194
 20
351.9169062605302
 30
0.0
 40
3.618012001682529
100
AcDbArc
 50
230.2622356325315
 51
317.6810382845253
  0
ARC
  5
1417
330
1E
100
AcDbEntity
  8
SCHRAFF
100
AcDbCircle
 10
239.0181747584852
 20
346.6352074913991
 30
0.0
 40
3.520361581375019
100
AcDbArc
 50
232.0912744035798
 51
322.6019777384329
  0
ARC
  5
1418
330
1E
100
AcDbEntity
  8
SCHRAFF
100
AcDbCircle
 10
239.5861651247788
 20
341.6715160881356
 30
0.0
 40
3.616531089609325
100
AcDbArc
 50
236.6131422768613
 51
324.0822113331294
  0
ARC
  5
1419
330
1E
100
AcDbEntity
  8
SCHRAFF
100
AcDbCircle
 10
240.3468091321133
 20
336.5410652443437
 30
0.0
 40
3.702142223141104
100
AcDbArc
 50
244.2777146909485
 51
329.3641854815493
  0
ARC
  5
141A
330
1E
100
AcDbEntity
  8
SCHRAFF
100
AcDbCircle
 10
241.74598308472
 20
330.880389557951
 30
0.0
 40
3.390638262817772
100
AcDbArc
 50
247.2771175709193
 51
342.6531691171827
  0
ARC
  5
141B
330
1E
100
AcDbEntity
  8
SCHRAFF
100
AcDbCircle
 10
243.4132442172996
 20
325.4003955300689
 30
0.0
 40
3.767573314021309
100
AcDbArc
 50
274.7438058272344
 51
359.6693854283719
  0
LINE
  5
141C
330
1E
100
AcDbEntity
  8
MITTEL
100
AcDbLine
 10
203.2832166181227
 20
354.9929283756596
 30
0.0
 11
183.0481528806298
 21
353.9324536215267
 31
0.0
  0
TEXT
  5
1463
330
1E
100
AcDbEntity
  8
TEXT
100
AcDbText
 10
41.85509950977674
 20
111.6719999999999
 30
0.0
 40
5.0
  1
Erstellt mit AUTOCAD 2004
 41
0.8
  7
GREEKS
100
AcDbText
  0
TEXT
  5
1464
330
1E
100
AcDbEntity
  8
TEXT
100
AcDbText
 10
153.5163572150377
 20
102.4620895087088
 30
0.0
 40
5.0
  1
Maßstab
 41
0.8
  7
GREEKS
100
AcDbText
  0
TEXT
  5
1465
330
1E
100
AcDbEntity
  8
TEXT
100
AcDbText
 10
192.6882715247924
 20
89.7791437153694
 30
0.0
 40
4.0
  1
DIN EN1124-3
 41
0.8
  7
GREEKS
 72
     1
 11
209.6787477152686
 21
89.7791437153694
 31
0.0
100
AcDbText
  0
TEXT
  5
1466
330
1E
100
AcDbEntity
  8
TEXT
100
AcDbText
 10
67.65811831396264
 20
18.34829198486668
 30
0.0
 40
4.0
  1
Änderung
 41
0.8
  7
GREEKS
 72
     1
 11
78.40097545681979
 21
18.34829198486668
 31
0.0
100
AcDbText
  0
TEXT
  5
1467
330
1E
100
AcDbEntity
  8
TEXT
100
AcDbText
 10
110.462610504336
 20
18.6715626933981
 30
0.0
 40
4.0
  1
Tag
 41
0.8
  7
GREEKS
 72
     1
 11
114.1959438376693
 21
18.6715626933981
 31
0.0
100
AcDbText
  0
TEXT
  5
1468
330
1E
100
AcDbEntity
  8
TEXT
100
AcDbText
 10
128.9002860979178
 20
18.59324216966408
 30
0.0
 40
4.0
  1
Name
 41
0.8
  7
GREEKS
 72
     1
 11
135.2240956217273
 21
18.59324216966408
 31
0.0
100
AcDbText
  0
TEXT
  5
1469
330
1E
100
AcDbEntity
  8
BEM
100
AcDbText
 10
416.5811541437436
 20
12.14804815338303
 30
0.0
 40
4.0
  1
Diese Zeichnung ist urheberrechtlich geschützt und bleibt unser Eigentum. Sie darf weder ganz noch teilweise vervielfältigt und nicht an Dritte weitergegeben werden.
 50
90.0
 41
0.8
  7
GREEKS
100
AcDbText
  0
TEXT
  5
146A
330
1E
100
AcDbEntity
  8
TEXT
100
AcDbText
 10
336.7238616296993
 20
73.1811823709997
 30
0.0
 40
5.0
  1
Ersatz für:
 41
0.8
  7
GREEKS
100
AcDbText
  0
TEXT
  5
14A4
330
1E
100
AcDbEntity
  8
TEXT
100
AcDbText
 10
170.398997108236
 20
63.10765040825732
 30
0.0
 40
4.0
  1
08.04.
 41
0.8
  7
GREEKS
 72
     1
 11
177.4085209177598
 21
63.10765040825732
 31
0.0
100
AcDbText
  0
ENDSEC
  0
SECTION
  2
OBJECTS
  0
DICTIONARY
  5
C
330
0
100
AcDbDictionary
281
     1
  3
ACAD_COLOR
350
142F
  3
ACAD_GROUP
350
D
  3
ACAD_LAYOUT
350
19
  3
ACAD_MATERIAL
350
142E
  3
ACAD_MLINESTYLE
350
16
  3
ACAD_PLOTSETTINGS
350
18
  3
ACAD_PLOTSTYLENAME
350
E
  3
AcDbVariableDictionary
350
246
  0
DICTIONARY
  5
142F
102
{ACAD_REACTORS
330
C
102
}
330
C
100
AcDbDictionary
281
     1
  0
DICTIONARY
  5
D
102
{ACAD_REACTORS
330
C
102
}
330
C
100
AcDbDictionary
281
     1
  0
DICTIONARY
  5
19
102
{ACAD_REACTORS
330
C
102
}
330
C
100
AcDbDictionary
281
     1
  3
Layout1
350
1D
  3
Model
350
21
  0
DICTIONARY
  5
142E
102
{ACAD_REACTORS
330
C
102
}
330
C
100
AcDbDictionary
281
     1
  0
DICTIONARY
  5
16
102
{ACAD_REACTORS
330
C
102
}
330
C
100
AcDbDictionary
281
     1
  3
Standard
350
17
  0
DICTIONARY
  5
18
102
{ACAD_REACTORS
330
C
102
}
330
C
100
AcDbDictionary
281
     1
  0
ACDBDICTIONARYWDFLT
  5
E
102
{ACAD_REACTORS
330
C
102
}
330
C
100
AcDbDictionary
281
     1
  3
Normal
350
F
100
AcDbDictionaryWithDefault
340
F
  0
DICTIONARY
  5
246
102
{ACAD_REACTORS
330
C
102
}
330
C
100
AcDbDictionary
281
     1
  3
DIMASSOC
350
1473
  3
PROJECTNAME
350
1474
  3
SORTENTS
350
247
  0
LAYOUT
  5
1D
102
{ACAD_REACTORS
330
19
102
}
330
19
100
AcDbPlotSettings
  1

  2
Tektronix Phaser 740
  4

  6

 40
0.0
 41
0.0
 42
0.0
 43
0.0
 44
0.0
 45
0.0
 46
0.0
 47
0.0
 48
0.0
 49
0.0
140
0.0
141
0.0
142
1.0
143
1.0
 70
   688
 72
     0
 73
     0
 74
     5
  7
monochrome.ctb
 75
    16
147
1.0
 76
     0
 77
     2
 78
   300
148
0.0
149
0.0
100
AcDbLayout
  1
Layout1
 70
     0
 71
     1
 10
0.0
 20
0.0
 11
12.0
 21
9.0
 12
0.0
 22
0.0
 32
0.0
 14
1.000000000000000E+20
 24
1.000000000000000E+20
 34
1.000000000000000E+20
 15
-1.000000000000000E+20
 25
-1.000000000000000E+20
 35
-1.000000000000000E+20
146
0.0
 13
0.0
 23
0.0
 33
0.0
 16
1.0
 26
0.0
 36
0.0
 17
0.0
 27
1.0
 37
0.0
 76
     0
330
1A
  0
LAYOUT
  5
21
102
{ACAD_REACTORS
330
19
102
}
330
19
100
AcDbPlotSettings
  1

  2
Tektronix Phaser 740
  4
A4
  6

 40
5.873749732971191
 41
6.085414409637451
 42
5.577407836914062
 43
5.662078857421875
 44
209.9733276367187
 45
296.9683227539062
 46
0.0
 47
0.0
 48
0.0
 49
0.0
140
0.0
141
0.0
142
1.0
143
1.0
 70
 11952
 72
     0
 73
     1
 74
     0
  7
monochrome.ctb
 75
     0
147
1.0
 76
     0
 77
     2
 78
   300
148
1150.120678237584
149
45.30495740799864
100
AcDbLayout
  1
Model
 70
     1
 71
     0
 10
0.0
 20
0.0
 11
12.0
 21
9.0
 12
0.0
 22
0.0
 32
0.0
 14
0.0
 24
0.0
 34
0.0
 15
0.0
 25
0.0
 35
0.0
146
0.0
 13
0.0
 23
0.0
 33
0.0
 16
1.0
 26
0.0
 36
0.0
 17
0.0
 27
1.0
 37
0.0
 76
     0
330
1E
  0
MLINESTYLE
  5
17
102
{ACAD_REACTORS
330
16
102
}
330
16
100
AcDbMlineStyle
  2
STANDARD
 70
     0
  3

 62
   256
 51
90.0
 52
90.0
 71
     2
 49
0.5
 62
   256
  6
BYLAYER
 49
-0.5
 62
   256
  6
BYLAYER
  0
ACDBPLACEHOLDER
  5
F
102
{ACAD_REACTORS
330
E
102
}
330
E
  0
DICTIONARYVAR
  5
1473
102
{ACAD_REACTORS
330
246
102
}
330
246
100
DictionaryVariables
280
     0
  1
1
  0
DICTIONARYVAR
  5
1474
102
{ACAD_REACTORS
330
246
102
}
330
246
100
DictionaryVariables
280
     0
  1

  0
DICTIONARYVAR
  5
247
102
{ACAD_REACTORS
330
246
102
}
330
246
100
DictionaryVariables
280
     0
  1
96
  0
ENDSEC
  0
EOF
