  0
SECTION
  2
HEADER
  9
$ACADVER
  1
AC1018
  9
$ACADMAINTVER
 70
     2
  9
$DWGCODEPAGE
  3
ANSI_1252
  9
$INSBASE
 10
0.0
 20
0.0
 30
0.0
  9
$EXTMIN
 10
-0.032032210177249
 20
-0.0453026972511452
 30
-0.00000000000001
  9
$EXTMAX
 10
420.0000048900107
 20
594.000006915872
 30
0.0000000000000053
  9
$LIMMIN
 10
0.0
 20
0.0
  9
$LIMMAX
 10
419.9999999999999
 20
594.0
  9
$ORTHOMODE
 70
     1
  9
$REGENMODE
 70
     1
  9
$FILLMODE
 70
     1
  9
$QTEXTMODE
 70
     0
  9
$MIRRTEXT
 70
     1
  9
$LTSCALE
 40
20.0
  9
$ATTMODE
 70
     1
  9
$TEXTSIZE
 40
3.5
  9
$TRACEWID
 40
0.5
  9
$TEXTSTYLE
  7
STANDARD
  9
$CLAYER
  8
BEM
  9
$CELTYPE
  6
ByLayer
  9
$CECOLOR
 62
   256
  9
$CELTSCALE
 40
1.0
  9
$DISPSILH
 70
     0
  9
$DIMSCALE
 40
2.0
  9
$DIMASZ
 40
3.5
  9
$DIMEXO
 40
1.0
  9
$DIMDLI
 40
7.0
  9
$DIMRND
 40
0.0
  9
$DIMDLE
 40
0.0
  9
$DIMEXE
 40
1.0
  9
$DIMTP
 40
0.0
  9
$DIMTM
 40
0.0
  9
$DIMTXT
 40
3.5
  9
$DIMCEN
 40
1.5
  9
$DIMTSZ
 40
0.0
  9
$DIMTOL
 70
     0
  9
$DIMLIM
 70
     0
  9
$DIMTIH
 70
     0
  9
$DIMTOH
 70
     0
  9
$DIMSE1
 70
     0
  9
$DIMSE2
 70
     0
  9
$DIMTAD
 70
     1
  9
$DIMZIN
 70
     8
  9
$DIMBLK
  1

  9
$DIMASO
 70
     1
  9
$DIMSHO
 70
     0
  9
$DIMPOST
  1

  9
$DIMAPOST
  1

  9
$DIMALT
 70
     0
  9
$DIMALTD
 70
     2
  9
$DIMALTF
 40
25.4
  9
$DIMLFAC
 40
1.0
  9
$DIMTOFL
 70
     1
  9
$DIMTVP
 40
0.0
  9
$DIMTIX
 70
     0
  9
$DIMSOXD
 70
     0
  9
$DIMSAH
 70
     0
  9
$DIMBLK1
  1

  9
$DIMBLK2
  1

  9
$DIMSTYLE
  2
Standard
  9
$DIMCLRD
 70
     0
  9
$DIMCLRE
 70
     0
  9
$DIMCLRT
 70
     1
  9
$DIMTFAC
 40
0.5142857142857144
  9
$DIMGAP
 40
1.5
  9
$DIMJUST
 70
     0
  9
$DIMSD1
 70
     0
  9
$DIMSD2
 70
     0
  9
$DIMTOLJ
 70
     1
  9
$DIMTZIN
 70
     8
  9
$DIMALTZ
 70
     8
  9
$DIMALTTZ
 70
     8
  9
$DIMUPT
 70
     0
  9
$DIMDEC
 70
     2
  9
$DIMTDEC
 70
     2
  9
$DIMALTU
 70
     2
  9
$DIMALTTD
 70
     2
  9
$DIMTXSTY
  7
STANDARD
  9
$DIMAUNIT
 70
     0
  9
$DIMADEC
 70
     2
  9
$DIMALTRND
 40
0.0
  9
$DIMAZIN
 70
     2
  9
$DIMDSEP
 70
    46
  9
$DIMATFIT
 70
     3
  9
$DIMFRAC
 70
     0
  9
$DIMLDRBLK
  1

  9
$DIMLUNIT
 70
     2
  9
$DIMLWD
 70
    -2
  9
$DIMLWE
 70
    -2
  9
$DIMTMOVE
 70
     0
  9
$LUNITS
 70
     2
  9
$LUPREC
 70
     2
  9
$SKETCHINC
 40
1.0
  9
$FILLETRAD
 40
0.0
  9
$AUNITS
 70
     1
  9
$AUPREC
 70
     3
  9
$MENU
  1
ACAD
  9
$ELEVATION
 40
0.0
  9
$PELEVATION
 40
0.0
  9
$THICKNESS
 40
0.0
  9
$LIMCHECK
 70
     0
  9
$CHAMFERA
 40
0.0
  9
$CHAMFERB
 40
0.0
  9
$CHAMFERC
 40
0.0
  9
$CHAMFERD
 40
0.0
  9
$SKPOLY
 70
     0
  9
$TDCREATE
 40
2452040.637099653
  9
$TDUCREATE
 40
2452040.553766320
  9
$TDUPDATE
 40
2455660.347250926
  9
$TDUUPDATE
 40
2455660.263917593
  9
$TDINDWG
 40
0.5298407639
  9
$TDUSRTIMER
 40
0.5298407639
  9
$USRTIMER
 70
     1
  9
$ANGBASE
 50
0.0
  9
$ANGDIR
 70
     0
  9
$PDMODE
 70
     0
  9
$PDSIZE
 40
0.0
  9
$PLINEWID
 40
0.0
  9
$SPLFRAME
 70
     0
  9
$SPLINETYPE
 70
     6
  9
$SPLINESEGS
 70
     8
  9
$HANDSEED
  5
2886
  9
$SURFTAB1
 70
     6
  9
$SURFTAB2
 70
     6
  9
$SURFTYPE
 70
     6
  9
$SURFU
 70
     6
  9
$SURFV
 70
     6
  9
$UCSBASE
  2

  9
$UCSNAME
  2

  9
$UCSORG
 10
0.0
 20
0.0
 30
0.0
  9
$UCSXDIR
 10
1.0
 20
0.0
 30
0.0
  9
$UCSYDIR
 10
0.0
 20
1.0
 30
0.0
  9
$UCSORTHOREF
  2

  9
$UCSORTHOVIEW
 70
     0
  9
$UCSORGTOP
 10
0.0
 20
0.0
 30
0.0
  9
$UCSORGBOTTOM
 10
0.0
 20
0.0
 30
0.0
  9
$UCSORGLEFT
 10
0.0
 20
0.0
 30
0.0
  9
$UCSORGRIGHT
 10
0.0
 20
0.0
 30
0.0
  9
$UCSORGFRONT
 10
0.0
 20
0.0
 30
0.0
  9
$UCSORGBACK
 10
0.0
 20
0.0
 30
0.0
  9
$PUCSBASE
  2

  9
$PUCSNAME
  2

  9
$PUCSORG
 10
0.0
 20
0.0
 30
0.0
  9
$PUCSXDIR
 10
1.0
 20
0.0
 30
0.0
  9
$PUCSYDIR
 10
0.0
 20
1.0
 30
0.0
  9
$PUCSORTHOREF
  2

  9
$PUCSORTHOVIEW
 70
     0
  9
$PUCSORGTOP
 10
0.0
 20
0.0
 30
0.0
  9
$PUCSORGBOTTOM
 10
0.0
 20
0.0
 30
0.0
  9
$PUCSORGLEFT
 10
0.0
 20
0.0
 30
0.0
  9
$PUCSORGRIGHT
 10
0.0
 20
0.0
 30
0.0
  9
$PUCSORGFRONT
 10
0.0
 20
0.0
 30
0.0
  9
$PUCSORGBACK
 10
0.0
 20
0.0
 30
0.0
  9
$USERI1
 70
     0
  9
$USERI2
 70
     0
  9
$USERI3
 70
     0
  9
$USERI4
 70
     0
  9
$USERI5
 70
     0
  9
$USERR1
 40
0.0
  9
$USERR2
 40
0.0
  9
$USERR3
 40
0.0
  9
$USERR4
 40
0.0
  9
$USERR5
 40
0.0
  9
$WORLDVIEW
 70
     1
  9
$SHADEDGE
 70
     3
  9
$SHADEDIF
 70
    70
  9
$TILEMODE
 70
     1
  9
$MAXACTVP
 70
    16
  9
$PINSBASE
 10
0.0
 20
0.0
 30
0.0
  9
$PLIMCHECK
 70
     0
  9
$PEXTMIN
 10
1.000000000000000E+20
 20
1.000000000000000E+20
 30
1.000000000000000E+20
  9
$PEXTMAX
 10
-1.000000000000000E+20
 20
-1.000000000000000E+20
 30
-1.000000000000000E+20
  9
$PLIMMIN
 10
0.0
 20
0.0
  9
$PLIMMAX
 10
12.0
 20
9.0
  9
$UNITMODE
 70
     0
  9
$VISRETAIN
 70
     0
  9
$PLINEGEN
 70
     0
  9
$PSLTSCALE
 70
     0
  9
$TREEDEPTH
 70
  3020
  9
$CMLSTYLE
  2
Standard
  9
$CMLJUST
 70
     0
  9
$CMLSCALE
 40
1.0
  9
$PROXYGRAPHICS
 70
     1
  9
$MEASUREMENT
 70
     0
  9
$CELWEIGHT
370
    -1
  9
$ENDCAPS
280
     0
  9
$JOINSTYLE
280
     0
  9
$LWDISPLAY
290
     0
  9
$INSUNITS
 70
     0
  9
$HYPERLINKBASE
  1

  9
$STYLESHEET
  1
monochrome 1.ctb
  9
$XEDIT
290
     1
  9
$CEPSNTYPE
380
     0
  9
$PSTYLEMODE
290
     1
  9
$FINGERPRINTGUID
  2
{7AADB5C8-6110-11D8-B72B-000102183313}
  9
$VERSIONGUID
  2
{6570B2D2-5212-4FA5-B75F-B8B4EF93378F}
  9
$EXTNAMES
290
     1
  9
$PSVPSCALE
 40
0.0
  9
$OLESTARTUP
290
     0
  9
$SORTENTS
280
    96
  9
$INDEXCTL
280
     0
  9
$HIDETEXT
280
     0
  9
$XCLIPFRAME
290
     0
  9
$HALOGAP
280
     0
  9
$OBSCOLOR
 70
   257
  9
$OBSLTYPE
280
     0
  9
$INTERSECTIONDISPLAY
280
     0
  9
$INTERSECTIONCOLOR
 70
   257
  9
$DIMASSOC
280
     1
  9
$PROJECTNAME
  1

  0
ENDSEC
  0
SECTION
  2
CLASSES
  0
CLASS
  1
ACDBDICTIONARYWDFLT
  2
AcDbDictionaryWithDefault
  3
ObjectDBX Classes
 90
        0
 91
        1
280
     0
281
     0
  0
CLASS
  1
DICTIONARYVAR
  2
AcDbDictionaryVar
  3
ObjectDBX Classes
 90
        0
 91
        3
280
     0
281
     0
  0
ENDSEC
  0
SECTION
  2
TABLES
  0
TABLE
  2
VPORT
  5
8
330
0
100
AcDbSymbolTable
 70
     3
  0
VPORT
  5
2885
330
8
100
AcDbSymbolTableRecord
100
AcDbViewportTableRecord
  2
*Active
 70
     0
 10
0.0
 20
0.0
 11
1.0
 21
1.0
 12
210.0
 22
297.0
 13
0.0
 23
0.0
 14
1.0
 24
1.0
 15
10.0
 25
10.0
 16
0.0
 26
0.0
 36
1.0
 17
0.0
 27
0.0
 37
0.0
 40
594.0
 41
1.334231805929919
 42
50.0
 43
0.0
 44
0.0
 50
0.0
 51
0.0
 71
     0
 72
  1500
 73
     1
 74
     0
 75
     0
 76
     0
 77
     0
 78
     0
281
     0
 65
     1
110
0.0
120
0.0
130
0.0
111
1.0
121
0.0
131
0.0
112
0.0
122
1.0
132
0.0
 79
     0
146
0.0
  0
ENDTAB
  0
TABLE
  2
LTYPE
  5
5
330
0
100
AcDbSymbolTable
 70
     2
  0
LTYPE
  5
13
330
5
100
AcDbSymbolTableRecord
100
AcDbLinetypeTableRecord
  2
ByBlock
 70
     0
  3

 72
    65
 73
     0
 40
0.0
  0
LTYPE
  5
14
330
5
100
AcDbSymbolTableRecord
100
AcDbLinetypeTableRecord
  2
ByLayer
 70
     0
  3

 72
    65
 73
     0
 40
0.0
  0
LTYPE
  5
15
330
5
100
AcDbSymbolTableRecord
100
AcDbLinetypeTableRecord
  2
Continuous
 70
     0
  3
Solid line
 72
    65
 73
     0
 40
0.0
  0
LTYPE
  5
35
330
5
100
AcDbSymbolTableRecord
100
AcDbLinetypeTableRecord
  2
STRICHPUNKT
 70
     0
  3
__ . __ . __ . __ . __ . __ . __ . __ . __ . __
 72
    65
 73
     4
 40
1.0
 49
0.5
 74
     0
 49
-0.25
 74
     0
 49
0.0
 74
     0
 49
-0.25
 74
     0
  0
ENDTAB
  0
TABLE
  2
LAYER
  5
2
330
0
100
AcDbSymbolTable
 70
     9
  0
LAYER
  5
10
330
2
100
AcDbSymbolTableRecord
100
AcDbLayerTableRecord
  2
0
 70
     0
 62
     7
  6
Continuous
370
    -3
390
F
  0
LAYER
  5
38
330
2
100
AcDbSymbolTableRecord
100
AcDbLayerTableRecord
  2
VOLL
 70
     0
 62
     1
  6
Continuous
370
    -3
390
F
  0
LAYER
  5
39
330
2
100
AcDbSymbolTableRecord
100
AcDbLayerTableRecord
  2
HILF
 70
     0
 62
     2
  6
Continuous
370
    -3
390
F
  0
LAYER
  5
3A
330
2
100
AcDbSymbolTableRecord
100
AcDbLayerTableRecord
  2
MITTEL
 70
     0
 62
     2
  6
STRICHPUNKT
370
    -3
390
F
  0
LAYER
  5
3B
330
2
100
AcDbSymbolTableRecord
100
AcDbLayerTableRecord
  2
BEM
 70
     0
 62
     7
  6
Continuous
370
    -3
390
F
  0
LAYER
  5
3C
330
2
100
AcDbSymbolTableRecord
100
AcDbLayerTableRecord
  2
STEMPEL
 70
     0
 62
     3
  6
Continuous
370
    -3
390
F
  0
LAYER
  5
3D
330
2
100
AcDbSymbolTableRecord
100
AcDbLayerTableRecord
  2
TEXT
 70
     0
 62
     7
  6
Continuous
370
    -3
390
F
  0
LAYER
  5
3E
330
2
100
AcDbSymbolTableRecord
100
AcDbLayerTableRecord
  2
DEFPOINTS
 70
     0
 62
     7
  6
Continuous
290
     0
370
    -3
390
F
  0
LAYER
  5
3F
330
2
100
AcDbSymbolTableRecord
100
AcDbLayerTableRecord
  2
SCHRAFF
 70
     0
 62
     7
  6
Continuous
370
    -3
390
F
  0
ENDTAB
  0
TABLE
  2
STYLE
  5
3
330
0
100
AcDbSymbolTable
 70
     2
  0
STYLE
  5
11
330
3
100
AcDbSymbolTableRecord
100
AcDbTextStyleTableRecord
  2
STANDARD
 70
     0
 40
0.0
 41
0.8
 50
0.0
 71
     0
 42
3.5
  3
simplex.shx
  4

  0
STYLE
  5
34
330
3
100
AcDbSymbolTableRecord
100
AcDbTextStyleTableRecord
  2
GREEKS
 70
     0
 40
0.0
 41
0.8
 50
0.0
 71
     0
 42
2.5
  3
SIMPLEX.shx
  4

  0
ENDTAB
  0
TABLE
  2
VIEW
  5
6
330
0
100
AcDbSymbolTable
 70
     0
  0
ENDTAB
  0
TABLE
  2
UCS
  5
7
330
0
100
AcDbSymbolTable
 70
     0
  0
ENDTAB
  0
TABLE
  2
APPID
  5
9
330
0
100
AcDbSymbolTable
 70
     2
  0
APPID
  5
12
330
9
100
AcDbSymbolTableRecord
100
AcDbRegAppTableRecord
  2
ACAD
 70
     0
  0
APPID
  5
1555
330
9
100
AcDbSymbolTableRecord
100
AcDbRegAppTableRecord
  2
AVE_RENDER
 70
     0
  0
ENDTAB
  0
TABLE
  2
DIMSTYLE
  5
A
330
0
100
AcDbSymbolTable
 70
     1
100
AcDbDimStyleTable
 71
     1
340
1CB
  0
DIMSTYLE
105
1CB
102
{ACAD_REACTORS
330
170F
330
1AB8
330
1AE8
330
279B
330
27AA
330
27B7
102
}
330
A
100
AcDbSymbolTableRecord
100
AcDbDimStyleTableRecord
  2
Standard
 70
     0
340
11
  0
ENDTAB
  0
TABLE
  2
BLOCK_RECORD
  5
1
330
0
100
AcDbSymbolTable
 70
     9
  0
BLOCK_RECORD
  5
1E
330
1
100
AcDbSymbolTableRecord
100
AcDbBlockTableRecord
  2
*Model_Space
340
21
  0
BLOCK_RECORD
  5
1A
330
1
100
AcDbSymbolTableRecord
100
AcDbBlockTableRecord
  2
*Paper_Space
340
1D
  0
BLOCK_RECORD
  5
22
330
1
100
AcDbSymbolTableRecord
100
AcDbBlockTableRecord
  2
LOGO
340
0
102
{BLKREFS
331
135
102
}
  0
BLOCK_RECORD
  5
1710
330
1
100
AcDbSymbolTableRecord
100
AcDbBlockTableRecord
  2
*D1
340
0
  0
BLOCK_RECORD
  5
1AB9
330
1
100
AcDbSymbolTableRecord
100
AcDbBlockTableRecord
  2
*D2
340
0
  0
BLOCK_RECORD
  5
1AE9
330
1
100
AcDbSymbolTableRecord
100
AcDbBlockTableRecord
  2
*D3
340
0
  0
BLOCK_RECORD
  5
279C
330
1
100
AcDbSymbolTableRecord
100
AcDbBlockTableRecord
  2
*D6
340
0
  0
BLOCK_RECORD
  5
27AB
330
1
100
AcDbSymbolTableRecord
100
AcDbBlockTableRecord
  2
*D7
340
0
  0
BLOCK_RECORD
  5
27B8
330
1
100
AcDbSymbolTableRecord
100
AcDbBlockTableRecord
  2
*D8
340
0
  0
ENDTAB
  0
ENDSEC
  0
SECTION
  2
BLOCKS
  0
BLOCK
  5
43
330
1E
100
AcDbEntity
  8
0
100
AcDbBlockBegin
  2
*Model_Space
 70
     0
 10
0.0
 20
0.0
 30
0.0
  3
*Model_Space
  1

  0
ENDBLK
  5
44
330
1E
100
AcDbEntity
  8
0
100
AcDbBlockEnd
  0
BLOCK
  5
41
330
1A
100
AcDbEntity
 67
     1
  8
0
100
AcDbBlockBegin
  2
*Paper_Space
 70
     0
 10
0.0
 20
0.0
 30
0.0
  3
*Paper_Space
  1

  0
ENDBLK
  5
42
330
1A
100
AcDbEntity
 67
     1
  8
0
100
AcDbBlockEnd
  0
BLOCK
  5
45
330
22
100
AcDbEntity
  8
0
100
AcDbBlockBegin
  2
LOGO
 70
     0
 10
0.0
 20
0.0
 30
0.0
  3
LOGO
  1

  0
ARC
  5
46
330
22
100
AcDbEntity
  8
0
100
AcDbCircle
 10
11.59973089678112
 20
-9.271599258481501
 30
0.0
 40
4.5
100
AcDbArc
 50
270.0
 51
231.0575587310159
  0
LINE
  5
47
330
22
100
AcDbEntity
  8
0
100
AcDbLine
 10
3.599730896781125
 20
-4.771599258481529
 30
0.0
 11
3.599730896781153
 21
-11.77159925848133
 31
0.0
  0
LINE
  5
48
330
22
100
AcDbEntity
  8
0
100
AcDbLine
 10
2.599730896781125
 20
-4.771599258481529
 30
0.0
 11
2.599730896781153
 21
-11.77159925848133
 31
0.0
  0
CIRCLE
  5
49
330
22
100
AcDbEntity
  8
0
100
AcDbCircle
 10
11.59973089678112
 20
-9.271599258481501
 30
0.0
 40
3.5
  0
ARC
  5
4A
330
22
100
AcDbEntity
  8
0
100
AcDbCircle
 10
31.59973089678115
 20
-9.271599258481472
 30
0.0
 40
4.5
100
AcDbArc
 50
270.0
 51
231.0575587310182
  0
LINE
  5
4B
330
22
100
AcDbEntity
  8
0
100
AcDbLine
 10
17.59973089678112
 20
-4.771599258481472
 30
0.0
 11
17.59973089678115
 21
-13.77159925848147
 31
0.0
  0
ARC
  5
4C
330
22
100
AcDbEntity
  8
0
100
AcDbCircle
 10
22.59973089678116
 20
-7.271599258481472
 30
0.0
 40
2.5
100
AcDbArc
 50
293.1161887722295
 51
90.0
  0
CIRCLE
  5
4D
330
22
100
AcDbEntity
  8
0
100
AcDbCircle
 10
31.59973089678115
 20
-9.271599258481472
 30
0.0
 40
3.5
  0
ARC
  5
4E
330
22
100
AcDbEntity
  8
0
100
AcDbCircle
 10
4.599730896781153
 20
-11.77159925848133
 30
0.0
 40
1.0
100
AcDbArc
 50
180.0
 51
270.0
  0
ARC
  5
4F
330
22
100
AcDbEntity
  8
0
100
AcDbCircle
 10
4.599730896781153
 20
-11.77159925848133
 30
0.0
 40
2.0
100
AcDbArc
 50
179.9999999999992
 51
270.0
  0
LINE
  5
50
330
22
100
AcDbEntity
  8
0
100
AcDbLine
 10
11.59973089678115
 20
-13.77159925848144
 30
0.0
 11
4.599730896781153
 21
-13.77159925848147
 31
0.0
  0
LINE
  5
51
330
22
100
AcDbEntity
  8
0
100
AcDbLine
 10
8.771303772034769
 20
-12.77159925848136
 30
0.0
 11
4.599730896781153
 21
-12.77159925848133
 31
0.0
  0
LINE
  5
52
330
22
100
AcDbEntity
  8
0
100
AcDbLine
 10
31.59973089678115
 20
-13.77159925848147
 30
0.0
 11
23.6715276665056
 21
-13.77159925848144
 31
0.0
  0
LINE
  5
53
330
22
100
AcDbEntity
  8
0
100
AcDbLine
 10
23.56565672307022
 20
-9.51278021337896
 30
0.0
 11
24.4388546544846
 21
-12.77159925848144
 31
0.0
  0
LINE
  5
54
330
22
100
AcDbEntity
  8
0
100
AcDbLine
 10
22.59973089678116
 20
-9.771599258481472
 30
0.0
 11
18.59973089678112
 21
-9.771599258481472
 31
0.0
  0
LINE
  5
55
330
22
100
AcDbEntity
  8
0
100
AcDbLine
 10
18.59973089678115
 20
-13.77159925848144
 30
0.0
 11
17.59973089678115
 21
-13.77159925848144
 31
0.0
  0
LINE
  5
56
330
22
100
AcDbEntity
  8
0
100
AcDbLine
 10
18.59973089678115
 20
-9.771599258481472
 30
0.0
 11
18.59973089678115
 21
-13.77159925848144
 31
0.0
  0
LINE
  5
57
330
22
100
AcDbEntity
  8
0
100
AcDbLine
 10
22.59973089678116
 20
-9.771599258481472
 30
0.0
 11
23.67152766650562
 21
-13.77159925848147
 31
0.0
  0
ARC
  5
58
330
22
100
AcDbEntity
  8
0
100
AcDbCircle
 10
22.59973089678116
 20
-7.271599258481472
 30
0.0
 40
2.5
100
AcDbArc
 50
270.0
 51
270.0000000000007
  0
LINE
  5
59
330
22
100
AcDbEntity
  8
0
100
AcDbLine
 10
28.77130377203494
 20
-12.77159925848147
 30
0.0
 11
24.43885465448463
 21
-12.77159925848144
 31
0.0
  0
LINE
  5
5A
330
22
100
AcDbEntity
  8
0
100
AcDbLine
 10
3.599730896781125
 20
-4.771599258481472
 30
0.0
 11
2.599730896781125
 21
-4.771599258481472
 31
0.0
  0
LINE
  5
5B
330
22
100
AcDbEntity
  8
0
100
AcDbLine
 10
22.59973089678116
 20
-8.771599258481472
 30
0.0
 11
18.59973089678115
 21
-8.771599258481472
 31
0.0
  0
LINE
  5
5C
330
22
100
AcDbEntity
  8
0
100
AcDbLine
 10
22.59973089678116
 20
-5.771599258481472
 30
0.0
 11
18.59973089678115
 21
-5.771599258481472
 31
0.0
  0
LINE
  5
5D
330
22
100
AcDbEntity
  8
0
100
AcDbLine
 10
22.59973089678116
 20
-4.771599258481472
 30
0.0
 11
17.59973089678115
 21
-4.771599258481472
 31
0.0
  0
LINE
  5
5E
330
22
100
AcDbEntity
  8
0
100
AcDbLine
 10
18.59973089678115
 20
-5.771599258481472
 30
0.0
 11
18.59973089678115
 21
-8.771599258481472
 31
0.0
  0
ARC
  5
5F
330
22
100
AcDbEntity
  8
0
100
AcDbCircle
 10
22.59973089678116
 20
-7.271599258481472
 30
0.0
 40
1.5
100
AcDbArc
 50
270.0
 51
90.0
  0
ENDBLK
  5
60
330
22
100
AcDbEntity
  8
0
100
AcDbBlockEnd
  0
BLOCK
  5
171A
330
1710
100
AcDbEntity
  8
0
100
AcDbBlockBegin
  2
*D1
 70
     1
 10
0.0
 20
0.0
 30
0.0
  3
*D1
  1

  0
LINE
  5
2872
330
1710
100
AcDbEntity
  8
BEM
 62
     0
370
    -2
100
AcDbLine
 10
163.1594804925781
 20
234.2308850950838
 30
0.0
 11
145.72862840253
 21
234.2308850950838
 31
0.0
  0
LINE
  5
2873
330
1710
100
AcDbEntity
  8
BEM
 62
     0
370
    -2
100
AcDbLine
 10
213.2595711843709
 20
369.2308850950835
 30
0.0
 11
145.7286284025301
 21
369.2308850950835
 31
0.0
  0
LINE
  5
2874
330
1710
100
AcDbEntity
  8
BEM
 62
     0
370
    -2
100
AcDbLine
 10
147.72862840253
 20
241.2308850950839
 30
0.0
 11
147.7286284025301
 21
362.2308850950834
 31
0.0
  0
SOLID
  5
2875
330
1710
100
AcDbEntity
  8
BEM
 62
     0
100
AcDbTrace
 10
146.5619617358634
 20
241.2308850950839
 30
0.0
 11
148.8952950691967
 21
241.2308850950839
 31
0.0
 12
147.72862840253
 22
234.2308850950838
 32
0.0
 13
147.72862840253
 23
234.2308850950838
 33
0.0
  0
SOLID
  5
2876
330
1710
100
AcDbEntity
  8
BEM
 62
     0
100
AcDbTrace
 10
146.5619617358634
 20
362.2308850950834
 30
0.0
 11
148.8952950691967
 21
362.2308850950834
 31
0.0
 12
147.7286284025301
 22
369.2308850950835
 32
0.0
 13
147.7286284025301
 23
369.2308850950835
 33
0.0
  0
MTEXT
  5
2877
330
1710
100
AcDbEntity
  8
BEM
 62
     1
100
AcDbMText
 10
141.22862840253
 20
301.7308850950837
 30
0.0
 40
7.0
 41
0.0
 71
     5
 72
     1
  1
\A1;135
 11
0.0000000000000001
 21
1.0
 31
0.0
 73
     1
 44
1.0
  0
POINT
  5
2878
330
1710
100
AcDbEntity
  8
DEFPOINTS
 62
     0
100
AcDbPoint
 10
165.1594804925781
 20
234.2308850950838
 30
0.0
  0
POINT
  5
2879
330
1710
100
AcDbEntity
  8
DEFPOINTS
 62
     0
100
AcDbPoint
 10
215.259571184371
 20
369.2308850950835
 30
0.0
  0
POINT
  5
287A
330
1710
100
AcDbEntity
  8
DEFPOINTS
 62
     0
100
AcDbPoint
 10
147.7286284025301
 20
369.2308850950835
 30
0.0
  0
ENDBLK
  5
171B
330
1710
100
AcDbEntity
  8
0
100
AcDbBlockEnd
  0
BLOCK
  5
1AC3
330
1AB9
100
AcDbEntity
  8
0
100
AcDbBlockBegin
  2
*D2
 70
     1
 10
0.0
 20
0.0
 30
0.0
  3
*D2
  1

  0
LINE
  5
287B
330
1AB9
100
AcDbEntity
  8
BEM
 62
     0
370
    -2
100
AcDbLine
 10
158.5997882656479
 20
514.2341779994138
 30
0.0
 11
129.0101187321522
 21
514.2341779994138
 31
0.0
  0
LINE
  5
287C
330
1AB9
100
AcDbEntity
  8
BEM
 62
     0
370
    -2
100
AcDbLine
 10
163.1594804925781
 20
234.2308850950838
 30
0.0
 11
129.0101187321522
 21
234.2308850950838
 31
0.0
  0
LINE
  5
287D
330
1AB9
100
AcDbEntity
  8
BEM
 62
     0
370
    -2
100
AcDbLine
 10
131.0101187321522
 20
507.2341779994138
 30
0.0
 11
131.0101187321522
 21
241.2308850950839
 31
0.0
  0
SOLID
  5
287E
330
1AB9
100
AcDbEntity
  8
BEM
 62
     0
100
AcDbTrace
 10
129.8434520654856
 20
507.2341779994138
 30
0.0
 11
132.1767853988189
 21
507.2341779994138
 31
0.0
 12
131.0101187321522
 22
514.2341779994138
 32
0.0
 13
131.0101187321522
 23
514.2341779994138
 33
0.0
  0
SOLID
  5
287F
330
1AB9
100
AcDbEntity
  8
BEM
 62
     0
100
AcDbTrace
 10
129.8434520654855
 20
241.2308850950839
 30
0.0
 11
132.1767853988188
 21
241.2308850950839
 31
0.0
 12
131.0101187321522
 22
234.2308850950838
 32
0.0
 13
131.0101187321522
 23
234.2308850950838
 33
0.0
  0
MTEXT
  5
2880
330
1AB9
100
AcDbEntity
  8
BEM
 62
     1
100
AcDbMText
 10
124.5101187321521
 20
374.2325315472489
 30
0.0
 40
7.0
 41
0.0
 71
     5
 72
     1
  1
\A1;280
 11
0.0000000000000001
 21
1.0
 31
0.0
 73
     1
 44
1.0
  0
POINT
  5
2881
330
1AB9
100
AcDbEntity
  8
DEFPOINTS
 62
     0
100
AcDbPoint
 10
160.5997882656479
 20
514.2341779994138
 30
0.0
  0
POINT
  5
2882
330
1AB9
100
AcDbEntity
  8
DEFPOINTS
 62
     0
100
AcDbPoint
 10
165.1594804925781
 20
234.2308850950838
 30
0.0
  0
POINT
  5
2883
330
1AB9
100
AcDbEntity
  8
DEFPOINTS
 62
     0
100
AcDbPoint
 10
131.0101187321522
 20
234.2308850950838
 30
0.0
  0
ENDBLK
  5
1AC4
330
1AB9
100
AcDbEntity
  8
0
100
AcDbBlockEnd
  0
BLOCK
  5
1AF3
330
1AE9
100
AcDbEntity
  8
0
100
AcDbBlockBegin
  2
*D3
 70
     1
 10
0.0
 20
0.0
 30
0.0
  3
*D3
  1

  0
LINE
  5
26A3
330
1AE9
100
AcDbEntity
  8
BEM
 62
     0
370
    -2
100
AcDbLine
 10
164.4595711843707
 20
240.2308850950838
 30
0.0
 11
164.4595711843707
 21
211.1409958420064
 31
0.0
  0
LINE
  5
26A4
330
1AE9
100
AcDbEntity
  8
BEM
 62
     0
370
    -2
100
AcDbLine
 10
266.0595711843707
 20
240.2308850950832
 30
0.0
 11
266.0595711843707
 21
211.1409958420064
 31
0.0
  0
LINE
  5
26A5
330
1AE9
100
AcDbEntity
  8
BEM
 62
     0
370
    -2
100
AcDbLine
 10
171.4595711843707
 20
213.1409958420064
 30
0.0
 11
259.0595711843707
 21
213.1409958420064
 31
0.0
  0
SOLID
  5
26A6
330
1AE9
100
AcDbEntity
  8
BEM
 62
     0
100
AcDbTrace
 10
171.4595711843707
 20
214.3076625086731
 30
0.0
 11
171.4595711843707
 21
211.9743291753398
 31
0.0
 12
164.4595711843707
 22
213.1409958420064
 32
0.0
 13
164.4595711843707
 23
213.1409958420064
 33
0.0
  0
SOLID
  5
26A7
330
1AE9
100
AcDbEntity
  8
BEM
 62
     0
100
AcDbTrace
 10
259.0595711843707
 20
214.3076625086731
 30
0.0
 11
259.0595711843707
 21
211.9743291753398
 31
0.0
 12
266.0595711843707
 22
213.1409958420064
 32
0.0
 13
266.0595711843707
 23
213.1409958420064
 33
0.0
  0
MTEXT
  5
26A8
330
1AE9
100
AcDbEntity
  8
BEM
 62
     1
100
AcDbMText
 10
215.2595711843707
 20
219.6409958420065
 30
0.0
 40
7.0
 41
0.0
 71
     5
 72
     1
  1
\A1;%%c101.6
 73
     1
 44
1.0
  0
POINT
  5
26A9
330
1AE9
100
AcDbEntity
  8
DEFPOINTS
 62
     0
100
AcDbPoint
 10
164.4595711843707
 20
242.2308850950838
 30
0.0
  0
POINT
  5
26AA
330
1AE9
100
AcDbEntity
  8
DEFPOINTS
 62
     0
100
AcDbPoint
 10
266.0595711843707
 20
242.2308850950832
 30
0.0
  0
POINT
  5
26AB
330
1AE9
100
AcDbEntity
  8
DEFPOINTS
 62
     0
100
AcDbPoint
 10
266.0595711843707
 20
213.1409958420064
 30
0.0
  0
ENDBLK
  5
1AF4
330
1AE9
100
AcDbEntity
  8
0
100
AcDbBlockEnd
  0
BLOCK
  5
27A8
330
279C
100
AcDbEntity
  8
0
100
AcDbBlockBegin
  2
*D6
 70
     1
 10
0.0
 20
0.0
 30
0.0
  3
*D6
  1

  0
LINE
  5
279D
330
279C
100
AcDbEntity
  8
BEM
 62
     0
370
    -2
100
AcDbLine
 10
367.051260467066
 20
377.1859504440107
 30
0.0
 11
385.4910572688378
 21
378.1523392448221
 31
0.0
  0
LINE
  5
279E
330
279C
100
AcDbEntity
  8
BEM
 62
     0
370
    -2
100
AcDbLine
 10
215.2595711843711
 20
521.2341779994132
 30
0.0
 11
215.2595711843714
 21
539.6959876781985
 31
0.0
  0
ARC
  5
279F
330
279C
100
AcDbEntity
  8
BEM
 62
     0
370
    -2
100
AcDbCircle
 10
215.2595711843709
 20
369.2308850950835
 30
0.0
 40
168.4651025831151
100
AcDbArc
 50
5.380904464429348
 51
87.61909553557048
  0
SOLID
  5
27A0
330
279C
100
AcDbEntity
  8
BEM
 62
     0
100
AcDbTrace
 10
384.1458419529155
 20
385.1142046777778
 30
0.0
 11
381.8187463947407
 21
384.9437033359443
 31
0.0
 12
383.4937981993286
 22
378.0476673323363
 32
0.0
 13
383.4937981993286
 23
378.0476673323363
 33
0.0
  0
SOLID
  5
27A1
330
279C
100
AcDbEntity
  8
BEM
 62
     0
100
AcDbTrace
 10
222.2338218482546
 20
536.3841421124275
 30
0.0
 11
222.2822987526191
 21
538.7169718177828
 31
0.0
 12
215.2595711843713
 22
537.6959876781985
 32
0.0
 13
215.2595711843713
 23
537.6959876781985
 33
0.0
  0
MTEXT
  5
27A2
330
279C
100
AcDbEntity
  8
BEM
 62
     1
100
AcDbMText
 10
335.6976001341853
 20
496.1460863304107
 30
0.0
 40
7.0
 41
0.0
 71
     5
 72
     1
  1
\A1;87°
 11
0.7253743710122872
 21
-0.6883545756937545
 31
0.0
 73
     1
 44
1.0
  0
POINT
  5
27A3
330
279C
100
AcDbEntity
  8
DEFPOINTS
 62
     0
100
AcDbPoint
 10
358.1260806987787
 20
458.503788304899
 30
0.0
  0
POINT
  5
27A4
330
279C
100
AcDbEntity
  8
DEFPOINTS
 62
     0
100
AcDbPoint
 10
215.259571184371
 20
519.2341779994132
 30
0.0
  0
POINT
  5
27A5
330
279C
100
AcDbEntity
  8
DEFPOINTS
 62
     0
100
AcDbPoint
 10
365.0540013975568
 20
377.0812785315249
 30
0.0
  0
POINT
  5
27A6
330
279C
100
AcDbEntity
  8
DEFPOINTS
 62
     0
100
AcDbPoint
 10
215.2595711843709
 20
369.2308850950835
 30
0.0
  0
POINT
  5
27A7
330
279C
100
AcDbEntity
  8
DEFPOINTS
 62
     0
100
AcDbPoint
 10
215.2595711843707
 20
229.2308850950836
 30
0.0
  0
ENDBLK
  5
27A9
330
279C
100
AcDbEntity
  8
0
100
AcDbBlockEnd
  0
BLOCK
  5
27B5
330
27AB
100
AcDbEntity
  8
0
100
AcDbBlockBegin
  2
*D7
 70
     1
 10
0.0
 20
0.0
 30
0.0
  3
*D7
  1

  0
LINE
  5
27C4
330
27AB
100
AcDbEntity
  8
BEM
 62
     0
370
    -2
100
AcDbLine
 10
264.0623121148617
 20
416.2995291497832
 30
0.0
 11
216.9250456804668
 21
413.8291696944834
 31
0.0
  0
LINE
  5
27C5
330
27AB
100
AcDbEntity
  8
BEM
 62
     0
370
    -2
100
AcDbLine
 10
264.0623121148615
 20
327.2775275905682
 30
0.0
 11
221.5777121904646
 21
325.0510040548021
 31
0.0
  0
LINE
  5
27C6
330
27AB
100
AcDbEntity
  8
BEM
 62
     0
370
    -2
100
AcDbLine
 10
219.2886564436766
 20
406.9434348636873
 30
0.0
 11
223.2086195662731
 21
332.14608271057
 31
0.0
  0
SOLID
  5
27C7
330
27AB
100
AcDbEntity
  8
BEM
 62
     0
100
AcDbTrace
 10
220.4537242342236
 20
407.004493479304
 30
0.0
 11
218.1235886531296
 21
406.8823762480705
 31
0.0
 12
218.9223047499759
 22
413.9338416069693
 32
0.0
 13
218.9223047499759
 23
413.9338416069693
 33
0.0
  0
SOLID
  5
27C8
330
27AB
100
AcDbEntity
  8
BEM
 62
     0
100
AcDbTrace
 10
224.3736873568201
 20
332.2071413261868
 30
0.0
 11
222.0435517757261
 21
332.0850240949533
 31
0.0
 12
223.5749712599737
 22
325.155675967288
 32
0.0
 13
223.5749712599737
 23
325.155675967288
 33
0.0
  0
MTEXT
  5
27C9
330
27AB
100
AcDbEntity
  8
BEM
 62
     1
100
AcDbMText
 10
227.7397299808797
 20
369.8849425027078
 30
0.0
 40
7.0
 41
0.0
 71
     5
 72
     1
  1
\A1;%%c88.9
 11
0.0523359562429442
 21
-0.9986295347545739
 31
0.0
 73
     1
 44
1.0
  0
POINT
  5
27CA
330
27AB
100
AcDbEntity
  8
DEFPOINTS
 62
     0
100
AcDbPoint
 10
266.0595711843708
 20
416.404201062269
 30
0.0
  0
POINT
  5
27CB
330
27AB
100
AcDbEntity
  8
DEFPOINTS
 62
     0
100
AcDbPoint
 10
266.0595711843707
 20
327.3821995030541
 30
0.0
  0
POINT
  5
27CC
330
27AB
100
AcDbEntity
  8
DEFPOINTS
 62
     0
100
AcDbPoint
 10
223.5749712599737
 20
325.155675967288
 30
0.0
  0
ENDBLK
  5
27B6
330
27AB
100
AcDbEntity
  8
0
100
AcDbBlockEnd
  0
BLOCK
  5
27C2
330
27B8
100
AcDbEntity
  8
0
100
AcDbBlockBegin
  2
*D8
 70
     1
 10
0.0
 20
0.0
 30
0.0
  3
*D8
  1

  0
LINE
  5
2869
330
27B8
100
AcDbEntity
  8
BEM
 62
     0
370
    -2
100
AcDbLine
 10
215.3642430968567
 20
367.2336260255743
 30
0.0
 11
218.9747726361245
 21
298.3406183717242
 31
0.0
  0
LINE
  5
286A
330
27B8
100
AcDbEntity
  8
BEM
 62
     0
370
    -2
100
AcDbLine
 10
362.6384997286729
 20
327.6351829984506
 30
0.0
 11
363.7760551755378
 21
305.9293320269512
 31
0.0
  0
LINE
  5
286B
330
27B8
100
AcDbEntity
  8
BEM
 62
     0
370
    -2
100
AcDbLine
 10
225.8605074669207
 20
300.704229134934
 30
0.0
 11
356.6809765197699
 21
307.5602394027597
 31
0.0
  0
SOLID
  5
286C
330
27B8
100
AcDbEntity
  8
BEM
 62
     0
100
AcDbTrace
 10
225.7994488513039
 20
301.869296925481
 30
0.0
 11
225.9215660825375
 21
299.5391613443871
 31
0.0
 12
218.8701007236387
 22
300.3378774412334
 32
0.0
 13
218.8701007236387
 23
300.3378774412334
 33
0.0
  0
SOLID
  5
286D
330
27B8
100
AcDbEntity
  8
BEM
 62
     0
100
AcDbTrace
 10
356.6199179041532
 20
308.7253071933067
 30
0.0
 11
356.7420351353867
 21
306.3951716122127
 31
0.0
 12
363.6713832630519
 22
307.9265910964603
 32
0.0
 13
363.6713832630519
 23
307.9265910964603
 33
0.0
  0
MTEXT
  5
286E
330
27B8
100
AcDbEntity
  8
BEM
 62
     1
100
AcDbMText
 10
290.9305582777662
 20
310.6233262447516
 30
0.0
 40
7.0
 41
0.0
 71
     5
 72
     1
  1
\A1;145
 11
0.9986295347545739
 21
0.0523359562429441
 31
0.0
 73
     1
 44
1.0
  0
POINT
  5
286F
330
27B8
100
AcDbEntity
  8
DEFPOINTS
 62
     0
100
AcDbPoint
 10
215.2595711843708
 20
369.2308850950833
 30
0.0
  0
POINT
  5
2870
330
27B8
100
AcDbEntity
  8
DEFPOINTS
 62
     0
100
AcDbPoint
 10
362.533827816187
 20
329.6324420679598
 30
0.0
  0
POINT
  5
2871
330
27B8
100
AcDbEntity
  8
DEFPOINTS
 62
     0
100
AcDbPoint
 10
363.6713832630519
 20
307.9265910964603
 30
0.0
  0
ENDBLK
  5
27C3
330
27B8
100
AcDbEntity
  8
0
100
AcDbBlockEnd
  0
ENDSEC
  0
SECTION
  2
ENTITIES
  0
TEXT
  5
134
330
1E
100
AcDbEntity
  8
TEXT
100
AcDbText
 10
204.4216048581257
 20
63.0896391972351
 30
0.0
 40
4.0
  1
Koeh
 41
0.8
  7
GREEKS
 72
     1
 11
209.6787477152686
 21
63.0896391972351
 31
0.0
100
AcDbText
  0
INSERT
  5
135
330
1E
100
AcDbEntity
  8
STEMPEL
100
AcDbBlockReference
  2
LOGO
 10
150.9955485457794
 20
45.02105276448322
 30
0.0
 41
2.0
 42
2.0
 43
2.0
  0
LINE
  5
136
330
1E
100
AcDbEntity
  8
HILF
100
AcDbLine
 10
420.0
 20
0.0
 30
0.0
 11
0.0
 21
0.0
 31
0.0
  0
LINE
  5
137
330
1E
100
AcDbEntity
  8
HILF
100
AcDbLine
 10
419.9999999999999
 20
594.0000000000002
 30
0.0
 11
0.0
 21
594.0
 31
0.0
  0
LINE
  5
138
330
1E
100
AcDbEntity
  8
STEMPEL
100
AcDbLine
 10
410.0
 20
584.0
 30
0.0
 11
39.99999999999989
 21
584.0
 31
0.0
  0
LINE
  5
139
330
1E
100
AcDbEntity
  8
STEMPEL
100
AcDbLine
 10
410.0
 20
10.0
 30
0.0
 11
39.99999999999989
 21
10.0
 31
0.0
  0
LINE
  5
13A
330
1E
100
AcDbEntity
  8
STEMPEL
100
AcDbLine
 10
49.99999999999989
 20
10.0
 30
0.0
 11
410.0
 21
10.0
 31
0.0
  0
TEXT
  5
13B
330
1E
100
AcDbEntity
  8
TEXT
100
AcDbText
 10
202.4626584226295
 20
73.30961091915225
 30
0.0
 40
4.0
  1
Name
 41
0.8
  7
GREEKS
100
AcDbText
  0
TEXT
  5
13C
330
1E
100
AcDbEntity
  8
TEXT
100
AcDbText
 10
196.5498279101549
 20
102.6506227776589
 30
0.0
 40
5.0
  1
Zul. Abw.
 41
0.8
  7
GREEKS
 72
     4
 11
209.9783993387263
 21
105.1506227776589
 31
0.0
100
AcDbText
  0
LINE
  5
13D
330
1E
100
AcDbEntity
  8
HILF
100
AcDbLine
 10
146.0000000000001
 20
49.99999999999997
 30
0.0
 11
230.0
 21
49.99999999999997
 31
0.0
  0
LINE
  5
13E
330
1E
100
AcDbEntity
  8
HILF
100
AcDbLine
 10
146.0000000000001
 20
59.99999999999997
 30
0.0
 11
230.0
 21
59.99999999999997
 31
0.0
  0
LINE
  5
13F
330
1E
100
AcDbEntity
  8
HILF
100
AcDbLine
 10
146.0000000000001
 20
69.99999999999994
 30
0.0
 11
230.0
 21
69.99999999999994
 31
0.0
  0
LINE
  5
140
330
1E
100
AcDbEntity
  8
STEMPEL
100
AcDbLine
 10
410.0
 20
80.0
 30
0.0
 11
146.0000000000001
 21
79.99999999999994
 31
0.0
  0
LINE
  5
141
330
1E
100
AcDbEntity
  8
STEMPEL
100
AcDbLine
 10
410.0
 20
40.0
 30
0.0
 11
146.0000000000001
 21
39.99999999999997
 31
0.0
  0
LINE
  5
142
330
1E
100
AcDbEntity
  8
STEMPEL
100
AcDbLine
 10
410.0
 20
110.0
 30
0.0
 11
39.99999999999997
 21
110.0
 31
0.0
  0
LINE
  5
144
330
1E
100
AcDbEntity
  8
HILF
100
AcDbLine
 10
0.0
 20
0.0
 30
0.0
 11
-0.0000000000001137
 21
594.0
 31
0.0
  0
LINE
  5
145
330
1E
100
AcDbEntity
  8
STEMPEL
100
AcDbLine
 10
40.0
 20
10.0
 30
0.0
 11
39.99999999999989
 21
584.0
 31
0.0
  0
TEXT
  5
146
330
1E
100
AcDbEntity
  8
TEXT
100
AcDbText
 10
41.85509950977674
 20
111.6719999999999
 30
0.0
 40
5.0
  1
Erstellt mit AUTOCAD 2004
 41
0.8
  7
GREEKS
100
AcDbText
  0
TEXT
  5
147
330
1E
100
AcDbEntity
  8
TEXT
100
AcDbText
 10
67.93969678957707
 20
18.67381894984132
 30
0.0
 40
4.0
  1
Änderung
 41
0.8
  7
GREEKS
 72
     1
 11
78.68255393243422
 21
18.67381894984132
 31
0.0
100
AcDbText
  0
LINE
  5
148
330
1E
100
AcDbEntity
  8
HILF
100
AcDbLine
 10
40.00000000000008
 20
39.99999999999997
 30
0.0
 11
146.0000000000001
 21
39.99999999999997
 31
0.0
  0
LINE
  5
149
330
1E
100
AcDbEntity
  8
HILF
100
AcDbLine
 10
40.00000000000008
 20
49.99999999999997
 30
0.0
 11
146.0000000000001
 21
49.99999999999997
 31
0.0
  0
LINE
  5
14A
330
1E
100
AcDbEntity
  8
HILF
100
AcDbLine
 10
40.00000000000008
 20
59.99999999999997
 30
0.0
 11
146.0000000000001
 21
59.99999999999997
 31
0.0
  0
LINE
  5
14B
330
1E
100
AcDbEntity
  8
HILF
100
AcDbLine
 10
40.00000000000008
 20
69.99999999999994
 30
0.0
 11
146.0000000000001
 21
69.99999999999994
 31
0.0
  0
LINE
  5
14C
330
1E
100
AcDbEntity
  8
HILF
100
AcDbLine
 10
40.00000000000008
 20
79.99999999999994
 30
0.0
 11
146.0000000000001
 21
79.99999999999994
 31
0.0
  0
LINE
  5
14D
330
1E
100
AcDbEntity
  8
HILF
100
AcDbLine
 10
40.00000000000008
 20
90.00000000000005
 30
0.0
 11
146.0000000000001
 21
90.00000000000005
 31
0.0
  0
LINE
  5
14E
330
1E
100
AcDbEntity
  8
HILF
100
AcDbLine
 10
40.00000000000008
 20
100.0
 30
0.0
 11
146.0000000000001
 21
100.0
 31
0.0
  0
LINE
  5
14F
330
1E
100
AcDbEntity
  8
STEMPEL
100
AcDbLine
 10
145.9999999999999
 20
29.99999999999997
 30
0.0
 11
39.99999999999997
 21
29.99999999999997
 31
0.0
  0
TEXT
  5
150
330
1E
100
AcDbEntity
  8
TEXT
100
AcDbText
 10
48.26641107045756
 20
13.65465846027192
 30
0.0
 40
4.0
  1
Index
 50
90.0
 41
0.8
  7
GREEKS
100
AcDbText
  0
LINE
  5
151
330
1E
100
AcDbEntity
  8
VOLL
100
AcDbLine
 10
54.00000000000009
 20
110.0
 30
0.0
 11
53.99999999999997
 21
9.999999999999971
 31
0.0
  0
LINE
  5
152
330
1E
100
AcDbEntity
  8
HILF
100
AcDbLine
 10
31.08767135713856
 20
297.0
 30
0.0
 11
0.0000000000001137
 21
297.0
 31
0.0
  0
TEXT
  5
153
330
1E
100
AcDbEntity
  8
TEXT
100
AcDbText
 10
110.2820548933125
 20
18.6715626933981
 30
0.0
 40
4.0
  1
Tag
 41
0.8
  7
GREEKS
 72
     1
 11
114.0153882266458
 21
18.6715626933981
 31
0.0
100
AcDbText
  0
LINE
  5
154
330
1E
100
AcDbEntity
  8
VOLL
100
AcDbLine
 10
124.0000000000001
 20
109.9999999999999
 30
0.0
 11
124.0
 21
9.999999999999971
 31
0.0
  0
LINE
  5
155
330
1E
100
AcDbEntity
  8
VOLL
100
AcDbLine
 10
104.0000000000001
 20
109.9999999999999
 30
0.0
 11
104.0
 21
9.999999999999971
 31
0.0
  0
TEXT
  5
156
330
1E
100
AcDbEntity
  8
TEXT
100
AcDbText
 10
128.9001864118674
 20
18.59324216966408
 30
0.0
 40
4.0
  1
Name
 41
0.8
  7
GREEKS
 72
     1
 11
135.2239959356769
 21
18.59324216966408
 31
0.0
100
AcDbText
  0
LINE
  5
157
330
1E
100
AcDbEntity
  8
STEMPEL
100
AcDbLine
 10
146.0000000000001
 20
109.9999999999999
 30
0.0
 11
146.0
 21
9.999999999999971
 31
0.0
  0
TEXT
  5
158
330
1E
100
AcDbEntity
  8
TEXT
100
AcDbText
 10
170.398997108236
 20
63.10765040825732
 30
0.0
 40
4.0
  1
08.04.
 41
0.8
  7
GREEKS
 72
     1
 11
177.4085209177598
 21
63.10765040825732
 31
0.0
100
AcDbText
  0
TEXT
  5
159
330
1E
100
AcDbEntity
  8
TEXT
100
AcDbText
 10
172.331167315365
 20
73.31880501229926
 30
0.0
 40
4.0
  1
Tag
 41
0.8
  7
GREEKS
100
AcDbText
  0
TEXT
  5
15A
330
1E
100
AcDbEntity
  8
TEXT
100
AcDbText
 10
147.5836127167615
 20
63.62990369617964
 30
0.0
 40
4.0
  1
Gez.
 41
0.8
  7
GREEKS
100
AcDbText
  0
LINE
  5
15B
330
1E
100
AcDbEntity
  8
VOLL
100
AcDbLine
 10
164.0000000000001
 20
79.99999999999994
 30
0.0
 11
164.0000000000001
 21
39.99999999999997
 31
0.0
  0
TEXT
  5
15C
330
1E
100
AcDbEntity
  8
TEXT
100
AcDbText
 10
147.6006777387303
 20
43.52946389649807
 30
0.0
 40
4.0
  1
Norm.
 41
0.8
  7
GREEKS
100
AcDbText
  0
TEXT
  5
15D
330
1E
100
AcDbEntity
  8
TEXT
100
AcDbText
 10
147.5515086571672
 20
53.68926291428377
 30
0.0
 40
4.0
  1
Gepr.
 41
0.8
  7
GREEKS
100
AcDbText
  0
TEXT
  5
15E
330
1E
100
AcDbEntity
  8
TEXT
 62
     1
100
AcDbText
 10
160.5006306481887
 20
88.14901428913959
 30
0.0
 40
7.0
  1
1:2
 41
0.8
  7
GREEKS
100
AcDbText
  0
TEXT
  5
15F
330
1E
100
AcDbEntity
  8
TEXT
100
AcDbText
 10
153.5163572150377
 20
102.4620895087088
 30
0.0
 40
5.0
  1
Maßstab
 41
0.8
  7
GREEKS
100
AcDbText
  0
TEXT
  5
160
330
1E
100
AcDbEntity
  8
TEXT
100
AcDbText
 10
148.622109822104
 20
73.14025471151666
 30
0.0
 40
4.0
  1
2011
 41
0.8
  7
GREEKS
100
AcDbText
  0
LINE
  5
161
330
1E
100
AcDbEntity
  8
VOLL
100
AcDbLine
 10
190.0000000000001
 20
109.9999999999998
 30
0.0
 11
190.0
 21
39.99999999999997
 31
0.0
  0
LINE
  5
186
330
1E
100
AcDbEntity
  8
HILF
100
AcDbLine
 10
420.0
 20
-0.0000000000001137
 30
0.0
 11
419.9999999999999
 21
594.0
 31
0.0
  0
LINE
  5
187
330
1E
100
AcDbEntity
  8
STEMPEL
100
AcDbLine
 10
410.0
 20
10.0
 30
0.0
 11
410.0
 21
584.0
 31
0.0
  0
TEXT
  5
188
330
1E
100
AcDbEntity
  8
TEXT
100
AcDbText
 10
337.2400861497006
 20
52.07416177878602
 30
0.0
 40
5.0
  1
ersetzt durch:
 41
0.8
  7
GREEKS
100
AcDbText
  0
TEXT
  5
189
330
1E
100
AcDbEntity
  8
TEXT
100
AcDbText
 10
336.7238616296993
 20
73.1811823709997
 30
0.0
 40
5.0
  1
Ersatz für:
 41
0.8
  7
GREEKS
100
AcDbText
  0
TEXT
  5
18A
330
1E
100
AcDbEntity
  8
TEXT
100
AcDbText
 10
336.178754957634
 20
102.3132034537136
 30
0.0
 40
5.0
  1
Zeichnungs Nr.
 41
0.8
  7
GREEKS
100
AcDbText
  0
LINE
  5
18B
330
1E
100
AcDbEntity
  8
HILF
100
AcDbLine
 10
233.4909699289885
 20
14.89398258028314
 30
0.0
 11
404.8588839326728
 21
14.89398258028314
 31
0.0
  0
LINE
  5
18C
330
1E
100
AcDbEntity
  8
HILF
100
AcDbLine
 10
336.7238616296993
 20
83.77983636955827
 30
0.0
 11
404.8588839326728
 21
83.77983636955827
 31
0.0
  0
LINE
  5
18D
330
1E
100
AcDbEntity
  8
VOLL
100
AcDbLine
 10
332.0
 20
60.0
 30
0.0
 11
410.0
 21
60.0
 31
0.0
  0
TEXT
  5
18E
330
1E
100
AcDbEntity
  8
TEXT
 62
     1
100
AcDbText
 10
234.9283864320014
 20
87.41748789253779
 30
0.0
 40
7.0
  1
Red.-Abzweig DN100/80
 41
0.7
  7
GREEKS
100
AcDbText
  0
LINE
  5
18F
330
1E
100
AcDbEntity
  8
HILF
100
AcDbLine
 10
234.7736801096947
 20
49.99999999999997
 30
0.0
 11
324.835391655631
 21
49.99999999999997
 31
0.0
  0
LINE
  5
190
330
1E
100
AcDbEntity
  8
HILF
100
AcDbLine
 10
234.7736801096947
 20
59.99999999999997
 30
0.0
 11
324.835391655631
 21
59.99999999999997
 31
0.0
  0
LINE
  5
191
330
1E
100
AcDbEntity
  8
HILF
100
AcDbLine
 10
234.7736801096947
 20
69.99999999999994
 30
0.0
 11
324.835391655631
 21
69.99999999999994
 31
0.0
  0
LINE
  5
192
330
1E
100
AcDbEntity
  8
HILF
100
AcDbLine
 10
234.7736801096947
 20
84.03758247564139
 30
0.0
 11
324.8353916556311
 21
84.03758247564139
 31
0.0
  0
LINE
  5
193
330
1E
100
AcDbEntity
  8
STEMPEL
100
AcDbLine
 10
230.0
 20
110.0
 30
0.0
 11
230.0
 21
9.999999999999971
 31
0.0
  0
TEXT
  5
194
330
1E
100
AcDbEntity
  8
TEXT
100
AcDbText
 10
235.1296391125315
 20
71.50334417585288
 30
0.0
 40
5.0
  1
dünnwandig 87° 
 41
0.8
  7
GREEKS
100
AcDbText
  0
TEXT
  5
195
330
1E
100
AcDbEntity
  8
TEXT
100
AcDbText
 10
234.9837501577827
 20
42.62974153022632
 30
0.0
 40
4.0
  1
5230DM0W.DWG
 41
0.8
  7
GREEKS
100
AcDbText
  0
TEXT
  5
196
330
1E
100
AcDbEntity
  8
TEXT
100
AcDbText
 10
234.742238391136
 20
30.84560570193057
 30
0.0
 40
5.0
  1
Bauvorhaben
 41
0.8
  7
GREEKS
100
AcDbText
  0
TEXT
  5
197
330
1E
100
AcDbEntity
  8
TEXT
100
AcDbText
 10
234.877940380901
 20
102.5489328011779
 30
0.0
 40
5.0
  1
Benennung
 41
0.8
  7
GREEKS
100
AcDbText
  0
LINE
  5
198
330
1E
100
AcDbEntity
  8
STEMPEL
100
AcDbLine
 10
332.0
 20
109.9999999999997
 30
0.0
 11
332.0
 21
40.0
 31
0.0
  0
TEXT
  5
19A
330
1E
100
AcDbEntity
  8
TEXT
 62
     1
100
AcDbText
 10
347.7039303059029
 20
88.14901428913959
 30
0.0
 40
7.0
  1
5230DM0W
 41
0.8
  7
GREEKS
 72
     1
 11
369.7039303059029
 21
88.14901428913959
 31
0.0
100
AcDbText
  0
TEXT
  5
212
330
1E
100
AcDbEntity
  8
TEXT
100
AcDbText
 10
235.1296391125315
 20
51.50334417585291
 30
0.0
 40
5.0
  1
EDV-Art.Nr. 5.230.DM0C
 41
0.8
  7
GREEKS
100
AcDbText
  0
TEXT
  5
255
330
1E
100
AcDbEntity
  8
TEXT
 62
     1
100
AcDbText
 10
297.0573649355706
 20
132.2248663682012
 30
0.0
 40
7.0
  1
Werkstoff: 1.4404
 41
0.8
  7
GREEKS
100
AcDbText
  0
LINE
  5
15D2
330
1E
100
AcDbEntity
  8
MITTEL
100
AcDbLine
 10
215.2595711843711
 20
519.2341779994133
 30
0.0
 11
215.2595711843707
 21
229.2308850950836
 31
0.0
  0
LINE
  5
1606
330
1E
100
AcDbEntity
  8
STEMPEL
100
AcDbLine
 10
265.3596618761633
 20
234.2308850950831
 30
0.0
 11
165.1594804925781
 21
234.2308850950839
 31
0.0
  0
TEXT
  5
160F
330
1E
100
AcDbEntity
  8
TEXT
 62
     1
100
AcDbText
 10
205.3609553208938
 20
479.3713735635605
 30
0.0
 40
7.0
  1
DN100
 50
89.99999999999992
 41
0.8
  7
GREEKS
100
AcDbText
  0
LINE
  5
1702
330
1E
100
AcDbEntity
  8
MITTEL
100
AcDbLine
 10
365.0540013975569
 20
377.0812785315249
 30
0.0
 11
234.4547031383978
 21
370.2368593338389
 31
0.0
  0
DIMENSION
  5
170F
330
1E
100
AcDbEntity
  8
BEM
100
AcDbDimension
  2
*D1
 10
147.7286284025301
 20
369.2308850950835
 30
0.0
 11
141.22862840253
 21
301.7308850950837
 31
0.0
 70
    32
 71
     5
 42
134.9999999999996
  3
Standard
100
AcDbAlignedDimension
 13
165.1594804925781
 23
234.2308850950838
 33
0.0
 14
215.259571184371
 24
369.2308850950835
 34
0.0
 50
90.0
100
AcDbRotatedDimension
1001
ACAD
1000
DSTYLE
1002
{
1070
    40
1040
2.0
1070
    41
1040
3.5
1070
    42
1040
1.0
1070
    43
1040
7.0
1070
    44
1040
1.0
1070
    73
1070
     0
1070
    74
1070
     0
1070
    77
1070
     1
1070
    78
1070
     8
1070
    79
1070
     2
1070
   140
1040
3.5
1070
   141
1040
1.5
1070
   146
1040
0.5142857142857144
1070
   147
1040
1.5
1070
   172
1070
     1
1070
   178
1070
     1
1070
   179
1070
     2
1070
   271
1070
     2
1070
   272
1070
     2
1070
   284
1070
     8
1070
   285
1070
     8
1070
   286
1070
     8
1002
}
  0
TEXT
  5
1905
330
1E
100
AcDbEntity
  8
VOLL
100
AcDbText
 10
525.3664702311624
 20
212.4618221180262
 30
0.0
 40
1.8
  1

  7
GREEKS
100
AcDbText
  0
LINE
  5
1A80
330
1E
100
AcDbEntity
  8
STEMPEL
100
AcDbLine
 10
269.9193541030943
 20
514.2341779994133
 30
0.0
 11
160.5997882656479
 21
514.2341779994138
 31
0.0
  0
LINE
  5
1A83
330
1E
100
AcDbEntity
  8
STEMPEL
100
AcDbLine
 10
164.459571184371
 20
439.6910513227734
 30
0.0
 11
164.4595711843707
 21
242.2308850950838
 31
0.0
  0
LINE
  5
1A8A
102
{ACAD_REACTORS
330
2712
102
}
330
1E
100
AcDbEntity
  8
STEMPEL
100
AcDbLine
 10
266.0595711843711
 20
439.6910513227735
 30
0.0
 11
266.059571184371
 21
416.4042010622692
 31
0.0
  0
LINE
  5
1AA1
330
1E
100
AcDbEntity
  8
HILF
100
AcDbLine
 10
264.8047963874414
 20
242.2308850950832
 30
0.0
 11
165.7143459812999
 21
242.2308850950838
 31
0.0
  0
LINE
  5
1AA2
330
1E
100
AcDbEntity
  8
STEMPEL
100
AcDbLine
 10
164.4595711843707
 20
242.2308850950838
 30
0.0
 11
165.1594804925781
 21
234.2308850950839
 31
0.0
  0
LINE
  5
1AA5
330
1E
100
AcDbEntity
  8
STEMPEL
100
AcDbLine
 10
266.0595711843707
 20
242.2308850950843
 30
0.0
 11
265.3596618761633
 21
234.2308850950831
 31
0.0
  0
DIMENSION
  5
1AB8
330
1E
100
AcDbEntity
  8
BEM
100
AcDbDimension
  2
*D2
 10
131.0101187321522
 20
234.2308850950838
 30
0.0
 11
124.5101187321521
 21
374.2325315472489
 31
0.0
 70
    32
 71
     5
 42
280.00329290433
  3
Standard
100
AcDbAlignedDimension
 13
160.5997882656479
 23
514.2341779994138
 33
0.0
 14
165.1594804925781
 24
234.2308850950838
 34
0.0
 50
90.0
100
AcDbRotatedDimension
1001
ACAD
1000
DSTYLE
1002
{
1070
    40
1040
2.0
1070
    41
1040
3.5
1070
    42
1040
1.0
1070
    43
1040
7.0
1070
    44
1040
1.0
1070
    73
1070
     0
1070
    74
1070
     0
1070
    77
1070
     1
1070
    78
1070
     8
1070
    79
1070
     2
1070
   140
1040
3.5
1070
   141
1040
1.5
1070
   146
1040
0.5142857142857144
1070
   147
1040
1.5
1070
   172
1070
     1
1070
   178
1070
     1
1070
   179
1070
     2
1070
   271
1070
     2
1070
   272
1070
     2
1070
   284
1070
     8
1070
   285
1070
     8
1070
   286
1070
     8
1002
}
  0
LINE
  5
1ACE
102
{ACAD_REACTORS
330
2712
102
}
330
1E
100
AcDbEntity
  8
STEMPEL
100
AcDbLine
 10
266.0595711843707
 20
327.3821995030542
 30
0.0
 11
266.0595711843708
 21
242.2308850950832
 31
0.0
  0
DIMENSION
  5
1AE8
330
1E
100
AcDbEntity
  8
BEM
100
AcDbDimension
  2
*D3
 10
266.0595711843707
 20
213.1409958420064
 30
0.0
 11
215.2595711843707
 21
219.6409958420065
 31
0.0
 70
    32
  1
%%c<>
 71
     5
 42
101.5999999999999
  3
Standard
100
AcDbAlignedDimension
 13
164.4595711843707
 23
242.2308850950838
 33
0.0
 14
266.0595711843707
 24
242.2308850950832
 34
0.0
100
AcDbRotatedDimension
1001
ACAD
1000
DSTYLE
1002
{
1070
    40
1040
2.0
1070
    41
1040
3.5
1070
    42
1040
1.0
1070
    43
1040
7.0
1070
    44
1040
1.0
1070
    73
1070
     0
1070
    74
1070
     0
1070
    77
1070
     1
1070
    78
1070
     8
1070
    79
1070
     2
1070
   140
1040
3.5
1070
   141
1040
1.5
1070
   146
1040
0.5142857142857144
1070
   147
1040
1.5
1070
   172
1070
     1
1070
   178
1070
     1
1070
   179
1070
     2
1070
   271
1070
     2
1070
   272
1070
     2
1070
   284
1070
     8
1070
   285
1070
     8
1070
   286
1070
     8
1002
}
  0
TEXT
  5
1BF5
330
1E
100
AcDbEntity
  8
BEM
100
AcDbText
 10
416.5811541437437
 20
12.14804815338303
 30
0.0
 40
4.0
  1
Diese Zeichnung ist urheberrechtlich geschützt und bleibt unser Eigentum. Sie darf weder ganz noch teilweise vervielfältigt und nicht an Dritte weitergegeben werden.
 50
90.0
 41
0.8
  7
GREEKS
100
AcDbText
  0
TEXT
  5
1C10
330
1E
100
AcDbEntity
  8
TEXT
100
AcDbText
 10
192.6882715247924
 20
88.73450771838452
 30
0.0
 40
4.0
  1
DIN EN1124-3
 41
0.8
  7
GREEKS
 72
     1
 11
209.6787477152686
 21
88.73450771838452
 31
0.0
100
AcDbText
  0
TEXT
  5
1DDC
330
1E
100
AcDbEntity
  8
VOLL
100
AcDbText
 10
539.7246252213716
 20
194.5107114195854
 30
0.0
 40
1.8
  1

  7
GREEKS
100
AcDbText
  0
TEXT
  5
2359
330
1E
100
AcDbEntity
  8
VOLL
100
AcDbText
 10
531.336362752026
 20
210.077510736562
 30
0.0
 40
1.8
  1

  7
GREEKS
100
AcDbText
  0
LINE
  5
262B
330
1E
100
AcDbEntity
  8
HILF
100
AcDbLine
 10
299.873841116846
 20
330.0981086163028
 30
0.0
 11
295.3198263040953
 21
416.9938877363389
 31
0.0
  0
LINE
  5
262C
330
1E
100
AcDbEntity
  8
HILF
100
AcDbLine
 10
304.8379311807009
 20
328.425639876043
 30
0.0
 11
300.0819019758964
 21
419.1760832237432
 31
0.0
  0
LINE
  5
262D
330
1E
100
AcDbEntity
  8
HILF
100
AcDbLine
 10
329.6615070555243
 20
329.0209402239779
 30
0.0
 11
324.8317175352962
 21
421.178814232405
 31
0.0
  0
LINE
  5
262E
330
1E
100
AcDbEntity
  8
STEMPEL
100
AcDbLine
 10
362.5338278161871
 20
329.6324420679598
 30
0.0
 11
357.5878796313812
 21
424.0067554326602
 31
0.0
  0
TEXT
  5
262F
330
1E
100
AcDbEntity
  8
TEXT
 62
     1
100
AcDbText
 10
333.6301991492156
 20
392.5347102251447
 30
0.0
 40
7.0
  1
DN80
 50
3.000000000000004
 41
0.8
  7
GREEKS
100
AcDbText
  0
LINE
  5
2630
330
1E
100
AcDbEntity
  8
STEMPEL
100
AcDbLine
 10
321.8619617998997
 20
421.9322485327086
 30
0.0
 11
302.8935354878563
 21
420.9381554332003
 31
0.0
  0
ARC
  5
2631
330
1E
100
AcDbEntity
  8
STEMPEL
100
AcDbCircle
 10
292.4921617281013
 20
427.0021000165448
 30
0.0
 40
9.200000000000001
100
AcDbArc
 50
273.0
 51
301.9550243718593
  0
ARC
  5
2632
330
1E
100
AcDbEntity
  8
STEMPEL
100
AcDbCircle
 10
303.5006325802745
 20
409.3540528300471
 30
0.0
 40
11.6
100
AcDbArc
 50
93.0
 51
121.9550243718592
  0
LINE
  5
2633
330
1E
100
AcDbEntity
  8
STEMPEL
100
AcDbLine
 10
345.2356748382879
 20
426.6620161376422
 30
0.0
 11
337.5425433940874
 21
426.2588362029192
 31
0.0
  0
ARC
  5
2634
330
1E
100
AcDbEntity
  8
STEMPEL
100
AcDbCircle
 10
338.8090735351665
 20
402.0920014618584
 30
0.0
 40
24.2
100
AcDbArc
 50
93.0
 51
117.8505023402282
  0
ARC
  5
2635
330
1E
100
AcDbEntity
  8
STEMPEL
100
AcDbCircle
 10
321.1501927949958
 20
435.5136102053706
 30
0.0
 40
13.6
100
AcDbArc
 50
273.0
 51
297.8505023402283
  0
ARC
  5
2636
330
1E
100
AcDbEntity
  8
STEMPEL
100
AcDbCircle
 10
346.5022049793672
 20
402.4951813965815
 30
0.0
 40
24.2
100
AcDbArc
 50
62.73634805790319
 51
93.0
  0
LINE
  5
2637
330
1E
100
AcDbEntity
  8
STEMPEL
100
AcDbLine
 10
326.7867752823608
 20
327.9612093123033
 30
0.0
 11
307.8183489703174
 21
326.9671162127951
 31
0.0
  0
ARC
  5
2638
330
1E
100
AcDbEntity
  8
STEMPEL
100
AcDbCircle
 10
298.1078098329692
 20
319.8491509373791
 30
0.0
 40
9.200000000000001
100
AcDbArc
 50
64.04497562814078
 51
93.0
  0
ARC
  5
2639
330
1E
100
AcDbEntity
  8
STEMPEL
100
AcDbCircle
 10
307.2112518778992
 20
338.5512188159481
 30
0.0
 40
11.6
100
AcDbArc
 50
244.0449756281407
 51
273.0
  0
LINE
  5
263A
330
1E
100
AcDbEntity
  8
STEMPEL
100
AcDbLine
 10
350.5268400144495
 20
325.7005701739551
 30
0.0
 11
342.8337085702491
 21
325.297390239232
 31
0.0
  0
ARC
  5
263B
330
1E
100
AcDbEntity
  8
STEMPEL
100
AcDbCircle
 10
341.5671784291697
 20
349.4642249802924
 30
0.0
 40
24.2
100
AcDbArc
 50
248.1494976597718
 51
273.0
  0
ARC
  5
263C
330
1E
100
AcDbEntity
  8
STEMPEL
100
AcDbCircle
 10
327.4985442872649
 20
314.379847639641
 30
0.0
 40
13.6
100
AcDbArc
 50
68.14949765977174
 51
93.0
  0
ARC
  5
263D
330
1E
100
AcDbEntity
  8
STEMPEL
100
AcDbCircle
 10
349.2603098733703
 20
349.8674049150155
 30
0.0
 40
24.2
100
AcDbArc
 50
273.0
 51
303.2636519420969
  0
LINE
  5
263E
102
{ACAD_REACTORS
330
2712
102
}
330
1E
100
AcDbEntity
  8
STEMPEL
100
AcDbLine
 10
297.6263190355341
 20
329.0365426571214
 30
0.0
 11
266.0595711843707
 21
327.3821995030542
 31
0.0
  0
LINE
  5
263F
102
{ACAD_REACTORS
330
2712
102
}
330
1E
100
AcDbEntity
  8
STEMPEL
100
AcDbLine
 10
292.9736525255362
 20
417.8147082968029
 30
0.0
 11
266.059571184371
 21
416.4042010622692
 31
0.0
  0
ELLIPSE
  5
26D4
330
1E
100
AcDbEntity
  8
STEMPEL
100
AcDbEllipse
 10
266.0595711843709
 20
370.5197728930642
 30
0.0
 11
-0.0000000000000936
 21
-43.13757339001
 31
0.0
210
0.0
220
0.0
230
1.0
 40
0.6075111252700152
 41
4.712388980384689
 42
6.283185307179586
  0
ELLIPSE
  5
26D5
330
1E
100
AcDbEntity
  8
STEMPEL
100
AcDbEllipse
 10
266.0595711843709
 20
370.5197728930642
 30
0.0
 11
-0.0000000000000995
 21
-45.88442816920502
 31
0.0
210
0.0
220
0.0
230
1.0
 40
0.571142690390357
 41
3.141592653589793
 42
4.712388980384689
  0
ARC
  5
26DA
330
1E
100
AcDbEntity
  8
SCHRAFF
100
AcDbCircle
 10
266.059571184371
 20
416.4042010622692
 30
0.0
 40
5.0
100
AcDbArc
 50
150.3858416300851
 51
224.8545019523833
  0
ARC
  5
26DB
330
1E
100
AcDbEntity
  8
SCHRAFF
100
AcDbCircle
 10
261.1272691681597
 20
415.5842030007605
 30
0.0
 40
5.0
100
AcDbArc
 50
167.9602470706362
 51
242.1942232187181
  0
ARC
  5
26DC
330
1E
100
AcDbEntity
  8
SCHRAFF
100
AcDbCircle
 10
256.6552081175319
 20
413.3479852207896
 30
0.0
 40
5.0
100
AcDbArc
 50
181.941893338919
 51
255.9688572440417
  0
ARC
  5
26DD
330
1E
100
AcDbEntity
  8
SCHRAFF
100
AcDbCircle
 10
252.8298719026385
 20
410.1282332360825
 30
0.0
 40
5.0
100
AcDbArc
 50
192.5174152638486
 51
266.4208035199337
  0
ARC
  5
26DE
330
1E
100
AcDbEntity
  8
SCHRAFF
100
AcDbCircle
 10
249.6384370343292
 20
406.2792407079864
 30
0.0
 40
5.0
100
AcDbArc
 50
200.6535607850765
 51
274.4965469894638
  0
ARC
  5
26DF
330
1E
100
AcDbEntity
  8
SCHRAFF
100
AcDbCircle
 10
247.008099280927
 20
402.0270267783932
 30
0.0
 40
5.0
100
AcDbArc
 50
207.1629372427382
 51
280.9720281558376
  0
ARC
  5
26E0
330
1E
100
AcDbEntity
  8
SCHRAFF
100
AcDbCircle
 10
244.8659825731372
 20
397.5091361190028
 30
0.0
 40
5.0
100
AcDbArc
 50
212.590138044796
 51
286.3803469882731
  0
ARC
  5
26E1
330
1E
100
AcDbEntity
  8
SCHRAFF
100
AcDbCircle
 10
243.1535539910945
 20
392.811520941979
 30
0.0
 40
5.0
100
AcDbArc
 50
217.2980411801209
 51
291.0749218753265
  0
ARC
  5
26E2
330
1E
100
AcDbEntity
  8
SCHRAFF
100
AcDbCircle
 10
241.8270450752688
 20
387.9906938245274
 30
0.0
 40
5.0
100
AcDbArc
 50
221.5074198983491
 51
295.2797751309066
  0
ARC
  5
26E3
330
1E
100
AcDbEntity
  8
SCHRAFF
100
AcDbCircle
 10
240.8549708039581
 20
383.0860968368988
 30
0.0
 40
5.0
100
AcDbArc
 50
225.399760930742
 51
299.1683627701143
  0
ARC
  5
26E4
330
1E
100
AcDbEntity
  8
SCHRAFF
100
AcDbCircle
 10
240.2157030755786
 20
378.1271315444761
 30
0.0
 40
5.0
100
AcDbArc
 50
229.0895126883786
 51
302.8536469306388
  0
ARC
  5
26E5
330
1E
100
AcDbEntity
  8
SCHRAFF
100
AcDbCircle
 10
239.8956942990488
 20
373.1373826146257
 30
0.0
 40
5.0
100
AcDbArc
 50
232.6966394448468
 51
306.4673951857999
  0
ARC
  5
26E6
330
1E
100
AcDbEntity
  8
SCHRAFF
100
AcDbCircle
 10
239.8930122674511
 20
368.137383333955
 30
0.0
 40
5.0
100
AcDbArc
 50
236.6637135797063
 51
310.4385539849062
  0
ARC
  5
26E7
330
1E
100
AcDbEntity
  8
SCHRAFF
100
AcDbCircle
 10
240.2383705705886
 20
363.1493248296414
 30
0.0
 40
5.0
100
AcDbArc
 50
240.809989560034
 51
314.5883906340515
  0
ARC
  5
26E8
330
1E
100
AcDbEntity
  8
SCHRAFF
100
AcDbCircle
 10
240.944588851221
 20
358.1994505140551
 30
0.0
 40
5.0
100
AcDbArc
 50
245.1557456656952
 51
318.9362207989512
  0
ARC
  5
26E9
330
1E
100
AcDbEntity
  8
SCHRAFF
100
AcDbCircle
 10
242.0267798398878
 20
353.3179689086355
 30
0.0
 40
5.0
100
AcDbArc
 50
249.8466400989818
 51
323.6436568755919
  0
ARC
  5
26EA
330
1E
100
AcDbEntity
  8
SCHRAFF
100
AcDbCircle
 10
243.5090409790472
 20
348.5427304941333
 30
0.0
 40
5.0
100
AcDbArc
 50
255.072941294324
 51
328.8783597994575
  0
ARC
  5
26EB
330
1E
100
AcDbEntity
  8
SCHRAFF
100
AcDbCircle
 10
245.4260197292686
 20
343.9248096988835
 30
0.0
 40
5.0
100
AcDbArc
 50
261.0742287942544
 51
334.9150625842108
  0
ARC
  5
26EC
330
1E
100
AcDbEntity
  8
SCHRAFF
100
AcDbCircle
 10
247.8245340948779
 20
339.5376547166463
 30
0.0
 40
5.0
100
AcDbArc
 50
268.2384327186219
 51
342.1173535433314
  0
ARC
  5
26ED
330
1E
100
AcDbEntity
  8
SCHRAFF
100
AcDbCircle
 10
250.763480008527
 20
335.4925840229939
 30
0.0
 40
5.0
100
AcDbArc
 50
277.0886162682451
 51
351.0563286394796
  0
ARC
  5
26EE
330
1E
100
AcDbEntity
  8
SCHRAFF
100
AcDbCircle
 10
254.3060236706326
 20
331.9640737988235
 30
0.0
 40
5.0
100
AcDbArc
 50
288.3567614659116
 51
2.465570976401691
  0
ARC
  5
26EF
330
1E
100
AcDbEntity
  8
SCHRAFF
100
AcDbCircle
 10
258.4872205528271
 20
329.2222509321293
 30
0.0
 40
5.0
100
AcDbArc
 50
302.7023502923838
 51
17.0021963457096
  0
ARC
  5
26F0
102
{ACAD_REACTORS
330
2712
102
}
330
1E
100
AcDbEntity
  8
SCHRAFF
100
AcDbCircle
 10
266.059571184371
 20
416.4042010622692
 30
0.0
 40
3.0
100
AcDbArc
 50
2.99999999999909
 51
90.0
  0
ARC
  5
26F1
102
{ACAD_REACTORS
330
2712
102
}
330
1E
100
AcDbEntity
  8
SCHRAFF
100
AcDbCircle
 10
266.0595711843708
 20
327.3821995030542
 30
0.0
 40
3.0
100
AcDbArc
 50
269.9999999999989
 51
3.000000000001258
  0
HATCH
  5
2712
330
1E
100
AcDbEntity
  8
SCHRAFF
100
AcDbHatch
 10
0.0
 20
0.0
 30
0.0
210
0.0
220
0.0
230
1.0
  2
_USER
 70
     0
 71
     1
 91
        2
 92
        7
 72
     1
 73
     1
 93
        3
 10
266.059571184371
 20
419.4042010622692
 42
0.0
 10
266.059571184371
 20
416.4042010622692
 42
0.0
 10
269.0554597886346
 20
416.5612089309981
 42
0.3989595459737132
 97
        3
330
1A8A
330
263F
330
26F0
 92
        7
 72
     1
 73
     1
 93
        3
 10
269.0554597886345
 20
327.5392073717831
 42
0.0
 10
266.0595711843707
 20
327.3821995030543
 42
0.0
 10
266.0595711843707
 20
324.3821995030542
 42
0.4296339059668475
 97
        3
330
263E
330
1ACE
330
26F1
 75
     0
 76
     0
 52
0.0
 41
0.1
 77
     0
 78
     1
 53
0.0
 43
0.0
 44
0.0
 45
0.0
 46
0.1
 79
     0
 47
0.240920432242207
 98
        2
 10
267.5553221566947
 20
418.3416076759542
 10
267.7964204535105
 20
326.3100017117949
  0
DIMENSION
  5
279B
330
1E
100
AcDbEntity
  8
BEM
100
AcDbDimension
  2
*D6
 10
215.2595711843707
 20
229.2308850950836
 30
0.0
 11
335.6976001341853
 21
496.1460863304107
 31
0.0
 70
    34
 71
     5
 42
1.518436449235065
  3
Standard
100
AcDb2LineAngularDimension
 13
365.0540013975569
 23
377.0812785315249
 33
0.0
 14
215.2595711843709
 24
369.2308850950835
 34
0.0
 15
215.2595711843711
 25
519.2341779994133
 35
0.0
 16
358.1260806987787
 26
458.503788304899
 36
0.0
1001
ACAD
1000
DSTYLE
1002
{
1070
    40
1040
2.0
1070
    41
1040
3.5
1070
    42
1040
1.0
1070
    43
1040
7.0
1070
    44
1040
1.0
1070
    73
1070
     0
1070
    74
1070
     0
1070
    77
1070
     1
1070
    78
1070
     8
1070
    79
1070
     2
1070
   140
1040
3.5
1070
   141
1040
1.5
1070
   146
1040
0.5142857142857144
1070
   147
1040
1.5
1070
   172
1070
     1
1070
   178
1070
     1
1070
   179
1070
     2
1070
   271
1070
     2
1070
   272
1070
     2
1070
   284
1070
     8
1070
   285
1070
     8
1070
   286
1070
     8
1002
}
  0
DIMENSION
  5
27AA
330
1E
100
AcDbEntity
  8
BEM
100
AcDbDimension
  2
*D7
 10
223.5749712599737
 20
325.155675967288
 30
0.0
 11
227.7397299808796
 21
369.8849425027078
 31
0.0
 70
    32
  1
%%c<>
 71
     5
 42
88.89999999999975
 51
86.99999999999999
  3
Standard
100
AcDbAlignedDimension
 13
266.0595711843708
 23
416.4042010622692
 33
0.0
 14
266.0595711843707
 24
327.3821995030542
 34
0.0
 50
273.0
100
AcDbRotatedDimension
1001
ACAD
1000
DSTYLE
1002
{
1070
    40
1040
2.0
1070
    41
1040
3.5
1070
    42
1040
1.0
1070
    43
1040
7.0
1070
    44
1040
1.0
1070
    73
1070
     0
1070
    74
1070
     0
1070
    77
1070
     1
1070
    78
1070
     8
1070
    79
1070
     2
1070
   140
1040
3.5
1070
   141
1040
1.5
1070
   146
1040
0.5142857142857144
1070
   147
1040
1.5
1070
   172
1070
     1
1070
   178
1070
     1
1070
   179
1070
     2
1070
   271
1070
     2
1070
   272
1070
     2
1070
   284
1070
     8
1070
   285
1070
     8
1070
   286
1070
     8
1002
}
  0
DIMENSION
  5
27B7
330
1E
100
AcDbEntity
  8
BEM
100
AcDbDimension
  2
*D8
 10
363.6713832630519
 20
307.9265910964603
 30
0.0
 11
290.930558277766
 21
310.6233262447517
 31
0.0
 70
    32
 71
     5
 42
145.0000000000001
 51
86.99999999999999
  3
Standard
100
AcDbAlignedDimension
 13
215.2595711843709
 23
369.2308850950835
 33
0.0
 14
362.5338278161871
 24
329.6324420679598
 34
0.0
 50
2.999999999999989
100
AcDbRotatedDimension
1001
ACAD
1000
DSTYLE
1002
{
1070
    40
1040
2.0
1070
    41
1040
3.5
1070
    42
1040
1.0
1070
    43
1040
7.0
1070
    44
1040
1.0
1070
    73
1070
     0
1070
    74
1070
     0
1070
    77
1070
     1
1070
    78
1070
     8
1070
    79
1070
     2
1070
   140
1040
3.5
1070
   141
1040
1.5
1070
   146
1040
0.5142857142857144
1070
   147
1040
1.5
1070
   172
1070
     1
1070
   178
1070
     1
1070
   179
1070
     2
1070
   271
1070
     2
1070
   272
1070
     2
1070
   284
1070
     8
1070
   285
1070
     8
1070
   286
1070
     8
1002
}
  0
LINE
  5
27CD
330
1E
100
AcDbEntity
  8
MITTEL
100
AcDbLine
 10
218.9996461823801
 20
369.4268941200811
 30
0.0
 11
215.2595711843709
 21
369.2308850950835
 31
0.0
  0
TEXT
  5
2833
330
1E
100
AcDbEntity
  8
VOLL
100
AcDbText
 10
475.9541647033664
 20
320.9412392235707
 30
0.0
 40
1.8
  1

  7
GREEKS
100
AcDbText
  0
LINE
  5
2835
330
1E
100
AcDbEntity
  8
HILF
100
AcDbLine
 10
268.279520607572
 20
469.706917020574
 30
0.0
 11
162.2396217611703
 21
469.706917020574
 31
0.0
  0
LINE
  5
2836
330
1E
100
AcDbEntity
  8
HILF
100
AcDbLine
 10
267.406319013886
 20
447.2539570442502
 30
0.0
 11
163.1128233548564
 21
447.2539570442502
 31
0.0
  0
LINE
  5
2837
330
1E
100
AcDbEntity
  8
HILF
100
AcDbLine
 10
265.1091710301127
 20
441.8195101733626
 30
0.0
 11
165.4099713386296
 21
441.8195101733626
 31
0.0
  0
ARC
  5
283A
330
1E
100
AcDbEntity
  8
STEMPEL
100
AcDbCircle
 10
181.5595711843712
 20
502.0378670817632
 30
0.0
 40
24.2
100
AcDbArc
 50
149.7363480579001
 51
180.0
  0
LINE
  5
283B
330
1E
100
AcDbEntity
  8
STEMPEL
100
AcDbLine
 10
161.3595711843712
 20
466.7309774687321
 30
0.0
 11
161.3595711843712
 21
451.0060855692968
 31
0.0
  0
ARC
  5
283D
330
1E
100
AcDbEntity
  8
STEMPEL
100
AcDbCircle
 10
175.5595711843711
 20
451.0060855692968
 30
0.0
 40
14.2
100
AcDbArc
 50
180.0
 51
210.6429317629395
  0
ARC
  5
283E
330
1E
100
AcDbEntity
  8
STEMPEL
100
AcDbCircle
 10
156.4595711843713
 20
439.6910513227734
 30
0.0
 40
8.0
100
AcDbArc
 50
0.0
 51
30.85958109062227
  0
LINE
  5
283F
330
1E
100
AcDbEntity
  8
STEMPEL
100
AcDbLine
 10
157.3595711843712
 20
502.0378670817632
 30
0.0
 11
157.3595711843712
 21
483.4641779994136
 31
0.0
  0
ARC
  5
2840
330
1E
100
AcDbEntity
  8
STEMPEL
100
AcDbCircle
 10
181.5595711843712
 20
483.4641779994136
 30
0.0
 40
24.2
100
AcDbArc
 50
180.0
 51
206.8880476177246
  0
ARC
  5
2841
330
1E
100
AcDbEntity
  8
STEMPEL
100
AcDbCircle
 10
148.5595711843711
 20
466.7309774687321
 30
0.0
 40
12.8
100
AcDbArc
 50
0.0
 51
26.88804761772463
  0
ARC
  5
2843
330
1E
100
AcDbEntity
  8
STEMPEL
100
AcDbCircle
 10
248.9595711843711
 20
502.0378670817633
 30
0.0
 40
24.2
100
AcDbArc
 50
0.0
 51
30.26365194209988
  0
ARC
  5
2844
330
1E
100
AcDbEntity
  8
STEMPEL
100
AcDbCircle
 10
248.9595711843711
 20
483.4641779994137
 30
0.0
 40
24.2
100
AcDbArc
 50
333.1119523822754
 51
0.0
  0
LINE
  5
2845
330
1E
100
AcDbEntity
  8
STEMPEL
100
AcDbLine
 10
269.1595711843712
 20
466.7309774687322
 30
0.0
 11
269.1595711843712
 21
451.0060855692969
 31
0.0
  0
ARC
  5
2847
330
1E
100
AcDbEntity
  8
STEMPEL
100
AcDbCircle
 10
254.9595711843712
 20
451.0060855692969
 30
0.0
 40
14.2
100
AcDbArc
 50
329.3570682370604
 51
0.0
  0
ARC
  5
2848
330
1E
100
AcDbEntity
  8
STEMPEL
100
AcDbCircle
 10
274.0595711843712
 20
439.6910513227735
 30
0.0
 40
8.0
100
AcDbArc
 50
149.1404189093777
 51
180.0
  0
ARC
  5
2849
330
1E
100
AcDbEntity
  8
STEMPEL
100
AcDbCircle
 10
281.9595711843712
 20
466.7309774687322
 30
0.0
 40
12.8
100
AcDbArc
 50
153.1119523822753
 51
180.0
  0
LINE
  5
284A
330
1E
100
AcDbEntity
  8
STEMPEL
100
AcDbLine
 10
273.1595711843711
 20
502.0378670817633
 30
0.0
 11
273.1595711843712
 21
483.4641779994138
 31
0.0
  0
ENDSEC
  0
SECTION
  2
OBJECTS
  0
DICTIONARY
  5
C
330
0
100
AcDbDictionary
281
     1
  3
ACAD_COLOR
350
1790
  3
ACAD_GROUP
350
D
  3
ACAD_LAYOUT
350
19
  3
ACAD_MATERIAL
350
178F
  3
ACAD_MLINESTYLE
350
16
  3
ACAD_PLOTSETTINGS
350
18
  3
ACAD_PLOTSTYLENAME
350
E
  3
AcDbVariableDictionary
350
246
  0
DICTIONARY
  5
1790
102
{ACAD_REACTORS
330
C
102
}
330
C
100
AcDbDictionary
281
     1
  0
DICTIONARY
  5
D
102
{ACAD_REACTORS
330
C
102
}
330
C
100
AcDbDictionary
281
     1
  0
DICTIONARY
  5
19
102
{ACAD_REACTORS
330
C
102
}
330
C
100
AcDbDictionary
281
     1
  3
Layout1
350
1D
  3
Model
350
21
  0
DICTIONARY
  5
178F
102
{ACAD_REACTORS
330
C
102
}
330
C
100
AcDbDictionary
281
     1
  0
DICTIONARY
  5
16
102
{ACAD_REACTORS
330
C
102
}
330
C
100
AcDbDictionary
281
     1
  3
Standard
350
17
  0
DICTIONARY
  5
18
102
{ACAD_REACTORS
330
C
102
}
330
C
100
AcDbDictionary
281
     1
  0
ACDBDICTIONARYWDFLT
  5
E
102
{ACAD_REACTORS
330
C
102
}
330
C
100
AcDbDictionary
281
     1
  3
Normal
350
F
100
AcDbDictionaryWithDefault
340
F
  0
DICTIONARY
  5
246
102
{ACAD_REACTORS
330
C
102
}
330
C
100
AcDbDictionary
281
     1
  3
DIMASSOC
350
1C0C
  3
PROJECTNAME
350
1C0D
  3
SORTENTS
350
247
  0
LAYOUT
  5
1D
102
{ACAD_REACTORS
330
19
102
}
330
19
100
AcDbPlotSettings
  1

  2
Tektronix Phaser 740
  4

  6

 40
0.0
 41
0.0
 42
0.0
 43
0.0
 44
0.0
 45
0.0
 46
0.0
 47
0.0
 48
0.0
 49
0.0
140
0.0
141
0.0
142
1.0
143
1.0
 70
   688
 72
     0
 73
     0
 74
     5
  7
monochrome.ctb
 75
    16
147
1.0
 76
     0
 77
     2
 78
   300
148
0.0
149
0.0
100
AcDbLayout
  1
Layout1
 70
     0
 71
     1
 10
0.0
 20
0.0
 11
12.0
 21
9.0
 12
0.0
 22
0.0
 32
0.0
 14
1.000000000000000E+20
 24
1.000000000000000E+20
 34
1.000000000000000E+20
 15
-1.000000000000000E+20
 25
-1.000000000000000E+20
 35
-1.000000000000000E+20
146
0.0
 13
0.0
 23
0.0
 33
0.0
 16
1.0
 26
0.0
 36
0.0
 17
0.0
 27
1.0
 37
0.0
 76
     0
330
1A
  0
LAYOUT
  5
21
102
{ACAD_REACTORS
330
19
102
}
330
19
100
AcDbPlotSettings
  1

  2
Tektronix Phaser 740
  4
A4
  6

 40
5.873749732971191
 41
6.085414409637451
 42
5.577407836914062
 43
5.662078857421875
 44
209.9733276367187
 45
296.9683227539062
 46
0.0
 47
0.0
 48
0.0
 49
0.0
140
0.0
141
0.0
142
1.0
143
1.0
 70
 11952
 72
     0
 73
     1
 74
     0
  7
monochrome.ctb
 75
     0
147
1.0
 76
     0
 77
     2
 78
   300
148
1150.120678237584
149
45.30495740799864
100
AcDbLayout
  1
Model
 70
     1
 71
     0
 10
0.0
 20
0.0
 11
12.0
 21
9.0
 12
0.0
 22
0.0
 32
0.0
 14
0.0
 24
0.0
 34
0.0
 15
0.0
 25
0.0
 35
0.0
146
0.0
 13
0.0
 23
0.0
 33
0.0
 16
1.0
 26
0.0
 36
0.0
 17
0.0
 27
1.0
 37
0.0
 76
     0
330
1E
  0
MLINESTYLE
  5
17
102
{ACAD_REACTORS
330
16
102
}
330
16
100
AcDbMlineStyle
  2
STANDARD
 70
     0
  3

 62
   256
 51
90.0
 52
90.0
 71
     2
 49
0.5
 62
   256
  6
BYLAYER
 49
-0.5
 62
   256
  6
BYLAYER
  0
ACDBPLACEHOLDER
  5
F
102
{ACAD_REACTORS
330
E
102
}
330
E
  0
DICTIONARYVAR
  5
1C0C
102
{ACAD_REACTORS
330
246
102
}
330
246
100
DictionaryVariables
280
     0
  1
1
  0
DICTIONARYVAR
  5
1C0D
102
{ACAD_REACTORS
330
246
102
}
330
246
100
DictionaryVariables
280
     0
  1

  0
DICTIONARYVAR
  5
247
102
{ACAD_REACTORS
330
246
102
}
330
246
100
DictionaryVariables
280
     0
  1
96
  0
ENDSEC
  0
EOF
