  0
SECTION
  2
HEADER
  9
$ACADVER
  1
AC1018
  9
$ACADMAINTVER
 70
     2
  9
$DWGCODEPAGE
  3
ANSI_1252
  9
$INSBASE
 10
0.0
 20
0.0
 30
0.0
  9
$EXTMIN
 10
-0.0001436408483073
 20
-0.0002959459676504
 30
-0.0000000000000021
  9
$EXTMAX
 10
216.2817653260211
 20
304.1706561441259
 30
0.0000000000000132
  9
$LIMMIN
 10
0.0
 20
0.0
  9
$LIMMAX
 10
210.0
 20
297.0
  9
$ORTHOMODE
 70
     1
  9
$REGENMODE
 70
     1
  9
$FILLMODE
 70
     1
  9
$QTEXTMODE
 70
     0
  9
$MIRRTEXT
 70
     1
  9
$LTSCALE
 40
20.0
  9
$ATTMODE
 70
     1
  9
$TEXTSIZE
 40
3.5
  9
$TRACEWID
 40
0.5
  9
$TEXTSTYLE
  7
STANDARD
  9
$CLAYER
  8
SCHRAFF
  9
$CELTYPE
  6
ByLayer
  9
$CECOLOR
 62
   256
  9
$CELTSCALE
 40
1.0
  9
$DISPSILH
 70
     0
  9
$DIMSCALE
 40
1.0
  9
$DIMASZ
 40
3.5
  9
$DIMEXO
 40
1.0
  9
$DIMDLI
 40
7.0
  9
$DIMRND
 40
0.0
  9
$DIMDLE
 40
0.0
  9
$DIMEXE
 40
1.0
  9
$DIMTP
 40
0.0
  9
$DIMTM
 40
0.0
  9
$DIMTXT
 40
3.5
  9
$DIMCEN
 40
1.5
  9
$DIMTSZ
 40
0.0
  9
$DIMTOL
 70
     0
  9
$DIMLIM
 70
     0
  9
$DIMTIH
 70
     0
  9
$DIMTOH
 70
     0
  9
$DIMSE1
 70
     0
  9
$DIMSE2
 70
     0
  9
$DIMTAD
 70
     1
  9
$DIMZIN
 70
     8
  9
$DIMBLK
  1

  9
$DIMASO
 70
     1
  9
$DIMSHO
 70
     0
  9
$DIMPOST
  1

  9
$DIMAPOST
  1

  9
$DIMALT
 70
     0
  9
$DIMALTD
 70
     2
  9
$DIMALTF
 40
25.4
  9
$DIMLFAC
 40
1.0
  9
$DIMTOFL
 70
     1
  9
$DIMTVP
 40
0.0
  9
$DIMTIX
 70
     0
  9
$DIMSOXD
 70
     0
  9
$DIMSAH
 70
     0
  9
$DIMBLK1
  1

  9
$DIMBLK2
  1

  9
$DIMSTYLE
  2
Standard
  9
$DIMCLRD
 70
     0
  9
$DIMCLRE
 70
     0
  9
$DIMCLRT
 70
     1
  9
$DIMTFAC
 40
0.5142857142857144
  9
$DIMGAP
 40
1.5
  9
$DIMJUST
 70
     0
  9
$DIMSD1
 70
     0
  9
$DIMSD2
 70
     0
  9
$DIMTOLJ
 70
     1
  9
$DIMTZIN
 70
     8
  9
$DIMALTZ
 70
     8
  9
$DIMALTTZ
 70
     8
  9
$DIMUPT
 70
     0
  9
$DIMDEC
 70
     2
  9
$DIMTDEC
 70
     2
  9
$DIMALTU
 70
     2
  9
$DIMALTTD
 70
     2
  9
$DIMTXSTY
  7
STANDARD
  9
$DIMAUNIT
 70
     0
  9
$DIMADEC
 70
     2
  9
$DIMALTRND
 40
0.0
  9
$DIMAZIN
 70
     2
  9
$DIMDSEP
 70
    46
  9
$DIMATFIT
 70
     3
  9
$DIMFRAC
 70
     0
  9
$DIMLDRBLK
  1

  9
$DIMLUNIT
 70
     2
  9
$DIMLWD
 70
    -2
  9
$DIMLWE
 70
    -2
  9
$DIMTMOVE
 70
     0
  9
$LUNITS
 70
     2
  9
$LUPREC
 70
     2
  9
$SKETCHINC
 40
1.0
  9
$FILLETRAD
 40
0.0
  9
$AUNITS
 70
     1
  9
$AUPREC
 70
     3
  9
$MENU
  1
ACAD
  9
$ELEVATION
 40
0.0
  9
$PELEVATION
 40
0.0
  9
$THICKNESS
 40
0.0
  9
$LIMCHECK
 70
     0
  9
$CHAMFERA
 40
0.0
  9
$CHAMFERB
 40
0.0
  9
$CHAMFERC
 40
0.0
  9
$CHAMFERD
 40
0.0
  9
$SKPOLY
 70
     0
  9
$TDCREATE
 40
2452040.637099653
  9
$TDUCREATE
 40
2452040.553766320
  9
$TDUPDATE
 40
2455660.336703044
  9
$TDUUPDATE
 40
2455660.253369711
  9
$TDINDWG
 40
0.4708557639
  9
$TDUSRTIMER
 40
0.4708557639
  9
$USRTIMER
 70
     1
  9
$ANGBASE
 50
0.0
  9
$ANGDIR
 70
     0
  9
$PDMODE
 70
     0
  9
$PDSIZE
 40
0.0
  9
$PLINEWID
 40
0.0
  9
$SPLFRAME
 70
     0
  9
$SPLINETYPE
 70
     6
  9
$SPLINESEGS
 70
     8
  9
$HANDSEED
  5
1D68
  9
$SURFTAB1
 70
     6
  9
$SURFTAB2
 70
     6
  9
$SURFTYPE
 70
     6
  9
$SURFU
 70
     6
  9
$SURFV
 70
     6
  9
$UCSBASE
  2

  9
$UCSNAME
  2

  9
$UCSORG
 10
0.0
 20
0.0
 30
0.0
  9
$UCSXDIR
 10
1.0
 20
0.0
 30
0.0
  9
$UCSYDIR
 10
0.0
 20
1.0
 30
0.0
  9
$UCSORTHOREF
  2

  9
$UCSORTHOVIEW
 70
     0
  9
$UCSORGTOP
 10
0.0
 20
0.0
 30
0.0
  9
$UCSORGBOTTOM
 10
0.0
 20
0.0
 30
0.0
  9
$UCSORGLEFT
 10
0.0
 20
0.0
 30
0.0
  9
$UCSORGRIGHT
 10
0.0
 20
0.0
 30
0.0
  9
$UCSORGFRONT
 10
0.0
 20
0.0
 30
0.0
  9
$UCSORGBACK
 10
0.0
 20
0.0
 30
0.0
  9
$PUCSBASE
  2

  9
$PUCSNAME
  2

  9
$PUCSORG
 10
0.0
 20
0.0
 30
0.0
  9
$PUCSXDIR
 10
1.0
 20
0.0
 30
0.0
  9
$PUCSYDIR
 10
0.0
 20
1.0
 30
0.0
  9
$PUCSORTHOREF
  2

  9
$PUCSORTHOVIEW
 70
     0
  9
$PUCSORGTOP
 10
0.0
 20
0.0
 30
0.0
  9
$PUCSORGBOTTOM
 10
0.0
 20
0.0
 30
0.0
  9
$PUCSORGLEFT
 10
0.0
 20
0.0
 30
0.0
  9
$PUCSORGRIGHT
 10
0.0
 20
0.0
 30
0.0
  9
$PUCSORGFRONT
 10
0.0
 20
0.0
 30
0.0
  9
$PUCSORGBACK
 10
0.0
 20
0.0
 30
0.0
  9
$USERI1
 70
     0
  9
$USERI2
 70
     0
  9
$USERI3
 70
     0
  9
$USERI4
 70
     0
  9
$USERI5
 70
     0
  9
$USERR1
 40
0.0
  9
$USERR2
 40
0.0
  9
$USERR3
 40
0.0
  9
$USERR4
 40
0.0
  9
$USERR5
 40
0.0
  9
$WORLDVIEW
 70
     1
  9
$SHADEDGE
 70
     3
  9
$SHADEDIF
 70
    70
  9
$TILEMODE
 70
     1
  9
$MAXACTVP
 70
    16
  9
$PINSBASE
 10
0.0
 20
0.0
 30
0.0
  9
$PLIMCHECK
 70
     0
  9
$PEXTMIN
 10
1.000000000000000E+20
 20
1.000000000000000E+20
 30
1.000000000000000E+20
  9
$PEXTMAX
 10
-1.000000000000000E+20
 20
-1.000000000000000E+20
 30
-1.000000000000000E+20
  9
$PLIMMIN
 10
0.0
 20
0.0
  9
$PLIMMAX
 10
12.0
 20
9.0
  9
$UNITMODE
 70
     0
  9
$VISRETAIN
 70
     0
  9
$PLINEGEN
 70
     0
  9
$PSLTSCALE
 70
     0
  9
$TREEDEPTH
 70
  3020
  9
$CMLSTYLE
  2
Standard
  9
$CMLJUST
 70
     0
  9
$CMLSCALE
 40
1.0
  9
$PROXYGRAPHICS
 70
     1
  9
$MEASUREMENT
 70
     0
  9
$CELWEIGHT
370
    -1
  9
$ENDCAPS
280
     0
  9
$JOINSTYLE
280
     0
  9
$LWDISPLAY
290
     0
  9
$INSUNITS
 70
     0
  9
$HYPERLINKBASE
  1

  9
$STYLESHEET
  1
monochrome 1.ctb
  9
$XEDIT
290
     1
  9
$CEPSNTYPE
380
     0
  9
$PSTYLEMODE
290
     1
  9
$FINGERPRINTGUID
  2
{7AADB5C8-6110-11D8-B72B-000102183313}
  9
$VERSIONGUID
  2
{D6494575-A2C8-4FC2-8CFA-36BDC200EBA3}
  9
$EXTNAMES
290
     1
  9
$PSVPSCALE
 40
0.0
  9
$OLESTARTUP
290
     0
  9
$SORTENTS
280
    96
  9
$INDEXCTL
280
     0
  9
$HIDETEXT
280
     0
  9
$XCLIPFRAME
290
     0
  9
$HALOGAP
280
     0
  9
$OBSCOLOR
 70
   257
  9
$OBSLTYPE
280
     0
  9
$INTERSECTIONDISPLAY
280
     0
  9
$INTERSECTIONCOLOR
 70
   257
  9
$DIMASSOC
280
     1
  9
$PROJECTNAME
  1

  0
ENDSEC
  0
SECTION
  2
CLASSES
  0
CLASS
  1
ACDBDICTIONARYWDFLT
  2
AcDbDictionaryWithDefault
  3
ObjectDBX Classes
 90
        0
 91
        1
280
     0
281
     0
  0
CLASS
  1
DICTIONARYVAR
  2
AcDbDictionaryVar
  3
ObjectDBX Classes
 90
        0
 91
        3
280
     0
281
     0
  0
ENDSEC
  0
SECTION
  2
TABLES
  0
TABLE
  2
VPORT
  5
8
330
0
100
AcDbSymbolTable
 70
     3
  0
VPORT
  5
1D67
330
8
100
AcDbSymbolTableRecord
100
AcDbViewportTableRecord
  2
*Active
 70
     0
 10
0.0
 20
0.0
 11
1.0
 21
1.0
 12
105.0
 22
148.5
 13
0.0
 23
0.0
 14
1.0
 24
1.0
 15
10.0
 25
10.0
 16
0.0
 26
0.0
 36
1.0
 17
0.0
 27
0.0
 37
0.0
 40
297.0
 41
1.334231805929919
 42
50.0
 43
0.0
 44
0.0
 50
0.0
 51
0.0
 71
     0
 72
  1500
 73
     1
 74
     0
 75
     0
 76
     0
 77
     0
 78
     0
281
     0
 65
     1
110
0.0
120
0.0
130
0.0
111
1.0
121
0.0
131
0.0
112
0.0
122
1.0
132
0.0
 79
     0
146
0.0
  0
ENDTAB
  0
TABLE
  2
LTYPE
  5
5
330
0
100
AcDbSymbolTable
 70
     2
  0
LTYPE
  5
13
330
5
100
AcDbSymbolTableRecord
100
AcDbLinetypeTableRecord
  2
ByBlock
 70
     0
  3

 72
    65
 73
     0
 40
0.0
  0
LTYPE
  5
14
330
5
100
AcDbSymbolTableRecord
100
AcDbLinetypeTableRecord
  2
ByLayer
 70
     0
  3

 72
    65
 73
     0
 40
0.0
  0
LTYPE
  5
15
330
5
100
AcDbSymbolTableRecord
100
AcDbLinetypeTableRecord
  2
Continuous
 70
     0
  3
Solid line
 72
    65
 73
     0
 40
0.0
  0
LTYPE
  5
35
330
5
100
AcDbSymbolTableRecord
100
AcDbLinetypeTableRecord
  2
STRICHPUNKT
 70
     0
  3
__ . __ . __ . __ . __ . __ . __ . __ . __ . __
 72
    65
 73
     4
 40
1.0
 49
0.5
 74
     0
 49
-0.25
 74
     0
 49
0.0
 74
     0
 49
-0.25
 74
     0
  0
ENDTAB
  0
TABLE
  2
LAYER
  5
2
330
0
100
AcDbSymbolTable
 70
     9
  0
LAYER
  5
10
330
2
100
AcDbSymbolTableRecord
100
AcDbLayerTableRecord
  2
0
 70
     0
 62
     7
  6
Continuous
370
    -3
390
F
  0
LAYER
  5
38
330
2
100
AcDbSymbolTableRecord
100
AcDbLayerTableRecord
  2
VOLL
 70
     0
 62
     1
  6
Continuous
370
    -3
390
F
  0
LAYER
  5
39
330
2
100
AcDbSymbolTableRecord
100
AcDbLayerTableRecord
  2
HILF
 70
     0
 62
     2
  6
Continuous
370
    -3
390
F
  0
LAYER
  5
3A
330
2
100
AcDbSymbolTableRecord
100
AcDbLayerTableRecord
  2
MITTEL
 70
     0
 62
     2
  6
STRICHPUNKT
370
    -3
390
F
  0
LAYER
  5
3B
330
2
100
AcDbSymbolTableRecord
100
AcDbLayerTableRecord
  2
BEM
 70
     0
 62
     7
  6
Continuous
370
    -3
390
F
  0
LAYER
  5
3C
330
2
100
AcDbSymbolTableRecord
100
AcDbLayerTableRecord
  2
STEMPEL
 70
     0
 62
     3
  6
Continuous
370
    -3
390
F
  0
LAYER
  5
3D
330
2
100
AcDbSymbolTableRecord
100
AcDbLayerTableRecord
  2
TEXT
 70
     0
 62
     7
  6
Continuous
370
    -3
390
F
  0
LAYER
  5
3E
330
2
100
AcDbSymbolTableRecord
100
AcDbLayerTableRecord
  2
DEFPOINTS
 70
     0
 62
     7
  6
Continuous
290
     0
370
    -3
390
F
  0
LAYER
  5
3F
330
2
100
AcDbSymbolTableRecord
100
AcDbLayerTableRecord
  2
SCHRAFF
 70
     0
 62
     7
  6
Continuous
370
    -3
390
F
  0
ENDTAB
  0
TABLE
  2
STYLE
  5
3
330
0
100
AcDbSymbolTable
 70
     2
  0
STYLE
  5
11
330
3
100
AcDbSymbolTableRecord
100
AcDbTextStyleTableRecord
  2
STANDARD
 70
     0
 40
0.0
 41
0.8
 50
0.0
 71
     0
 42
3.5
  3
simplex.shx
  4

  0
STYLE
  5
34
330
3
100
AcDbSymbolTableRecord
100
AcDbTextStyleTableRecord
  2
GREEKS
 70
     0
 40
0.0
 41
0.8
 50
0.0
 71
     0
 42
2.5
  3
SIMPLEX.shx
  4

  0
ENDTAB
  0
TABLE
  2
VIEW
  5
6
330
0
100
AcDbSymbolTable
 70
     0
  0
ENDTAB
  0
TABLE
  2
UCS
  5
7
330
0
100
AcDbSymbolTable
 70
     0
  0
ENDTAB
  0
TABLE
  2
APPID
  5
9
330
0
100
AcDbSymbolTable
 70
     1
  0
APPID
  5
12
330
9
100
AcDbSymbolTableRecord
100
AcDbRegAppTableRecord
  2
ACAD
 70
     0
  0
ENDTAB
  0
TABLE
  2
DIMSTYLE
  5
A
330
0
100
AcDbSymbolTable
 70
     1
100
AcDbDimStyleTable
 71
     1
340
1CB
  0
DIMSTYLE
105
1CB
102
{ACAD_REACTORS
330
D41
330
1DB
330
E1B
330
1C2B
330
1C57
330
1C72
102
}
330
A
100
AcDbSymbolTableRecord
100
AcDbDimStyleTableRecord
  2
Standard
 70
     0
340
11
  0
ENDTAB
  0
TABLE
  2
BLOCK_RECORD
  5
1
330
0
100
AcDbSymbolTable
 70
     9
  0
BLOCK_RECORD
  5
1E
330
1
100
AcDbSymbolTableRecord
100
AcDbBlockTableRecord
  2
*Model_Space
340
21
  0
BLOCK_RECORD
  5
1A
330
1
100
AcDbSymbolTableRecord
100
AcDbBlockTableRecord
  2
*Paper_Space
340
1D
  0
BLOCK_RECORD
  5
22
330
1
100
AcDbSymbolTableRecord
100
AcDbBlockTableRecord
  2
LOGO
340
0
102
{BLKREFS
331
135
102
}
  0
BLOCK_RECORD
  5
1DC
330
1
100
AcDbSymbolTableRecord
100
AcDbBlockTableRecord
  2
*D1
340
0
  0
BLOCK_RECORD
  5
D42
330
1
100
AcDbSymbolTableRecord
100
AcDbBlockTableRecord
  2
*D3
340
0
  0
BLOCK_RECORD
  5
E1C
330
1
100
AcDbSymbolTableRecord
100
AcDbBlockTableRecord
  2
*D4
340
0
  0
BLOCK_RECORD
  5
1C2C
330
1
100
AcDbSymbolTableRecord
100
AcDbBlockTableRecord
  2
*D6
340
0
  0
BLOCK_RECORD
  5
1C58
330
1
100
AcDbSymbolTableRecord
100
AcDbBlockTableRecord
  2
*D7
340
0
  0
BLOCK_RECORD
  5
1C73
330
1
100
AcDbSymbolTableRecord
100
AcDbBlockTableRecord
  2
*D8
340
0
  0
ENDTAB
  0
ENDSEC
  0
SECTION
  2
BLOCKS
  0
BLOCK
  5
43
330
1E
100
AcDbEntity
  8
0
100
AcDbBlockBegin
  2
*Model_Space
 70
     0
 10
0.0
 20
0.0
 30
0.0
  3
*Model_Space
  1

  0
ENDBLK
  5
44
330
1E
100
AcDbEntity
  8
0
100
AcDbBlockEnd
  0
BLOCK
  5
41
330
1A
100
AcDbEntity
 67
     1
  8
0
100
AcDbBlockBegin
  2
*Paper_Space
 70
     0
 10
0.0
 20
0.0
 30
0.0
  3
*Paper_Space
  1

  0
ENDBLK
  5
42
330
1A
100
AcDbEntity
 67
     1
  8
0
100
AcDbBlockEnd
  0
BLOCK
  5
45
330
22
100
AcDbEntity
  8
0
100
AcDbBlockBegin
  2
LOGO
 70
     0
 10
0.0
 20
0.0
 30
0.0
  3
LOGO
  1

  0
ARC
  5
46
330
22
100
AcDbEntity
  8
0
100
AcDbCircle
 10
11.59973089678112
 20
-9.271599258481501
 30
0.0
 40
4.5
100
AcDbArc
 50
270.0
 51
231.0575587310159
  0
LINE
  5
47
330
22
100
AcDbEntity
  8
0
100
AcDbLine
 10
3.599730896781125
 20
-4.771599258481529
 30
0.0
 11
3.599730896781153
 21
-11.77159925848133
 31
0.0
  0
LINE
  5
48
330
22
100
AcDbEntity
  8
0
100
AcDbLine
 10
2.599730896781125
 20
-4.771599258481529
 30
0.0
 11
2.599730896781153
 21
-11.77159925848133
 31
0.0
  0
CIRCLE
  5
49
330
22
100
AcDbEntity
  8
0
100
AcDbCircle
 10
11.59973089678112
 20
-9.271599258481501
 30
0.0
 40
3.5
  0
ARC
  5
4A
330
22
100
AcDbEntity
  8
0
100
AcDbCircle
 10
31.59973089678115
 20
-9.271599258481472
 30
0.0
 40
4.5
100
AcDbArc
 50
270.0
 51
231.0575587310182
  0
LINE
  5
4B
330
22
100
AcDbEntity
  8
0
100
AcDbLine
 10
17.59973089678112
 20
-4.771599258481472
 30
0.0
 11
17.59973089678115
 21
-13.77159925848147
 31
0.0
  0
ARC
  5
4C
330
22
100
AcDbEntity
  8
0
100
AcDbCircle
 10
22.59973089678116
 20
-7.271599258481472
 30
0.0
 40
2.5
100
AcDbArc
 50
293.1161887722295
 51
90.0
  0
CIRCLE
  5
4D
330
22
100
AcDbEntity
  8
0
100
AcDbCircle
 10
31.59973089678115
 20
-9.271599258481472
 30
0.0
 40
3.5
  0
ARC
  5
4E
330
22
100
AcDbEntity
  8
0
100
AcDbCircle
 10
4.599730896781153
 20
-11.77159925848133
 30
0.0
 40
1.0
100
AcDbArc
 50
180.0
 51
270.0
  0
ARC
  5
4F
330
22
100
AcDbEntity
  8
0
100
AcDbCircle
 10
4.599730896781153
 20
-11.77159925848133
 30
0.0
 40
2.0
100
AcDbArc
 50
179.9999999999992
 51
270.0
  0
LINE
  5
50
330
22
100
AcDbEntity
  8
0
100
AcDbLine
 10
11.59973089678115
 20
-13.77159925848144
 30
0.0
 11
4.599730896781153
 21
-13.77159925848147
 31
0.0
  0
LINE
  5
51
330
22
100
AcDbEntity
  8
0
100
AcDbLine
 10
8.771303772034769
 20
-12.77159925848136
 30
0.0
 11
4.599730896781153
 21
-12.77159925848133
 31
0.0
  0
LINE
  5
52
330
22
100
AcDbEntity
  8
0
100
AcDbLine
 10
31.59973089678115
 20
-13.77159925848147
 30
0.0
 11
23.6715276665056
 21
-13.77159925848144
 31
0.0
  0
LINE
  5
53
330
22
100
AcDbEntity
  8
0
100
AcDbLine
 10
23.56565672307022
 20
-9.51278021337896
 30
0.0
 11
24.4388546544846
 21
-12.77159925848144
 31
0.0
  0
LINE
  5
54
330
22
100
AcDbEntity
  8
0
100
AcDbLine
 10
22.59973089678116
 20
-9.771599258481472
 30
0.0
 11
18.59973089678112
 21
-9.771599258481472
 31
0.0
  0
LINE
  5
55
330
22
100
AcDbEntity
  8
0
100
AcDbLine
 10
18.59973089678115
 20
-13.77159925848144
 30
0.0
 11
17.59973089678115
 21
-13.77159925848144
 31
0.0
  0
LINE
  5
56
330
22
100
AcDbEntity
  8
0
100
AcDbLine
 10
18.59973089678115
 20
-9.771599258481472
 30
0.0
 11
18.59973089678115
 21
-13.77159925848144
 31
0.0
  0
LINE
  5
57
330
22
100
AcDbEntity
  8
0
100
AcDbLine
 10
22.59973089678116
 20
-9.771599258481472
 30
0.0
 11
23.67152766650562
 21
-13.77159925848147
 31
0.0
  0
ARC
  5
58
330
22
100
AcDbEntity
  8
0
100
AcDbCircle
 10
22.59973089678116
 20
-7.271599258481472
 30
0.0
 40
2.5
100
AcDbArc
 50
270.0
 51
270.0000000000007
  0
LINE
  5
59
330
22
100
AcDbEntity
  8
0
100
AcDbLine
 10
28.77130377203494
 20
-12.77159925848147
 30
0.0
 11
24.43885465448463
 21
-12.77159925848144
 31
0.0
  0
LINE
  5
5A
330
22
100
AcDbEntity
  8
0
100
AcDbLine
 10
3.599730896781125
 20
-4.771599258481472
 30
0.0
 11
2.599730896781125
 21
-4.771599258481472
 31
0.0
  0
LINE
  5
5B
330
22
100
AcDbEntity
  8
0
100
AcDbLine
 10
22.59973089678116
 20
-8.771599258481472
 30
0.0
 11
18.59973089678115
 21
-8.771599258481472
 31
0.0
  0
LINE
  5
5C
330
22
100
AcDbEntity
  8
0
100
AcDbLine
 10
22.59973089678116
 20
-5.771599258481472
 30
0.0
 11
18.59973089678115
 21
-5.771599258481472
 31
0.0
  0
LINE
  5
5D
330
22
100
AcDbEntity
  8
0
100
AcDbLine
 10
22.59973089678116
 20
-4.771599258481472
 30
0.0
 11
17.59973089678115
 21
-4.771599258481472
 31
0.0
  0
LINE
  5
5E
330
22
100
AcDbEntity
  8
0
100
AcDbLine
 10
18.59973089678115
 20
-5.771599258481472
 30
0.0
 11
18.59973089678115
 21
-8.771599258481472
 31
0.0
  0
ARC
  5
5F
330
22
100
AcDbEntity
  8
0
100
AcDbCircle
 10
22.59973089678116
 20
-7.271599258481472
 30
0.0
 40
1.5
100
AcDbArc
 50
270.0
 51
90.0
  0
ENDBLK
  5
60
330
22
100
AcDbEntity
  8
0
100
AcDbBlockEnd
  0
BLOCK
  5
1E6
330
1DC
100
AcDbEntity
  8
0
100
AcDbBlockBegin
  2
*D1
 70
     1
 10
0.0
 20
0.0
 30
0.0
  3
*D1
  1

  0
LINE
  5
1CEE
330
1DC
100
AcDbEntity
  8
BEM
 62
     0
370
    -2
100
AcDbLine
 10
45.09722931425335
 20
73.62669101596114
 30
0.0
 11
28.98690240273933
 21
73.62669101596115
 31
0.0
  0
LINE
  5
1CEF
330
1DC
100
AcDbEntity
  8
BEM
 62
     0
370
    -2
100
AcDbLine
 10
41.86914810804341
 20
268.6299839202912
 30
0.0
 11
28.98690240273937
 21
268.6299839202912
 31
0.0
  0
LINE
  5
1CF0
330
1DC
100
AcDbEntity
  8
BEM
 62
     0
370
    -2
100
AcDbLine
 10
29.98690240273933
 20
77.12669101596116
 30
0.0
 11
29.98690240273937
 21
265.1299839202912
 31
0.0
  0
SOLID
  5
1CF1
330
1DC
100
AcDbEntity
  8
BEM
 62
     0
100
AcDbTrace
 10
29.403569069406
 20
77.12669101596116
 30
0.0
 11
30.57023573607266
 21
77.12669101596116
 31
0.0
 12
29.98690240273933
 22
73.62669101596115
 32
0.0
 13
29.98690240273933
 23
73.62669101596115
 33
0.0
  0
SOLID
  5
1CF2
330
1DC
100
AcDbEntity
  8
BEM
 62
     0
100
AcDbTrace
 10
29.40356906940604
 20
265.1299839202912
 30
0.0
 11
30.57023573607271
 21
265.1299839202912
 31
0.0
 12
29.98690240273937
 22
268.6299839202912
 32
0.0
 13
29.98690240273937
 23
268.6299839202912
 33
0.0
  0
MTEXT
  5
1CF3
330
1DC
100
AcDbEntity
  8
BEM
 62
     1
100
AcDbMText
 10
26.73690240273932
 20
171.1283374681262
 30
0.0
 40
3.5
 41
0.0
 71
     5
 72
     1
  1
\A1;195
 11
0.0000000000000001
 21
1.0
 31
0.0
 73
     1
 44
1.0
  0
POINT
  5
1CF4
330
1DC
100
AcDbEntity
  8
DEFPOINTS
 62
     0
100
AcDbPoint
 10
46.09722931425335
 20
73.62669101596114
 30
0.0
  0
POINT
  5
1CF5
330
1DC
100
AcDbEntity
  8
DEFPOINTS
 62
     0
100
AcDbPoint
 10
42.86914810804342
 20
268.6299839202912
 30
0.0
  0
POINT
  5
1CF6
330
1DC
100
AcDbEntity
  8
DEFPOINTS
 62
     0
100
AcDbPoint
 10
29.98690240273937
 20
268.6299839202912
 30
0.0
  0
ENDBLK
  5
1E7
330
1DC
100
AcDbEntity
  8
0
100
AcDbBlockEnd
  0
BLOCK
  5
D4C
330
D42
100
AcDbEntity
  8
0
100
AcDbBlockBegin
  2
*D3
 70
     1
 10
0.0
 20
0.0
 30
0.0
  3
*D3
  1

  0
LINE
  5
1857
330
D42
100
AcDbEntity
  8
BEM
 62
     0
370
    -2
100
AcDbLine
 10
45.65978599662378
 20
77.62669101596134
 30
0.0
 11
45.65978599662378
 21
61.42041859786082
 31
0.0
  0
LINE
  5
1858
330
D42
100
AcDbEntity
  8
BEM
 62
     0
370
    -2
100
AcDbLine
 10
118.6597859966238
 20
77.62669101596168
 30
0.0
 11
118.6597859966238
 21
61.42041859786082
 31
0.0
  0
LINE
  5
1859
330
D42
100
AcDbEntity
  8
BEM
 62
     0
370
    -2
100
AcDbLine
 10
49.15978599662378
 20
62.42041859786081
 30
0.0
 11
115.1597859966237
 21
62.42041859786081
 31
0.0
  0
SOLID
  5
185A
330
D42
100
AcDbEntity
  8
BEM
 62
     0
100
AcDbTrace
 10
49.15978599662378
 20
63.00375193119415
 30
0.0
 11
49.15978599662378
 21
61.83708526452748
 31
0.0
 12
45.65978599662378
 22
62.42041859786081
 32
0.0
 13
45.65978599662378
 23
62.42041859786081
 33
0.0
  0
SOLID
  5
185B
330
D42
100
AcDbEntity
  8
BEM
 62
     0
100
AcDbTrace
 10
115.1597859966237
 20
63.00375193119415
 30
0.0
 11
115.1597859966237
 21
61.83708526452748
 31
0.0
 12
118.6597859966238
 22
62.42041859786081
 32
0.0
 13
118.6597859966238
 23
62.42041859786081
 33
0.0
  0
MTEXT
  5
185C
330
D42
100
AcDbEntity
  8
BEM
 62
     1
100
AcDbMText
 10
82.15978599662378
 20
65.67041859786082
 30
0.0
 40
3.5
 41
0.0
 71
     5
 72
     1
  1
\A1;%%c73
 73
     1
 44
1.0
  0
POINT
  5
185D
330
D42
100
AcDbEntity
  8
DEFPOINTS
 62
     0
100
AcDbPoint
 10
45.65978599662378
 20
78.62669101596134
 30
0.0
  0
POINT
  5
185E
330
D42
100
AcDbEntity
  8
DEFPOINTS
 62
     0
100
AcDbPoint
 10
118.6597859966238
 20
78.62669101596168
 30
0.0
  0
POINT
  5
185F
330
D42
100
AcDbEntity
  8
DEFPOINTS
 62
     0
100
AcDbPoint
 10
118.6597859966238
 20
62.42041859786081
 30
0.0
  0
ENDBLK
  5
D4D
330
D42
100
AcDbEntity
  8
0
100
AcDbBlockEnd
  0
BLOCK
  5
E26
330
E1C
100
AcDbEntity
  8
0
100
AcDbBlockBegin
  2
*D4
 70
     1
 10
0.0
 20
0.0
 30
0.0
  3
*D4
  1

  0
LINE
  5
1864
330
E1C
100
AcDbEntity
  8
BEM
 62
     0
370
    -2
100
AcDbLine
 10
45.09722931425335
 20
73.62669101596111
 30
0.0
 11
37.58114682080508
 21
73.62669101596111
 31
0.0
  0
LINE
  5
1865
330
E1C
100
AcDbEntity
  8
BEM
 62
     0
370
    -2
100
AcDbLine
 10
81.15978599662389
 20
168.6266910159611
 30
0.0
 11
37.5811468208051
 21
168.6266910159612
 31
0.0
  0
LINE
  5
1866
330
E1C
100
AcDbEntity
  8
BEM
 62
     0
370
    -2
100
AcDbLine
 10
38.58114682080508
 20
77.12669101596111
 30
0.0
 11
38.5811468208051
 21
165.1266910159612
 31
0.0
  0
SOLID
  5
1867
330
E1C
100
AcDbEntity
  8
BEM
 62
     0
100
AcDbTrace
 10
37.99781348747174
 20
77.12669101596111
 30
0.0
 11
39.16448015413841
 21
77.12669101596111
 31
0.0
 12
38.58114682080508
 22
73.62669101596111
 32
0.0
 13
38.58114682080508
 23
73.62669101596111
 33
0.0
  0
SOLID
  5
1868
330
E1C
100
AcDbEntity
  8
BEM
 62
     0
100
AcDbTrace
 10
37.99781348747176
 20
165.1266910159612
 30
0.0
 11
39.16448015413843
 21
165.1266910159612
 31
0.0
 12
38.5811468208051
 22
168.6266910159612
 32
0.0
 13
38.5811468208051
 23
168.6266910159612
 33
0.0
  0
MTEXT
  5
1869
330
E1C
100
AcDbEntity
  8
BEM
 62
     1
100
AcDbMText
 10
35.33114682080507
 20
121.1266910159611
 30
0.0
 40
3.5
 41
0.0
 71
     5
 72
     1
  1
\A1;95
 11
0.0000000000000001
 21
1.0
 31
0.0
 73
     1
 44
1.0
  0
POINT
  5
186A
330
E1C
100
AcDbEntity
  8
DEFPOINTS
 62
     0
100
AcDbPoint
 10
46.09722931425335
 20
73.62669101596111
 30
0.0
  0
POINT
  5
186B
330
E1C
100
AcDbEntity
  8
DEFPOINTS
 62
     0
100
AcDbPoint
 10
82.1597859966239
 20
168.6266910159611
 30
0.0
  0
POINT
  5
186C
330
E1C
100
AcDbEntity
  8
DEFPOINTS
 62
     0
100
AcDbPoint
 10
38.5811468208051
 20
168.6266910159612
 30
0.0
  0
ENDBLK
  5
E27
330
E1C
100
AcDbEntity
  8
0
100
AcDbBlockEnd
  0
BLOCK
  5
1C36
330
1C2C
100
AcDbEntity
  8
0
100
AcDbBlockBegin
  2
*D6
 70
     1
 10
0.0
 20
0.0
 30
0.0
  3
*D6
  1

  0
LINE
  5
1D5D
330
1C2C
100
AcDbEntity
  8
BEM
 62
     0
370
    -2
100
AcDbLine
 10
82.21212195286673
 20
167.6280614812065
 30
0.0
 11
83.99319243269976
 21
133.6432122050345
 31
0.0
  0
LINE
  5
1D5E
330
1C2C
100
AcDbEntity
  8
BEM
 62
     0
370
    -2
100
AcDbLine
 10
170.3229477406547
 20
148.7104179646909
 30
0.0
 11
170.8739619563478
 21
138.1964403981706
 31
0.0
  0
LINE
  5
1D5F
330
1C2C
100
AcDbEntity
  8
BEM
 62
     0
370
    -2
100
AcDbLine
 10
87.43605984809784
 20
134.8250175866394
 30
0.0
 11
167.3264226284638
 21
139.0118940860749
 31
0.0
  0
SOLID
  5
1D60
330
1C2C
100
AcDbEntity
  8
BEM
 62
     0
100
AcDbTrace
 10
87.40553054028945
 20
135.4075514819129
 30
0.0
 11
87.46658915590622
 21
134.2424836913659
 31
0.0
 12
83.94085647645681
 22
134.6418417397891
 32
0.0
 13
83.94085647645681
 23
134.6418417397891
 33
0.0
  0
SOLID
  5
1D61
330
1C2C
100
AcDbEntity
  8
BEM
 62
     0
100
AcDbTrace
 10
167.2958933206554
 20
139.5944279813484
 30
0.0
 11
167.3569519362722
 21
138.4293601908014
 31
0.0
 12
170.8216260001048
 22
139.1950699329252
 32
0.0
 13
170.8216260001048
 23
139.1950699329252
 33
0.0
  0
MTEXT
  5
1D62
330
1C2C
100
AcDbEntity
  8
BEM
 62
     1
100
AcDbMText
 10
127.2111493804912
 20
140.1640018243095
 30
0.0
 40
3.5
 41
0.0
 71
     5
 72
     1
  1
\A1;87
 11
0.9986295347545739
 21
0.0523359562429433
 31
0.0
 73
     1
 44
1.0
  0
POINT
  5
1D63
330
1C2C
100
AcDbEntity
  8
DEFPOINTS
 62
     0
100
AcDbPoint
 10
82.15978599662379
 20
168.626691015961
 30
0.0
  0
POINT
  5
1D64
330
1C2C
100
AcDbEntity
  8
DEFPOINTS
 62
     0
100
AcDbPoint
 10
170.2706117844118
 20
149.7090474994454
 30
0.0
  0
POINT
  5
1D65
330
1C2C
100
AcDbEntity
  8
DEFPOINTS
 62
     0
100
AcDbPoint
 10
170.8216260001048
 20
139.1950699329252
 30
0.0
  0
ENDBLK
  5
1C37
330
1C2C
100
AcDbEntity
  8
0
100
AcDbBlockEnd
  0
BLOCK
  5
1C64
330
1C58
100
AcDbEntity
  8
0
100
AcDbBlockBegin
  2
*D7
 70
     1
 10
0.0
 20
0.0
 30
0.0
  3
*D7
  1

  0
LINE
  5
1C66
330
1C58
100
AcDbEntity
  8
BEM
 62
     0
370
    -2
100
AcDbLine
 10
175.0323327287993
 20
173.4939349465548
 30
0.0
 11
197.4903395241897
 21
174.6709092098247
 31
0.0
  0
LINE
  5
1C67
330
1C58
100
AcDbEntity
  8
BEM
 62
     0
370
    -2
100
AcDbLine
 10
82.15978599662379
 20
274.6299839202912
 30
0.0
 11
82.1597859966239
 21
284.1155179670987
 31
0.0
  0
ARC
  5
1C68
330
1C58
100
AcDbEntity
  8
BEM
 62
     0
370
    -2
100
AcDbCircle
 10
82.15978599662383
 20
168.6266910159611
 30
0.0
 40
114.4888269511375
100
AcDbArc
 50
4.751638507857509
 51
88.24836149214245
  0
SOLID
  5
1C69
330
1C58
100
AcDbEntity
  8
BEM
 62
     0
100
AcDbTrace
 10
196.8371293789809
 20
178.1499983516269
 30
0.0
 11
195.6731310018017
 21
178.0711384186123
 31
0.0
 12
196.4917099894352
 22
174.6185732535818
 32
0.0
 13
196.4917099894352
 23
174.6185732535818
 33
0.0
  0
SOLID
  5
1C6A
330
1C58
100
AcDbEntity
  8
BEM
 62
     0
100
AcDbTrace
 10
85.65046065516638
 20
282.4787541129213
 30
0.0
 11
85.66829354524864
 21
283.6452844807825
 31
0.0
 12
82.15978599662388
 22
283.1155179670986
 32
0.0
 13
82.15978599662388
 23
283.1155179670986
 33
0.0
  0
MTEXT
  5
1C6B
330
1C58
100
AcDbEntity
  8
BEM
 62
     1
100
AcDbMText
 10
163.2058462652545
 20
254.0314185593671
 30
0.0
 40
3.5
 41
0.0
 71
     5
 72
     1
  1
\A1;87°
 11
0.7253743710122873
 21
-0.6883545756937544
 31
0.0
 73
     1
 44
1.0
  0
POINT
  5
1C6C
330
1C58
100
AcDbEntity
  8
DEFPOINTS
 62
     0
100
AcDbPoint
 10
179.2518177237185
 20
229.2965259568306
 30
0.0
  0
POINT
  5
1C6D
330
1C58
100
AcDbEntity
  8
DEFPOINTS
 62
     0
100
AcDbPoint
 10
82.15978599662374
 20
273.6299839202912
 30
0.0
  0
POINT
  5
1C6E
330
1C58
100
AcDbEntity
  8
DEFPOINTS
 62
     0
100
AcDbPoint
 10
174.0337031940447
 20
173.4415989903118
 30
0.0
  0
POINT
  5
1C6F
330
1C58
100
AcDbEntity
  8
DEFPOINTS
 62
     0
100
AcDbPoint
 10
82.15978599662387
 20
168.6266910159611
 30
0.0
  0
POINT
  5
1C70
330
1C58
100
AcDbEntity
  8
DEFPOINTS
 62
     0
100
AcDbPoint
 10
82.15978599662388
 20
68.62669101596134
 30
0.0
  0
ENDBLK
  5
1C65
330
1C58
100
AcDbEntity
  8
0
100
AcDbBlockEnd
  0
BLOCK
  5
1C7D
330
1C73
100
AcDbEntity
  8
0
100
AcDbBlockBegin
  2
*D8
 70
     1
 10
0.0
 20
0.0
 30
0.0
  3
*D8
  1

  0
LINE
  5
1C91
330
1C73
100
AcDbEntity
  8
BEM
 62
     0
370
    -2
100
AcDbLine
 10
117.6611564618692
 20
191.5160582695055
 30
0.0
 11
90.7064106027658
 21
190.1034198978911
 31
0.0
  0
LINE
  5
1C92
330
1C73
100
AcDbEntity
  8
BEM
 62
     0
370
    -2
100
AcDbLine
 10
117.6611564618691
 20
149.4584197375928
 30
0.0
 11
92.90452076496942
 21
148.160979438199
 31
0.0
  0
LINE
  5
1C93
330
1C73
100
AcDbEntity
  8
BEM
 62
     0
370
    -2
100
AcDbLine
 10
91.88821598437067
 20
186.660552482493
 30
0.0
 11
93.71997445287368
 21
151.708518766083
 31
0.0
  0
SOLID
  5
1C94
330
1C73
100
AcDbEntity
  8
BEM
 62
     0
100
AcDbTrace
 10
92.47074987964417
 20
186.6910817903015
 30
0.0
 11
91.30568208909719
 21
186.6300231746847
 31
0.0
 12
91.70504013752037
 22
190.1557558541341
 32
0.0
 13
91.70504013752037
 23
190.1557558541341
 33
0.0
  0
SOLID
  5
1C95
330
1C73
100
AcDbEntity
  8
BEM
 62
     0
100
AcDbTrace
 10
94.30250834814719
 20
151.7390480738914
 30
0.0
 11
93.1374405576002
 21
151.6779894582746
 31
0.0
 12
93.90315029972398
 22
148.213315394442
 32
0.0
 13
93.90315029972398
 23
148.213315394442
 33
0.0
  0
MTEXT
  5
1C96
330
1C73
100
AcDbEntity
  8
BEM
 62
     1
100
AcDbMText
 10
96.04964120657458
 20
169.3546274820776
 30
0.0
 40
3.5
 41
0.0
 71
     5
 72
     1
  1
\A1;%%c42
 11
0.0523359562429433
 21
-0.9986295347545739
 31
0.0
 73
     1
 44
1.0
  0
POINT
  5
1C97
330
1C73
100
AcDbEntity
  8
DEFPOINTS
 62
     0
100
AcDbPoint
 10
118.6597859966238
 20
191.5683942257484
 30
0.0
  0
POINT
  5
1C98
330
1C73
100
AcDbEntity
  8
DEFPOINTS
 62
     0
100
AcDbPoint
 10
118.6597859966237
 20
149.5107556938357
 30
0.0
  0
POINT
  5
1C99
330
1C73
100
AcDbEntity
  8
DEFPOINTS
 62
     0
100
AcDbPoint
 10
93.90315029972398
 20
148.213315394442
 30
0.0
  0
ENDBLK
  5
1C7E
330
1C73
100
AcDbEntity
  8
0
100
AcDbBlockEnd
  0
ENDSEC
  0
SECTION
  2
ENTITIES
  0
LINE
  5
12A
330
1E
100
AcDbEntity
  8
STEMPEL
100
AcDbLine
 10
121.4504238852041
 20
268.6299839202912
 30
0.0
 11
42.86914810804342
 21
268.6299839202912
 31
0.0
  0
TEXT
  5
134
330
1E
100
AcDbEntity
  8
TEXT
100
AcDbText
 10
102.2108024290628
 20
31.54481959861755
 30
0.0
 40
2.0
  1
Koeh
 41
0.8
  7
GREEKS
 72
     1
 11
104.8393738576343
 21
31.54481959861755
 31
0.0
100
AcDbText
  0
INSERT
  5
135
330
1E
100
AcDbEntity
  8
STEMPEL
100
AcDbBlockReference
  2
LOGO
 10
75.4977742728897
 20
22.51052638224161
 30
0.0
  0
LINE
  5
136
330
1E
100
AcDbEntity
  8
HILF
100
AcDbLine
 10
210.0
 20
0.0
 30
0.0
 11
0.0
 21
0.0
 31
0.0
  0
LINE
  5
137
330
1E
100
AcDbEntity
  8
HILF
100
AcDbLine
 10
210.0
 20
297.0000000000001
 30
0.0
 11
0.0
 21
297.0
 31
0.0
  0
LINE
  5
138
330
1E
100
AcDbEntity
  8
STEMPEL
100
AcDbLine
 10
205.0
 20
292.0
 30
0.0
 11
19.99999999999994
 21
292.0
 31
0.0
  0
LINE
  5
139
330
1E
100
AcDbEntity
  8
STEMPEL
100
AcDbLine
 10
205.0
 20
5.0
 30
0.0
 11
19.99999999999994
 21
5.0
 31
0.0
  0
LINE
  5
13A
330
1E
100
AcDbEntity
  8
STEMPEL
100
AcDbLine
 10
24.99999999999995
 20
5.0
 30
0.0
 11
205.0
 21
5.0
 31
0.0
  0
TEXT
  5
13B
330
1E
100
AcDbEntity
  8
TEXT
100
AcDbText
 10
101.2313292113147
 20
36.65480545957612
 30
0.0
 40
2.0
  1
Name
 41
0.8
  7
GREEKS
100
AcDbText
  0
TEXT
  5
13C
330
1E
100
AcDbEntity
  8
TEXT
100
AcDbText
 10
98.27491395507747
 20
51.32531138882947
 30
0.0
 40
2.5
  1
Zul. Abw.
 41
0.8
  7
GREEKS
 72
     4
 11
104.9891996693631
 21
52.57531138882947
 31
0.0
100
AcDbText
  0
LINE
  5
13D
330
1E
100
AcDbEntity
  8
HILF
100
AcDbLine
 10
73.00000000000006
 20
24.99999999999999
 30
0.0
 11
115.0
 21
24.99999999999999
 31
0.0
  0
LINE
  5
13E
330
1E
100
AcDbEntity
  8
HILF
100
AcDbLine
 10
73.00000000000006
 20
29.99999999999999
 30
0.0
 11
115.0
 21
29.99999999999999
 31
0.0
  0
LINE
  5
13F
330
1E
100
AcDbEntity
  8
HILF
100
AcDbLine
 10
73.00000000000006
 20
34.99999999999997
 30
0.0
 11
115.0
 21
34.99999999999997
 31
0.0
  0
LINE
  5
140
330
1E
100
AcDbEntity
  8
STEMPEL
100
AcDbLine
 10
205.0
 20
40.0
 30
0.0
 11
73.00000000000006
 21
39.99999999999997
 31
0.0
  0
LINE
  5
141
330
1E
100
AcDbEntity
  8
STEMPEL
100
AcDbLine
 10
205.0
 20
20.0
 30
0.0
 11
73.00000000000006
 21
19.99999999999998
 31
0.0
  0
LINE
  5
142
330
1E
100
AcDbEntity
  8
STEMPEL
100
AcDbLine
 10
205.0
 20
55.00000000000003
 30
0.0
 11
19.99999999999998
 21
55.0
 31
0.0
  0
LINE
  5
143
330
1E
100
AcDbEntity
  8
MITTEL
100
AcDbLine
 10
82.15978599662378
 20
273.6299839202912
 30
0.0
 11
82.1597859966239
 21
68.62669101596139
 31
0.0
  0
LINE
  5
144
330
1E
100
AcDbEntity
  8
HILF
100
AcDbLine
 10
0.0
 20
0.0
 30
0.0
 11
-0.0000000000000568
 21
297.0
 31
0.0
  0
LINE
  5
145
330
1E
100
AcDbEntity
  8
STEMPEL
100
AcDbLine
 10
20.0
 20
5.0
 30
0.0
 11
19.99999999999994
 21
292.0
 31
0.0
  0
LINE
  5
148
330
1E
100
AcDbEntity
  8
HILF
100
AcDbLine
 10
20.00000000000004
 20
19.99999999999998
 30
0.0
 11
73.00000000000006
 21
19.99999999999998
 31
0.0
  0
LINE
  5
149
330
1E
100
AcDbEntity
  8
HILF
100
AcDbLine
 10
20.00000000000004
 20
24.99999999999999
 30
0.0
 11
73.00000000000006
 21
24.99999999999999
 31
0.0
  0
LINE
  5
14A
330
1E
100
AcDbEntity
  8
HILF
100
AcDbLine
 10
20.00000000000004
 20
29.99999999999999
 30
0.0
 11
73.00000000000006
 21
29.99999999999999
 31
0.0
  0
LINE
  5
14B
330
1E
100
AcDbEntity
  8
HILF
100
AcDbLine
 10
20.00000000000004
 20
34.99999999999997
 30
0.0
 11
73.00000000000006
 21
34.99999999999997
 31
0.0
  0
LINE
  5
14C
330
1E
100
AcDbEntity
  8
HILF
100
AcDbLine
 10
20.00000000000004
 20
39.99999999999997
 30
0.0
 11
73.00000000000006
 21
39.99999999999997
 31
0.0
  0
LINE
  5
14D
330
1E
100
AcDbEntity
  8
HILF
100
AcDbLine
 10
20.00000000000004
 20
45.00000000000002
 30
0.0
 11
73.00000000000006
 21
45.00000000000002
 31
0.0
  0
LINE
  5
14E
330
1E
100
AcDbEntity
  8
HILF
100
AcDbLine
 10
20.00000000000004
 20
50.00000000000003
 30
0.0
 11
73.00000000000006
 21
50.00000000000003
 31
0.0
  0
LINE
  5
14F
330
1E
100
AcDbEntity
  8
STEMPEL
100
AcDbLine
 10
72.99999999999994
 20
14.99999999999998
 30
0.0
 11
19.99999999999998
 21
14.99999999999998
 31
0.0
  0
TEXT
  5
150
330
1E
100
AcDbEntity
  8
TEXT
100
AcDbText
 10
24.13320553522878
 20
6.827329230135958
 30
0.0
 40
2.0
  1
Index
 50
90.0
 41
0.8
  7
GREEKS
100
AcDbText
  0
LINE
  5
151
330
1E
100
AcDbEntity
  8
VOLL
100
AcDbLine
 10
27.00000000000005
 20
55.00000000000003
 30
0.0
 11
26.99999999999999
 21
4.999999999999985
 31
0.0
  0
LINE
  5
152
330
1E
100
AcDbEntity
  8
HILF
100
AcDbLine
 10
15.54383567856928
 20
148.5
 30
0.0
 11
0.0000000000000568
 21
148.5
 31
0.0
  0
LINE
  5
154
330
1E
100
AcDbEntity
  8
VOLL
100
AcDbLine
 10
62.00000000000006
 20
54.99999999999997
 30
0.0
 11
62.0
 21
4.999999999999985
 31
0.0
  0
LINE
  5
155
330
1E
100
AcDbEntity
  8
VOLL
100
AcDbLine
 10
52.00000000000006
 20
54.99999999999997
 30
0.0
 11
52.0
 21
4.999999999999985
 31
0.0
  0
LINE
  5
157
330
1E
100
AcDbEntity
  8
STEMPEL
100
AcDbLine
 10
73.00000000000006
 20
54.99999999999997
 30
0.0
 11
73.0
 21
4.999999999999985
 31
0.0
  0
TEXT
  5
159
330
1E
100
AcDbEntity
  8
TEXT
100
AcDbText
 10
86.16558365768254
 20
36.65940250614963
 30
0.0
 40
2.0
  1
Tag
 41
0.8
  7
GREEKS
100
AcDbText
  0
TEXT
  5
15A
330
1E
100
AcDbEntity
  8
TEXT
100
AcDbText
 10
73.79180635838077
 20
31.81495184808982
 30
0.0
 40
2.0
  1
Gez.
 41
0.8
  7
GREEKS
100
AcDbText
  0
LINE
  5
15B
330
1E
100
AcDbEntity
  8
VOLL
100
AcDbLine
 10
82.00000000000006
 20
39.99999999999997
 30
0.0
 11
82.00000000000006
 21
19.99999999999998
 31
0.0
  0
TEXT
  5
15C
330
1E
100
AcDbEntity
  8
TEXT
100
AcDbText
 10
73.80033886936519
 20
21.76473194824904
 30
0.0
 40
2.0
  1
Norm.
 41
0.8
  7
GREEKS
100
AcDbText
  0
TEXT
  5
15D
330
1E
100
AcDbEntity
  8
TEXT
100
AcDbText
 10
73.77575432858361
 20
26.84463145714189
 30
0.0
 40
2.0
  1
Gepr.
 41
0.8
  7
GREEKS
100
AcDbText
  0
TEXT
  5
15E
330
1E
100
AcDbEntity
  8
TEXT
 62
     1
100
AcDbText
 10
80.25031532409434
 20
44.07450714456979
 30
0.0
 40
3.5
  1
1:1
 41
0.8
  7
GREEKS
100
AcDbText
  0
TEXT
  5
15F
330
1E
100
AcDbEntity
  8
TEXT
100
AcDbText
 10
76.75817860751886
 20
51.23104475435443
 30
0.0
 40
2.5
  1
Maßstab
 41
0.8
  7
GREEKS
100
AcDbText
  0
TEXT
  5
160
330
1E
100
AcDbEntity
  8
TEXT
100
AcDbText
 10
74.31105491105199
 20
36.57012735575833
 30
0.0
 40
2.0
  1
2011
 41
0.8
  7
GREEKS
100
AcDbText
  0
LINE
  5
161
330
1E
100
AcDbEntity
  8
VOLL
100
AcDbLine
 10
95.00000000000005
 20
54.99999999999992
 30
0.0
 11
95.0
 21
19.99999999999998
 31
0.0
  0
LINE
  5
186
330
1E
100
AcDbEntity
  8
HILF
100
AcDbLine
 10
210.0
 20
-0.0000000000000568
 30
0.0
 11
210.0
 21
297.0
 31
0.0
  0
LINE
  5
187
330
1E
100
AcDbEntity
  8
STEMPEL
100
AcDbLine
 10
205.0
 20
5.0
 30
0.0
 11
205.0
 21
292.0
 31
0.0
  0
TEXT
  5
188
330
1E
100
AcDbEntity
  8
TEXT
100
AcDbText
 10
168.6200430748503
 20
26.03708088939301
 30
0.0
 40
2.5
  1
ersetzt durch:
 41
0.8
  7
GREEKS
100
AcDbText
  0
TEXT
  5
189
330
1E
100
AcDbEntity
  8
TEXT
100
AcDbText
 10
168.3619308148496
 20
36.59059118549985
 30
0.0
 40
2.5
  1
Ersatz für:
 41
0.8
  7
GREEKS
100
AcDbText
  0
TEXT
  5
18A
330
1E
100
AcDbEntity
  8
TEXT
100
AcDbText
 10
168.089377478817
 20
51.15660172685682
 30
0.0
 40
2.5
  1
Zeichnungs Nr.
 41
0.8
  7
GREEKS
100
AcDbText
  0
LINE
  5
18B
330
1E
100
AcDbEntity
  8
HILF
100
AcDbLine
 10
116.7454849644942
 20
7.446991290141568
 30
0.0
 11
202.4294419663364
 21
7.446991290141568
 31
0.0
  0
LINE
  5
18C
330
1E
100
AcDbEntity
  8
HILF
100
AcDbLine
 10
168.3619308148496
 20
41.88991818477913
 30
0.0
 11
202.4294419663364
 21
41.88991818477913
 31
0.0
  0
LINE
  5
18D
330
1E
100
AcDbEntity
  8
VOLL
100
AcDbLine
 10
166.0
 20
30.0
 30
0.0
 11
205.0
 21
30.0
 31
0.0
  0
TEXT
  5
18E
330
1E
100
AcDbEntity
  8
TEXT
 62
     1
100
AcDbText
 10
117.4641932160007
 20
43.70874394626889
 30
0.0
 40
3.5
  1
Red.-Abzweig DN70/40
 41
0.7
  7
GREEKS
100
AcDbText
  0
LINE
  5
18F
330
1E
100
AcDbEntity
  8
HILF
100
AcDbLine
 10
117.3868400548473
 20
24.99999999999999
 30
0.0
 11
162.4176958278155
 21
24.99999999999999
 31
0.0
  0
LINE
  5
190
330
1E
100
AcDbEntity
  8
HILF
100
AcDbLine
 10
117.3868400548473
 20
29.99999999999999
 30
0.0
 11
162.4176958278155
 21
29.99999999999999
 31
0.0
  0
LINE
  5
191
330
1E
100
AcDbEntity
  8
HILF
100
AcDbLine
 10
117.3868400548473
 20
34.99999999999997
 30
0.0
 11
162.4176958278155
 21
34.99999999999997
 31
0.0
  0
LINE
  5
192
330
1E
100
AcDbEntity
  8
HILF
100
AcDbLine
 10
117.3868400548473
 20
42.01879123782069
 30
0.0
 11
162.4176958278155
 21
42.01879123782069
 31
0.0
  0
LINE
  5
193
330
1E
100
AcDbEntity
  8
STEMPEL
100
AcDbLine
 10
115.0
 20
55.00000000000003
 30
0.0
 11
115.0
 21
4.999999999999985
 31
0.0
  0
TEXT
  5
194
330
1E
100
AcDbEntity
  8
TEXT
100
AcDbText
 10
117.5648195562657
 20
35.75167208792644
 30
0.0
 40
2.5
  1
dünnwandig 87° 
 41
0.8
  7
GREEKS
100
AcDbText
  0
TEXT
  5
195
330
1E
100
AcDbEntity
  8
TEXT
100
AcDbText
 10
117.4918750788913
 20
21.31487076511316
 30
0.0
 40
2.0
  1
5230CA0W.DWG
 41
0.8
  7
GREEKS
100
AcDbText
  0
TEXT
  5
196
330
1E
100
AcDbEntity
  8
TEXT
100
AcDbText
 10
117.371119195568
 20
15.42280285096528
 30
0.0
 40
2.5
  1
Bauvorhaben
 41
0.8
  7
GREEKS
100
AcDbText
  0
TEXT
  5
197
330
1E
100
AcDbEntity
  8
TEXT
100
AcDbText
 10
117.4389701904505
 20
51.27446640058898
 30
0.0
 40
2.5
  1
Benennung
 41
0.8
  7
GREEKS
100
AcDbText
  0
LINE
  5
198
330
1E
100
AcDbEntity
  8
STEMPEL
100
AcDbLine
 10
166.0
 20
54.99999999999989
 30
0.0
 11
166.0
 21
20.0
 31
0.0
  0
TEXT
  5
19A
330
1E
100
AcDbEntity
  8
TEXT
 62
     1
100
AcDbText
 10
173.7277932788894
 20
44.07450714456979
 30
0.0
 40
3.5
  1
5230CA0W
 41
0.8
  7
GREEKS
 72
     1
 11
184.5944599455561
 21
44.07450714456979
 31
0.0
100
AcDbText
  0
LINE
  5
1D4
330
1E
100
AcDbEntity
  8
STEMPEL
100
AcDbLine
 10
118.2223426789942
 20
73.62669101596134
 30
0.0
 11
46.09722931425335
 21
73.62669101596111
 31
0.0
  0
LINE
  5
1D7
330
1E
100
AcDbEntity
  8
STEMPEL
100
AcDbLine
 10
45.65978599662378
 20
78.62669101596111
 30
0.0
 11
46.09722931425335
 21
73.62669101596111
 31
0.0
  0
LINE
  5
1D8
330
1E
100
AcDbEntity
  8
STEMPEL
100
AcDbLine
 10
118.6597859966238
 20
78.62669101596179
 30
0.0
 11
118.2223426789942
 21
73.62669101596134
 31
0.0
  0
DIMENSION
  5
1DB
330
1E
100
AcDbEntity
  8
BEM
100
AcDbDimension
  2
*D1
 10
29.98690240273937
 20
268.6299839202912
 30
0.0
 11
26.73690240273932
 21
171.1283374681262
 31
0.0
 70
    32
 71
     5
 42
195.00329290433
  3
Standard
100
AcDbAlignedDimension
 13
46.09722931425335
 23
73.62669101596114
 33
0.0
 14
42.86914810804342
 24
268.6299839202912
 34
0.0
 50
90.0
100
AcDbRotatedDimension
1001
ACAD
1000
DSTYLE
1002
{
1070
    41
1040
3.5
1070
    42
1040
1.0
1070
    43
1040
7.0
1070
    44
1040
1.0
1070
    73
1070
     0
1070
    74
1070
     0
1070
    77
1070
     1
1070
    78
1070
     8
1070
    79
1070
     2
1070
   140
1040
3.5
1070
   141
1040
1.5
1070
   146
1040
0.5142857142857144
1070
   147
1040
1.5
1070
   172
1070
     1
1070
   178
1070
     1
1070
   179
1070
     2
1070
   271
1070
     2
1070
   272
1070
     2
1070
   284
1070
     8
1070
   285
1070
     8
1070
   286
1070
     8
1002
}
  0
TEXT
  5
212
330
1E
100
AcDbEntity
  8
TEXT
100
AcDbText
 10
117.5648195562657
 20
25.75167208792646
 30
0.0
 40
2.5
  1
EDV-Art.Nr. 5.230.CA0C
 41
0.8
  7
GREEKS
100
AcDbText
  0
TEXT
  5
255
330
1E
100
AcDbEntity
  8
TEXT
 62
     1
100
AcDbText
 10
148.5286824677853
 20
66.1124331841006
 30
0.0
 40
3.5
  1
Werkstoff: 1.4404
 41
0.8
  7
GREEKS
100
AcDbText
  0
TEXT
  5
25D
330
1E
100
AcDbEntity
  8
TEXT
 62
     1
100
AcDbText
 10
59.39526599772557
 20
249.3034793818604
 30
0.0
 40
3.5
  1
DN70
 41
0.8
  7
GREEKS
100
AcDbText
  0
LINE
  5
B5C
330
1E
100
AcDbEntity
  8
HILF
  6
Continuous
100
AcDbLine
 10
44.58139741739922
 20
216.2751782300592
 30
0.0
 11
119.7381745758484
 21
216.2751782300592
 31
0.0
  0
LINE
  5
B5D
330
1E
100
AcDbEntity
  8
HILF
  6
Continuous
100
AcDbLine
 10
44.02807437029411
 20
238.1319781839555
 30
0.0
 11
120.2914976229534
 21
238.1319781839555
 31
0.0
  0
LINE
  5
B61
330
1E
100
AcDbEntity
  8
HILF
  6
Continuous
100
AcDbLine
 10
46.4862304021384
 20
211.7534563063468
 30
0.0
 11
117.8333415911091
 21
211.7534563063467
 31
0.0
  0
ARC
  5
B7A
330
1E
100
AcDbEntity
  8
STEMPEL
100
AcDbCircle
 10
99.15979947238657
 20
258.1061745678418
 30
0.0
 40
24.65
100
AcDbArc
 50
359.9385097298969
 51
25.27284846783625
  0
LINE
  5
B7B
330
1E
100
AcDbEntity
  8
STEMPEL
100
AcDbLine
 10
123.8097859966237
 20
258.1312876225275
 30
0.0
 11
123.8097859966237
 21
249.068263968482
 31
0.0
  0
ARC
  5
B7C
330
1E
100
AcDbEntity
  8
STEMPEL
100
AcDbCircle
 10
99.15978599662379
 20
249.0022050025666
 30
0.0
 40
24.65009324312573
100
AcDbArc
 50
338.8168456069657
 51
0.1617474312555988
  0
ARC
  5
B7D
330
1E
100
AcDbEntity
  8
STEMPEL
100
AcDbCircle
 10
133.6597859966238
 20
235.6322050025666
 30
0.0
 40
12.35
100
AcDbArc
 50
158.8168456069657
 51
180.0
  0
LINE
  5
B7E
330
1E
100
AcDbEntity
  8
STEMPEL
100
AcDbLine
 10
121.3097859966237
 20
235.6322050025666
 30
0.0
 11
121.3097859966237
 21
218.8415148498643
 31
0.0
  0
ARC
  5
B85
330
1E
100
AcDbEntity
  8
STEMPEL
100
AcDbCircle
 10
109.6597859966236
 20
218.8415148498643
 30
0.0
 40
11.65
100
AcDbArc
 50
329.8986894531991
 51
0.0
  0
ARC
  5
B86
330
1E
100
AcDbEntity
  8
STEMPEL
100
AcDbCircle
 10
126.6597859966237
 20
208.9864400150394
 30
0.0
 40
7.999999999999973
100
AcDbArc
 50
149.8986894531976
 51
180.0
  0
LINE
  5
B99
330
1E
100
AcDbEntity
  8
STEMPEL
100
AcDbLine
 10
40.5097859966238
 20
258.1312876225275
 30
0.0
 11
40.5097859966238
 21
249.068263968482
 31
0.0
  0
LINE
  5
B9B
330
1E
100
AcDbEntity
  8
STEMPEL
100
AcDbLine
 10
43.0097859966238
 20
235.6322050025666
 30
0.0
 11
43.0097859966238
 21
218.8415148498643
 31
0.0
  0
ARC
  5
B9F
330
1E
100
AcDbEntity
  8
STEMPEL
100
AcDbCircle
 10
65.15978599662378
 20
249.0022050025666
 30
0.0
 40
24.65009324312573
100
AcDbArc
 50
179.8382525687444
 51
201.1831543930343
  0
ARC
  5
BA1
330
1E
100
AcDbEntity
  8
STEMPEL
100
AcDbCircle
 10
30.65978599662378
 20
235.6322050025666
 30
0.0
 40
12.35
100
AcDbArc
 50
0.0
 51
21.1831543930343
  0
ARC
  5
BA3
330
1E
100
AcDbEntity
  8
STEMPEL
100
AcDbCircle
 10
65.15977252086099
 20
258.1061745678418
 30
0.0
 40
24.65
100
AcDbArc
 50
154.7271515321637
 51
180.0614902701031
  0
LINE
  5
CE5
330
1E
100
AcDbEntity
  8
HILF
100
AcDbLine
 10
117.4097859966238
 20
78.62669101596139
 30
0.0
 11
46.90978599662378
 21
78.62669101596139
 31
0.0
  0
DIMENSION
  5
D41
330
1E
100
AcDbEntity
  8
BEM
100
AcDbDimension
  2
*D3
 10
118.6597859966238
 20
62.42041859786081
 30
0.0
 11
82.15978599662378
 21
65.67041859786082
 31
0.0
 70
    32
  1
%%c<>
 71
     5
 42
73.0
  3
Standard
100
AcDbAlignedDimension
 13
45.65978599662378
 23
78.62669101596134
 33
0.0
 14
118.6597859966238
 24
78.62669101596168
 34
0.0
100
AcDbRotatedDimension
1001
ACAD
1000
DSTYLE
1002
{
1070
    41
1040
3.5
1070
    42
1040
1.0
1070
    43
1040
7.0
1070
    44
1040
1.0
1070
    73
1070
     0
1070
    74
1070
     0
1070
    77
1070
     1
1070
    78
1070
     8
1070
    79
1070
     2
1070
   140
1040
3.5
1070
   141
1040
1.5
1070
   146
1040
0.5142857142857144
1070
   147
1040
1.5
1070
   172
1070
     1
1070
   178
1070
     1
1070
   179
1070
     2
1070
   271
1070
     2
1070
   272
1070
     2
1070
   284
1070
     8
1070
   285
1070
     8
1070
   286
1070
     8
1002
}
  0
LINE
  5
D69
330
1E
100
AcDbEntity
  8
STEMPEL
100
AcDbLine
 10
45.65978599662377
 20
208.9864400150394
 30
0.0
 11
45.65978599662378
 21
78.62669101596134
 31
0.0
  0
LINE
  5
E0F
102
{ACAD_REACTORS
330
1CC1
102
}
330
1E
100
AcDbEntity
  8
STEMPEL
100
AcDbLine
 10
118.6597859966239
 20
208.9864400150394
 30
0.0
 11
118.6597859966239
 21
191.5683942257484
 31
0.0
  0
DIMENSION
  5
E1B
330
1E
100
AcDbEntity
  8
BEM
100
AcDbDimension
  2
*D4
 10
38.5811468208051
 20
168.6266910159612
 30
0.0
 11
35.33114682080507
 21
121.1266910159611
 31
0.0
 70
    32
 71
     5
 42
95.00000000000007
  3
Standard
100
AcDbAlignedDimension
 13
46.09722931425335
 23
73.62669101596111
 33
0.0
 14
82.1597859966239
 24
168.6266910159611
 34
0.0
 50
90.0
100
AcDbRotatedDimension
1001
ACAD
1000
DSTYLE
1002
{
1070
    41
1040
3.5
1070
    42
1040
1.0
1070
    43
1040
7.0
1070
    44
1040
1.0
1070
    73
1070
     0
1070
    74
1070
     0
1070
    77
1070
     1
1070
    78
1070
     8
1070
    79
1070
     2
1070
   140
1040
3.5
1070
   141
1040
1.5
1070
   146
1040
0.5142857142857144
1070
   147
1040
1.5
1070
   172
1070
     1
1070
   178
1070
     1
1070
   179
1070
     2
1070
   271
1070
     2
1070
   272
1070
     2
1070
   284
1070
     8
1070
   285
1070
     8
1070
   286
1070
     8
1002
}
  0
LINE
  5
15F6
102
{ACAD_REACTORS
330
1CD0
102
}
330
1E
100
AcDbEntity
  8
STEMPEL
100
AcDbLine
 10
118.6597859966238
 20
149.5107556938358
 30
0.0
 11
118.6597859966238
 21
78.62669101596168
 31
0.0
  0
TEXT
  5
16F9
330
1E
100
AcDbEntity
  8
TEXT
 62
     1
100
AcDbText
 10
153.3563631508159
 20
178.7876632000783
 30
0.0
 40
3.5
  1
DN40
 50
3.0
 41
0.8
  7
GREEKS
100
AcDbText
  0
ARC
  5
186E
330
1E
100
AcDbEntity
  8
STEMPEL
100
AcDbCircle
 10
54.65978599662395
 20
218.8415148498642
 30
0.0
 40
11.65
100
AcDbArc
 50
180.0
 51
210.1013105468009
  0
ARC
  5
186F
330
1E
100
AcDbEntity
  8
STEMPEL
100
AcDbCircle
 10
37.65978599662388
 20
208.9864400150394
 30
0.0
 40
7.999999999999973
100
AcDbArc
 50
0.0000000000000643
 51
30.10131054680093
  0
LINE
  5
19F9
330
1E
100
AcDbEntity
  8
STEMPEL
100
AcDbLine
 10
170.2706117844118
 20
149.7090474994454
 30
0.0
 11
167.8104992561318
 21
196.650790918749
 31
0.0
  0
LINE
  5
19FA
330
1E
100
AcDbEntity
  8
HILF
  6
Continuous
100
AcDbLine
 10
148.7051681977384
 20
194.6897713110812
 30
0.0
 11
151.0649593625529
 21
149.6622735407638
 31
0.0
  0
LINE
  5
19FB
330
1E
100
AcDbEntity
  8
HILF
  6
Continuous
100
AcDbLine
 10
140.238045882634
 20
193.765063793818
 30
0.0
 11
142.5475625736687
 21
149.6968601295966
 31
0.0
  0
LINE
  5
19FC
330
1E
100
AcDbEntity
  8
HILF
  6
Continuous
100
AcDbLine
 10
136.3649074600667
 20
191.7717130110236
 30
0.0
 11
138.4872797145545
 21
151.2744379209012
 31
0.0
  0
LINE
  5
1A12
330
1E
100
AcDbEntity
  8
MITTEL
100
AcDbLine
 10
174.0337031940447
 20
173.4415989903119
 30
0.0
 11
100.5457362118041
 21
169.5902578367473
 31
0.0
  0
ARC
  5
1A32
330
1E
100
AcDbEntity
  8
STEMPEL
100
AcDbCircle
 10
134.0679886663247
 20
198.384137986398
 30
0.0
 40
6.0
100
AcDbArc
 50
273.0
 51
305.3107790801093
  0
ARC
  5
1A38
330
1E
100
AcDbEntity
  8
STEMPEL
100
AcDbCircle
 10
162.0453776736642
 20
181.725531351848
 30
0.0
 40
16.0
100
AcDbArc
 50
68.88014430974074
 51
93.0
  0
LINE
  5
1A3B
330
1E
100
AcDbEntity
  8
STEMPEL
100
AcDbLine
 10
146.8446739143409
 20
195.4487952412524
 30
0.0
 11
142.5299699764414
 21
195.2226711896033
 31
0.0
  0
LINE
  5
1A3D
102
{ACAD_REACTORS
330
1CC1
102
}
330
1E
100
AcDbEntity
  8
STEMPEL
100
AcDbLine
 10
134.3820044037824
 20
192.3923607778705
 30
0.0
 11
118.6597859966239
 21
191.5683942257484
 31
0.0
  0
ARC
  5
1A3F
330
1E
100
AcDbEntity
  8
STEMPEL
100
AcDbCircle
 10
143.0271615607494
 20
185.7356906094348
 30
0.0
 40
9.5
100
AcDbArc
 50
93.0
 51
125.3107790801091
  0
ARC
  5
1A41
330
1E
100
AcDbEntity
  8
STEMPEL
100
AcDbCircle
 10
157.14088397876
 20
177.9636945177976
 30
0.0
 40
19.49984481626527
100
AcDbArc
 50
93.0
 51
111.1939705983844
  0
ARC
  5
1A43
330
1E
100
AcDbEntity
  8
STEMPEL
100
AcDbCircle
 10
146.2951463737901
 20
205.9344053561753
 30
0.0
 40
10.5
100
AcDbArc
 50
273.0
 51
291.1939705983845
  0
LINE
  5
1A44
330
1E
100
AcDbEntity
  8
STEMPEL
100
AcDbLine
 10
161.2080023737771
 20
197.7036039079212
 30
0.0
 11
156.1203328320225
 21
197.4369704455119
 31
0.0
  0
ARC
  5
1A6E
330
1E
100
AcDbEntity
  8
STEMPEL
100
AcDbCircle
 10
162.9769576947887
 20
163.9499256332166
 30
0.0
 40
16.0
100
AcDbArc
 50
273.0
 51
297.1198556902603
  0
LINE
  5
1A71
330
1E
100
AcDbEntity
  8
STEMPEL
100
AcDbLine
 10
149.2939966665107
 20
148.7129330147384
 30
0.0
 11
144.9792927286111
 21
148.4868089630892
 31
0.0
  0
LINE
  5
1A7B
102
{ACAD_REACTORS
330
1CD0
102
}
330
1E
100
AcDbEntity
  8
STEMPEL
100
AcDbLine
 10
136.580114565986
 20
150.4499203181785
 30
0.0
 11
118.6597859966238
 21
149.5107556938358
 31
0.0
  0
ARC
  5
1A7C
330
1E
100
AcDbEntity
  8
STEMPEL
100
AcDbCircle
 10
144.4821011443032
 20
157.9737895432576
 30
0.0
 40
9.5
100
AcDbArc
 50
240.6892209198907
 51
273.0
  0
ARC
  5
1A7E
330
1E
100
AcDbEntity
  8
STEMPEL
100
AcDbCircle
 10
136.8941303034437
 20
144.4581431096509
 30
0.0
 40
6.0
100
AcDbArc
 50
60.68922091989071
 51
93.0
  0
ARC
  5
1A81
330
1E
100
AcDbEntity
  8
STEMPEL
100
AcDbCircle
 10
157.7061123061838
 20
167.1784955424482
 30
0.0
 40
19.49984481626527
100
AcDbArc
 50
254.8060294016155
 51
272.9999999999998
  0
ARC
  5
1A83
330
1E
100
AcDbEntity
  8
STEMPEL
100
AcDbCircle
 10
149.8435242070617
 20
138.2273228998152
 30
0.0
 40
10.5
100
AcDbArc
 50
74.80602940161552
 51
93.0
  0
LINE
  5
1A85
330
1E
100
AcDbEntity
  8
STEMPEL
100
AcDbLine
 10
163.8143329946757
 20
147.9718530771434
 30
0.0
 11
158.7266634529211
 21
147.7052196147341
 31
0.0
  0
DIMENSION
  5
1C2B
330
1E
100
AcDbEntity
  8
BEM
100
AcDbDimension
  2
*D6
 10
170.8216260001048
 20
139.1950699329252
 30
0.0
 11
127.2111493804912
 21
140.1640018243095
 31
0.0
 70
    32
 71
     5
 42
87.00000000000008
 51
87.00000000000002
  3
Standard
100
AcDbAlignedDimension
 13
82.15978599662383
 23
168.6266910159611
 33
0.0
 14
170.2706117844118
 24
149.7090474994454
 34
0.0
 50
2.999999999999078
100
AcDbRotatedDimension
1001
ACAD
1000
DSTYLE
1002
{
1070
    41
1040
3.5
1070
    42
1040
1.0
1070
    43
1040
7.0
1070
    44
1040
1.0
1070
    73
1070
     0
1070
    74
1070
     0
1070
    77
1070
     1
1070
    78
1070
     8
1070
    79
1070
     2
1070
   140
1040
3.5
1070
   141
1040
1.5
1070
   146
1040
0.5142857142857144
1070
   147
1040
1.5
1070
   172
1070
     1
1070
   178
1070
     1
1070
   179
1070
     2
1070
   271
1070
     2
1070
   272
1070
     2
1070
   284
1070
     8
1070
   285
1070
     8
1070
   286
1070
     8
1002
}
  0
DIMENSION
  5
1C57
330
1E
100
AcDbEntity
  8
BEM
100
AcDbDimension
  2
*D7
 10
82.1597859966239
 20
68.62669101596137
 30
0.0
 11
163.2058462652544
 21
254.0314185593671
 31
0.0
 70
    34
 71
     5
 42
1.518436449235067
 51
87.00000000000002
  3
Standard
100
AcDb2LineAngularDimension
 13
174.0337031940447
 23
173.4415989903119
 33
0.0
 14
82.1597859966239
 24
168.6266910159611
 34
0.0
 15
82.15978599662376
 25
273.6299839202912
 35
0.0
 16
179.2518177237185
 26
229.2965259568306
 36
0.0
1001
ACAD
1000
DSTYLE
1002
{
1070
    41
1040
3.5
1070
    42
1040
1.0
1070
    43
1040
7.0
1070
    44
1040
1.0
1070
    73
1070
     0
1070
    74
1070
     0
1070
    77
1070
     1
1070
    78
1070
     8
1070
    79
1070
     2
1070
   140
1040
3.5
1070
   141
1040
1.5
1070
   146
1040
0.5142857142857144
1070
   147
1040
1.5
1070
   172
1070
     1
1070
   178
1070
     1
1070
   179
1070
     2
1070
   271
1070
     2
1070
   272
1070
     2
1070
   284
1070
     8
1070
   285
1070
     8
1070
   286
1070
     8
1002
}
  0
DIMENSION
  5
1C72
330
1E
100
AcDbEntity
  8
BEM
100
AcDbDimension
  2
*D8
 10
93.90315029972398
 20
148.213315394442
 30
0.0
 11
96.04964120657456
 21
169.3546274820776
 31
0.0
 70
    32
  1
%%c<>
 71
     5
 42
42.0
 51
87.00000000000002
  3
Standard
100
AcDbAlignedDimension
 13
118.6597859966239
 23
191.5683942257484
 33
0.0
 14
118.6597859966237
 24
149.5107556938358
 34
0.0
 50
272.9999999999999
100
AcDbRotatedDimension
1001
ACAD
1000
DSTYLE
1002
{
1070
    41
1040
3.5
1070
    42
1040
1.0
1070
    43
1040
7.0
1070
    44
1040
1.0
1070
    73
1070
     0
1070
    74
1070
     0
1070
    77
1070
     1
1070
    78
1070
     8
1070
    79
1070
     2
1070
   140
1040
3.5
1070
   141
1040
1.5
1070
   146
1040
0.5142857142857144
1070
   147
1040
1.5
1070
   172
1070
     1
1070
   178
1070
     1
1070
   179
1070
     2
1070
   271
1070
     2
1070
   272
1070
     2
1070
   284
1070
     8
1070
   285
1070
     8
1070
   286
1070
     8
1002
}
  0
ELLIPSE
  5
1C9F
330
1E
100
AcDbEntity
  8
STEMPEL
100
AcDbEllipse
 10
118.6597859966238
 20
170.1912629262004
 30
0.0
 11
0.0
 21
-20.68050723236467
 31
0.0
210
0.0
220
0.0
230
1.0
 40
0.3213745895237225
 41
4.712388980384689
 42
6.283185307179586
  0
ELLIPSE
  5
1CA0
330
1E
100
AcDbEntity
  8
STEMPEL
100
AcDbEllipse
 10
118.6597859966238
 20
170.1912629262004
 30
0.0
 11
-0.0000000000000914
 21
21.37713129954798
 31
0.0
210
0.0
220
0.0
230
1.0
 40
0.3109018431806198
 41
0.0
 42
1.570796326794896
  0
LINE
  5
1CA1
330
1E
100
AcDbEntity
  8
MITTEL
100
AcDbLine
 10
90.38791562225055
 20
169.0579090172932
 30
0.0
 11
82.1597859966239
 21
168.6266910159611
 31
0.0
  0
ARC
  5
1CA8
330
1E
100
AcDbEntity
  8
SCHRAFF
100
AcDbCircle
 10
112.0591866788487
 20
172.6908471982731
 30
0.0
 40
5.0
100
AcDbArc
 50
246.2594302998507
 51
293.4466865706582
  0
ARC
  5
1CA9
330
1E
100
AcDbEntity
  8
SCHRAFF
100
AcDbCircle
 10
112.062353858102
 20
167.6908482013756
 30
0.0
 40
5.0
100
AcDbArc
 50
250.8057343942907
 51
298.0038777540804
  0
ARC
  5
1CAA
330
1E
100
AcDbEntity
  8
SCHRAFF
100
AcDbCircle
 10
112.4640923668524
 20
162.7070137167055
 30
0.0
 40
5.0
100
AcDbArc
 50
256.2209902271753
 51
303.4553685539636
  0
ARC
  5
1CAB
330
1E
100
AcDbEntity
  8
SCHRAFF
100
AcDbCircle
 10
113.3424000820128
 20
157.7847606190387
 30
0.0
 40
5.0
100
AcDbArc
 50
264.4081684466542
 51
311.8363062062848
  0
ARC
  5
1CAC
330
1E
100
AcDbEntity
  8
SCHRAFF
100
AcDbCircle
 10
112.4343756784679
 20
177.6767506484579
 30
0.0
 40
5.0
100
AcDbArc
 50
241.922337936077
 51
289.1134722299424
  0
ARC
  5
1CAD
330
1E
100
AcDbEntity
  8
SCHRAFF
100
AcDbCircle
 10
113.2500713775033
 20
182.6097660068948
 30
0.0
 40
5.0
100
AcDbArc
 50
236.7765178355275
 51
283.9854419781755
  0
ARC
  5
1CAE
330
1E
100
AcDbEntity
  8
SCHRAFF
100
AcDbCircle
 10
114.9426167085802
 20
153.04774607947
 30
0.0
 40
5.0
100
AcDbArc
 50
285.4703513271822
 51
337.0639613875633
  0
ARC
  5
1CAF
330
1E
100
AcDbEntity
  8
SCHRAFF
100
AcDbCircle
 10
114.7130187386182
 20
187.3909567601113
 30
0.0
 40
5.0
100
AcDbArc
 50
228.9574936458512
 51
276.2535495549264
  0
ARC
  5
1CB0
330
1E
100
AcDbEntity
  8
SCHRAFF
100
AcDbCircle
 10
117.7465198530246
 20
191.3656103284831
 30
0.0
 40
5.0
100
AcDbArc
 50
206.9778410639563
 51
255.7581781554858
  0
ARC
  5
1CB1
330
1E
100
AcDbEntity
  8
SCHRAFF
100
AcDbCircle
 10
122.7291798760558
 20
191.7816621219975
 30
0.0
 40
5.0
100
AcDbArc
 50
159.6458371527506
 51
208.4790846792544
  0
ARC
  5
1CB3
102
{ACAD_REACTORS
330
1CC1
102
}
330
1E
100
AcDbEntity
  8
SCHRAFF
100
AcDbCircle
 10
118.6597859966239
 20
191.5683942257484
 30
0.0
 40
2.0
100
AcDbArc
 50
2.999999999999903
 51
90.0
  0
HATCH
  5
1CC1
330
1E
100
AcDbEntity
  8
SCHRAFF
100
AcDbHatch
 10
0.0
 20
0.0
 30
0.0
210
0.0
220
0.0
230
1.0
  2
_USER
 70
     0
 71
     1
 91
        1
 92
        7
 72
     1
 73
     1
 93
        3
 10
118.6597859966239
 20
193.5683942257484
 42
0.0
 10
118.6597859966239
 20
191.5683942257484
 42
0.0
 10
120.657045066133
 20
191.6730661382343
 42
0.3989595459737199
 97
        3
330
E0F
330
1A3D
330
1CB3
 75
     0
 76
     0
 52
0.0
 41
0.1
 77
     0
 78
     1
 53
0.0
 43
0.0
 44
0.0
 45
0.0
 46
0.1
 79
     0
 47
0.1009799891963523
 98
        1
 10
119.810044667196
 20
192.166233493307
  0
ARC
  5
1CC2
102
{ACAD_REACTORS
330
1CD0
102
}
330
1E
100
AcDbEntity
  8
SCHRAFF
100
AcDbCircle
 10
118.6597859966238
 20
149.5107556938358
 30
0.0
 40
2.0
100
AcDbArc
 50
270.0
 51
2.999999999999903
  0
HATCH
  5
1CD0
330
1E
100
AcDbEntity
  8
SCHRAFF
100
AcDbHatch
 10
0.0
 20
0.0
 30
0.0
210
0.0
220
0.0
230
1.0
  2
_USER
 70
     0
 71
     1
 91
        1
 92
        7
 72
     1
 73
     1
 93
        3
 10
120.6570450661329
 20
149.6154276063216
 42
0.0
 10
118.6597859966238
 20
149.5107556938357
 42
0.0
 10
118.6597859966238
 20
147.5107556938358
 42
0.4296339059668377
 97
        3
330
1A7B
330
15F6
330
1CC2
 75
     0
 76
     0
 52
0.0
 41
0.1
 77
     0
 78
     1
 53
0.0
 43
0.0
 44
0.0
 45
0.0
 46
0.1
 79
     0
 47
0.0516921370767624
 98
        1
 10
119.5369631054238
 20
149.157773699908
  0
TEXT
  5
1CE8
330
1E
100
AcDbEntity
  8
TEXT
100
AcDbText
 10
20.92754975488837
 20
55.83599999999997
 30
0.0
 40
2.5
  1
Erstellt mit AUTOCAD 2004
 41
0.8
  7
GREEKS
100
AcDbText
  0
TEXT
  5
1CE9
330
1E
100
AcDbEntity
  8
TEXT
100
AcDbText
 10
33.49933939241158
 20
9.336909474920659
 30
0.0
 40
2.0
  1
Änderung
 41
0.8
  7
GREEKS
 72
     1
 11
38.87076796384015
 21
9.336909474920659
 31
0.0
100
AcDbText
  0
TEXT
  5
1CEA
330
1E
100
AcDbEntity
  8
TEXT
100
AcDbText
 10
55.17481598333814
 20
9.33578134669905
 30
0.0
 40
2.0
  1
Tag
 41
0.8
  7
GREEKS
 72
     1
 11
57.04148265000481
 21
9.33578134669905
 31
0.0
100
AcDbText
  0
TEXT
  5
1CEB
330
1E
100
AcDbEntity
  8
TEXT
100
AcDbText
 10
64.61958341495059
 20
9.29662108483204
 30
0.0
 40
2.0
  1
Name
 41
0.8
  7
GREEKS
 72
     1
 11
67.78148817685536
 21
9.29662108483204
 31
0.0
100
AcDbText
  0
TEXT
  5
1CEC
330
1E
100
AcDbEntity
  8
TEXT
100
AcDbText
 10
96.34413576239619
 20
44.50323185339641
 30
0.0
 40
2.0
  1
DIN EN1124-3
 41
0.8
  7
GREEKS
 72
     1
 11
104.8393738576343
 21
44.50323185339641
 31
0.0
100
AcDbText
  0
TEXT
  5
1CED
330
1E
100
AcDbEntity
  8
BEM
100
AcDbText
 10
208.2905770718718
 20
6.074024076691515
 30
0.0
 40
2.0
  1
Diese Zeichnung ist urheberrechtlich geschützt und bleibt unser Eigentum. Sie darf weder ganz noch teilweise vervielfältigt und nicht an Dritte weitergegeben werden.
 50
90.0
 41
0.8
  7
GREEKS
100
AcDbText
  0
TEXT
  5
1D49
330
1E
100
AcDbEntity
  8
TEXT
100
AcDbText
 10
85.19949855411802
 20
31.55382520412866
 30
0.0
 40
2.0
  1
08.04.
 41
0.8
  7
GREEKS
 72
     1
 11
88.70426045887993
 21
31.55382520412866
 31
0.0
100
AcDbText
  0
ENDSEC
  0
SECTION
  2
OBJECTS
  0
DICTIONARY
  5
C
330
0
100
AcDbDictionary
281
     1
  3
ACAD_COLOR
350
1CDC
  3
ACAD_GROUP
350
D
  3
ACAD_LAYOUT
350
19
  3
ACAD_MATERIAL
350
1CDB
  3
ACAD_MLINESTYLE
350
16
  3
ACAD_PLOTSETTINGS
350
18
  3
ACAD_PLOTSTYLENAME
350
E
  3
AcDbVariableDictionary
350
246
  0
DICTIONARY
  5
1CDC
102
{ACAD_REACTORS
330
C
102
}
330
C
100
AcDbDictionary
281
     1
  0
DICTIONARY
  5
D
102
{ACAD_REACTORS
330
C
102
}
330
C
100
AcDbDictionary
281
     1
  0
DICTIONARY
  5
19
102
{ACAD_REACTORS
330
C
102
}
330
C
100
AcDbDictionary
281
     1
  3
Layout1
350
1D
  3
Model
350
21
  0
DICTIONARY
  5
1CDB
102
{ACAD_REACTORS
330
C
102
}
330
C
100
AcDbDictionary
281
     1
  0
DICTIONARY
  5
16
102
{ACAD_REACTORS
330
C
102
}
330
C
100
AcDbDictionary
281
     1
  3
Standard
350
17
  0
DICTIONARY
  5
18
102
{ACAD_REACTORS
330
C
102
}
330
C
100
AcDbDictionary
281
     1
  0
ACDBDICTIONARYWDFLT
  5
E
102
{ACAD_REACTORS
330
C
102
}
330
C
100
AcDbDictionary
281
     1
  3
Normal
350
F
100
AcDbDictionaryWithDefault
340
F
  0
DICTIONARY
  5
246
102
{ACAD_REACTORS
330
C
102
}
330
C
100
AcDbDictionary
281
     1
  3
DIMASSOC
350
1D08
  3
PROJECTNAME
350
1D09
  3
SORTENTS
350
247
  0
LAYOUT
  5
1D
102
{ACAD_REACTORS
330
19
102
}
330
19
100
AcDbPlotSettings
  1

  2
Tektronix Phaser 740
  4

  6

 40
0.0
 41
0.0
 42
0.0
 43
0.0
 44
0.0
 45
0.0
 46
0.0
 47
0.0
 48
0.0
 49
0.0
140
0.0
141
0.0
142
1.0
143
1.0
 70
   688
 72
     0
 73
     0
 74
     5
  7
monochrome.ctb
 75
    16
147
1.0
 76
     0
 77
     2
 78
   300
148
0.0
149
0.0
100
AcDbLayout
  1
Layout1
 70
     0
 71
     1
 10
0.0
 20
0.0
 11
12.0
 21
9.0
 12
0.0
 22
0.0
 32
0.0
 14
1.000000000000000E+20
 24
1.000000000000000E+20
 34
1.000000000000000E+20
 15
-1.000000000000000E+20
 25
-1.000000000000000E+20
 35
-1.000000000000000E+20
146
0.0
 13
0.0
 23
0.0
 33
0.0
 16
1.0
 26
0.0
 36
0.0
 17
0.0
 27
1.0
 37
0.0
 76
     0
330
1A
  0
LAYOUT
  5
21
102
{ACAD_REACTORS
330
19
102
}
330
19
100
AcDbPlotSettings
  1

  2
Tektronix Phaser 740
  4
A4
  6

 40
5.873749732971191
 41
6.085414409637451
 42
5.577407836914062
 43
5.662078857421875
 44
209.9733276367187
 45
296.9683227539062
 46
0.0
 47
0.0
 48
0.0
 49
0.0
140
0.0
141
0.0
142
1.0
143
1.0
 70
 11952
 72
     0
 73
     1
 74
     0
  7
monochrome.ctb
 75
     0
147
1.0
 76
     0
 77
     2
 78
   300
148
1150.120678237584
149
45.30495740799864
100
AcDbLayout
  1
Model
 70
     1
 71
     0
 10
0.0
 20
0.0
 11
12.0
 21
9.0
 12
0.0
 22
0.0
 32
0.0
 14
0.0
 24
0.0
 34
0.0
 15
0.0
 25
0.0
 35
0.0
146
0.0
 13
0.0
 23
0.0
 33
0.0
 16
1.0
 26
0.0
 36
0.0
 17
0.0
 27
1.0
 37
0.0
 76
     0
330
1E
  0
MLINESTYLE
  5
17
102
{ACAD_REACTORS
330
16
102
}
330
16
100
AcDbMlineStyle
  2
STANDARD
 70
     0
  3

 62
   256
 51
90.0
 52
90.0
 71
     2
 49
0.5
 62
   256
  6
BYLAYER
 49
-0.5
 62
   256
  6
BYLAYER
  0
ACDBPLACEHOLDER
  5
F
102
{ACAD_REACTORS
330
E
102
}
330
E
  0
DICTIONARYVAR
  5
1D08
102
{ACAD_REACTORS
330
246
102
}
330
246
100
DictionaryVariables
280
     0
  1
1
  0
DICTIONARYVAR
  5
1D09
102
{ACAD_REACTORS
330
246
102
}
330
246
100
DictionaryVariables
280
     0
  1

  0
DICTIONARYVAR
  5
247
102
{ACAD_REACTORS
330
246
102
}
330
246
100
DictionaryVariables
280
     0
  1
96
  0
ENDSEC
  0
EOF
