  0
SECTION
  2
HEADER
  9
$ACADVER
  1
AC1018
  9
$ACADMAINTVER
 70
     2
  9
$DWGCODEPAGE
  3
ANSI_1252
  9
$INSBASE
 10
0.0
 20
0.0
 30
0.0
  9
$EXTMIN
 10
-0.0320385670876249
 20
-0.0453116877386037
 30
-0.0000000000000024
  9
$EXTMAX
 10
420.0000019560163
 20
594.0000027663659
 30
0.0000000000000129
  9
$LIMMIN
 10
0.0
 20
0.0
  9
$LIMMAX
 10
419.9999999999999
 20
594.0
  9
$ORTHOMODE
 70
     0
  9
$REGENMODE
 70
     1
  9
$FILLMODE
 70
     1
  9
$QTEXTMODE
 70
     0
  9
$MIRRTEXT
 70
     1
  9
$LTSCALE
 40
20.0
  9
$ATTMODE
 70
     1
  9
$TEXTSIZE
 40
3.5
  9
$TRACEWID
 40
0.5
  9
$TEXTSTYLE
  7
STANDARD
  9
$CLAYER
  8
SCHRAFF
  9
$CELTYPE
  6
ByLayer
  9
$CECOLOR
 62
   256
  9
$CELTSCALE
 40
1.0
  9
$DISPSILH
 70
     0
  9
$DIMSCALE
 40
2.0
  9
$DIMASZ
 40
3.5
  9
$DIMEXO
 40
1.0
  9
$DIMDLI
 40
7.0
  9
$DIMRND
 40
0.0
  9
$DIMDLE
 40
0.0
  9
$DIMEXE
 40
1.0
  9
$DIMTP
 40
0.0
  9
$DIMTM
 40
0.0
  9
$DIMTXT
 40
3.5
  9
$DIMCEN
 40
1.5
  9
$DIMTSZ
 40
0.0
  9
$DIMTOL
 70
     0
  9
$DIMLIM
 70
     0
  9
$DIMTIH
 70
     0
  9
$DIMTOH
 70
     0
  9
$DIMSE1
 70
     0
  9
$DIMSE2
 70
     0
  9
$DIMTAD
 70
     1
  9
$DIMZIN
 70
     8
  9
$DIMBLK
  1

  9
$DIMASO
 70
     1
  9
$DIMSHO
 70
     0
  9
$DIMPOST
  1

  9
$DIMAPOST
  1

  9
$DIMALT
 70
     0
  9
$DIMALTD
 70
     2
  9
$DIMALTF
 40
25.4
  9
$DIMLFAC
 40
1.0
  9
$DIMTOFL
 70
     1
  9
$DIMTVP
 40
0.0
  9
$DIMTIX
 70
     0
  9
$DIMSOXD
 70
     0
  9
$DIMSAH
 70
     0
  9
$DIMBLK1
  1

  9
$DIMBLK2
  1

  9
$DIMSTYLE
  2
Standard
  9
$DIMCLRD
 70
     0
  9
$DIMCLRE
 70
     0
  9
$DIMCLRT
 70
     1
  9
$DIMTFAC
 40
0.5
  9
$DIMGAP
 40
1.5
  9
$DIMJUST
 70
     0
  9
$DIMSD1
 70
     0
  9
$DIMSD2
 70
     0
  9
$DIMTOLJ
 70
     1
  9
$DIMTZIN
 70
     8
  9
$DIMALTZ
 70
     8
  9
$DIMALTTZ
 70
     8
  9
$DIMUPT
 70
     0
  9
$DIMDEC
 70
     2
  9
$DIMTDEC
 70
     2
  9
$DIMALTU
 70
     2
  9
$DIMALTTD
 70
     2
  9
$DIMTXSTY
  7
STANDARD
  9
$DIMAUNIT
 70
     0
  9
$DIMADEC
 70
     2
  9
$DIMALTRND
 40
0.0
  9
$DIMAZIN
 70
     2
  9
$DIMDSEP
 70
    46
  9
$DIMATFIT
 70
     3
  9
$DIMFRAC
 70
     0
  9
$DIMLDRBLK
  1

  9
$DIMLUNIT
 70
     2
  9
$DIMLWD
 70
    -2
  9
$DIMLWE
 70
    -2
  9
$DIMTMOVE
 70
     0
  9
$LUNITS
 70
     2
  9
$LUPREC
 70
     2
  9
$SKETCHINC
 40
1.0
  9
$FILLETRAD
 40
0.0
  9
$AUNITS
 70
     1
  9
$AUPREC
 70
     3
  9
$MENU
  1
ACAD
  9
$ELEVATION
 40
0.0
  9
$PELEVATION
 40
0.0
  9
$THICKNESS
 40
0.0
  9
$LIMCHECK
 70
     0
  9
$CHAMFERA
 40
0.0
  9
$CHAMFERB
 40
0.0
  9
$CHAMFERC
 40
0.0
  9
$CHAMFERD
 40
0.0
  9
$SKPOLY
 70
     0
  9
$TDCREATE
 40
2452040.637099653
  9
$TDUCREATE
 40
2452040.553766320
  9
$TDUPDATE
 40
2455660.330252882
  9
$TDUUPDATE
 40
2455660.246919549
  9
$TDINDWG
 40
0.4549055440
  9
$TDUSRTIMER
 40
0.4549055440
  9
$USRTIMER
 70
     1
  9
$ANGBASE
 50
0.0
  9
$ANGDIR
 70
     0
  9
$PDMODE
 70
     0
  9
$PDSIZE
 40
0.0
  9
$PLINEWID
 40
0.0
  9
$SPLFRAME
 70
     0
  9
$SPLINETYPE
 70
     6
  9
$SPLINESEGS
 70
     8
  9
$HANDSEED
  5
1CC1
  9
$SURFTAB1
 70
     6
  9
$SURFTAB2
 70
     6
  9
$SURFTYPE
 70
     6
  9
$SURFU
 70
     6
  9
$SURFV
 70
     6
  9
$UCSBASE
  2

  9
$UCSNAME
  2

  9
$UCSORG
 10
0.0
 20
0.0
 30
0.0
  9
$UCSXDIR
 10
1.0
 20
0.0
 30
0.0
  9
$UCSYDIR
 10
0.0
 20
1.0
 30
0.0
  9
$UCSORTHOREF
  2

  9
$UCSORTHOVIEW
 70
     0
  9
$UCSORGTOP
 10
0.0
 20
0.0
 30
0.0
  9
$UCSORGBOTTOM
 10
0.0
 20
0.0
 30
0.0
  9
$UCSORGLEFT
 10
0.0
 20
0.0
 30
0.0
  9
$UCSORGRIGHT
 10
0.0
 20
0.0
 30
0.0
  9
$UCSORGFRONT
 10
0.0
 20
0.0
 30
0.0
  9
$UCSORGBACK
 10
0.0
 20
0.0
 30
0.0
  9
$PUCSBASE
  2

  9
$PUCSNAME
  2

  9
$PUCSORG
 10
0.0
 20
0.0
 30
0.0
  9
$PUCSXDIR
 10
1.0
 20
0.0
 30
0.0
  9
$PUCSYDIR
 10
0.0
 20
1.0
 30
0.0
  9
$PUCSORTHOREF
  2

  9
$PUCSORTHOVIEW
 70
     0
  9
$PUCSORGTOP
 10
0.0
 20
0.0
 30
0.0
  9
$PUCSORGBOTTOM
 10
0.0
 20
0.0
 30
0.0
  9
$PUCSORGLEFT
 10
0.0
 20
0.0
 30
0.0
  9
$PUCSORGRIGHT
 10
0.0
 20
0.0
 30
0.0
  9
$PUCSORGFRONT
 10
0.0
 20
0.0
 30
0.0
  9
$PUCSORGBACK
 10
0.0
 20
0.0
 30
0.0
  9
$USERI1
 70
     0
  9
$USERI2
 70
     0
  9
$USERI3
 70
     0
  9
$USERI4
 70
     0
  9
$USERI5
 70
     0
  9
$USERR1
 40
0.0
  9
$USERR2
 40
0.0
  9
$USERR3
 40
0.0
  9
$USERR4
 40
0.0
  9
$USERR5
 40
0.0
  9
$WORLDVIEW
 70
     1
  9
$SHADEDGE
 70
     3
  9
$SHADEDIF
 70
    70
  9
$TILEMODE
 70
     1
  9
$MAXACTVP
 70
    16
  9
$PINSBASE
 10
0.0
 20
0.0
 30
0.0
  9
$PLIMCHECK
 70
     0
  9
$PEXTMIN
 10
1.000000000000000E+20
 20
1.000000000000000E+20
 30
1.000000000000000E+20
  9
$PEXTMAX
 10
-1.000000000000000E+20
 20
-1.000000000000000E+20
 30
-1.000000000000000E+20
  9
$PLIMMIN
 10
0.0
 20
0.0
  9
$PLIMMAX
 10
12.0
 20
9.0
  9
$UNITMODE
 70
     0
  9
$VISRETAIN
 70
     0
  9
$PLINEGEN
 70
     0
  9
$PSLTSCALE
 70
     0
  9
$TREEDEPTH
 70
  3020
  9
$CMLSTYLE
  2
Standard
  9
$CMLJUST
 70
     0
  9
$CMLSCALE
 40
1.0
  9
$PROXYGRAPHICS
 70
     1
  9
$MEASUREMENT
 70
     0
  9
$CELWEIGHT
370
    -1
  9
$ENDCAPS
280
     0
  9
$JOINSTYLE
280
     0
  9
$LWDISPLAY
290
     0
  9
$INSUNITS
 70
     0
  9
$HYPERLINKBASE
  1

  9
$STYLESHEET
  1
monochrome 1.ctb
  9
$XEDIT
290
     1
  9
$CEPSNTYPE
380
     0
  9
$PSTYLEMODE
290
     1
  9
$FINGERPRINTGUID
  2
{7AADB5C8-6110-11D8-B72B-000102183313}
  9
$VERSIONGUID
  2
{0E24A9D3-19FE-47D5-9CED-0C37D2F70966}
  9
$EXTNAMES
290
     1
  9
$PSVPSCALE
 40
0.0
  9
$OLESTARTUP
290
     0
  9
$SORTENTS
280
    96
  9
$INDEXCTL
280
     0
  9
$HIDETEXT
280
     0
  9
$XCLIPFRAME
290
     0
  9
$HALOGAP
280
     0
  9
$OBSCOLOR
 70
   257
  9
$OBSLTYPE
280
     0
  9
$INTERSECTIONDISPLAY
280
     0
  9
$INTERSECTIONCOLOR
 70
   257
  9
$DIMASSOC
280
     1
  9
$PROJECTNAME
  1

  0
ENDSEC
  0
SECTION
  2
CLASSES
  0
CLASS
  1
ACDBDICTIONARYWDFLT
  2
AcDbDictionaryWithDefault
  3
ObjectDBX Classes
 90
        0
 91
        1
280
     0
281
     0
  0
CLASS
  1
DICTIONARYVAR
  2
AcDbDictionaryVar
  3
ObjectDBX Classes
 90
        0
 91
        3
280
     0
281
     0
  0
ENDSEC
  0
SECTION
  2
TABLES
  0
TABLE
  2
VPORT
  5
8
330
0
100
AcDbSymbolTable
 70
     3
  0
VPORT
  5
1CC0
330
8
100
AcDbSymbolTableRecord
100
AcDbViewportTableRecord
  2
*Active
 70
     0
 10
0.0
 20
0.0
 11
1.0
 21
1.0
 12
210.0
 22
297.0
 13
0.0
 23
0.0
 14
1.0
 24
1.0
 15
10.0
 25
10.0
 16
0.0
 26
0.0
 36
1.0
 17
0.0
 27
0.0
 37
0.0
 40
594.0
 41
1.334231805929919
 42
50.0
 43
0.0
 44
0.0
 50
0.0
 51
0.0
 71
     0
 72
  1500
 73
     1
 74
     0
 75
     0
 76
     0
 77
     0
 78
     0
281
     0
 65
     1
110
0.0
120
0.0
130
0.0
111
1.0
121
0.0
131
0.0
112
0.0
122
1.0
132
0.0
 79
     0
146
0.0
  0
ENDTAB
  0
TABLE
  2
LTYPE
  5
5
330
0
100
AcDbSymbolTable
 70
     2
  0
LTYPE
  5
13
330
5
100
AcDbSymbolTableRecord
100
AcDbLinetypeTableRecord
  2
ByBlock
 70
     0
  3

 72
    65
 73
     0
 40
0.0
  0
LTYPE
  5
14
330
5
100
AcDbSymbolTableRecord
100
AcDbLinetypeTableRecord
  2
ByLayer
 70
     0
  3

 72
    65
 73
     0
 40
0.0
  0
LTYPE
  5
15
330
5
100
AcDbSymbolTableRecord
100
AcDbLinetypeTableRecord
  2
Continuous
 70
     0
  3
Solid line
 72
    65
 73
     0
 40
0.0
  0
LTYPE
  5
35
330
5
100
AcDbSymbolTableRecord
100
AcDbLinetypeTableRecord
  2
STRICHPUNKT
 70
     0
  3
__ . __ . __ . __ . __ . __ . __ . __ . __ . __
 72
    65
 73
     4
 40
1.0
 49
0.5
 74
     0
 49
-0.25
 74
     0
 49
0.0
 74
     0
 49
-0.25
 74
     0
  0
ENDTAB
  0
TABLE
  2
LAYER
  5
2
330
0
100
AcDbSymbolTable
 70
     9
  0
LAYER
  5
10
330
2
100
AcDbSymbolTableRecord
100
AcDbLayerTableRecord
  2
0
 70
     0
 62
     7
  6
Continuous
370
    -3
390
F
  0
LAYER
  5
38
330
2
100
AcDbSymbolTableRecord
100
AcDbLayerTableRecord
  2
VOLL
 70
     0
 62
     1
  6
Continuous
370
    -3
390
F
  0
LAYER
  5
39
330
2
100
AcDbSymbolTableRecord
100
AcDbLayerTableRecord
  2
HILF
 70
     0
 62
     2
  6
Continuous
370
    -3
390
F
  0
LAYER
  5
3A
330
2
100
AcDbSymbolTableRecord
100
AcDbLayerTableRecord
  2
MITTEL
 70
     0
 62
     2
  6
STRICHPUNKT
370
    -3
390
F
  0
LAYER
  5
3B
330
2
100
AcDbSymbolTableRecord
100
AcDbLayerTableRecord
  2
BEM
 70
     0
 62
     7
  6
Continuous
370
    -3
390
F
  0
LAYER
  5
3C
330
2
100
AcDbSymbolTableRecord
100
AcDbLayerTableRecord
  2
STEMPEL
 70
     0
 62
     3
  6
Continuous
370
    -3
390
F
  0
LAYER
  5
3D
330
2
100
AcDbSymbolTableRecord
100
AcDbLayerTableRecord
  2
TEXT
 70
     0
 62
     7
  6
Continuous
370
    -3
390
F
  0
LAYER
  5
3E
330
2
100
AcDbSymbolTableRecord
100
AcDbLayerTableRecord
  2
DEFPOINTS
 70
     0
 62
     7
  6
Continuous
290
     0
370
    -3
390
F
  0
LAYER
  5
3F
330
2
100
AcDbSymbolTableRecord
100
AcDbLayerTableRecord
  2
SCHRAFF
 70
     0
 62
     7
  6
Continuous
370
    -3
390
F
  0
ENDTAB
  0
TABLE
  2
STYLE
  5
3
330
0
100
AcDbSymbolTable
 70
     2
  0
STYLE
  5
11
330
3
100
AcDbSymbolTableRecord
100
AcDbTextStyleTableRecord
  2
STANDARD
 70
     0
 40
0.0
 41
0.8
 50
0.0
 71
     0
 42
3.5
  3
simplex.shx
  4

  0
STYLE
  5
34
330
3
100
AcDbSymbolTableRecord
100
AcDbTextStyleTableRecord
  2
GREEKS
 70
     0
 40
0.0
 41
0.8
 50
0.0
 71
     0
 42
2.5
  3
SIMPLEX.shx
  4

  0
ENDTAB
  0
TABLE
  2
VIEW
  5
6
330
0
100
AcDbSymbolTable
 70
     0
  0
ENDTAB
  0
TABLE
  2
UCS
  5
7
330
0
100
AcDbSymbolTable
 70
     0
  0
ENDTAB
  0
TABLE
  2
APPID
  5
9
330
0
100
AcDbSymbolTable
 70
     1
  0
APPID
  5
12
330
9
100
AcDbSymbolTableRecord
100
AcDbRegAppTableRecord
  2
ACAD
 70
     0
  0
ENDTAB
  0
TABLE
  2
DIMSTYLE
  5
A
330
0
100
AcDbSymbolTable
 70
     1
100
AcDbDimStyleTable
 71
     1
340
1CB
  0
DIMSTYLE
105
1CB
102
{ACAD_REACTORS
330
1A9F
330
1B89
330
1C1A
330
1C27
330
1C48
102
}
330
A
100
AcDbSymbolTableRecord
100
AcDbDimStyleTableRecord
  2
Standard
 70
     0
340
11
  0
ENDTAB
  0
TABLE
  2
BLOCK_RECORD
  5
1
330
0
100
AcDbSymbolTable
 70
     7
  0
BLOCK_RECORD
  5
1E
330
1
100
AcDbSymbolTableRecord
100
AcDbBlockTableRecord
  2
*Model_Space
340
21
  0
BLOCK_RECORD
  5
1A
330
1
100
AcDbSymbolTableRecord
100
AcDbBlockTableRecord
  2
*Paper_Space
340
1D
  0
BLOCK_RECORD
  5
22
330
1
100
AcDbSymbolTableRecord
100
AcDbBlockTableRecord
  2
LOGO
340
0
102
{BLKREFS
331
135
102
}
  0
BLOCK_RECORD
  5
1AEF
330
1
100
AcDbSymbolTableRecord
100
AcDbBlockTableRecord
  2
*D1
340
0
  0
BLOCK_RECORD
  5
1BB8
330
1
100
AcDbSymbolTableRecord
100
AcDbBlockTableRecord
  2
*D3
340
0
  0
BLOCK_RECORD
  5
1C1B
330
1
100
AcDbSymbolTableRecord
100
AcDbBlockTableRecord
  2
*D4
340
0
  0
BLOCK_RECORD
  5
1C28
330
1
100
AcDbSymbolTableRecord
100
AcDbBlockTableRecord
  2
*D5
340
0
  0
BLOCK_RECORD
  5
1C49
330
1
100
AcDbSymbolTableRecord
100
AcDbBlockTableRecord
  2
*D6
340
0
  0
ENDTAB
  0
ENDSEC
  0
SECTION
  2
BLOCKS
  0
BLOCK
  5
43
330
1E
100
AcDbEntity
  8
0
100
AcDbBlockBegin
  2
*Model_Space
 70
     0
 10
0.0
 20
0.0
 30
0.0
  3
*Model_Space
  1

  0
ENDBLK
  5
44
330
1E
100
AcDbEntity
  8
0
100
AcDbBlockEnd
  0
BLOCK
  5
41
330
1A
100
AcDbEntity
 67
     1
  8
0
100
AcDbBlockBegin
  2
*Paper_Space
 70
     0
 10
0.0
 20
0.0
 30
0.0
  3
*Paper_Space
  1

  0
ENDBLK
  5
42
330
1A
100
AcDbEntity
 67
     1
  8
0
100
AcDbBlockEnd
  0
BLOCK
  5
45
330
22
100
AcDbEntity
  8
0
100
AcDbBlockBegin
  2
LOGO
 70
     0
 10
0.0
 20
0.0
 30
0.0
  3
LOGO
  1

  0
ARC
  5
46
330
22
100
AcDbEntity
  8
0
100
AcDbCircle
 10
11.59973089678112
 20
-9.271599258481501
 30
0.0
 40
4.5
100
AcDbArc
 50
270.0
 51
231.0575587310159
  0
LINE
  5
47
330
22
100
AcDbEntity
  8
0
100
AcDbLine
 10
3.599730896781125
 20
-4.771599258481529
 30
0.0
 11
3.599730896781153
 21
-11.77159925848133
 31
0.0
  0
LINE
  5
48
330
22
100
AcDbEntity
  8
0
100
AcDbLine
 10
2.599730896781125
 20
-4.771599258481529
 30
0.0
 11
2.599730896781153
 21
-11.77159925848133
 31
0.0
  0
CIRCLE
  5
49
330
22
100
AcDbEntity
  8
0
100
AcDbCircle
 10
11.59973089678112
 20
-9.271599258481501
 30
0.0
 40
3.5
  0
ARC
  5
4A
330
22
100
AcDbEntity
  8
0
100
AcDbCircle
 10
31.59973089678115
 20
-9.271599258481472
 30
0.0
 40
4.5
100
AcDbArc
 50
270.0
 51
231.0575587310182
  0
LINE
  5
4B
330
22
100
AcDbEntity
  8
0
100
AcDbLine
 10
17.59973089678112
 20
-4.771599258481472
 30
0.0
 11
17.59973089678115
 21
-13.77159925848147
 31
0.0
  0
ARC
  5
4C
330
22
100
AcDbEntity
  8
0
100
AcDbCircle
 10
22.59973089678116
 20
-7.271599258481472
 30
0.0
 40
2.5
100
AcDbArc
 50
293.1161887722295
 51
90.0
  0
CIRCLE
  5
4D
330
22
100
AcDbEntity
  8
0
100
AcDbCircle
 10
31.59973089678115
 20
-9.271599258481472
 30
0.0
 40
3.5
  0
ARC
  5
4E
330
22
100
AcDbEntity
  8
0
100
AcDbCircle
 10
4.599730896781153
 20
-11.77159925848133
 30
0.0
 40
1.0
100
AcDbArc
 50
180.0
 51
270.0
  0
ARC
  5
4F
330
22
100
AcDbEntity
  8
0
100
AcDbCircle
 10
4.599730896781153
 20
-11.77159925848133
 30
0.0
 40
2.0
100
AcDbArc
 50
179.9999999999992
 51
270.0
  0
LINE
  5
50
330
22
100
AcDbEntity
  8
0
100
AcDbLine
 10
11.59973089678115
 20
-13.77159925848144
 30
0.0
 11
4.599730896781153
 21
-13.77159925848147
 31
0.0
  0
LINE
  5
51
330
22
100
AcDbEntity
  8
0
100
AcDbLine
 10
8.771303772034769
 20
-12.77159925848136
 30
0.0
 11
4.599730896781153
 21
-12.77159925848133
 31
0.0
  0
LINE
  5
52
330
22
100
AcDbEntity
  8
0
100
AcDbLine
 10
31.59973089678115
 20
-13.77159925848147
 30
0.0
 11
23.6715276665056
 21
-13.77159925848144
 31
0.0
  0
LINE
  5
53
330
22
100
AcDbEntity
  8
0
100
AcDbLine
 10
23.56565672307022
 20
-9.51278021337896
 30
0.0
 11
24.4388546544846
 21
-12.77159925848144
 31
0.0
  0
LINE
  5
54
330
22
100
AcDbEntity
  8
0
100
AcDbLine
 10
22.59973089678116
 20
-9.771599258481472
 30
0.0
 11
18.59973089678112
 21
-9.771599258481472
 31
0.0
  0
LINE
  5
55
330
22
100
AcDbEntity
  8
0
100
AcDbLine
 10
18.59973089678115
 20
-13.77159925848144
 30
0.0
 11
17.59973089678115
 21
-13.77159925848144
 31
0.0
  0
LINE
  5
56
330
22
100
AcDbEntity
  8
0
100
AcDbLine
 10
18.59973089678115
 20
-9.771599258481472
 30
0.0
 11
18.59973089678115
 21
-13.77159925848144
 31
0.0
  0
LINE
  5
57
330
22
100
AcDbEntity
  8
0
100
AcDbLine
 10
22.59973089678116
 20
-9.771599258481472
 30
0.0
 11
23.67152766650562
 21
-13.77159925848147
 31
0.0
  0
ARC
  5
58
330
22
100
AcDbEntity
  8
0
100
AcDbCircle
 10
22.59973089678116
 20
-7.271599258481472
 30
0.0
 40
2.5
100
AcDbArc
 50
270.0
 51
270.0000000000007
  0
LINE
  5
59
330
22
100
AcDbEntity
  8
0
100
AcDbLine
 10
28.77130377203494
 20
-12.77159925848147
 30
0.0
 11
24.43885465448463
 21
-12.77159925848144
 31
0.0
  0
LINE
  5
5A
330
22
100
AcDbEntity
  8
0
100
AcDbLine
 10
3.599730896781125
 20
-4.771599258481472
 30
0.0
 11
2.599730896781125
 21
-4.771599258481472
 31
0.0
  0
LINE
  5
5B
330
22
100
AcDbEntity
  8
0
100
AcDbLine
 10
22.59973089678116
 20
-8.771599258481472
 30
0.0
 11
18.59973089678115
 21
-8.771599258481472
 31
0.0
  0
LINE
  5
5C
330
22
100
AcDbEntity
  8
0
100
AcDbLine
 10
22.59973089678116
 20
-5.771599258481472
 30
0.0
 11
18.59973089678115
 21
-5.771599258481472
 31
0.0
  0
LINE
  5
5D
330
22
100
AcDbEntity
  8
0
100
AcDbLine
 10
22.59973089678116
 20
-4.771599258481472
 30
0.0
 11
17.59973089678115
 21
-4.771599258481472
 31
0.0
  0
LINE
  5
5E
330
22
100
AcDbEntity
  8
0
100
AcDbLine
 10
18.59973089678115
 20
-5.771599258481472
 30
0.0
 11
18.59973089678115
 21
-8.771599258481472
 31
0.0
  0
ARC
  5
5F
330
22
100
AcDbEntity
  8
0
100
AcDbCircle
 10
22.59973089678116
 20
-7.271599258481472
 30
0.0
 40
1.5
100
AcDbArc
 50
270.0
 51
90.0
  0
ENDBLK
  5
60
330
22
100
AcDbEntity
  8
0
100
AcDbBlockEnd
  0
BLOCK
  5
1AF9
330
1AEF
100
AcDbEntity
  8
0
100
AcDbBlockBegin
  2
*D1
 70
     1
 10
0.0
 20
0.0
 30
0.0
  3
*D1
  1

  0
LINE
  5
1C11
330
1AEF
100
AcDbEntity
  8
BEM
 62
     0
370
    -2
100
AcDbLine
 10
164.1419706417551
 20
218.9421431382601
 30
0.0
 11
142.9091686437275
 21
218.9421431382601
 31
0.0
  0
LINE
  5
1C12
330
1AEF
100
AcDbEntity
  8
BEM
 62
     0
370
    -2
100
AcDbLine
 10
208.1545273241254
 20
315.9421431382603
 30
0.0
 11
142.9091686437275
 21
315.9421431382603
 31
0.0
  0
LINE
  5
1C13
330
1AEF
100
AcDbEntity
  8
BEM
 62
     0
370
    -2
100
AcDbLine
 10
144.9091686437275
 20
225.9421431382601
 30
0.0
 11
144.9091686437275
 21
308.9421431382602
 31
0.0
  0
SOLID
  5
1C14
330
1AEF
100
AcDbEntity
  8
BEM
 62
     0
100
AcDbTrace
 10
143.7425019770608
 20
225.9421431382601
 30
0.0
 11
146.0758353103942
 21
225.9421431382601
 31
0.0
 12
144.9091686437275
 22
218.9421431382601
 32
0.0
 13
144.9091686437275
 23
218.9421431382601
 33
0.0
  0
SOLID
  5
1C15
330
1AEF
100
AcDbEntity
  8
BEM
 62
     0
100
AcDbTrace
 10
143.7425019770608
 20
308.9421431382602
 30
0.0
 11
146.0758353103942
 21
308.9421431382602
 31
0.0
 12
144.9091686437275
 22
315.9421431382603
 32
0.0
 13
144.9091686437275
 23
315.9421431382603
 33
0.0
  0
MTEXT
  5
1C16
330
1AEF
100
AcDbEntity
  8
BEM
 62
     1
100
AcDbMText
 10
138.4091686437275
 20
267.4421431382602
 30
0.0
 40
7.0
 41
0.0
 71
     5
 72
     1
  1
\A1;97
 11
0.0000000000000001
 21
1.0
 31
0.0
 73
     1
 44
1.0
  0
POINT
  5
1C17
330
1AEF
100
AcDbEntity
  8
DEFPOINTS
 62
     0
100
AcDbPoint
 10
166.1419706417551
 20
218.9421431382601
 30
0.0
  0
POINT
  5
1C18
330
1AEF
100
AcDbEntity
  8
DEFPOINTS
 62
     0
100
AcDbPoint
 10
210.1545273241254
 20
315.9421431382603
 30
0.0
  0
POINT
  5
1C19
330
1AEF
100
AcDbEntity
  8
DEFPOINTS
 62
     0
100
AcDbPoint
 10
144.9091686437275
 20
315.9421431382603
 30
0.0
  0
ENDBLK
  5
1AFA
330
1AEF
100
AcDbEntity
  8
0
100
AcDbBlockEnd
  0
BLOCK
  5
1BC2
330
1BB8
100
AcDbEntity
  8
0
100
AcDbBlockBegin
  2
*D3
 70
     1
 10
0.0
 20
0.0
 30
0.0
  3
*D3
  1

  0
LINE
  5
1C08
330
1BB8
100
AcDbEntity
  8
BEM
 62
     0
370
    -2
100
AcDbLine
 10
165.7045273241255
 20
221.9421431382601
 30
0.0
 11
165.7045273241255
 21
196.2512578537482
 31
0.0
  0
LINE
  5
1C09
330
1BB8
100
AcDbEntity
  8
BEM
 62
     0
370
    -2
100
AcDbLine
 10
254.6045273241256
 20
221.9421431382631
 30
0.0
 11
254.6045273241256
 21
196.2512578537482
 31
0.0
  0
LINE
  5
1C0A
330
1BB8
100
AcDbEntity
  8
BEM
 62
     0
370
    -2
100
AcDbLine
 10
172.7045273241255
 20
198.2512578537482
 30
0.0
 11
247.6045273241256
 21
198.2512578537482
 31
0.0
  0
SOLID
  5
1C0B
330
1BB8
100
AcDbEntity
  8
BEM
 62
     0
100
AcDbTrace
 10
172.7045273241255
 20
199.4179245204149
 30
0.0
 11
172.7045273241255
 21
197.0845911870815
 31
0.0
 12
165.7045273241255
 22
198.2512578537482
 32
0.0
 13
165.7045273241255
 23
198.2512578537482
 33
0.0
  0
SOLID
  5
1C0C
330
1BB8
100
AcDbEntity
  8
BEM
 62
     0
100
AcDbTrace
 10
247.6045273241256
 20
199.4179245204149
 30
0.0
 11
247.6045273241256
 21
197.0845911870815
 31
0.0
 12
254.6045273241256
 22
198.2512578537482
 32
0.0
 13
254.6045273241256
 23
198.2512578537482
 33
0.0
  0
MTEXT
  5
1C0D
330
1BB8
100
AcDbEntity
  8
BEM
 62
     1
100
AcDbMText
 10
210.1545273241255
 20
204.7512578537482
 30
0.0
 40
7.0
 41
0.0
 71
     5
 72
     1
  1
\A1;%%c88.9
 73
     1
 44
1.0
  0
POINT
  5
1C0E
330
1BB8
100
AcDbEntity
  8
DEFPOINTS
 62
     0
100
AcDbPoint
 10
165.7045273241255
 20
223.9421431382601
 30
0.0
  0
POINT
  5
1C0F
330
1BB8
100
AcDbEntity
  8
DEFPOINTS
 62
     0
100
AcDbPoint
 10
254.6045273241256
 20
223.9421431382631
 30
0.0
  0
POINT
  5
1C10
330
1BB8
100
AcDbEntity
  8
DEFPOINTS
 62
     0
100
AcDbPoint
 10
254.6045273241256
 20
198.2512578537482
 30
0.0
  0
ENDBLK
  5
1BC3
330
1BB8
100
AcDbEntity
  8
0
100
AcDbBlockEnd
  0
BLOCK
  5
1C25
330
1C1B
100
AcDbEntity
  8
0
100
AcDbBlockBegin
  2
*D4
 70
     1
 10
0.0
 20
0.0
 30
0.0
  3
*D4
  1

  0
LINE
  5
1C1C
330
1C1B
100
AcDbEntity
  8
BEM
 62
     0
370
    -2
100
AcDbLine
 10
160.902613536149
 20
513.9454360425901
 30
0.0
 11
127.3493954443016
 21
513.9454360425901
 31
0.0
  0
LINE
  5
1C1D
330
1C1B
100
AcDbEntity
  8
BEM
 62
     0
370
    -2
100
AcDbLine
 10
164.1419706417551
 20
218.9421431382601
 30
0.0
 11
127.3493954443015
 21
218.9421431382601
 31
0.0
  0
LINE
  5
1C1E
330
1C1B
100
AcDbEntity
  8
BEM
 62
     0
370
    -2
100
AcDbLine
 10
129.3493954443016
 20
506.9454360425901
 30
0.0
 11
129.3493954443015
 21
225.9421431382601
 31
0.0
  0
SOLID
  5
1C1F
330
1C1B
100
AcDbEntity
  8
BEM
 62
     0
100
AcDbTrace
 10
128.1827287776349
 20
506.9454360425901
 30
0.0
 11
130.5160621109682
 21
506.9454360425901
 31
0.0
 12
129.3493954443016
 22
513.9454360425901
 32
0.0
 13
129.3493954443016
 23
513.9454360425901
 33
0.0
  0
SOLID
  5
1C20
330
1C1B
100
AcDbEntity
  8
BEM
 62
     0
100
AcDbTrace
 10
128.1827287776349
 20
225.9421431382601
 30
0.0
 11
130.5160621109682
 21
225.9421431382601
 31
0.0
 12
129.3493954443015
 22
218.9421431382601
 32
0.0
 13
129.3493954443015
 23
218.9421431382601
 33
0.0
  0
MTEXT
  5
1C21
330
1C1B
100
AcDbEntity
  8
BEM
 62
     1
100
AcDbMText
 10
122.8493954443015
 20
366.4437895904251
 30
0.0
 40
7.0
 41
0.0
 71
     5
 72
     1
  1
\A1;295
 11
0.0000000000000001
 21
1.0
 31
0.0
 73
     1
 44
1.0
  0
POINT
  5
1C22
330
1C1B
100
AcDbEntity
  8
DEFPOINTS
 62
     0
100
AcDbPoint
 10
162.902613536149
 20
513.9454360425901
 30
0.0
  0
POINT
  5
1C23
330
1C1B
100
AcDbEntity
  8
DEFPOINTS
 62
     0
100
AcDbPoint
 10
166.1419706417551
 20
218.9421431382601
 30
0.0
  0
POINT
  5
1C24
330
1C1B
100
AcDbEntity
  8
DEFPOINTS
 62
     0
100
AcDbPoint
 10
129.3493954443015
 20
218.9421431382601
 30
0.0
  0
ENDBLK
  5
1C26
330
1C1B
100
AcDbEntity
  8
0
100
AcDbBlockEnd
  0
BLOCK
  5
1C32
330
1C28
100
AcDbEntity
  8
0
100
AcDbBlockBegin
  2
*D5
 70
     1
 10
0.0
 20
0.0
 30
0.0
  3
*D5
  1

  0
LINE
  5
1C3D
330
1C28
100
AcDbEntity
  8
BEM
 62
     0
370
    -2
100
AcDbLine
 10
211.5687408864985
 20
314.5279295758871
 30
0.0
 11
259.8236089411587
 21
266.273061521227
 31
0.0
  0
LINE
  5
1C3E
330
1C28
100
AcDbEntity
  8
BEM
 62
     0
370
    -2
100
AcDbLine
 10
384.9880322249551
 20
421.1229235873033
 30
0.0
 11
399.8307516160949
 21
406.2802041961634
 31
0.0
  0
LINE
  5
1C3F
330
1C28
100
AcDbEntity
  8
BEM
 62
     0
370
    -2
100
AcDbLine
 10
263.3591428470914
 20
272.637022551906
 30
0.0
 11
393.466790585416
 21
402.7446702902307
 31
0.0
  0
SOLID
  5
1C40
330
1C28
100
AcDbEntity
  8
BEM
 62
     0
100
AcDbTrace
 10
262.5341849357071
 20
273.4619804632902
 30
0.0
 11
264.1841007584757
 21
271.8120646405216
 31
0.0
 12
258.4093953787856
 22
267.6872750836001
 32
0.0
 13
258.4093953787856
 23
267.6872750836001
 33
0.0
  0
SOLID
  5
1C41
330
1C28
100
AcDbEntity
  8
BEM
 62
     0
100
AcDbTrace
 10
392.6418326740316
 20
403.5696282016149
 30
0.0
 11
394.2917484968003
 21
401.9197123788464
 31
0.0
 12
398.4165380537218
 22
407.6944177585366
 32
0.0
 13
398.4165380537218
 23
407.6944177585366
 33
0.0
  0
MTEXT
  5
1C42
330
1C28
100
AcDbEntity
  8
BEM
 62
     1
100
AcDbMText
 10
323.8167726385411
 20
342.2870404987809
 30
0.0
 40
7.0
 41
0.0
 71
     5
 72
     1
  1
\A1;198
 11
0.7071067811865469
 21
0.7071067811865484
 31
0.0
 73
     1
 44
1.0
  0
POINT
  5
1C43
330
1C28
100
AcDbEntity
  8
DEFPOINTS
 62
     0
100
AcDbPoint
 10
210.1545273241254
 20
315.9421431382603
 30
0.0
  0
POINT
  5
1C44
330
1C28
100
AcDbEntity
  8
DEFPOINTS
 62
     0
100
AcDbPoint
 10
383.573818662582
 20
422.5371371496764
 30
0.0
  0
POINT
  5
1C45
330
1C28
100
AcDbEntity
  8
DEFPOINTS
 62
     0
100
AcDbPoint
 10
398.4165380537218
 20
407.6944177585366
 30
0.0
  0
ENDBLK
  5
1C33
330
1C28
100
AcDbEntity
  8
0
100
AcDbBlockEnd
  0
BLOCK
  5
1C55
330
1C49
100
AcDbEntity
  8
0
100
AcDbBlockBegin
  2
*D6
 70
     1
 10
0.0
 20
0.0
 30
0.0
  3
*D6
  1

  0
LINE
  5
1C4A
330
1C49
100
AcDbEntity
  8
BEM
 62
     0
370
    -2
100
AcDbLine
 10
355.1114174673675
 20
460.8990332815023
 30
0.0
 11
365.1295178163497
 21
470.9171336304847
 31
0.0
  0
LINE
  5
1C4B
330
1C49
100
AcDbEntity
  8
BEM
 62
     0
370
    -2
100
AcDbLine
 10
210.1545273241254
 20
520.9454360425901
 30
0.0
 11
210.1545273241252
 21
535.1098765210054
 31
0.0
  0
ARC
  5
1C4C
330
1C49
100
AcDbEntity
  8
BEM
 62
     0
370
    -2
100
AcDbCircle
 10
210.1545273241254
 20
315.9421431382603
 30
0.0
 40
217.1677333827453
100
AcDbArc
 50
46.84690338191525
 51
88.15309661808482
  0
SOLID
  5
1C4D
330
1C49
100
AcDbEntity
  8
BEM
 62
     0
100
AcDbTrace
 10
359.4979819557855
 20
475.2103979475511
 30
0.0
 11
357.8748714164101
 21
473.5341054249248
 31
0.0
 12
363.7153042539766
 22
469.5029200681116
 32
0.0
 13
363.7153042539766
 23
469.5029200681116
 33
0.0
  0
SOLID
  5
1C4E
330
1C49
100
AcDbEntity
  8
BEM
 62
     0
100
AcDbTrace
 10
217.1348154906557
 20
531.8305453585201
 30
0.0
 11
217.1724208316493
 21
534.1635756375291
 31
0.0
 12
210.1545273241252
 22
533.1098765210054
 32
0.0
 13
210.1545273241252
 23
533.1098765210054
 33
0.0
  0
MTEXT
  5
1C4F
330
1C49
100
AcDbEntity
  8
BEM
 62
     1
100
AcDbMText
 10
295.748463244354
 20
522.58418409377
 30
0.0
 40
7.0
 41
0.0
 71
     5
 72
     1
  1
\A1;45°
 11
0.9238795325112871
 21
-0.3826834323650891
 31
0.0
 73
     1
 44
1.0
  0
POINT
  5
1C50
330
1C49
100
AcDbEntity
  8
DEFPOINTS
 62
     0
100
AcDbPoint
 10
318.7383940154979
 20
504.0149171300035
 30
0.0
  0
POINT
  5
1C51
330
1C49
100
AcDbEntity
  8
DEFPOINTS
 62
     0
100
AcDbPoint
 10
210.1545273241254
 20
518.9454360425901
 30
0.0
  0
POINT
  5
1C52
330
1C49
100
AcDbEntity
  8
DEFPOINTS
 62
     0
100
AcDbPoint
 10
353.6972039049944
 20
459.4848197191291
 30
0.0
  0
POINT
  5
1C53
330
1C49
100
AcDbEntity
  8
DEFPOINTS
 62
     0
100
AcDbPoint
 10
210.1545273241253
 20
315.9421431382603
 30
0.0
  0
POINT
  5
1C54
330
1C49
100
AcDbEntity
  8
DEFPOINTS
 62
     0
100
AcDbPoint
 10
210.1545273241254
 20
213.9421431382604
 30
0.0
  0
ENDBLK
  5
1C56
330
1C49
100
AcDbEntity
  8
0
100
AcDbBlockEnd
  0
ENDSEC
  0
SECTION
  2
ENTITIES
  0
TEXT
  5
134
330
1E
100
AcDbEntity
  8
TEXT
100
AcDbText
 10
204.4216048581257
 20
63.0896391972351
 30
0.0
 40
4.0
  1
Koeh
 41
0.8
  7
GREEKS
 72
     1
 11
209.6787477152686
 21
63.0896391972351
 31
0.0
100
AcDbText
  0
INSERT
  5
135
330
1E
100
AcDbEntity
  8
STEMPEL
100
AcDbBlockReference
  2
LOGO
 10
150.9955485457794
 20
45.02105276448322
 30
0.0
 41
2.0
 42
2.0
 43
2.0
  0
LINE
  5
136
330
1E
100
AcDbEntity
  8
HILF
100
AcDbLine
 10
420.0
 20
0.0
 30
0.0
 11
0.0
 21
0.0
 31
0.0
  0
LINE
  5
137
330
1E
100
AcDbEntity
  8
HILF
100
AcDbLine
 10
419.9999999999999
 20
594.0000000000002
 30
0.0
 11
0.0
 21
594.0
 31
0.0
  0
LINE
  5
138
330
1E
100
AcDbEntity
  8
STEMPEL
100
AcDbLine
 10
410.0
 20
584.0
 30
0.0
 11
39.99999999999989
 21
584.0
 31
0.0
  0
LINE
  5
139
330
1E
100
AcDbEntity
  8
STEMPEL
100
AcDbLine
 10
410.0
 20
10.0
 30
0.0
 11
39.99999999999989
 21
10.0
 31
0.0
  0
LINE
  5
13A
330
1E
100
AcDbEntity
  8
STEMPEL
100
AcDbLine
 10
49.99999999999989
 20
10.0
 30
0.0
 11
410.0
 21
10.0
 31
0.0
  0
TEXT
  5
13B
330
1E
100
AcDbEntity
  8
TEXT
100
AcDbText
 10
202.4626584226295
 20
73.30961091915225
 30
0.0
 40
4.0
  1
Name
 41
0.8
  7
GREEKS
100
AcDbText
  0
TEXT
  5
13C
330
1E
100
AcDbEntity
  8
TEXT
100
AcDbText
 10
196.5498279101549
 20
102.6506227776589
 30
0.0
 40
5.0
  1
Zul. Abw.
 41
0.8
  7
GREEKS
 72
     4
 11
209.9783993387263
 21
105.1506227776589
 31
0.0
100
AcDbText
  0
LINE
  5
13D
330
1E
100
AcDbEntity
  8
HILF
100
AcDbLine
 10
146.0000000000001
 20
49.99999999999997
 30
0.0
 11
230.0
 21
49.99999999999997
 31
0.0
  0
LINE
  5
13E
330
1E
100
AcDbEntity
  8
HILF
100
AcDbLine
 10
146.0000000000001
 20
59.99999999999997
 30
0.0
 11
230.0
 21
59.99999999999997
 31
0.0
  0
LINE
  5
13F
330
1E
100
AcDbEntity
  8
HILF
100
AcDbLine
 10
146.0000000000001
 20
69.99999999999994
 30
0.0
 11
230.0
 21
69.99999999999994
 31
0.0
  0
LINE
  5
140
330
1E
100
AcDbEntity
  8
STEMPEL
100
AcDbLine
 10
410.0
 20
80.0
 30
0.0
 11
146.0000000000001
 21
79.99999999999994
 31
0.0
  0
LINE
  5
141
330
1E
100
AcDbEntity
  8
STEMPEL
100
AcDbLine
 10
410.0
 20
40.0
 30
0.0
 11
146.0000000000001
 21
39.99999999999997
 31
0.0
  0
LINE
  5
142
330
1E
100
AcDbEntity
  8
STEMPEL
100
AcDbLine
 10
410.0
 20
110.0
 30
0.0
 11
39.99999999999997
 21
110.0
 31
0.0
  0
LINE
  5
144
330
1E
100
AcDbEntity
  8
HILF
100
AcDbLine
 10
0.0
 20
0.0
 30
0.0
 11
-0.0000000000001137
 21
594.0
 31
0.0
  0
LINE
  5
145
330
1E
100
AcDbEntity
  8
STEMPEL
100
AcDbLine
 10
40.0
 20
10.0
 30
0.0
 11
39.99999999999989
 21
584.0
 31
0.0
  0
TEXT
  5
146
330
1E
100
AcDbEntity
  8
TEXT
100
AcDbText
 10
41.85509950977674
 20
111.6719999999999
 30
0.0
 40
5.0
  1
Erstellt mit AUTOCAD 2004
 41
0.8
  7
GREEKS
100
AcDbText
  0
TEXT
  5
147
330
1E
100
AcDbEntity
  8
TEXT
100
AcDbText
 10
67.82662250653562
 20
18.67381894984132
 30
0.0
 40
4.0
  1
Änderung
 41
0.8
  7
GREEKS
 72
     1
 11
78.56947964939277
 21
18.67381894984132
 31
0.0
100
AcDbText
  0
LINE
  5
148
330
1E
100
AcDbEntity
  8
HILF
100
AcDbLine
 10
40.00000000000008
 20
39.99999999999997
 30
0.0
 11
146.0000000000001
 21
39.99999999999997
 31
0.0
  0
LINE
  5
149
330
1E
100
AcDbEntity
  8
HILF
100
AcDbLine
 10
40.00000000000008
 20
49.99999999999997
 30
0.0
 11
146.0000000000001
 21
49.99999999999997
 31
0.0
  0
LINE
  5
14A
330
1E
100
AcDbEntity
  8
HILF
100
AcDbLine
 10
40.00000000000008
 20
59.99999999999997
 30
0.0
 11
146.0000000000001
 21
59.99999999999997
 31
0.0
  0
LINE
  5
14B
330
1E
100
AcDbEntity
  8
HILF
100
AcDbLine
 10
40.00000000000008
 20
69.99999999999994
 30
0.0
 11
146.0000000000001
 21
69.99999999999994
 31
0.0
  0
LINE
  5
14C
330
1E
100
AcDbEntity
  8
HILF
100
AcDbLine
 10
40.00000000000008
 20
79.99999999999994
 30
0.0
 11
146.0000000000001
 21
79.99999999999994
 31
0.0
  0
LINE
  5
14D
330
1E
100
AcDbEntity
  8
HILF
100
AcDbLine
 10
40.00000000000008
 20
90.00000000000005
 30
0.0
 11
146.0000000000001
 21
90.00000000000005
 31
0.0
  0
LINE
  5
14E
330
1E
100
AcDbEntity
  8
HILF
100
AcDbLine
 10
40.00000000000008
 20
100.0
 30
0.0
 11
146.0000000000001
 21
100.0
 31
0.0
  0
LINE
  5
14F
330
1E
100
AcDbEntity
  8
STEMPEL
100
AcDbLine
 10
145.9999999999999
 20
29.99999999999997
 30
0.0
 11
39.99999999999997
 21
29.99999999999997
 31
0.0
  0
TEXT
  5
150
330
1E
100
AcDbEntity
  8
TEXT
100
AcDbText
 10
48.26641107045756
 20
13.65465846027192
 30
0.0
 40
4.0
  1
Index
 50
90.0
 41
0.8
  7
GREEKS
100
AcDbText
  0
LINE
  5
151
330
1E
100
AcDbEntity
  8
VOLL
100
AcDbLine
 10
54.00000000000009
 20
110.0
 30
0.0
 11
53.99999999999997
 21
9.999999999999971
 31
0.0
  0
LINE
  5
152
330
1E
100
AcDbEntity
  8
HILF
100
AcDbLine
 10
31.08767135713856
 20
297.0
 30
0.0
 11
0.0000000000001137
 21
297.0
 31
0.0
  0
TEXT
  5
153
330
1E
100
AcDbEntity
  8
TEXT
100
AcDbText
 10
110.1314052170812
 20
18.6715626933981
 30
0.0
 40
4.0
  1
Tag
 41
0.8
  7
GREEKS
 72
     1
 11
113.8647385504146
 21
18.6715626933981
 31
0.0
100
AcDbText
  0
LINE
  5
154
330
1E
100
AcDbEntity
  8
VOLL
100
AcDbLine
 10
124.0000000000001
 20
109.9999999999999
 30
0.0
 11
124.0
 21
9.999999999999971
 31
0.0
  0
LINE
  5
155
330
1E
100
AcDbEntity
  8
VOLL
100
AcDbLine
 10
104.0000000000001
 20
109.9999999999999
 30
0.0
 11
104.0
 21
9.999999999999971
 31
0.0
  0
TEXT
  5
156
330
1E
100
AcDbEntity
  8
TEXT
100
AcDbText
 10
128.5727686473826
 20
18.59324216966408
 30
0.0
 40
4.0
  1
Name
 41
0.8
  7
GREEKS
 72
     1
 11
134.8965781711921
 21
18.59324216966408
 31
0.0
100
AcDbText
  0
LINE
  5
157
330
1E
100
AcDbEntity
  8
STEMPEL
100
AcDbLine
 10
146.0000000000001
 20
109.9999999999999
 30
0.0
 11
146.0
 21
9.999999999999971
 31
0.0
  0
TEXT
  5
158
330
1E
100
AcDbEntity
  8
TEXT
100
AcDbText
 10
170.398997108236
 20
63.10765040825732
 30
0.0
 40
4.0
  1
08.04.
 41
0.8
  7
GREEKS
 72
     1
 11
177.4085209177598
 21
63.10765040825732
 31
0.0
100
AcDbText
  0
TEXT
  5
159
330
1E
100
AcDbEntity
  8
TEXT
100
AcDbText
 10
172.331167315365
 20
73.31880501229926
 30
0.0
 40
4.0
  1
Tag
 41
0.8
  7
GREEKS
100
AcDbText
  0
TEXT
  5
15A
330
1E
100
AcDbEntity
  8
TEXT
100
AcDbText
 10
147.5836127167615
 20
63.62990369617964
 30
0.0
 40
4.0
  1
Gez.
 41
0.8
  7
GREEKS
100
AcDbText
  0
LINE
  5
15B
330
1E
100
AcDbEntity
  8
VOLL
100
AcDbLine
 10
164.0000000000001
 20
79.99999999999994
 30
0.0
 11
164.0000000000001
 21
39.99999999999997
 31
0.0
  0
TEXT
  5
15C
330
1E
100
AcDbEntity
  8
TEXT
100
AcDbText
 10
147.6006777387303
 20
43.52946389649807
 30
0.0
 40
4.0
  1
Norm.
 41
0.8
  7
GREEKS
100
AcDbText
  0
TEXT
  5
15D
330
1E
100
AcDbEntity
  8
TEXT
100
AcDbText
 10
147.5515086571672
 20
53.68926291428377
 30
0.0
 40
4.0
  1
Gepr.
 41
0.8
  7
GREEKS
100
AcDbText
  0
TEXT
  5
15E
330
1E
100
AcDbEntity
  8
TEXT
 62
     1
100
AcDbText
 10
160.5006306481887
 20
88.14901428913959
 30
0.0
 40
7.0
  1
1:2
 41
0.8
  7
GREEKS
100
AcDbText
  0
TEXT
  5
15F
330
1E
100
AcDbEntity
  8
TEXT
100
AcDbText
 10
153.5163572150377
 20
102.4620895087088
 30
0.0
 40
5.0
  1
Maßstab
 41
0.8
  7
GREEKS
100
AcDbText
  0
TEXT
  5
160
330
1E
100
AcDbEntity
  8
TEXT
100
AcDbText
 10
148.622109822104
 20
73.14025471151666
 30
0.0
 40
4.0
  1
2011
 41
0.8
  7
GREEKS
100
AcDbText
  0
LINE
  5
161
330
1E
100
AcDbEntity
  8
VOLL
100
AcDbLine
 10
190.0000000000001
 20
109.9999999999998
 30
0.0
 11
190.0
 21
39.99999999999997
 31
0.0
  0
LINE
  5
186
330
1E
100
AcDbEntity
  8
HILF
100
AcDbLine
 10
420.0
 20
-0.0000000000001137
 30
0.0
 11
419.9999999999999
 21
594.0
 31
0.0
  0
LINE
  5
187
330
1E
100
AcDbEntity
  8
STEMPEL
100
AcDbLine
 10
410.0
 20
10.0
 30
0.0
 11
410.0
 21
584.0
 31
0.0
  0
TEXT
  5
188
330
1E
100
AcDbEntity
  8
TEXT
100
AcDbText
 10
337.2400861497006
 20
52.07416177878602
 30
0.0
 40
5.0
  1
ersetzt durch:
 41
0.8
  7
GREEKS
100
AcDbText
  0
TEXT
  5
189
330
1E
100
AcDbEntity
  8
TEXT
100
AcDbText
 10
336.7238616296993
 20
73.1811823709997
 30
0.0
 40
5.0
  1
Ersatz für:
 41
0.8
  7
GREEKS
100
AcDbText
  0
TEXT
  5
18A
330
1E
100
AcDbEntity
  8
TEXT
100
AcDbText
 10
336.178754957634
 20
102.3132034537136
 30
0.0
 40
5.0
  1
Zeichnungs Nr.
 41
0.8
  7
GREEKS
100
AcDbText
  0
LINE
  5
18B
330
1E
100
AcDbEntity
  8
HILF
100
AcDbLine
 10
233.4909699289885
 20
14.89398258028314
 30
0.0
 11
404.8588839326728
 21
14.89398258028314
 31
0.0
  0
LINE
  5
18C
330
1E
100
AcDbEntity
  8
HILF
100
AcDbLine
 10
336.7238616296993
 20
83.77983636955827
 30
0.0
 11
404.8588839326728
 21
83.77983636955827
 31
0.0
  0
LINE
  5
18D
330
1E
100
AcDbEntity
  8
VOLL
100
AcDbLine
 10
332.0
 20
60.0
 30
0.0
 11
410.0
 21
60.0
 31
0.0
  0
TEXT
  5
18E
330
1E
100
AcDbEntity
  8
TEXT
 62
     1
100
AcDbText
 10
234.9283864320014
 20
87.41748789253779
 30
0.0
 40
7.0
  1
Abzweig DN80/80
 41
0.8
  7
GREEKS
100
AcDbText
  0
LINE
  5
18F
330
1E
100
AcDbEntity
  8
HILF
100
AcDbLine
 10
234.7736801096947
 20
49.99999999999997
 30
0.0
 11
324.835391655631
 21
49.99999999999997
 31
0.0
  0
LINE
  5
190
330
1E
100
AcDbEntity
  8
HILF
100
AcDbLine
 10
234.7736801096947
 20
59.99999999999997
 30
0.0
 11
324.835391655631
 21
59.99999999999997
 31
0.0
  0
LINE
  5
191
330
1E
100
AcDbEntity
  8
HILF
100
AcDbLine
 10
234.7736801096947
 20
69.99999999999994
 30
0.0
 11
324.835391655631
 21
69.99999999999994
 31
0.0
  0
LINE
  5
192
330
1E
100
AcDbEntity
  8
HILF
100
AcDbLine
 10
234.7736801096947
 20
84.03758247564139
 30
0.0
 11
324.8353916556311
 21
84.03758247564139
 31
0.0
  0
LINE
  5
193
330
1E
100
AcDbEntity
  8
STEMPEL
100
AcDbLine
 10
230.0
 20
110.0
 30
0.0
 11
230.0
 21
9.999999999999971
 31
0.0
  0
TEXT
  5
194
330
1E
100
AcDbEntity
  8
TEXT
100
AcDbText
 10
235.1296391125315
 20
71.50334417585288
 30
0.0
 40
5.0
  1
dünnwandig 45° 
 41
0.8
  7
GREEKS
100
AcDbText
  0
TEXT
  5
195
330
1E
100
AcDbEntity
  8
TEXT
100
AcDbText
 10
234.9837501577827
 20
42.62974153022632
 30
0.0
 40
4.0
  1
5220MM0W.DWG
 41
0.8
  7
GREEKS
100
AcDbText
  0
TEXT
  5
196
330
1E
100
AcDbEntity
  8
TEXT
100
AcDbText
 10
234.742238391136
 20
30.84560570193057
 30
0.0
 40
5.0
  1
Bauvorhaben
 41
0.8
  7
GREEKS
100
AcDbText
  0
TEXT
  5
197
330
1E
100
AcDbEntity
  8
TEXT
100
AcDbText
 10
234.877940380901
 20
102.5489328011779
 30
0.0
 40
5.0
  1
Benennung
 41
0.8
  7
GREEKS
100
AcDbText
  0
LINE
  5
198
330
1E
100
AcDbEntity
  8
STEMPEL
100
AcDbLine
 10
332.0
 20
109.9999999999997
 30
0.0
 11
332.0
 21
40.0
 31
0.0
  0
TEXT
  5
19A
330
1E
100
AcDbEntity
  8
TEXT
 62
     1
100
AcDbText
 10
347.2959648902726
 20
88.14901428913959
 30
0.0
 40
7.0
  1
5220MM0W
 41
0.8
  7
GREEKS
 72
     1
 11
369.6959648902727
 21
88.14901428913959
 31
0.0
100
AcDbText
  0
TEXT
  5
212
330
1E
100
AcDbEntity
  8
TEXT
100
AcDbText
 10
235.1296391125315
 20
51.50334417585291
 30
0.0
 40
5.0
  1
EDV-Art.Nr. 5.220.MM0C
 41
0.8
  7
GREEKS
100
AcDbText
  0
TEXT
  5
255
330
1E
100
AcDbEntity
  8
TEXT
 62
     1
100
AcDbText
 10
297.0573649355706
 20
132.2248663682012
 30
0.0
 40
7.0
  1
Werkstoff: 1.4404
 41
0.8
  7
GREEKS
100
AcDbText
  0
TEXT
  5
1630
330
1E
100
AcDbEntity
  8
VOLL
100
AcDbText
 10
530.1602023581097
 20
204.0789315492053
 30
0.0
 40
1.8
  1

  7
GREEKS
100
AcDbText
  0
TEXT
  5
1916
330
1E
100
AcDbEntity
  8
BEM
100
AcDbText
 10
416.5811541437437
 20
12.14804815338303
 30
0.0
 40
4.0
  1
Diese Zeichnung ist urheberrechtlich geschützt und bleibt unser Eigentum. Sie darf weder ganz noch teilweise vervielfältigt und nicht an Dritte weitergegeben werden.
 50
90.0
 41
0.8
  7
GREEKS
100
AcDbText
  0
TEXT
  5
1917
330
1E
100
AcDbEntity
  8
TEXT
100
AcDbText
 10
192.6882715247924
 20
89.06436657071457
 30
0.0
 40
4.0
  1
DIN EN1124-3
 41
0.8
  7
GREEKS
 72
     1
 11
209.6787477152686
 21
89.06436657071457
 31
0.0
100
AcDbText
  0
LINE
  5
1A6A
330
1E
100
AcDbEntity
  8
MITTEL
100
AcDbLine
 10
210.1545273241254
 20
518.9454360425901
 30
0.0
 11
210.1545273241254
 21
213.9421431382604
 31
0.0
  0
LINE
  5
1A8E
330
1E
100
AcDbEntity
  8
MITTEL
100
AcDbLine
 10
353.6972039049944
 20
459.4848197191293
 30
0.0
 11
210.1545273241254
 21
315.9421431382603
 31
0.0
  0
DIMENSION
  5
1A9F
330
1E
100
AcDbEntity
  8
BEM
100
AcDbDimension
  2
*D1
 10
144.9091686437275
 20
315.9421431382603
 30
0.0
 11
138.4091686437275
 21
267.4421431382602
 31
0.0
 70
    32
 71
     5
 42
97.00000000000015
  3
Standard
100
AcDbAlignedDimension
 13
166.1419706417551
 23
218.9421431382601
 33
0.0
 14
210.1545273241254
 24
315.9421431382603
 34
0.0
 50
90.0
100
AcDbRotatedDimension
1001
ACAD
1000
DSTYLE
1002
{
1070
    40
1040
2.0
1070
    41
1040
3.5
1070
    42
1040
1.0
1070
    43
1040
7.0
1070
    44
1040
1.0
1070
    73
1070
     0
1070
    74
1070
     0
1070
    77
1070
     1
1070
    78
1070
     8
1070
    79
1070
     2
1070
   140
1040
3.5
1070
   141
1040
1.5
1070
   146
1040
0.5142857142857144
1070
   147
1040
1.5
1070
   172
1070
     1
1070
   178
1070
     1
1070
   179
1070
     2
1070
   271
1070
     2
1070
   272
1070
     2
1070
   284
1070
     8
1070
   285
1070
     8
1070
   286
1070
     8
1002
}
  0
LINE
  5
1B74
330
1E
100
AcDbEntity
  8
STEMPEL
100
AcDbLine
 10
257.4064411121019
 20
513.9454360425901
 30
0.0
 11
162.902613536149
 21
513.9454360425901
 31
0.0
  0
LINE
  5
1B75
330
1E
100
AcDbEntity
  8
HILF
100
AcDbLine
 10
253.6620424214993
 20
451.3956937813972
 30
0.0
 11
166.6470122267517
 21
451.3956937813973
 31
0.0
  0
LINE
  5
1B76
330
1E
100
AcDbEntity
  8
HILF
100
AcDbLine
 10
255.5920195018444
 20
456.2654504815364
 30
0.0
 11
164.7170351464065
 21
456.2654504815365
 31
0.0
  0
LINE
  5
1B77
330
1E
100
AcDbEntity
  8
HILF
100
AcDbLine
 10
256.2967005731252
 20
481.0861621213172
 30
0.0
 11
164.0123540751257
 21
481.0861621213172
 31
0.0
  0
TEXT
  5
1B78
330
1E
100
AcDbEntity
  8
TEXT
 62
     1
100
AcDbText
 10
193.0776792821081
 20
488.3734691480298
 30
0.0
 40
7.0
  1
DN80
 50
89.99999999999998
 41
0.8
  7
GREEKS
100
AcDbText
  0
LINE
  5
1B79
330
1E
100
AcDbEntity
  8
STEMPEL
100
AcDbLine
 10
163.1045273241254
 20
478.1599080375159
 30
0.0
 11
163.1045273241254
 21
459.1654504815364
 31
0.0
  0
ARC
  5
1B7A
330
1E
100
AcDbEntity
  8
STEMPEL
100
AcDbCircle
 10
156.5045273241255
 20
449.0956937813972
 30
0.0
 40
9.200000000000001
100
AcDbArc
 50
0.0
 51
28.95502437185924
  0
ARC
  5
1B7B
330
1E
100
AcDbEntity
  8
STEMPEL
100
AcDbCircle
 10
174.7045273241256
 20
459.1654504815364
 30
0.0
 40
11.6
100
AcDbArc
 50
180.0
 51
208.9550243718592
  0
LINE
  5
1B7C
330
1E
100
AcDbEntity
  8
STEMPEL
100
AcDbLine
 10
159.6045273241254
 20
501.7491251249396
 30
0.0
 11
159.6045273241256
 21
494.0454360425902
 31
0.0
  0
ARC
  5
1B7D
330
1E
100
AcDbEntity
  8
STEMPEL
100
AcDbCircle
 10
183.8045273241255
 20
494.0454360425902
 30
0.0
 40
24.2
100
AcDbArc
 50
180.0
 51
204.8505023402283
  0
ARC
  5
1B7E
330
1E
100
AcDbEntity
  8
STEMPEL
100
AcDbCircle
 10
149.5045273241255
 20
478.1599080375159
 30
0.0
 40
13.6
100
AcDbArc
 50
0.0
 51
24.85050234022826
  0
ARC
  5
1B7F
330
1E
100
AcDbEntity
  8
STEMPEL
100
AcDbCircle
 10
183.8045273241255
 20
501.7491251249396
 30
0.0
 40
24.2
100
AcDbArc
 50
149.7363480579015
 51
180.0
  0
LINE
  5
1B80
330
1E
100
AcDbEntity
  8
STEMPEL
100
AcDbLine
 10
257.2045273241254
 20
478.159908037516
 30
0.0
 11
257.2045273241254
 21
459.1654504815364
 31
0.0
  0
ARC
  5
1B81
330
1E
100
AcDbEntity
  8
STEMPEL
100
AcDbCircle
 10
263.8045273241255
 20
449.0956937813973
 30
0.0
 40
9.200000000000001
100
AcDbArc
 50
151.0449756281408
 51
180.0
  0
ARC
  5
1B82
330
1E
100
AcDbEntity
  8
STEMPEL
100
AcDbCircle
 10
245.6045273241254
 20
459.1654504815364
 30
0.0
 40
11.6
100
AcDbArc
 50
331.0449756281407
 51
0.0
  0
LINE
  5
1B83
330
1E
100
AcDbEntity
  8
STEMPEL
100
AcDbLine
 10
260.7045273241254
 20
501.7491251249396
 30
0.0
 11
260.7045273241254
 21
494.0454360425902
 31
0.0
  0
ARC
  5
1B84
330
1E
100
AcDbEntity
  8
STEMPEL
100
AcDbCircle
 10
236.5045273241254
 20
494.0454360425902
 30
0.0
 40
24.2
100
AcDbArc
 50
335.1494976597718
 51
0.0
  0
ARC
  5
1B85
330
1E
100
AcDbEntity
  8
STEMPEL
100
AcDbCircle
 10
270.8045273241254
 20
478.159908037516
 30
0.0
 40
13.6
100
AcDbArc
 50
155.1494976597717
 51
180.0
  0
ARC
  5
1B86
330
1E
100
AcDbEntity
  8
STEMPEL
100
AcDbCircle
 10
236.5045273241254
 20
501.7491251249396
 30
0.0
 40
24.2
100
AcDbArc
 50
0.0
 51
30.26365194209847
  0
LINE
  5
1B87
102
{ACAD_REACTORS
330
1C79
102
}
330
1E
100
AcDbEntity
  8
STEMPEL
100
AcDbLine
 10
254.6045273241254
 20
449.0956937813973
 30
0.0
 11
254.6045273241255
 21
423.2539359857445
 31
0.0
  0
LINE
  5
1B88
330
1E
100
AcDbEntity
  8
STEMPEL
100
AcDbLine
 10
165.7045273241255
 20
449.0956937813972
 30
0.0
 11
165.7045273241255
 21
223.9421431382603
 31
0.0
  0
DIMENSION
  5
1B89
330
1E
100
AcDbEntity
  8
BEM
100
AcDbDimension
  2
*D3
 10
254.6045273241256
 20
198.2512578537482
 30
0.0
 11
210.1545273241255
 21
204.7512578537482
 31
0.0
 70
    32
  1
%%c<>
 71
     5
 42
88.90000000000009
  3
Standard
100
AcDbAlignedDimension
 13
165.7045273241255
 23
223.9421431382601
 33
0.0
 14
254.6045273241256
 24
223.9421431382631
 34
0.0
100
AcDbRotatedDimension
1001
ACAD
1000
DSTYLE
1002
{
1070
    40
1040
2.0
1070
    41
1040
3.5
1070
    42
1040
1.0
1070
    43
1040
7.0
1070
    44
1040
1.0
1070
    73
1070
     0
1070
    74
1070
     0
1070
    77
1070
     1
1070
    78
1070
     8
1070
    79
1070
     2
1070
   140
1040
3.5
1070
   141
1040
1.5
1070
   146
1040
0.5
1070
   147
1040
1.5
1070
   172
1070
     1
1070
   178
1070
     1
1070
   179
1070
     2
1070
   271
1070
     2
1070
   272
1070
     2
1070
   284
1070
     8
1070
   285
1070
     8
1070
   286
1070
     8
1002
}
  0
LINE
  5
1B8A
330
1E
100
AcDbEntity
  8
HILF
100
AcDbLine
 10
253.3999435190733
 20
223.9421431382604
 30
0.0
 11
166.9091111291775
 21
223.9421431382601
 31
0.0
  0
LINE
  5
1B8B
330
1E
100
AcDbEntity
  8
STEMPEL
100
AcDbLine
 10
254.1670840064958
 20
218.9421431382604
 30
0.0
 11
166.1419706417551
 21
218.9421431382601
 31
0.0
  0
LINE
  5
1B8C
330
1E
100
AcDbEntity
  8
STEMPEL
100
AcDbLine
 10
165.7045273241255
 20
223.9421431382601
 30
0.0
 11
166.1419706417551
 21
218.9421431382601
 31
0.0
  0
LINE
  5
1BAA
330
1E
100
AcDbEntity
  8
STEMPEL
100
AcDbLine
 10
254.6045273241256
 20
223.9421431382631
 30
0.0
 11
254.1670840064958
 21
218.9421431382604
 31
0.0
  0
LINE
  5
1BAB
102
{ACAD_REACTORS
330
1C8C
102
}
330
1E
100
AcDbEntity
  8
STEMPEL
100
AcDbLine
 10
254.6045273241255
 20
297.5303502907773
 30
0.0
 11
254.6045273241256
 21
223.9421431382631
 31
0.0
  0
ARC
  5
1BDF
330
1E
100
AcDbEntity
  8
STEMPEL
100
AcDbCircle
 10
360.1698395279971
 20
428.692927973601
 30
0.0
 40
24.2
100
AcDbArc
 50
315.0
 51
345.2636519420985
  0
ARC
  5
1BE0
330
1E
100
AcDbEntity
  8
STEMPEL
100
AcDbCircle
 10
266.3696986773142
 20
448.0298721127657
 30
0.0
 40
9.200000000000001
100
AcDbArc
 50
315.0
 51
343.9550243718593
  0
LINE
  5
1BE1
330
1E
100
AcDbEntity
  8
HILF
100
AcDbLine
 10
336.6967820426305
 20
380.9554799409075
 30
0.0
 11
275.1678641267724
 21
442.4843978567656
 31
0.0
  0
LINE
  5
1BE2
330
1E
100
AcDbEntity
  8
HILF
100
AcDbLine
 10
359.5540981875158
 20
400.0868267955461
 30
0.0
 11
294.2992109814111
 21
465.3417140016506
 31
0.0
  0
LINE
  5
1BE3
330
1E
100
AcDbEntity
  8
STEMPEL
100
AcDbLine
 10
383.573818662582
 20
422.5371371496765
 30
0.0
 11
316.7495213355417
 21
489.361434476717
 31
0.0
  0
LINE
  5
1BE4
330
1E
100
AcDbEntity
  8
HILF
100
AcDbLine
 10
341.5049199090743
 20
383.0342180452577
 30
0.0
 11
277.2466022311228
 21
447.2925357232093
 31
0.0
  0
ARC
  5
1BE5
330
1E
100
AcDbEntity
  8
STEMPEL
100
AcDbCircle
 10
367.7435067572967
 20
387.7590700135037
 30
0.0
 40
13.6
100
AcDbArc
 50
110.1494976597717
 51
134.9999999999999
  0
LINE
  5
1BE6
330
1E
100
AcDbEntity
  8
STEMPEL
100
AcDbLine
 10
358.12685453316
 20
397.375722237641
 30
0.0
 11
344.6957447903665
 21
383.9446124948476
 31
0.0
  0
ARC
  5
1BE7
330
1E
100
AcDbEntity
  8
STEMPEL
100
AcDbCircle
 10
336.4933061286026
 20
392.1470511566115
 30
0.0
 40
11.6
100
AcDbArc
 50
286.0449756281407
 51
315.0
  0
ARC
  5
1BE8
330
1E
100
AcDbEntity
  8
STEMPEL
100
AcDbCircle
 10
342.2422562986308
 20
372.1573144914491
 30
0.0
 40
9.200000000000001
100
AcDbArc
 50
106.0449756281407
 51
134.9999999999999
  0
LINE
  5
1BE9
330
1E
100
AcDbEntity
  8
STEMPEL
100
AcDbLine
 10
377.2818236327116
 20
411.5809438688867
 30
0.0
 11
371.8344928424297
 21
406.1336130786046
 31
0.0
  0
ARC
  5
1BEA
330
1E
100
AcDbEntity
  8
STEMPEL
100
AcDbCircle
 10
354.7225087377151
 20
423.2455971833191
 30
0.0
 40
24.2
100
AcDbArc
 50
290.1494976597718
 51
315.0
  0
TEXT
  5
1BEB
330
1E
100
AcDbEntity
  8
TEXT
 62
     1
100
AcDbText
 10
321.8844084338839
 20
444.6272406918908
 30
0.0
 40
7.0
  1
DN80
 50
44.99999999999992
 41
0.8
  7
GREEKS
100
AcDbText
  0
ARC
  5
1BEC
330
1E
100
AcDbEntity
  8
STEMPEL
100
AcDbCircle
 10
317.4579813691839
 20
460.5101245518499
 30
0.0
 40
24.2
100
AcDbArc
 50
134.9999999999999
 51
159.8505023402282
  0
LINE
  5
1BED
330
1E
100
AcDbEntity
  8
STEMPEL
100
AcDbLine
 10
291.5881064235057
 20
463.9144703472949
 30
0.0
 11
278.1569966807126
 21
450.4833606045015
 31
0.0
  0
ARC
  5
1BEE
330
1E
100
AcDbEntity
  8
STEMPEL
100
AcDbCircle
 10
286.3594353424767
 20
442.2809219427375
 30
0.0
 40
11.6
100
AcDbArc
 50
134.9999999999999
 51
163.9550243718591
  0
ARC
  5
1BEF
330
1E
100
AcDbEntity
  8
STEMPEL
100
AcDbCircle
 10
281.9714541993688
 20
473.5311225714317
 30
0.0
 40
13.6
100
AcDbArc
 50
315.0
 51
339.8505023402282
  0
ARC
  5
1BF0
330
1E
100
AcDbEntity
  8
STEMPEL
100
AcDbCircle
 10
322.9053121594664
 20
465.9574553421322
 30
0.0
 40
24.2
100
AcDbArc
 50
104.7363480579015
 51
134.9999999999999
  0
LINE
  5
1BF1
330
1E
100
AcDbEntity
  8
STEMPEL
100
AcDbLine
 10
305.7933280547516
 20
483.0694394468465
 30
0.0
 11
300.3459972644698
 21
477.6221086565645
 31
0.0
  0
LINE
  5
1BF3
102
{ACAD_REACTORS
330
1C79
102
}
330
1E
100
AcDbEntity
  8
STEMPEL
100
AcDbLine
 10
272.8750810642307
 20
441.5244897258497
 30
0.0
 11
254.6045273241255
 21
423.2539359857445
 31
0.0
  0
LINE
  5
1BF4
102
{ACAD_REACTORS
330
1C8C
102
}
330
1E
100
AcDbEntity
  8
STEMPEL
100
AcDbLine
 10
335.7368739117146
 20
378.6626968783656
 30
0.0
 11
254.6045273241255
 21
297.5303502907773
 31
0.0
  0
DIMENSION
  5
1C1A
330
1E
100
AcDbEntity
  8
BEM
100
AcDbDimension
  2
*D4
 10
129.3493954443015
 20
218.9421431382601
 30
0.0
 11
122.8493954443015
 21
366.4437895904251
 31
0.0
 70
    32
 71
     5
 42
295.00329290433
  3
Standard
100
AcDbAlignedDimension
 13
162.902613536149
 23
513.9454360425901
 33
0.0
 14
166.1419706417551
 24
218.9421431382601
 34
0.0
 50
90.0
100
AcDbRotatedDimension
1001
ACAD
1000
DSTYLE
1002
{
1070
    40
1040
2.0
1070
    41
1040
3.5
1070
    42
1040
1.0
1070
    43
1040
7.0
1070
    44
1040
1.0
1070
    73
1070
     0
1070
    74
1070
     0
1070
    77
1070
     1
1070
    78
1070
     8
1070
    79
1070
     2
1070
   140
1040
3.5
1070
   141
1040
1.5
1070
   146
1040
0.5
1070
   147
1040
1.5
1070
   172
1070
     1
1070
   178
1070
     1
1070
   179
1070
     2
1070
   271
1070
     2
1070
   272
1070
     2
1070
   284
1070
     8
1070
   285
1070
     8
1070
   286
1070
     8
1002
}
  0
DIMENSION
  5
1C27
330
1E
100
AcDbEntity
  8
BEM
100
AcDbDimension
  2
*D5
 10
398.4165380537218
 20
407.6944177585366
 30
0.0
 11
323.8167726385411
 21
342.2870404987809
 31
0.0
 70
    32
 71
     5
 42
197.9999999999999
 51
314.9999999999999
  3
Standard
100
AcDbAlignedDimension
 13
210.1545273241254
 23
315.9421431382603
 33
0.0
 14
383.5738186625819
 24
422.5371371496764
 34
0.0
 50
45.00000000000002
100
AcDbRotatedDimension
1001
ACAD
1000
DSTYLE
1002
{
1070
    40
1040
2.0
1070
    41
1040
3.5
1070
    42
1040
1.0
1070
    43
1040
7.0
1070
    44
1040
1.0
1070
    73
1070
     0
1070
    74
1070
     0
1070
    77
1070
     1
1070
    78
1070
     8
1070
    79
1070
     2
1070
   140
1040
3.5
1070
   141
1040
1.5
1070
   146
1040
0.5
1070
   147
1040
1.5
1070
   172
1070
     1
1070
   178
1070
     1
1070
   179
1070
     2
1070
   271
1070
     2
1070
   272
1070
     2
1070
   284
1070
     8
1070
   285
1070
     8
1070
   286
1070
     8
1002
}
  0
LINE
  5
1C46
330
1E
100
AcDbEntity
  8
STEMPEL
100
AcDbLine
 10
254.6045273241255
 20
423.2539359857445
 30
0.0
 11
210.1545273241254
 21
315.9421431382603
 31
0.0
  0
LINE
  5
1C47
330
1E
100
AcDbEntity
  8
STEMPEL
100
AcDbLine
 10
210.1545273241254
 20
315.9421431382603
 30
0.0
 11
254.6045273241255
 21
297.5303502907773
 31
0.0
  0
DIMENSION
  5
1C48
330
1E
100
AcDbEntity
  8
BEM
100
AcDbDimension
  2
*D6
 10
210.1545273241254
 20
213.9421431382604
 30
0.0
 11
295.748463244354
 21
522.5841840937699
 31
0.0
 70
    34
 71
     5
 42
0.7853981633974483
  3
Standard
100
AcDb2LineAngularDimension
 13
353.6972039049944
 23
459.4848197191293
 33
0.0
 14
210.1545273241254
 24
315.9421431382603
 34
0.0
 15
210.1545273241254
 25
518.9454360425901
 35
0.0
 16
318.7383940154979
 26
504.0149171300035
 36
0.0
1001
ACAD
1000
DSTYLE
1002
{
1070
    40
1040
2.0
1070
    41
1040
3.5
1070
    42
1040
1.0
1070
    43
1040
7.0
1070
    44
1040
1.0
1070
    73
1070
     0
1070
    74
1070
     0
1070
    77
1070
     1
1070
    78
1070
     8
1070
    79
1070
     2
1070
   140
1040
3.5
1070
   141
1040
1.5
1070
   146
1040
0.5
1070
   147
1040
1.5
1070
   172
1070
     1
1070
   178
1070
     1
1070
   179
1070
     2
1070
   271
1070
     2
1070
   272
1070
     2
1070
   284
1070
     8
1070
   285
1070
     8
1070
   286
1070
     8
1002
}
  0
ARC
  5
1C5D
330
1E
100
AcDbEntity
  8
SCHRAFF
100
AcDbCircle
 10
255.7525776212207
 20
426.0255745832783
 30
0.0
 40
5.0
100
AcDbArc
 50
217.5000000000003
 51
277.5000000000005
  0
ARC
  5
1C5F
330
1E
100
AcDbEntity
  8
SCHRAFF
100
AcDbCircle
 10
253.8391604593953
 20
421.4061769207218
 30
0.0
 40
5.0
100
AcDbArc
 50
217.5000000000003
 51
277.5000000000005
  0
ARC
  5
1C60
330
1E
100
AcDbEntity
  8
SCHRAFF
100
AcDbCircle
 10
251.9257432975698
 20
416.7867792581654
 30
0.0
 40
5.0
100
AcDbArc
 50
217.5000000000003
 51
277.5000000000005
  0
ARC
  5
1C61
330
1E
100
AcDbEntity
  8
SCHRAFF
100
AcDbCircle
 10
250.0123261357444
 20
412.167381595609
 30
0.0
 40
5.0
100
AcDbArc
 50
217.5000000000003
 51
277.5000000000005
  0
ARC
  5
1C62
330
1E
100
AcDbEntity
  8
SCHRAFF
100
AcDbCircle
 10
248.0989089739189
 20
407.5479839330526
 30
0.0
 40
5.0
100
AcDbArc
 50
217.5000000000003
 51
277.5000000000005
  0
ARC
  5
1C63
330
1E
100
AcDbEntity
  8
SCHRAFF
100
AcDbCircle
 10
246.1854918120935
 20
402.9285862704962
 30
0.0
 40
5.0
100
AcDbArc
 50
217.5000000000003
 51
277.5000000000005
  0
ARC
  5
1C64
330
1E
100
AcDbEntity
  8
SCHRAFF
100
AcDbCircle
 10
244.2720746502681
 20
398.3091886079398
 30
0.0
 40
5.0
100
AcDbArc
 50
217.5000000000003
 51
277.5000000000005
  0
ARC
  5
1C65
330
1E
100
AcDbEntity
  8
SCHRAFF
100
AcDbCircle
 10
242.3586574884426
 20
393.6897909453834
 30
0.0
 40
5.0
100
AcDbArc
 50
217.5000000000003
 51
277.5000000000005
  0
ARC
  5
1C66
330
1E
100
AcDbEntity
  8
SCHRAFF
100
AcDbCircle
 10
240.4452403266172
 20
389.0703932828269
 30
0.0
 40
5.0
100
AcDbArc
 50
217.5000000000003
 51
277.5000000000005
  0
ARC
  5
1C67
330
1E
100
AcDbEntity
  8
SCHRAFF
100
AcDbCircle
 10
238.5318231647917
 20
384.4509956202705
 30
0.0
 40
5.0
100
AcDbArc
 50
217.5000000000003
 51
277.5000000000005
  0
ARC
  5
1C68
330
1E
100
AcDbEntity
  8
SCHRAFF
100
AcDbCircle
 10
236.6184060029663
 20
379.8315979577141
 30
0.0
 40
5.0
100
AcDbArc
 50
217.5000000000003
 51
277.5000000000005
  0
ARC
  5
1C69
330
1E
100
AcDbEntity
  8
SCHRAFF
100
AcDbCircle
 10
234.7049888411409
 20
375.2122002951577
 30
0.0
 40
5.0
100
AcDbArc
 50
217.5000000000003
 51
277.5000000000005
  0
ARC
  5
1C6A
330
1E
100
AcDbEntity
  8
SCHRAFF
100
AcDbCircle
 10
232.7915716793154
 20
370.5928026326013
 30
0.0
 40
5.0
100
AcDbArc
 50
217.5000000000003
 51
277.5000000000005
  0
ARC
  5
1C6B
330
1E
100
AcDbEntity
  8
SCHRAFF
100
AcDbCircle
 10
230.87815451749
 20
365.9734049700448
 30
0.0
 40
5.0
100
AcDbArc
 50
217.5000000000003
 51
277.5000000000005
  0
ARC
  5
1C6C
330
1E
100
AcDbEntity
  8
SCHRAFF
100
AcDbCircle
 10
228.9647373556645
 20
361.3540073074884
 30
0.0
 40
5.0
100
AcDbArc
 50
217.5000000000003
 51
277.5000000000005
  0
ARC
  5
1C6D
330
1E
100
AcDbEntity
  8
SCHRAFF
100
AcDbCircle
 10
227.0513201938391
 20
356.734609644932
 30
0.0
 40
5.0
100
AcDbArc
 50
217.5000000000003
 51
277.5000000000005
  0
ARC
  5
1C6E
330
1E
100
AcDbEntity
  8
SCHRAFF
100
AcDbCircle
 10
225.1379030320136
 20
352.1152119823756
 30
0.0
 40
5.0
100
AcDbArc
 50
217.5000000000003
 51
277.5000000000005
  0
ARC
  5
1C6F
330
1E
100
AcDbEntity
  8
SCHRAFF
100
AcDbCircle
 10
223.2244858701882
 20
347.4958143198191
 30
0.0
 40
5.0
100
AcDbArc
 50
217.5000000000003
 51
277.5000000000005
  0
ARC
  5
1C70
330
1E
100
AcDbEntity
  8
SCHRAFF
100
AcDbCircle
 10
221.3110687083627
 20
342.8764166572627
 30
0.0
 40
5.0
100
AcDbArc
 50
217.5000000000003
 51
277.5000000000005
  0
ARC
  5
1C71
330
1E
100
AcDbEntity
  8
SCHRAFF
100
AcDbCircle
 10
219.3976515465373
 20
338.2570189947063
 30
0.0
 40
5.0
100
AcDbArc
 50
217.5000000000003
 51
277.5000000000005
  0
ARC
  5
1C72
330
1E
100
AcDbEntity
  8
SCHRAFF
100
AcDbCircle
 10
217.4842343847118
 20
333.6376213321499
 30
0.0
 40
5.0
100
AcDbArc
 50
217.5000000000003
 51
277.5000000000005
  0
ARC
  5
1C73
330
1E
100
AcDbEntity
  8
SCHRAFF
100
AcDbCircle
 10
215.5708172228864
 20
329.0182236695935
 30
0.0
 40
5.0
100
AcDbArc
 50
217.5000000000003
 51
277.5000000000005
  0
ARC
  5
1C74
330
1E
100
AcDbEntity
  8
SCHRAFF
100
AcDbCircle
 10
213.6574000610609
 20
324.398826007037
 30
0.0
 40
5.0
100
AcDbArc
 50
217.5000000000003
 51
277.5000000000005
  0
ARC
  5
1C75
102
{ACAD_REACTORS
330
1C79
102
}
330
1E
100
AcDbEntity
  8
SCHRAFF
100
AcDbCircle
 10
255.6609484925644
 20
425.8043622981678
 30
0.0
 40
4.120126690443512
100
AcDbArc
 50
30.14314482800265
 51
104.856855171998
  0
HATCH
  5
1C79
330
1E
100
AcDbEntity
  8
SCHRAFF
100
AcDbHatch
 10
0.0
 20
0.0
 30
0.0
210
0.0
220
0.0
230
1.0
  2
_USER
 70
     0
 71
     1
 91
        1
 92
        7
 72
     1
 73
     1
 93
        3
 10
254.6045273241255
 20
429.7867508101263
 42
0.0
 10
254.6045273241255
 20
423.2539359857445
 42
0.0
 10
259.2239249866819
 20
427.8733336483009
 42
0.3380617329993288
 97
        3
330
1B87
330
1BF3
330
1C75
 75
     0
 76
     0
 52
0.0
 41
0.1
 77
     0
 78
     1
 53
0.0
 43
0.0
 44
0.0
 45
0.0
 46
0.1
 79
     0
 47
0.0978083375813177
 98
        1
 10
255.6550428889563
 20
428.171718883917
  0
ARC
  5
1C7A
330
1E
100
AcDbEntity
  8
SCHRAFF
100
AcDbCircle
 10
257.3761659216594
 20
296.3822999936821
 30
0.0
 40
5.0
100
AcDbArc
 50
127.5000000000017
 51
187.5000000000015
  0
ARC
  5
1C7C
330
1E
100
AcDbEntity
  8
SCHRAFF
100
AcDbCircle
 10
252.7567682591029
 20
298.2957171555074
 30
0.0
 40
5.0
100
AcDbArc
 50
127.5000000000017
 51
187.5000000000015
  0
ARC
  5
1C7D
330
1E
100
AcDbEntity
  8
SCHRAFF
100
AcDbCircle
 10
248.1373705965464
 20
300.2091343173328
 30
0.0
 40
5.0
100
AcDbArc
 50
127.5000000000017
 51
187.5000000000015
  0
ARC
  5
1C7E
330
1E
100
AcDbEntity
  8
SCHRAFF
100
AcDbCircle
 10
243.51797293399
 20
302.1225514791582
 30
0.0
 40
5.0
100
AcDbArc
 50
127.5000000000017
 51
187.5000000000015
  0
ARC
  5
1C7F
330
1E
100
AcDbEntity
  8
SCHRAFF
100
AcDbCircle
 10
238.8985752714335
 20
304.0359686409835
 30
0.0
 40
5.0
100
AcDbArc
 50
127.5000000000017
 51
187.5000000000015
  0
ARC
  5
1C80
330
1E
100
AcDbEntity
  8
SCHRAFF
100
AcDbCircle
 10
234.279177608877
 20
305.9493858028089
 30
0.0
 40
5.0
100
AcDbArc
 50
127.5000000000017
 51
187.5000000000015
  0
ARC
  5
1C81
330
1E
100
AcDbEntity
  8
SCHRAFF
100
AcDbCircle
 10
229.6597799463205
 20
307.8628029646342
 30
0.0
 40
5.0
100
AcDbArc
 50
127.5000000000017
 51
187.5000000000015
  0
ARC
  5
1C82
330
1E
100
AcDbEntity
  8
SCHRAFF
100
AcDbCircle
 10
225.0403822837641
 20
309.7762201264596
 30
0.0
 40
5.0
100
AcDbArc
 50
127.5000000000017
 51
187.5000000000015
  0
ARC
  5
1C83
330
1E
100
AcDbEntity
  8
SCHRAFF
100
AcDbCircle
 10
220.4209846212076
 20
311.6896372882849
 30
0.0
 40
5.0
100
AcDbArc
 50
127.5000000000017
 51
187.5000000000015
  0
ARC
  5
1C84
330
1E
100
AcDbEntity
  8
SCHRAFF
100
AcDbCircle
 10
215.8015869586511
 20
313.6030544501103
 30
0.0
 40
5.0
100
AcDbArc
 50
127.5000000000017
 51
187.5000000000015
  0
ARC
  5
1C85
102
{ACAD_REACTORS
330
1C8C
102
}
330
1E
100
AcDbEntity
  8
SCHRAFF
100
AcDbCircle
 10
252.0988350226739
 20
298.5682420251724
 30
0.0
 40
4.505005352105863
100
AcDbArc
 50
303.7935350328855
 51
11.20646496711388
  0
HATCH
  5
1C8C
330
1E
100
AcDbEntity
  8
SCHRAFF
100
AcDbHatch
 10
0.0
 20
0.0
 30
0.0
210
0.0
220
0.0
230
1.0
  2
_USER
 70
     0
 71
     1
 91
        1
 92
        7
 72
     1
 73
     1
 93
        3
 10
256.517944485951
 20
299.4437674526027
 42
0.0
 10
254.6045273241254
 20
297.5303502907772
 42
0.0
 10
254.6045273241254
 20
294.8243697900462
 42
0.3029318570996579
 97
        3
330
1BF4
330
1BAB
330
1C85
 75
     0
 76
     0
 52
0.0
 41
0.1
 77
     0
 78
     1
 53
0.0
 43
0.0
 44
0.0
 45
0.0
 46
0.1
 79
     0
 47
0.0906516296134353
 98
        1
 10
254.9054277470805
 20
297.1765348631354
  0
ENDSEC
  0
SECTION
  2
OBJECTS
  0
DICTIONARY
  5
C
330
0
100
AcDbDictionary
281
     1
  3
ACAD_COLOR
350
1470
  3
ACAD_GROUP
350
D
  3
ACAD_LAYOUT
350
19
  3
ACAD_MATERIAL
350
146F
  3
ACAD_MLINESTYLE
350
16
  3
ACAD_PLOTSETTINGS
350
18
  3
ACAD_PLOTSTYLENAME
350
E
  3
AcDbVariableDictionary
350
246
  0
DICTIONARY
  5
1470
102
{ACAD_REACTORS
330
C
102
}
330
C
100
AcDbDictionary
281
     1
  0
DICTIONARY
  5
D
102
{ACAD_REACTORS
330
C
102
}
330
C
100
AcDbDictionary
281
     1
  0
DICTIONARY
  5
19
102
{ACAD_REACTORS
330
C
102
}
330
C
100
AcDbDictionary
281
     1
  3
Layout1
350
1D
  3
Model
350
21
  0
DICTIONARY
  5
146F
102
{ACAD_REACTORS
330
C
102
}
330
C
100
AcDbDictionary
281
     1
  0
DICTIONARY
  5
16
102
{ACAD_REACTORS
330
C
102
}
330
C
100
AcDbDictionary
281
     1
  3
Standard
350
17
  0
DICTIONARY
  5
18
102
{ACAD_REACTORS
330
C
102
}
330
C
100
AcDbDictionary
281
     1
  0
ACDBDICTIONARYWDFLT
  5
E
102
{ACAD_REACTORS
330
C
102
}
330
C
100
AcDbDictionary
281
     1
  3
Normal
350
F
100
AcDbDictionaryWithDefault
340
F
  0
DICTIONARY
  5
246
102
{ACAD_REACTORS
330
C
102
}
330
C
100
AcDbDictionary
281
     1
  3
DIMASSOC
350
1C9F
  3
PROJECTNAME
350
1CA0
  3
SORTENTS
350
247
  0
LAYOUT
  5
1D
102
{ACAD_REACTORS
330
19
102
}
330
19
100
AcDbPlotSettings
  1

  2
Tektronix Phaser 740
  4

  6

 40
0.0
 41
0.0
 42
0.0
 43
0.0
 44
0.0
 45
0.0
 46
0.0
 47
0.0
 48
0.0
 49
0.0
140
0.0
141
0.0
142
1.0
143
1.0
 70
   688
 72
     0
 73
     0
 74
     5
  7
monochrome.ctb
 75
    16
147
1.0
 76
     0
 77
     2
 78
   300
148
0.0
149
0.0
100
AcDbLayout
  1
Layout1
 70
     0
 71
     1
 10
0.0
 20
0.0
 11
12.0
 21
9.0
 12
0.0
 22
0.0
 32
0.0
 14
1.000000000000000E+20
 24
1.000000000000000E+20
 34
1.000000000000000E+20
 15
-1.000000000000000E+20
 25
-1.000000000000000E+20
 35
-1.000000000000000E+20
146
0.0
 13
0.0
 23
0.0
 33
0.0
 16
1.0
 26
0.0
 36
0.0
 17
0.0
 27
1.0
 37
0.0
 76
     0
330
1A
  0
LAYOUT
  5
21
102
{ACAD_REACTORS
330
19
102
}
330
19
100
AcDbPlotSettings
  1

  2
Tektronix Phaser 740
  4
A4
  6

 40
5.873749732971191
 41
6.085414409637451
 42
5.577407836914062
 43
5.662078857421875
 44
209.9733276367187
 45
296.9683227539062
 46
0.0
 47
0.0
 48
0.0
 49
0.0
140
0.0
141
0.0
142
1.0
143
1.0
 70
 11952
 72
     0
 73
     1
 74
     0
  7
monochrome.ctb
 75
     0
147
1.0
 76
     0
 77
     2
 78
   300
148
1150.120678237584
149
45.30495740799864
100
AcDbLayout
  1
Model
 70
     1
 71
     0
 10
0.0
 20
0.0
 11
12.0
 21
9.0
 12
0.0
 22
0.0
 32
0.0
 14
0.0
 24
0.0
 34
0.0
 15
0.0
 25
0.0
 35
0.0
146
0.0
 13
0.0
 23
0.0
 33
0.0
 16
1.0
 26
0.0
 36
0.0
 17
0.0
 27
1.0
 37
0.0
 76
     0
330
1E
  0
MLINESTYLE
  5
17
102
{ACAD_REACTORS
330
16
102
}
330
16
100
AcDbMlineStyle
  2
STANDARD
 70
     0
  3

 62
   256
 51
90.0
 52
90.0
 71
     2
 49
0.5
 62
   256
  6
BYLAYER
 49
-0.5
 62
   256
  6
BYLAYER
  0
ACDBPLACEHOLDER
  5
F
102
{ACAD_REACTORS
330
E
102
}
330
E
  0
DICTIONARYVAR
  5
1C9F
102
{ACAD_REACTORS
330
246
102
}
330
246
100
DictionaryVariables
280
     0
  1
1
  0
DICTIONARYVAR
  5
1CA0
102
{ACAD_REACTORS
330
246
102
}
330
246
100
DictionaryVariables
280
     0
  1

  0
DICTIONARYVAR
  5
247
102
{ACAD_REACTORS
330
246
102
}
330
246
100
DictionaryVariables
280
     0
  1
96
  0
ENDSEC
  0
EOF
